osu file format v14

[General]
AudioFilename: audio.ogg
AudioLeadIn: 0
PreviewTime: 64
Countdown: 0
SampleSet: Soft
StackLeniency: 0.7
Mode: 0
LetterboxInBreaks: 0
WidescreenStoryboard: 1

[Editor]
Bookmarks: 33090,47968,62846,77725,92603,107516
DistanceSpacing: 1.2
BeatDivisor: 4
GridSize: 16
TimelineZoom: 3.399999

[Metadata]
Title:Dom Dom Yes Yes x Give It To Me (Club Remix)
TitleUnicode:Dom Dom Yes Yes x Give It To Me (Club Remix)
Artist:Biser King x Timbaland
ArtistUnicode:Biser King x Timbaland
Creator:wafer
Version:Normal Toilet
Source:skibidi toilet
Tags:english mashup nelly furtado justin timberlake pop house edm kami no kotoba fiki internet series meme novelty tiktok youtube club electronic doombreaker думбрейкер dafuq!?boom! dafuq boom sped up
BeatmapID:4227067
BeatmapSetID:2028506

[Difficulty]
HPDrainRate:3
CircleSize:3
OverallDifficulty:4
ApproachRate:5.2
SliderMultiplier:1.1
SliderTickRate:1

[Events]
//Background and Video events
0,0,"normal.jpg",0,0
//Break Periods
2,11056,12007
2,14917,15748
2,115140,116090
2,119000,119803
//Storyboard Layer 0 (Background)
//Storyboard Layer 1 (Fail)
//Storyboard Layer 2 (Pass)
//Storyboard Layer 3 (Foreground)
//Storyboard Layer 4 (Overlay)
//Storyboard Sound Samples

[TimingPoints]
3430,464.144813181713,4,2,0,50,1,0
3430,-100,4,2,0,50,0,0
16918,460.652591170825,4,2,0,60,1,0
18212,464.946879818981,4,2,0,60,1,0
18212,-100,4,2,0,60,0,0
33090,-90.9090909090909,4,2,0,60,0,0
47968,-83.3333333333333,4,2,0,65,0,0
107516,464.037122969838,4,2,0,50,1,0
122133,-100,4,2,0,5,0,0

[Colours]
Combo1 : 209,209,209
Combo2 : 162,162,162

[HitObjects]
32,192,3430,5,2,0:0:0:0:
138,134,3894,2,0,L|140:70,1,55,2|0,0:0|0:0,0:0:0:0:
195,56,4358,2,0,L|212:-4,2,55,2|0|0,0:0|0:0|0:0,0:0:0:0:
240,104,5054,1,0,0:0:0:0:
240,104,5286,1,2,0:0:0:0:
342,39,5750,6,0,L|417:36,1,55,2|2,0:0|0:0,0:0:0:0:
427,89,6214,2,0,L|392:139,1,55,2|0,0:0|0:0,0:0:0:0:
427,185,6679,1,2,0:0:0:0:
353,281,7143,1,2,0:0:0:0:
232,271,7607,2,0,L|175:304,1,55,2|2,0:0|0:0,0:0:0:0:
128,320,8071,2,0,L|112:392,2,55,2|0|0,0:0|0:0|0:0,0:0:0:0:
83,288,8767,1,0,0:0:0:0:
83,288,8999,1,2,0:0:0:0:
37,175,9463,6,0,L|109:157,1,55,2|2,0:0|0:0,0:0:0:0:
137,123,9927,2,0,L|122:58,1,55,2|0,0:0|0:0,0:0:0:0:
168,27,10392,1,2,0:0:0:0:
284,60,10856,1,2,0:0:0:0:
283,59,13177,6,0,P|284:87|278:114,1,55,2|2,0:0|0:0,0:0:0:0:
225,142,13641,2,0,P|225:169|219:196,1,55,2|2,0:0|0:0,0:0:0:0:
167,226,14105,2,0,P|167:253|161:280,1,55,2|2,0:0|0:0,0:0:0:0:
162,279,16918,6,0,L|168:327,2,27.5,2|0|2,0:0|0:0|0:0,0:0:0:0:
214,309,17378,2,0,L|220:357,2,27.5,2|0|2,0:0|0:0|0:0,0:0:0:0:
262,344,17839,2,0,L|268:392,2,27.5,2|0|0,0:0|0:0|0:0,0:0:0:0:
293,318,18212,5,4,1:0:0:0:
428,272,18676,1,0,1:0:0:0:
435,210,18909,1,2,0:0:0:0:
435,210,19141,2,0,P|400:216|363:224,1,55,2|0,1:2|0:0,0:0:0:0:
257,170,19839,2,0,P|248:206|252:244,2,55,2|0|0,0:0|1:2|0:0,0:0:0:0:
210,122,20536,2,0,P|218:85|214:47,2,55,2|2|0,1:2|0:0|1:0,0:0:0:0:
145,138,21234,2,0,P|111:144|83:160,1,55,2|0,0:0|1:0,0:0:0:0:
47,202,21699,1,2,0:0:0:0:
58,266,21931,1,2,1:2:0:0:
180,315,22396,5,0,1:0:0:0:
231,355,22628,2,0,P|258:347|298:349,1,55,2|2,0:2|1:2,0:0:0:0:
330,299,23093,2,0,P|357:306|397:304,2,55,0|2|2,0:0|1:2|0:0,0:0:0:0:
313,234,23791,1,0,1:2:0:0:
414,149,24256,2,0,P|405:112|409:74,1,55,0|2,1:2|0:0,0:0:0:0:
354,53,24721,2,0,P|317:61|279:57,1,55,0|0,1:2|0:0,0:0:0:0:
253,108,25186,1,0,1:2:0:0:
131,158,25651,5,2,1:2:0:0:
71,128,25883,1,2,0:0:0:0:
10,154,26116,2,0,P|12:199|14:219,2,55,2|2|0,1:2|0:0|1:0,0:0:0:0:
107,243,27045,2,0,P|104:288|102:308,1,55,2|2,1:2|0:0,0:0:0:0:
167,329,27510,1,0,1:0:0:0:
167,329,27743,2,0,P|164:374|162:394,2,55,2|0|2,0:0|1:0|0:0,0:0:0:0:
229,308,28440,1,2,1:2:0:0:
360,296,28905,2,0,P|376:300|436:306,1,55,2|2,1:2|0:0,0:0:0:0:
465,347,29370,5,2,1:2:0:0:
488,217,29835,1,0,1:0:0:0:
376,146,30300,2,0,P|346:152|317:157,1,55,2|0,1:2|0:0,0:0:0:0:
264,123,30764,1,0,1:0:0:0:
225,68,30998,2,0,P|225:34|233:3,2,55,2|0|2,0:2|1:0|0:0,0:0:0:0:
174,110,31695,1,0,1:2:0:0:
41,111,32160,2,0,P|32:147|36:185,2,55,0|2|0,1:2|0:0|1:2,0:0:0:0:
98,78,32857,1,2,0:0:0:0:
167,100,33090,6,0,P|184:141|168:235,1,121.000003692627,4|8,1:2|0:0,0:0:0:0:
246,254,33787,1,2,0:0:0:0:
246,254,34020,2,0,P|284:235|312:233,1,60.5000018463135,0|2,1:2|0:0,0:0:0:0:
369,261,34485,2,0,P|383:297|410:317,2,60.5000018463135,8|2|0,0:2|0:2|1:0,0:0:0:0:
461,148,35415,1,8,0:0:0:0:
389,134,35647,1,2,0:0:0:0:
317,119,35879,2,0,P|272:120|244:123,2,60.5000018463135,0|2|8,1:0|0:0|0:0,0:0:0:0:
345,51,36577,1,2,0:0:0:0:
288,7,36809,6,0,P|237:10|183:68,1,121.000003692627,2|8,1:2|0:0,0:0:0:0:
118,80,37507,2,0,P|137:118|139:146,1,60.5000018463135,2|0,0:0|1:0,0:0:0:0:
33,234,38204,1,10,0:0:0:0:
33,234,38437,1,2,0:0:0:0:
96,283,38669,2,0,L|240:265,1,121.000003692627,2|8,1:2|0:0,0:0:0:0:
279,230,39367,1,2,0:0:0:0:
344,199,39599,1,2,1:2:0:0:
479,146,40064,2,0,P|482:111|478:86,1,60.5000018463135,8|2,0:0|0:0,0:0:0:0:
416,46,40529,5,2,1:2:0:0:
343,46,40761,1,2,0:2:0:0:
282,85,40994,2,0,P|282:115|286:145,2,60.5000018463135,10|2|0,0:2|0:0|1:0,0:0:0:0:
401,178,41924,1,8,0:0:0:0:
401,178,42156,2,0,P|407:225|404:250,1,60.5000018463135,2|2,0:0|1:2,0:0:0:0:
352,287,42621,2,0,P|349:317|340:346,2,60.5000018463135,2|8|2,0:0|0:0|0:0,0:0:0:0:
286,256,43318,1,0,1:0:0:0:
286,256,43551,1,2,0:0:0:0:
227,299,43784,2,0,L|155:286,1,60.5000018463135,8|2,0:0|0:0,0:0:0:0:
113,337,44249,6,0,P|79:309|82:235,1,121.000003692627,2|8,1:2|0:0,0:0:0:0:
5,113,45178,2,0,P|34:106|71:99,1,60.5000018463135,0|2,1:0|0:0,0:0:0:0:
130,66,45642,1,10,0:0:0:0:
130,66,45876,2,0,P|130:32|138:1,2,60.5000018463135,2|0|0,0:0|1:0|0:0,0:0:0:0:
180,118,46573,2,0,L|261:97,1,60.5000018463135,8|2,0:0|0:0,0:0:0:0:
291,53,47038,2,0,L|362:74,1,60.5000018463135,0|2,1:0|0:0,0:0:0:0:
402,119,47503,1,8,0:0:0:0:
402,119,47736,2,0,P|407:140|409:187,1,60.5000018463135,2|4,0:0|1:2,0:0:0:0:
511,300,48433,5,8,0:0:0:0:
440,330,48666,1,2,3:0:0:0:
440,330,48898,2,0,L|350:358,1,65.9999979858399,0|2,1:0|3:0,0:0:0:0:
313,301,49363,1,8,0:0:0:0:
233,299,49595,1,2,3:0:0:0:
173,350,49828,2,0,P|136:320|122:228,1,131.99999597168,2|8,1:0|0:0,0:0:0:0:
18,117,50758,2,0,P|24:72|24:47,1,65.9999979858399,0|2,1:0|3:0,0:0:0:0:
99,25,51223,1,2,1:0:0:0:
180,161,51688,6,0,B|251:151|241:192|335:186,1,131.99999597168,6|8,1:2|0:0,0:0:0:0:
365,132,52385,1,2,3:0:0:0:
365,132,52618,2,0,P|370:94|363:53,1,65.9999979858399,0|2,1:0|3:0,0:0:0:0:
439,35,53083,1,8,0:0:0:0:
491,94,53315,1,2,3:0:0:0:
451,162,53547,1,2,1:0:0:0:
303,219,54012,2,0,L|315:291,1,65.9999979858399,8|2,0:0|3:0,0:0:0:0:
255,337,54477,1,0,1:0:0:0:
255,337,54710,1,2,3:0:0:0:
182,305,54942,6,0,B|98:310|98:310|81:335|38:347,1,131.99999597168,2|6,1:0|1:2,0:0:0:0:
16,186,55872,2,0,L|96:201,1,65.9999979858399,8|2,0:0|3:0,0:0:0:0:
147,155,56337,1,2,1:2:0:0:
147,155,56570,1,2,3:0:0:0:
211,108,56802,2,0,L|280:96,1,65.9999979858399,8|2,0:0|3:0,0:0:0:0:
296,62,57151,2,0,P|337:57|387:105,1,98.9999969787599,2|2,0:0|3:0,0:0:0:0:
256,192,57732,12,0,59127,1:0:0:0:
496,186,59824,6,0,L|416:201,1,65.9999979858399,2|0,3:0|1:0,0:0:0:0:
365,155,60289,1,2,0:0:0:0:
365,155,60522,2,0,L|281:164,1,65.9999979858399,10|2,0:0|3:0,0:0:0:0:
263,177,60870,2,0,P|222:182|172:134,1,98.9999969787599,2|0,0:0|0:0,0:0:0:0:
256,192,61452,12,4,62846,1:2:0:0:
72,54,63544,5,2,3:0:0:0:
72,54,63776,2,0,L|162:26,1,65.9999979858399,0|2,1:0|3:0,0:0:0:0:
199,83,64241,1,8,0:0:0:0:
279,85,64473,1,2,3:0:0:0:
339,34,64706,2,0,P|376:64|390:156,1,131.99999597168,2|8,1:0|0:0,0:0:0:0:
494,267,65636,2,0,P|488:312|488:337,1,65.9999979858399,0|2,1:0|3:0,0:0:0:0:
413,359,66101,1,2,1:0:0:0:
322,229,66566,6,0,B|251:219|261:260|167:254,1,131.99999597168,6|8,1:2|0:0,0:0:0:0:
130,299,67263,1,2,3:0:0:0:
130,299,67496,2,0,P|125:337|132:378,1,65.9999979858399,0|2,1:0|3:0,0:0:0:0:
48,364,67961,1,8,0:0:0:0:
15,291,68193,1,2,3:0:0:0:
54,222,68425,1,2,1:0:0:0:
193,146,68890,2,0,L|181:74,1,65.9999979858399,8|2,0:0|3:0,0:0:0:0:
231,18,69355,1,0,1:0:0:0:
231,18,69588,1,2,3:0:0:0:
295,63,69820,6,0,B|346:57|384:94|384:94|439:105,1,131.99999597168,2|6,1:0|1:2,0:0:0:0:
500,236,70750,2,0,L|420:251,1,65.9999979858399,8|2,0:0|3:0,0:0:0:0:
378,302,71215,1,2,1:2:0:0:
378,302,71448,1,2,3:0:0:0:
300,288,71680,2,0,L|288:219,1,65.9999979858399,8|2,0:0|3:0,0:0:0:0:
256,192,72029,2,0,P|215:187|165:235,1,98.9999969787599,2|2,0:0|3:0,0:0:0:0:
256,192,72610,12,0,74005,1:0:0:0:
16,192,74702,6,0,L|96:177,1,65.9999979858399,2|0,3:0|1:0,0:0:0:0:
145,132,75167,1,2,0:0:0:0:
145,132,75400,2,0,L|154:48,1,65.9999979858399,10|2,0:0|3:0,0:0:0:0:
179,37,75748,2,0,P|220:32|270:80,1,98.9999969787599,2|0,0:0|0:0,0:0:0:0:
256,192,76330,12,4,77724,1:0:0:0:
226,60,78422,5,2,0:0:0:0:
226,60,78655,2,0,L|298:45,1,65.9999979858399,0|2,1:0|3:0,0:0:0:0:
340,108,79120,1,8,0:0:0:0:
418,114,79352,2,0,P|424:67|417:29,2,65.9999979858399,2|0|2,3:0|1:0|3:0,0:0:0:0:
485,155,80049,1,8,0:0:0:0:
445,223,80282,2,0,P|386:232|359:229,1,65.9999979858399,2|0,0:0|1:0,0:0:0:0:
317,280,80747,2,0,P|326:339|323:366,2,65.9999979858399,2|8|2,3:0|0:0|3:0,0:0:0:0:
245,245,81444,5,0,1:0:0:0:
94,293,81909,1,8,0:0:0:0:
35,238,82142,2,0,P|27:197|30:160,1,65.9999979858399,2|0,0:0|1:0,0:0:0:0:
78,111,82607,2,0,P|86:70|83:33,2,65.9999979858399,2|0|2,3:0|1:0|3:0,0:0:0:0:
142,166,83304,1,0,1:0:0:0:
142,166,83537,1,2,3:0:0:0:
215,135,83769,2,0,P|262:142|295:151,1,65.9999979858399,10|2,0:0|0:0,0:0:0:0:
327,209,84234,2,0,P|374:202|407:193,1,65.9999979858399,0|2,1:0|3:0,0:0:0:0:
469,216,84699,1,8,0:0:0:0:
431,62,85164,5,2,1:2:0:0:
352,74,85396,1,2,0:2:0:0:
273,64,85629,2,0,P|271:19|269:-1,2,65.9999979858399,10|2|0,0:2|0:0|1:0,0:0:0:0:
206,108,86326,1,2,3:0:0:0:
206,108,86559,2,0,P|164:116|123:115,1,65.9999979858399,8|2,0:0|3:0,0:0:0:0:
66,143,87023,1,0,1:0:0:0:
27,212,87256,1,2,3:0:0:0:
83,267,87489,2,0,P|90:320|89:341,1,65.9999979858399,8|2,0:0|0:0,0:0:0:0:
171,349,87953,1,0,1:0:0:0:
171,349,88186,1,2,3:0:0:0:
232,299,88418,2,0,P|225:246|226:225,1,65.9999979858399,0|2,1:0|3:0,0:0:0:0:
287,184,88883,5,0,1:0:0:0:
443,205,89348,1,10,0:0:0:0:
499,57,89813,2,0,P|466:63|434:69,1,65.9999979858399,0|2,1:0|3:0,0:0:0:0:
357,51,90277,1,8,0:0:0:0:
282,21,90511,2,0,P|249:27|216:27,1,65.9999979858399,2|0,3:0|1:2,0:0:0:0:
173,93,90976,1,2,3:0:0:0:
95,76,91208,2,0,P|95:108|88:141,1,65.9999979858399,8|2,0:0|0:0,0:0:0:0:
65,217,91673,2,0,P|25:207|-16:211,2,65.9999979858399,0|2|10,1:0|0:0|0:0,0:0:0:0:
117,276,92370,1,2,0:0:0:0:
188,243,92603,6,0,P|253:248|297:295,1,131.99999597168,4|0,1:0|1:2,0:0:0:0:
448,346,93533,2,0,L|520:331,1,65.9999979858399,0|2,1:0|3:0,0:0:0:0:
488,256,93998,1,8,0:0:0:0:
488,256,94230,2,0,P|494:209|487:171,1,65.9999979858399,2|0,3:0|1:0,0:0:0:0:
425,146,94695,1,2,3:0:0:0:
368,201,94928,2,0,P|309:210|282:207,1,65.9999979858399,8|2,0:0|0:0,0:0:0:0:
228,182,95393,1,0,1:0:0:0:
183,247,95625,2,0,P|192:306|189:333,2,65.9999979858399,2|8|2,3:0|0:0|3:0,0:0:0:0:
113,207,96323,6,0,P|66:179|72:101,1,131.99999597168,0|8,1:0|0:0,0:0:0:0:
13,48,97020,1,2,0:0:0:0:
169,63,97485,2,0,P|162:31|162:-1,2,65.9999979858399,2|0|2,3:0|1:0|3:0,0:0:0:0:
243,95,98182,2,0,P|249:161|257:246,1,131.99999597168,0|10,1:0|0:0,0:0:0:0:
321,270,98880,1,2,0:0:0:0:
369,332,99112,1,0,1:0:0:0:
211,352,99577,2,0,L|115:342,1,65.9999979858399,8|2,0:0|3:0,0:0:0:0:
70,319,100042,5,2,1:2:0:0:
24,254,100274,1,2,0:2:0:0:
69,188,100507,2,0,P|71:143|73:123,2,65.9999979858399,10|2|0,0:2|0:0|1:0,0:0:0:0:
142,218,101204,1,2,3:0:0:0:
142,218,101437,1,8,0:0:0:0:
209,176,101669,2,0,P|246:168|276:152,1,65.9999979858399,2|0,3:0|1:0,0:0:0:0:
388,262,102367,2,0,P|395:315|394:336,1,65.9999979858399,8|2,0:0|0:0,0:0:0:0:
477,322,102831,1,0,1:0:0:0:
492,244,103064,1,2,3:0:0:0:
457,173,103296,2,0,P|464:120|463:99,1,65.9999979858399,0|2,1:0|3:0,0:0:0:0:
408,50,103762,6,0,P|355:47|311:125,1,131.99999597168,0|10,1:0|0:0,0:0:0:0:
259,166,104459,1,2,0:0:0:0:
259,166,104692,2,0,P|226:172|194:178,2,65.9999979858399,0|2|8,1:0|3:0|0:0,0:0:0:0:
328,203,105389,2,0,P|334:236|334:269,1,65.9999979858399,2|0,3:0|1:2,0:0:0:0:
203,358,106086,2,0,P|171:358|138:351,1,65.9999979858399,8|2,0:0|0:0,0:0:0:0:
70,308,106551,5,0,1:0:0:0:
55,229,106784,1,2,0:0:0:0:
77,153,107016,2,0,P|99:105|116:91,1,65.9999979858399,10|2,0:0|0:0,0:0:0:0:
191,113,107516,5,2,0:0:0:0:
145,232,107980,2,0,L|147:296,1,55,2|0,0:0|0:0,0:0:0:0:
202,310,108444,2,0,L|219:370,2,55,2|0|0,0:0|0:0|0:0,0:0:0:0:
247,262,109140,1,0,0:0:0:0:
247,262,109372,1,2,0:0:0:0:
338,341,109836,6,0,L|413:344,1,55,2|2,0:0|0:0,0:0:0:0:
427,293,110300,2,0,L|392:243,1,55,2|0,0:0|0:0,0:0:0:0:
430,197,110765,1,2,0:0:0:0:
353,103,111229,1,2,0:0:0:0:
232,113,111693,2,0,L|175:80,1,55,2|2,0:0|0:0,0:0:0:0:
128,64,112157,2,0,L|112:-8,2,55,2|0|0,0:0|0:0|0:0,0:0:0:0:
83,96,112853,1,0,0:0:0:0:
83,96,113085,1,2,0:0:0:0:
37,209,113549,6,0,L|109:227,1,55,2|2,0:0|0:0,0:0:0:0:
137,261,114013,2,0,L|122:326,1,55,2|0,0:0|0:0,0:0:0:0:
168,357,114476,1,2,0:0:0:0:
284,324,114940,1,2,0:0:0:0:
283,325,117260,6,0,P|284:297|278:270,1,55,2|2,0:0|0:0,0:0:0:0:
225,242,117724,2,0,P|225:215|219:188,1,55,2|2,0:0|0:0,0:0:0:0:
167,158,118188,2,0,P|167:131|161:104,1,55,2|2,0:0|0:0,0:0:0:0:
256,192,120973,12,0,122133,0:0:0:0:
