osu file format v14

[General]
AudioFilename: audio.ogg
AudioLeadIn: 0
PreviewTime: 64
Countdown: 0
SampleSet: Soft
StackLeniency: 0.7
Mode: 0
LetterboxInBreaks: 0
WidescreenStoryboard: 1

[Editor]
Bookmarks: 33090,47968,62846,77725,92603,107516
DistanceSpacing: 1
BeatDivisor: 4
GridSize: 16
TimelineZoom: 3.399999

[Metadata]
Title:Dom Dom Yes Yes x Give It To Me (Club Remix)
TitleUnicode:Dom Dom Yes Yes x Give It To Me (Club Remix)
Artist:Biser King x Timbaland
ArtistUnicode:Biser King x Timbaland
Creator:wafer
Version:Hard Toilet
Source:skibidi toilet
Tags:english mashup nelly furtado justin timberlake pop house edm kami no kotoba fiki internet series meme novelty tiktok youtube club electronic doombreaker думбрейкер dafuq!?boom! dafuq boom sped up
BeatmapID:4227066
BeatmapSetID:2028506

[Difficulty]
HPDrainRate:4
CircleSize:3.6
OverallDifficulty:6
ApproachRate:7.2
SliderMultiplier:1.25
SliderTickRate:1

[Events]
//Background and Video events
0,0,"hard.jpg",0,0
//Break Periods
2,11404,12307
2,14917,16049
2,115488,116390
2,119000,120103
//Storyboard Layer 0 (Background)
//Storyboard Layer 1 (Fail)
//Storyboard Layer 2 (Pass)
//Storyboard Layer 3 (Foreground)
//Storyboard Layer 4 (Overlay)
//Storyboard Sound Samples

[TimingPoints]
3430,464.144813181713,4,2,0,50,1,0
3430,-100,4,2,0,50,0,0
16918,460.652591170825,4,2,0,60,1,0
18212,464.946879818981,4,2,0,60,1,0
18212,-83.3333333333333,4,2,0,60,0,0
33090,-76.9230769230769,4,2,0,60,0,0
47968,-76.9230769230769,4,2,0,65,0,0
107516,464.037122969838,4,2,0,50,1,0
122133,-100,4,2,0,5,0,0

[Colours]
Combo1 : 209,209,209
Combo2 : 162,162,162

[HitObjects]
25,202,3430,6,0,B|46:207|46:207|52:224|134:232,1,93.75,2|0,0:0|0:0,0:0:0:0:
140,258,3894,2,0,L|147:302,2,31.25,2|0|0,0:0|0:0|0:0,0:0:0:0:
203,206,4358,1,2,0:0:0:0:
277,237,4590,1,0,0:0:0:0:
310,310,4822,1,0,0:0:0:0:
260,374,5054,5,0,0:0:0:0:
327,329,5286,2,0,B|382:326|373:347|438:353,1,93.75,2|0,0:0|0:0,0:0:0:0:
454,332,5750,6,0,L|501:345,2,31.25,2|2|2,0:0|0:0|0:0,0:0:0:0:
417,259,6214,2,0,L|404:212,2,31.25,2|0|0,0:0|0:0|0:0,0:0:0:0:
336,249,6679,2,0,P|285:242|236:245,1,93.75,2|0,0:0|0:0,0:0:0:0:
207,264,7143,1,2,0:0:0:0:
58,198,7607,6,0,L|65:242,2,31.25,2|2|2,0:0|0:0|0:0,0:0:0:0:
5,136,8071,1,2,0:0:0:0:
51,69,8303,1,0,0:0:0:0:
130,53,8535,1,0,0:0:0:0:
204,84,8767,5,0,0:0:0:0:
123,75,8999,2,0,B|120:130|141:121|147:186,1,93.75,2|0,0:0|0:0,0:0:0:0:
169,196,9463,6,0,L|156:243,2,31.25,2|2|2,0:0|0:0|0:0,0:0:0:0:
239,155,9927,2,0,L|226:108,2,31.25,2|0|0,0:0|0:0|0:0,0:0:0:0:
311,192,10392,2,0,P|362:185|411:188,1,93.75,2|0,0:0|0:0,0:0:0:0:
419,149,10856,2,0,P|470:156|519:153,1,93.75,2|0,0:0|0:0,0:0:0:0:
512,153,13177,6,0,L|505:101,2,31.25,2|2|2,0:0|0:0|0:0,0:0:0:0:
431,165,13641,2,0,L|424:113,2,31.25,2|2|2,0:0|0:0|0:0,0:0:0:0:
350,175,14105,2,0,L|343:123,2,31.25,2|2|2,0:0|0:0|0:0,0:0:0:0:
512,153,16919,6,0,L|505:101,2,31.25,2|2|2,0:0|0:0|0:0,0:0:0:0:
431,165,17378,1,2,0:0:0:0:
428,149,17494,1,2,0:0:0:0:
426,134,17608,1,2,0:0:0:0:
349,174,17839,2,0,L|342:122,2,31.25,2|2|2,0:0|0:0|0:0,0:0:0:0:
308,209,18212,5,4,1:0:0:0:
211,232,18444,2,0,P|232:281|230:323,1,74.9999977111817,2|0,0:0|1:0,0:0:0:0:
148,333,18909,1,2,0:0:0:0:
69,289,19141,2,0,L|58:205,1,74.9999977111817,2|0,1:2|0:0,0:0:0:0:
6,149,19606,1,2,1:2:0:0:
6,149,19839,6,0,L|106:131,1,74.9999977111817,2|0,0:0|1:2,0:0:0:0:
165,164,20304,1,0,0:0:0:0:
249,125,20536,1,2,1:2:0:0:
249,125,20769,2,0,P|257:83|252:40,2,74.9999977111817,2|0|2,0:0|1:0|0:0,0:0:0:0:
325,172,21466,1,0,1:0:0:0:
415,176,21699,1,2,0:0:0:0:
469,104,21931,5,2,1:2:0:0:
313,13,22396,1,0,1:0:0:0:
301,102,22628,1,2,0:2:0:0:
289,191,22861,2,0,P|284:233|290:275,2,74.9999977111817,2|0|2,1:2|0:0|1:2,0:0:0:0:
368,148,23558,1,2,0:0:0:0:
454,174,23791,2,0,P|459:216|453:258,1,74.9999977111817,0|2,1:2|0:0,0:0:0:0:
398,319,24256,1,0,1:2:0:0:
398,319,24488,1,2,0:0:0:0:
312,346,24721,2,0,P|269:340|229:347,1,74.9999977111817,0|0,1:2|0:0,0:0:0:0:
169,290,25186,2,0,P|130:305|88:306,1,74.9999977111817,0|0,1:2|0:0,0:0:0:0:
17,265,25651,5,2,1:2:0:0:
78,199,25883,1,2,0:0:0:0:
16,133,26116,1,2,1:2:0:0:
98,167,26348,6,0,P|140:173|182:171,2,74.9999977111817,2|0|2,0:0|1:0|0:0,0:0:0:0:
87,77,27045,2,0,P|122:66|160:40,1,74.9999977111817,2|2,1:2|0:0,0:0:0:0:
231,94,27510,1,0,1:0:0:0:
256,180,27743,1,2,0:0:0:0:
218,261,27975,2,0,P|211:310|211:357,1,74.9999977111817,0|2,1:0|0:0,0:0:0:0:
299,321,28440,2,0,P|306:272|306:225,1,74.9999977111817,2|2,1:2|0:0,0:0:0:0:
386,205,28905,1,2,1:2:0:0:
475,217,29138,1,2,0:0:0:0:
439,134,29370,6,0,B|360:127|369:170|266:168,1,149.999995422363,2|0,1:2|1:0,0:0:0:0:
210,134,30068,1,2,0:2:0:0:
126,100,30301,2,0,P|84:105|42:99,1,74.9999977111817,2|0,1:2|0:0,0:0:0:0:
4,177,30765,1,0,1:0:0:0:
4,177,30998,2,0,P|4:220|12:266,2,74.9999977111817,2|0|2,0:2|1:0|0:0,0:0:0:0:
86,214,31695,1,0,1:2:0:0:
175,217,31927,1,2,0:0:0:0:
255,259,32161,2,0,L|256:342,1,74.9999977111817,0|2,1:2|0:0,0:0:0:0:
337,296,32625,2,0,L|368:215,1,74.9999977111817,0|2,1:2|0:0,0:0:0:0:
460,212,33090,5,4,1:2:0:0:
383,32,33555,1,8,0:0:0:0:
305,91,33787,1,2,0:0:0:0:
210,65,34020,1,0,1:2:0:0:
209,65,34252,2,0,P|199:105|203:154,2,81.2499962806703,2|8|2,0:0|0:2|0:2,0:0:0:0:
115,39,34950,2,0,P|63:49|16:52,1,81.2499962806703,0|2,1:0|0:0,0:0:0:0:
75,151,35415,1,8,0:0:0:0:
75,151,35531,1,2,0:0:0:0:
75,151,35647,1,2,0:0:0:0:
112,240,35879,2,0,P|177:245|224:254,1,81.2499962806703,0|2,1:0|0:0,0:0:0:0:
233,336,36344,2,0,P|168:341|121:350,1,81.2499962806703,8|2,0:0|0:0,0:0:0:0:
271,263,36809,6,0,P|329:265|439:239,1,162.499992561341,2|8,1:2|0:0,0:0:0:0:
479,243,37391,1,0,0:0:0:0:
479,243,37507,2,0,P|478:205|458:157,2,81.2499962806703,2|0|2,0:0|1:0|0:0,0:0:0:0:
414,316,38204,1,10,0:0:0:0:
414,316,38437,1,2,0:0:0:0:
316,316,38669,6,0,P|276:316|180:334,1,121.874994421006,2|2,1:2|0:0,0:0:0:0:
152,353,39134,1,8,0:0:0:0:
66,332,39367,1,2,0:0:0:0:
66,332,39483,1,2,0:0:0:0:
66,332,39599,2,0,P|52:266|51:251,1,81.2499962806703,2|2,1:2|0:0,0:0:0:0:
112,176,40064,2,0,L|208:192,1,81.2499962806703,8|2,0:0|0:0,0:0:0:0:
298,147,40529,5,2,1:2:0:0:
272,53,40761,1,2,0:2:0:0:
181,89,40994,1,10,0:2:0:0:
261,143,41226,5,2,0:0:0:0:
346,96,41459,2,0,P|354:50|353:-1,2,81.2499962806703,0|2|8,1:0|0:0|0:0,0:0:0:0:
414,166,42156,2,0,P|454:171|493:182,1,81.2499962806703,2|2,0:0|1:2,0:0:0:0:
449,270,42621,1,2,0:0:0:0:
353,251,42854,1,8,0:0:0:0:
353,251,42970,1,2,0:0:0:0:
353,251,43086,1,2,0:0:0:0:
257,273,43319,2,0,P|192:278|145:287,1,81.2499962806703,0|2,1:0|0:0,0:0:0:0:
96,336,43784,1,8,0:0:0:0:
96,336,44016,1,2,0:0:0:0:
11,255,44249,6,0,P|30:192|123:163,1,162.499992561341,2|8,1:2|0:0,0:0:0:0:
166,178,44830,1,0,0:0:0:0:
166,178,44946,2,0,P|207:196|252:199,1,81.2499962806703,2|0,0:0|1:0,0:0:0:0:
329,153,45411,1,2,0:0:0:0:
386,74,45644,1,10,0:0:0:0:
303,22,45877,1,2,0:0:0:0:
303,22,46108,2,0,L|215:32,1,81.2499962806703,0|0,1:0|0:0,0:0:0:0:
133,67,46573,1,8,0:0:0:0:
133,67,46689,1,2,0:0:0:0:
133,67,46806,1,2,0:0:0:0:
35,70,47038,2,0,P|24:116|28:153,1,81.2499962806703,0|2,1:0|0:0,0:0:0:0:
114,194,47503,1,8,0:0:0:0:
207,167,47736,1,2,0:0:0:0:
295,208,47969,5,4,1:2:0:0:
483,161,48433,1,8,0:0:0:0:
483,161,48549,1,0,0:0:0:0:
483,161,48666,1,2,3:0:0:0:
453,253,48898,1,0,1:0:0:0:
377,191,49130,1,2,3:0:0:0:
464,234,49363,1,8,0:0:0:0:
420,310,49595,1,2,3:0:0:0:
326,280,49828,6,0,B|256:283|270:314|188:318,1,121.874994421006,2|0,1:0|0:0,0:0:0:0:
166,295,50293,2,0,P|131:297|80:290,1,81.2499962806703,8|2,0:0|3:0,0:0:0:0:
47,260,50642,1,0,0:0:0:0:
47,260,50758,1,0,1:0:0:0:
133,215,50990,1,2,3:0:0:0:
103,79,51223,2,0,P|47:118|79:185,1,121.874994421006,2|0,1:0|0:0,0:0:0:0:
53,164,51688,6,0,B|84:187|84:187|138:162|230:176,1,162.499992561341,6|8,1:2|0:0,0:0:0:0:
249,204,52269,1,2,0:0:0:0:
249,204,52385,5,2,3:0:0:0:
324,266,52618,1,0,1:0:0:0:
404,211,52850,1,2,3:0:0:0:
317,164,53083,5,8,0:0:0:0:
352,254,53315,1,2,3:0:0:0:
447,237,53547,2,0,B|450:167|481:181|485:99,1,121.874994421006,2|0,1:0|0:0,0:0:0:0:
438,100,54012,2,0,P|403:102|352:95,1,81.2499962806703,8|2,0:0|3:0,0:0:0:0:
259,97,54477,1,0,1:0:0:0:
315,17,54709,1,2,3:0:0:0:
176,11,54942,2,0,P|147:72|208:114,1,121.874994421006,2|0,1:0|0:0,0:0:0:0:
176,109,55407,6,0,B|145:132|145:132|91:107|-1:121,1,162.499992561341,6|8,1:2|0:0,0:0:0:0:
42,214,56105,1,2,3:0:0:0:
42,214,56221,1,0,0:0:0:0:
42,214,56337,2,0,P|41:264|48:308,1,81.2499962806703,2|2,1:2|3:0,0:0:0:0:
142,298,56802,2,0,P|143:248|136:204,1,81.2499962806703,8|2,0:0|3:0,0:0:0:0:
180,190,57151,2,0,L|329:167,1,121.874994421006,2|2,0:0|3:0,0:0:0:0:
405,170,57732,5,8,0:0:0:0:
405,170,57848,1,0,0:0:0:0:
405,170,57964,2,0,L|410:287,1,81.2499962806703,2|0,3:0|1:0,0:0:0:0:
368,277,58313,1,2,0:0:0:0:
368,277,58429,2,0,L|335:369,1,81.2499962806703,2|8,3:0|0:0,0:0:0:0:
271,300,58894,2,0,L|226:321,2,40.6249981403352,2|2|0,3:0|0:0|1:0,0:0:0:0:
372,30,59824,5,2,3:0:0:0:
372,30,59940,1,2,0:0:0:0:
372,30,60057,2,0,P|322:31|278:24,1,81.2499962806703,0|2,1:0|0:0,0:0:0:0:
211,82,60522,2,0,P|161:81|117:88,1,81.2499962806703,10|2,0:0|3:0,0:0:0:0:
92,53,60871,2,0,P|56:103|56:165,1,121.874994421006,2|0,0:0|0:0,0:0:0:0:
19,257,61452,5,0,1:2:0:0:
19,257,61568,1,2,0:0:0:0:
19,257,61684,2,0,L|136:262,1,81.2499962806703,2|0,3:0|1:0,0:0:0:0:
149,283,62033,1,2,0:0:0:0:
149,283,62149,2,0,L|241:250,1,81.2499962806703,2|8,3:0|0:0,0:0:0:0:
319,282,62614,1,2,3:0:0:0:
356,371,62846,5,4,1:2:0:0:
483,223,63310,1,8,0:0:0:0:
483,223,63428,1,0,0:0:0:0:
483,223,63543,1,2,3:0:0:0:
453,131,63775,1,0,1:0:0:0:
377,193,64009,1,2,3:0:0:0:
464,150,64240,1,8,0:0:0:0:
420,74,64474,1,2,3:0:0:0:
326,104,64705,6,0,B|256:101|270:70|188:66,1,121.874994421006,2|0,1:0|0:0,0:0:0:0:
166,89,65170,2,0,P|131:87|80:94,1,81.2499962806703,8|2,0:0|3:0,0:0:0:0:
47,124,65519,1,0,0:0:0:0:
47,124,65635,1,0,1:0:0:0:
133,169,65869,1,2,3:0:0:0:
103,305,66100,2,0,P|47:266|79:199,1,121.874994421006,2|0,1:0|0:0,0:0:0:0:
53,220,66565,6,0,B|84:197|84:197|138:222|230:208,1,162.499992561341,6|8,1:2|0:0,0:0:0:0:
249,180,67146,1,2,0:0:0:0:
249,180,67262,5,2,3:0:0:0:
324,118,67495,1,0,1:0:0:0:
404,173,67727,1,2,3:0:0:0:
317,220,67960,5,8,0:0:0:0:
352,130,68192,1,2,3:0:0:0:
447,147,68426,2,0,B|450:217|481:203|485:285,1,121.874994421006,2|0,1:0|0:0,0:0:0:0:
438,284,68891,2,0,P|403:282|352:289,1,81.2499962806703,8|2,0:0|3:0,0:0:0:0:
259,287,69356,1,0,1:0:0:0:
315,367,69588,1,2,3:0:0:0:
176,373,69821,2,0,P|147:312|208:270,1,121.874994421006,2|0,1:0|0:0,0:0:0:0:
176,275,70286,6,0,B|145:252|145:252|91:277|-1:263,1,162.499992561341,6|8,1:2|0:0,0:0:0:0:
42,170,70983,1,2,3:0:0:0:
42,170,71098,1,0,0:0:0:0:
42,170,71214,2,0,P|41:120|48:76,1,81.2499962806703,2|2,1:2|3:0,0:0:0:0:
142,86,71679,2,0,P|143:136|136:180,1,81.2499962806703,8|2,0:0|3:0,0:0:0:0:
180,194,72028,2,0,L|329:217,1,121.874994421006,2|2,0:0|3:0,0:0:0:0:
405,214,72609,5,10,0:0:0:0:
405,214,72727,1,2,0:0:0:0:
405,214,72843,2,0,L|410:97,1,81.2499962806703,2|0,3:0|1:0,0:0:0:0:
368,107,73191,1,2,0:0:0:0:
368,107,73308,2,0,L|335:15,1,81.2499962806703,2|8,3:0|0:0,0:0:0:0:
271,84,73773,2,0,L|226:63,2,40.6249981403352,2|2|0,3:0|0:0|1:0,0:0:0:0:
372,354,74703,5,2,3:0:0:0:
372,354,74819,1,2,0:0:0:0:
372,354,74935,2,0,P|322:353|278:360,1,81.2499962806703,0|2,1:0|0:0,0:0:0:0:
211,302,75399,2,0,P|161:303|117:296,1,81.2499962806703,10|2,0:0|3:0,0:0:0:0:
92,330,75748,2,0,P|56:281|56:218,1,121.874994421006,2|0,0:0|0:0,0:0:0:0:
19,127,76329,5,0,1:2:0:0:
19,127,76445,1,2,0:0:0:0:
19,127,76561,2,0,L|136:122,1,81.2499962806703,2|0,3:0|1:0,0:0:0:0:
149,101,76910,1,2,0:0:0:0:
149,101,77026,2,0,L|241:134,1,81.2499962806703,2|8,3:0|0:0,0:0:0:0:
306,75,77492,1,2,3:0:0:0:
403,73,77725,5,4,1:0:0:0:
483,250,78190,1,0,1:2:0:0:
483,250,78306,1,2,0:0:0:0:
483,250,78422,1,2,0:0:0:0:
399,299,78655,2,0,L|308:309,1,81.2499962806703,0|2,1:0|3:0,0:0:0:0:
235,266,79119,1,8,0:0:0:0:
235,266,79352,2,0,L|139:287,2,81.2499962806703,2|0|2,3:0|1:0|3:0,0:0:0:0:
317,213,80049,1,8,0:0:0:0:
317,213,80166,1,0,0:0:0:0:
317,213,80282,2,0,P|330:153|322:111,1,81.2499962806703,2|0,0:0|1:0,0:0:0:0:
259,63,80747,1,2,3:0:0:0:
161,56,80979,1,8,0:0:0:0:
71,95,81212,1,2,3:0:0:0:
23,180,81444,6,0,P|79:194|153:183,1,121.874994421006,0|2,1:0|0:0,0:0:0:0:
190,194,81909,1,8,0:0:0:0:
247,272,82141,1,2,0:0:0:0:
319,337,82374,2,0,P|361:342|408:333,2,81.2499962806703,0|2|0,1:0|3:0|1:0,0:0:0:0:
267,254,83071,1,2,3:0:0:0:
338,186,83304,2,0,P|380:181|423:186,1,81.2499962806703,0|2,1:0|3:0,0:0:0:0:
462,207,83653,1,2,0:0:0:0:
462,207,83769,1,10,0:0:0:0:
471,110,84001,1,2,0:0:0:0:
402,40,84234,2,0,P|359:46|304:36,1,81.2499962806703,0|2,1:0|3:0,0:0:0:0:
231,80,84699,2,0,P|246:119|247:161,1,81.2499962806703,8|2,0:0|3:0,0:0:0:0:
185,233,85164,5,2,1:2:0:0:
88,244,85396,1,2,0:2:0:0:
146,165,85629,1,10,0:2:0:0:
206,241,85861,2,0,P|248:247|290:245,2,81.2499962806703,2|0|2,0:0|1:0|3:0,0:0:0:0:
146,318,86558,2,0,P|111:329|73:355,1,81.2499962806703,8|2,0:0|3:0,0:0:0:0:
10,279,87023,1,0,1:0:0:0:
73,204,87256,1,2,3:0:0:0:
73,204,87372,1,2,0:0:0:0:
73,204,87488,2,0,P|67:158|67:111,1,81.2499962806703,8|2,0:0|0:0,0:0:0:0:
163,108,87954,2,0,P|170:157|167:210,1,81.2499962806703,0|2,1:0|3:0,0:0:0:0:
256,120,88418,1,0,1:0:0:0:
256,120,88651,1,2,3:0:0:0:
329,56,88883,6,0,B|408:49|399:92|507:92,1,162.499992561341,0|10,1:0|0:0,0:0:0:0:
393,124,89581,1,2,0:0:0:0:
315,183,89813,2,0,P|310:225|317:271,2,81.2499962806703,0|2|8,1:0|3:0|0:0,0:0:0:0:
411,199,90511,1,2,3:0:0:0:
457,284,90743,1,0,1:2:0:0:
394,358,90976,1,2,3:0:0:0:
394,358,91092,1,2,0:0:0:0:
394,358,91208,2,0,L|307:342,1,81.2499962806703,8|2,0:0|0:0,0:0:0:0:
228,295,91674,2,0,L|155:356,1,81.2499962806703,0|2,1:0|0:0,0:0:0:0:
100,274,92138,2,0,L|25:211,1,81.2499962806703,10|2,0:0|0:0,0:0:0:0:
126,181,92603,5,4,1:0:0:0:
311,242,93068,1,0,1:2:0:0:
311,242,93184,1,2,0:0:0:0:
311,242,93300,1,2,0:0:0:0:
407,277,93533,1,0,1:0:0:0:
482,215,93765,1,2,3:0:0:0:
482,215,93998,2,0,P|486:162|475:127,2,81.2499962806703,8|2|0,0:0|3:0|1:0,0:0:0:0:
392,175,94695,1,2,3:0:0:0:
366,90,94928,1,8,0:0:0:0:
366,90,95044,1,0,0:0:0:0:
366,90,95160,1,2,0:0:0:0:
269,75,95392,2,0,P|204:80|157:89,1,81.2499962806703,0|2,1:0|3:0,0:0:0:0:
113,19,95857,2,0,P|48:14|1:5,1,81.2499962806703,8|2,0:0|3:0,0:0:0:0:
107,100,96322,6,0,P|109:158|83:268,1,162.499992561341,0|8,1:0|0:0,0:0:0:0:
90,312,96904,1,0,0:0:0:0:
90,312,97020,2,0,P|52:313|4:333,2,81.2499962806703,2|0|2,0:0|1:0|3:0,0:0:0:0:
183,340,97717,1,0,1:0:0:0:
279,326,97950,1,2,3:0:0:0:
373,347,98182,6,0,P|373:307|355:211,1,121.874994421006,0|2,1:0|0:0,0:0:0:0:
406,210,98647,1,10,0:0:0:0:
451,123,98880,1,2,0:0:0:0:
378,57,99112,2,0,P|312:71|297:72,1,81.2499962806703,0|2,1:0|3:0,0:0:0:0:
252,157,99577,2,0,L|156:141,1,81.2499962806703,8|2,0:0|3:0,0:0:0:0:
52,148,100042,5,2,1:2:0:0:
11,59,100274,1,2,0:2:0:0:
99,16,100507,1,10,0:2:0:0:
73,110,100739,5,2,0:0:0:0:
100,203,100972,2,0,P|108:249|107:300,2,81.2499962806703,0|2|8,1:0|3:0|0:0,0:0:0:0:
190,165,101669,2,0,P|221:189|257:209,1,81.2499962806703,2|0,3:0|1:0,0:0:0:0:
218,299,102134,1,2,3:0:0:0:
218,299,102251,1,2,0:0:0:0:
218,299,102367,1,8,0:0:0:0:
304,343,102599,1,2,0:0:0:0:
399,323,102832,2,0,P|394:258|385:211,1,81.2499962806703,0|2,1:0|3:0,0:0:0:0:
485,269,103297,2,0,P|479:228|477:188,1,81.2499962806703,0|2,1:0|3:0,0:0:0:0:
379,125,103762,6,0,P|360:188|267:217,1,162.499992561341,0|10,1:0|0:0,0:0:0:0:
234,243,104343,1,0,0:0:0:0:
234,243,104459,2,0,P|193:225|148:222,1,81.2499962806703,2|0,0:0|1:0,0:0:0:0:
65,255,104924,1,2,3:0:0:0:
16,170,105157,1,8,0:0:0:0:
29,73,105390,1,2,3:0:0:0:
115,116,105621,2,0,L|203:126,1,81.2499962806703,0|2,1:2|3:0,0:0:0:0:
197,79,105970,1,2,0:0:0:0:
197,79,106086,2,0,L|285:69,1,81.2499962806703,8|2,0:0|0:0,0:0:0:0:
360,18,106551,2,0,P|400:15|439:25,1,81.2499962806703,0|2,1:0|0:0,0:0:0:0:
510,84,107016,1,10,0:0:0:0:
425,132,107249,1,2,0:0:0:0:
487,202,107516,6,0,B|466:207|466:207|460:224|378:232,1,93.75,2|0,0:0|0:0,0:0:0:0:
372,258,107980,2,0,L|365:302,2,31.25,2|0|0,0:0|0:0|0:0,0:0:0:0:
309,206,108444,1,2,0:0:0:0:
235,237,108676,1,0,0:0:0:0:
202,310,108908,1,0,0:0:0:0:
252,374,109140,5,0,0:0:0:0:
185,329,109372,2,0,B|130:326|139:347|74:353,1,93.75,2|0,0:0|0:0,0:0:0:0:
58,332,109836,6,0,L|11:345,2,31.25,2|2|2,0:0|0:0|0:0,0:0:0:0:
95,259,110300,2,0,L|108:212,2,31.25,2|0|0,0:0|0:0|0:0,0:0:0:0:
176,249,110765,2,0,P|227:242|276:245,1,93.75,2|0,0:0|0:0,0:0:0:0:
305,264,111229,1,2,0:0:0:0:
454,198,111693,6,0,L|447:242,2,31.25,2|2|2,0:0|0:0|0:0,0:0:0:0:
507,136,112157,1,2,0:0:0:0:
461,69,112389,1,0,0:0:0:0:
382,53,112621,1,0,0:0:0:0:
308,84,112853,5,0,0:0:0:0:
389,75,113085,2,0,B|392:130|371:121|365:186,1,93.75,2|0,0:0|0:0,0:0:0:0:
343,196,113549,6,0,L|356:243,2,31.25,2|2|2,0:0|0:0|0:0,0:0:0:0:
273,155,114013,2,0,L|286:108,2,31.25,2|0|0,0:0|0:0|0:0,0:0:0:0:
201,192,114476,2,0,P|150:185|101:188,1,93.75,2|0,0:0|0:0,0:0:0:0:
93,149,114940,2,0,P|42:156|-7:153,1,93.75,2|0,0:0|0:0,0:0:0:0:
0,153,117260,6,0,L|7:101,2,31.25,2|2|2,0:0|0:0|0:0,0:0:0:0:
81,165,117724,2,0,L|88:113,2,31.25,2|2|2,0:0|0:0|0:0,0:0:0:0:
162,175,118188,2,0,L|169:123,2,31.25,2|2|2,0:0|0:0|0:0,0:0:0:0:
256,192,120973,12,0,122133,0:0:0:0:
