osu file format v14

[General]
AudioFilename: audio.ogg
AudioLeadIn: 0
PreviewTime: 122
Countdown: 0
SampleSet: Soft
StackLeniency: 0.7
Mode: 3
LetterboxInBreaks: 0
SpecialStyle: 0
WidescreenStoryboard: 1

[Editor]
Bookmarks: 3430,18212,33090,47968,62846,77725,107516
DistanceSpacing: 1.2
BeatDivisor: 4
GridSize: 16
TimelineZoom: 2.2

[Metadata]
Title:Dom Dom Yes Yes x Give It To Me (Club Remix)
TitleUnicode:Dom Dom Yes Yes x Give It To Me (Club Remix)
Artist:Biser King x Timbaland
ArtistUnicode:Biser King x Timbaland
Creator:epic man 2
Version:DZIEKUJE SKIBIDI TOILET
Source:skibidi toilet
Tags:em2 tech dump english mashup Timothy Zachery Mosley Nelly Kim Furtado pop house edm fiki CHUPKI V KRUSTA Фики Чупки в кръста Fikret Tuncher internet series meme novelty tiktok youtube club electronic dance music doombreaker думбрейкер dafuq!?boom! dafuq boom sped up
BeatmapID:4299565
BeatmapSetID:2057420

[Difficulty]
HPDrainRate:8.2
CircleSize:4
OverallDifficulty:8.5
ApproachRate:5
SliderMultiplier:1.4
SliderTickRate:1

[Events]
//Background and Video events
0,0,"titantv.png",0,0
//Break Periods
//Storyboard Layer 0 (Background)
//Storyboard Layer 1 (Fail)
//Storyboard Layer 2 (Pass)
//Storyboard Layer 3 (Foreground)
//Storyboard Layer 4 (Overlay)
//Storyboard Sound Samples

[TimingPoints]
1573,464.144813181713,4,2,1,40,1,0
3429,-100,4,2,1,40,0,1
10855,-100,4,2,1,40,0,0
13176,-100,4,2,1,40,0,1
14569,-100,4,2,1,40,0,0
16918,460.652591170825,4,2,1,40,1,1
16918,-101.010101010101,4,2,1,40,0,1
18212,464.946879818981,4,2,1,40,1,0
107516,464.037122969838,4,2,1,40,1,9
114940,-100,4,2,1,40,0,0
117260,-100,4,2,1,40,0,1
118652,-100,4,2,1,40,0,0
120973,-100,4,2,1,40,0,1
121901,-100,4,2,1,40,0,0

[HitObjects]
448,192,3352,5,0,0:0:0:0:
320,192,3390,1,0,0:0:0:0:
64,192,3429,1,0,0:0:0:0:
320,192,3481,1,0,0:0:0:0:
64,192,3532,1,0,0:0:0:0:
448,192,3584,1,0,0:0:0:0:
192,192,3632,1,0,0:0:0:0:
320,192,3687,1,0,0:0:0:0:
192,192,3739,1,0,0:0:0:0:
64,192,3777,1,0,0:0:0:0:
448,192,3777,1,0,0:0:0:0:
320,192,3864,1,0,0:0:0:0:
448,192,3893,1,0,0:0:0:0:
320,192,3986,1,0,0:0:0:0:
320,192,4100,1,0,0:0:0:0:
192,192,4125,1,0,0:0:0:0:
64,192,4319,1,0,0:0:0:0:
320,192,4357,1,0,0:0:0:0:
64,192,4444,1,0,0:0:0:0:
448,192,4551,1,0,0:0:0:0:
320,192,4589,1,0,0:0:0:0:
448,192,4676,1,0,0:0:0:0:
64,192,4793,1,0,0:0:0:0:
320,192,4822,1,0,0:0:0:0:
64,192,4888,1,0,0:0:0:0:
320,192,4954,1,0,0:0:0:0:
192,192,4996,1,0,0:0:0:0:
448,192,5054,1,0,0:0:0:0:
64,192,5083,1,0,0:0:0:0:
448,192,5170,1,0,0:0:0:0:
64,192,5257,1,0,0:0:0:0:
320,192,5315,1,0,0:0:0:0:
448,192,5352,1,0,0:0:0:0:
192,192,5402,1,0,0:0:0:0:
448,192,5460,1,0,0:0:0:0:
64,192,5518,1,0,0:0:0:0:
320,192,5576,1,0,0:0:0:0:
448,192,5634,1,0,0:0:0:0:
64,192,5634,1,0,0:0:0:0:
192,192,5721,1,0,0:0:0:0:
448,192,5750,1,0,0:0:0:0:
192,192,5837,1,0,0:0:0:0:
192,192,5943,1,0,0:0:0:0:
320,192,5982,1,0,0:0:0:0:
192,192,6175,1,0,0:0:0:0:
448,192,6214,1,0,0:0:0:0:
64,192,6330,1,0,0:0:0:0:
448,192,6417,1,0,0:0:0:0:
320,192,6446,1,0,0:0:0:0:
64,192,6475,1,0,0:0:0:0:
320,192,6678,1,0,0:0:0:0:
320,192,6730,1,0,0:0:0:0:
64,192,6781,1,0,0:0:0:0:
448,192,6833,1,0,0:0:0:0:
192,192,6871,1,0,0:0:0:0:
320,192,6910,1,0,0:0:0:0:
448,192,6988,1,0,0:0:0:0:
192,192,7142,1,0,0:0:0:0:
192,192,7200,1,0,0:0:0:0:
448,192,7245,1,0,0:0:0:0:
320,192,7297,1,0,0:0:0:0:
64,192,7349,1,0,0:0:0:0:
320,192,7403,1,0,0:0:0:0:
448,192,7432,1,0,0:0:0:0:
320,192,7490,1,0,0:0:0:0:
64,192,7490,1,0,0:0:0:0:
192,192,7577,1,0,0:0:0:0:
64,192,7606,1,0,0:0:0:0:
192,192,7699,1,0,0:0:0:0:
192,192,7813,1,0,0:0:0:0:
320,192,7838,1,0,0:0:0:0:
448,192,8032,1,0,0:0:0:0:
192,192,8071,1,0,0:0:0:0:
448,192,8158,1,0,0:0:0:0:
64,192,8264,1,0,0:0:0:0:
192,192,8303,1,0,0:0:0:0:
64,192,8390,1,0,0:0:0:0:
448,192,8506,1,0,0:0:0:0:
192,192,8535,1,0,0:0:0:0:
448,192,8601,1,0,0:0:0:0:
192,192,8667,1,0,0:0:0:0:
320,192,8709,1,0,0:0:0:0:
64,192,8767,1,0,0:0:0:0:
448,192,8796,1,0,0:0:0:0:
64,192,8883,1,0,0:0:0:0:
448,192,8970,1,0,0:0:0:0:
192,192,9028,1,0,0:0:0:0:
64,192,9065,1,0,0:0:0:0:
320,192,9115,1,0,0:0:0:0:
64,192,9173,1,0,0:0:0:0:
448,192,9231,1,0,0:0:0:0:
192,192,9289,1,0,0:0:0:0:
448,192,9347,1,0,0:0:0:0:
64,192,9347,1,0,0:0:0:0:
320,192,9434,1,0,0:0:0:0:
64,192,9463,1,0,0:0:0:0:
320,192,9550,1,0,0:0:0:0:
320,192,9656,1,0,0:0:0:0:
192,192,9695,1,0,0:0:0:0:
320,192,9888,1,0,0:0:0:0:
64,192,9927,1,0,0:0:0:0:
448,192,10043,1,0,0:0:0:0:
64,192,10130,1,0,0:0:0:0:
192,192,10159,1,0,0:0:0:0:
448,192,10188,1,0,0:0:0:0:
192,192,10391,1,0,0:0:0:0:
192,192,10443,1,0,0:0:0:0:
448,192,10494,1,0,0:0:0:0:
64,192,10546,1,0,0:0:0:0:
320,192,10585,1,0,0:0:0:0:
192,192,10623,1,0,0:0:0:0:
64,192,10701,1,0,0:0:0:0:
320,192,10855,1,0,0:0:0:0:
320,192,10913,1,0,0:0:0:0:
64,192,10959,1,0,0:0:0:0:
192,192,11010,1,0,0:0:0:0:
448,192,11062,1,0,0:0:0:0:
192,192,11116,1,0,0:0:0:0:
320,192,11145,1,0,0:0:0:0:
64,192,11204,1,0,0:0:0:0:
64,192,11436,1,0,0:0:0:0:
448,192,11436,1,0,0:0:0:0:
192,192,11552,1,0,0:0:0:0:
448,192,11552,1,0,0:0:0:0:
320,192,11784,1,0,0:0:0:0:
320,192,11900,1,0,0:0:0:0:
64,192,12016,1,0,0:0:0:0:
192,192,12016,1,0,0:0:0:0:
192,192,12248,1,0,0:0:0:0:
448,192,12287,1,0,0:0:0:0:
64,192,12480,1,0,0:0:0:0:
192,192,12480,1,0,0:0:0:0:
448,192,12596,1,0,0:0:0:0:
64,192,12654,1,0,0:0:0:0:
448,192,12712,1,0,0:0:0:0:
192,192,12778,1,0,0:0:0:0:
448,192,12867,1,0,0:0:0:0:
64,192,12944,1,0,0:0:0:0:
320,192,12983,1,0,0:0:0:0:
192,192,13021,1,0,0:0:0:0:
320,192,13073,1,0,0:0:0:0:
448,192,13110,1,0,0:0:0:0:
64,192,13176,1,0,0:0:0:0:
64,192,13292,1,0,0:0:0:0:
320,192,13331,1,0,0:0:0:0:
64,192,13408,1,0,0:0:0:0:
448,192,13455,1,0,0:0:0:0:
192,192,13495,1,0,0:0:0:0:
320,192,13553,1,0,0:0:0:0:
192,192,13602,1,0,0:0:0:0:
448,192,13640,1,0,0:0:0:0:
448,192,13756,1,0,0:0:0:0:
192,192,13795,1,0,0:0:0:0:
448,192,13872,1,0,0:0:0:0:
64,192,13919,1,0,0:0:0:0:
320,192,13959,1,0,0:0:0:0:
192,192,14017,1,0,0:0:0:0:
320,192,14066,1,0,0:0:0:0:
64,192,14104,1,0,0:0:0:0:
64,192,14220,1,0,0:0:0:0:
320,192,14259,1,0,0:0:0:0:
64,192,14336,1,0,0:0:0:0:
448,192,14383,1,0,0:0:0:0:
192,192,14424,1,0,0:0:0:0:
320,192,14482,1,0,0:0:0:0:
192,192,14530,1,0,0:0:0:0:
64,192,14917,1,0,0:0:0:0:
64,192,15149,1,0,0:0:0:0:
192,192,15265,1,0,0:0:0:0:
448,192,15265,1,0,0:0:0:0:
192,192,15381,1,0,0:0:0:0:
64,192,15439,1,0,0:0:0:0:
320,192,15497,1,0,0:0:0:0:
320,192,15613,1,0,0:0:0:0:
192,192,15729,1,0,0:0:0:0:
448,192,15729,1,0,0:0:0:0:
192,192,15845,1,0,0:0:0:0:
64,192,15990,1,0,0:0:0:0:
320,192,16038,1,0,0:0:0:0:
192,192,16193,1,0,0:0:0:0:
64,192,16193,1,0,0:0:0:0:
448,192,16309,1,0,0:0:0:0:
64,192,16367,1,0,0:0:0:0:
448,192,16425,1,0,0:0:0:0:
192,192,16491,1,0,0:0:0:0:
448,192,16580,1,0,0:0:0:0:
64,192,16696,1,0,0:0:0:0:
320,192,16735,1,0,0:0:0:0:
192,192,16786,1,0,0:0:0:0:
448,192,16823,1,0,0:0:0:0:
64,192,16918,1,0,0:0:0:0:
64,192,17033,1,0,0:0:0:0:
320,192,17071,1,0,0:0:0:0:
64,192,17148,1,0,0:0:0:0:
448,192,17194,1,0,0:0:0:0:
192,192,17234,1,0,0:0:0:0:
320,192,17292,1,0,0:0:0:0:
192,192,17340,1,0,0:0:0:0:
448,192,17378,1,0,0:0:0:0:
448,192,17493,1,0,0:0:0:0:
192,192,17532,1,0,0:0:0:0:
448,192,17608,1,0,0:0:0:0:
64,192,17655,1,0,0:0:0:0:
320,192,17695,1,0,0:0:0:0:
192,192,17752,1,0,0:0:0:0:
320,192,17800,1,0,0:0:0:0:
64,192,17839,1,0,0:0:0:0:
64,192,17954,1,0,0:0:0:0:
320,192,17992,1,0,0:0:0:0:
64,192,18069,1,0,0:0:0:0:
448,192,18127,1,0,0:0:0:0:
64,192,18212,1,0,0:0:0:0:
192,192,18212,1,0,0:0:0:0:
320,192,18212,1,0,0:0:0:0:
448,192,18212,1,0,0:0:0:0:
448,192,18444,1,0,0:0:0:0:
192,192,18473,1,0,0:0:0:0:
320,192,18560,1,0,0:0:0:0:
448,192,18560,1,0,0:0:0:0:
192,192,18676,1,0,0:0:0:0:
64,192,18676,1,0,0:0:0:0:
192,192,18793,1,0,0:0:0:0:
320,192,18909,1,0,0:0:0:0:
64,192,18948,1,0,0:0:0:0:
448,192,18986,1,0,0:0:0:0:
192,192,19064,1,0,0:0:0:0:
320,192,19141,1,0,0:0:0:0:
448,192,19141,1,0,0:0:0:0:
64,192,19258,1,0,0:0:0:0:
64,192,19374,1,0,0:0:0:0:
448,192,19374,1,0,0:0:0:0:
448,192,19490,1,0,0:0:0:0:
320,192,19548,1,0,0:0:0:0:
192,192,19606,1,0,0:0:0:0:
64,192,19606,1,0,0:0:0:0:
192,192,19839,1,0,0:0:0:0:
320,192,19868,1,0,0:0:0:0:
64,192,19916,1,0,0:0:0:0:
320,192,19994,1,0,0:0:0:0:
192,192,20071,1,0,0:0:0:0:
448,192,20071,1,0,0:0:0:0:
192,192,20188,1,0,0:0:0:0:
448,192,20246,1,0,0:0:0:0:
320,192,20304,1,0,0:0:0:0:
64,192,20343,1,0,0:0:0:0:
192,192,20362,1,0,0:0:0:0:
320,192,20420,1,0,0:0:0:0:
64,192,20536,1,0,0:0:0:0:
192,192,20536,1,0,0:0:0:0:
64,192,20652,1,0,0:0:0:0:
448,192,20769,1,0,0:0:0:0:
192,192,20807,1,0,0:0:0:0:
320,192,20856,1,0,0:0:0:0:
192,192,20924,1,0,0:0:0:0:
64,192,21001,1,0,0:0:0:0:
448,192,21001,1,0,0:0:0:0:
448,192,21117,1,0,0:0:0:0:
64,192,21234,1,0,0:0:0:0:
320,192,21272,1,0,0:0:0:0:
192,192,21379,1,0,0:0:0:0:
64,192,21414,1,0,0:0:0:0:
320,192,21466,1,0,0:0:0:0:
448,192,21466,1,0,0:0:0:0:
192,192,21699,1,0,0:0:0:0:
448,192,21728,1,0,0:0:0:0:
320,192,21786,1,0,0:0:0:0:
448,192,21854,1,0,0:0:0:0:
64,192,21931,1,0,0:0:0:0:
192,192,21931,1,0,0:0:0:0:
320,192,22009,1,0,0:0:0:0:
64,192,22086,1,0,0:0:0:0:
320,192,22164,1,0,0:0:0:0:
64,192,22241,1,0,0:0:0:0:
192,192,22280,1,0,0:0:0:0:
320,192,22396,1,0,0:0:0:0:
448,192,22396,1,0,0:0:0:0:
320,192,22512,1,0,0:0:0:0:
64,192,22628,1,0,0:0:0:0:
448,192,22667,1,0,0:0:0:0:
192,192,22706,1,0,0:0:0:0:
448,192,22783,1,0,0:0:0:0:
64,192,22861,1,0,0:0:0:0:
320,192,22861,1,0,0:0:0:0:
64,192,22977,1,0,0:0:0:0:
448,192,23093,1,0,0:0:0:0:
192,192,23140,1,0,0:0:0:0:
320,192,23181,1,0,0:0:0:0:
64,192,23326,1,0,0:0:0:0:
320,192,23326,1,0,0:0:0:0:
192,192,23442,1,0,0:0:0:0:
192,192,23558,1,0,0:0:0:0:
448,192,23597,1,0,0:0:0:0:
320,192,23675,1,0,0:0:0:0:
64,192,23791,1,0,0:0:0:0:
448,192,23791,1,0,0:0:0:0:
64,192,23907,1,0,0:0:0:0:
448,192,24023,1,0,0:0:0:0:
192,192,24052,1,0,0:0:0:0:
320,192,24140,1,0,0:0:0:0:
320,192,24256,1,0,0:0:0:0:
448,192,24256,1,0,0:0:0:0:
64,192,24295,1,0,0:0:0:0:
448,192,24372,1,0,0:0:0:0:
192,192,24488,1,0,0:0:0:0:
320,192,24514,1,0,0:0:0:0:
64,192,24566,1,0,0:0:0:0:
320,192,24643,1,0,0:0:0:0:
192,192,24721,1,0,0:0:0:0:
448,192,24721,1,0,0:0:0:0:
64,192,24772,1,0,0:0:0:0:
320,192,24837,1,0,0:0:0:0:
64,192,24895,1,0,0:0:0:0:
192,192,24953,1,0,0:0:0:0:
448,192,24982,1,0,0:0:0:0:
64,192,25186,1,0,0:0:0:0:
320,192,25186,1,0,0:0:0:0:
448,192,25215,1,0,0:0:0:0:
192,192,25418,1,0,0:0:0:0:
320,192,25447,1,0,0:0:0:0:
64,192,25651,1,0,0:0:0:0:
448,192,25651,1,0,0:0:0:0:
192,192,25689,1,0,0:0:0:0:
64,192,25883,1,0,0:0:0:0:
320,192,25912,1,0,0:0:0:0:
320,192,25999,1,0,0:0:0:0:
448,192,26116,1,0,0:0:0:0:
192,192,26116,1,0,0:0:0:0:
64,192,26145,1,0,0:0:0:0:
320,192,26209,1,0,0:0:0:0:
64,192,26290,1,0,0:0:0:0:
448,192,26348,1,0,0:0:0:0:
192,192,26377,1,0,0:0:0:0:
320,192,26426,1,0,0:0:0:0:
192,192,26477,1,0,0:0:0:0:
448,192,26581,1,0,0:0:0:0:
192,192,26581,1,0,0:0:0:0:
64,192,26813,1,0,0:0:0:0:
320,192,26871,1,0,0:0:0:0:
192,192,26929,1,0,0:0:0:0:
320,192,27045,1,0,0:0:0:0:
448,192,27045,1,0,0:0:0:0:
448,192,27162,1,0,0:0:0:0:
64,192,27278,1,0,0:0:0:0:
320,192,27307,1,0,0:0:0:0:
192,192,27510,1,0,0:0:0:0:
448,192,27510,1,0,0:0:0:0:
320,192,27569,1,0,0:0:0:0:
192,192,27643,1,0,0:0:0:0:
448,192,27769,1,0,0:0:0:0:
64,192,27820,1,0,0:0:0:0:
320,192,27859,1,0,0:0:0:0:
64,192,27917,1,0,0:0:0:0:
448,192,27975,1,0,0:0:0:0:
192,192,27975,1,0,0:0:0:0:
320,192,28053,1,0,0:0:0:0:
448,192,28130,1,0,0:0:0:0:
192,192,28208,1,0,0:0:0:0:
64,192,28266,1,0,0:0:0:0:
192,192,28324,1,0,0:0:0:0:
64,192,28440,1,0,0:0:0:0:
448,192,28440,1,0,0:0:0:0:
320,192,28518,1,0,0:0:0:0:
448,192,28544,1,0,0:0:0:0:
192,192,28673,1,0,0:0:0:0:
320,192,28712,1,0,0:0:0:0:
64,192,28760,1,0,0:0:0:0:
64,192,28905,1,0,0:0:0:0:
448,192,28905,1,0,0:0:0:0:
320,192,28934,1,0,0:0:0:0:
64,192,29138,1,0,0:0:0:0:
320,192,29167,1,0,0:0:0:0:
448,192,29215,1,0,0:0:0:0:
448,192,29304,1,0,0:0:0:0:
64,192,29370,1,0,0:0:0:0:
192,192,29370,1,0,0:0:0:0:
320,192,29437,1,0,0:0:0:0:
64,192,29525,1,0,0:0:0:0:
320,192,29603,1,0,0:0:0:0:
64,192,29680,1,0,0:0:0:0:
192,192,29719,1,0,0:0:0:0:
320,192,29835,1,0,0:0:0:0:
448,192,29835,1,0,0:0:0:0:
192,192,29893,1,0,0:0:0:0:
448,192,29951,1,0,0:0:0:0:
64,192,30068,1,0,0:0:0:0:
320,192,30106,1,0,0:0:0:0:
192,192,30126,1,0,0:0:0:0:
320,192,30197,1,0,0:0:0:0:
64,192,30300,1,0,0:0:0:0:
448,192,30300,1,0,0:0:0:0:
192,192,30329,1,0,0:0:0:0:
448,192,30533,1,0,0:0:0:0:
64,192,30571,1,0,0:0:0:0:
64,192,30765,1,0,0:0:0:0:
192,192,30765,1,0,0:0:0:0:
192,192,30881,1,0,0:0:0:0:
448,192,30998,1,0,0:0:0:0:
320,192,31027,1,0,0:0:0:0:
64,192,31075,1,0,0:0:0:0:
320,192,31127,1,0,0:0:0:0:
448,192,31178,1,0,0:0:0:0:
64,192,31230,1,0,0:0:0:0:
192,192,31230,1,0,0:0:0:0:
64,192,31462,1,0,0:0:0:0:
448,192,31492,1,0,0:0:0:0:
192,192,31521,1,0,0:0:0:0:
320,192,31579,1,0,0:0:0:0:
64,192,31579,1,0,0:0:0:0:
192,192,31695,1,0,0:0:0:0:
448,192,31695,1,0,0:0:0:0:
192,192,31811,1,0,0:0:0:0:
448,192,31927,1,0,0:0:0:0:
320,192,31956,1,0,0:0:0:0:
448,192,32027,1,0,0:0:0:0:
64,192,32160,1,0,0:0:0:0:
320,192,32160,1,0,0:0:0:0:
192,192,32212,1,0,0:0:0:0:
64,192,32305,1,0,0:0:0:0:
448,192,32392,1,0,0:0:0:0:
192,192,32431,1,0,0:0:0:0:
320,192,32450,1,0,0:0:0:0:
192,192,32538,1,0,0:0:0:0:
64,192,32625,1,0,0:0:0:0:
448,192,32625,1,0,0:0:0:0:
64,192,32857,1,0,0:0:0:0:
320,192,32886,1,0,0:0:0:0:
448,192,32904,1,0,0:0:0:0:
320,192,33090,1,0,0:0:0:0:
448,192,33090,1,0,0:0:0:0:
64,192,33141,1,0,0:0:0:0:
192,192,33206,1,0,0:0:0:0:
320,192,33264,1,0,0:0:0:0:
64,192,33322,1,0,0:0:0:0:
448,192,33361,1,0,0:0:0:0:
320,192,33400,1,0,0:0:0:0:
64,192,33439,1,0,0:0:0:0:
192,192,33439,1,0,0:0:0:0:
192,192,33555,1,0,0:0:0:0:
448,192,33555,1,0,0:0:0:0:
448,192,33671,1,0,0:0:0:0:
64,192,33787,1,0,0:0:0:0:
320,192,33816,1,0,0:0:0:0:
448,192,33865,1,0,0:0:0:0:
192,192,33933,1,0,0:0:0:0:
320,192,34020,1,0,0:0:0:0:
64,192,34020,1,0,0:0:0:0:
64,192,34136,1,0,0:0:0:0:
448,192,34252,1,0,0:0:0:0:
192,192,34291,1,0,0:0:0:0:
320,192,34330,1,0,0:0:0:0:
448,192,34485,1,0,0:0:0:0:
64,192,34485,1,0,0:0:0:0:
192,192,34688,1,0,0:0:0:0:
448,192,34717,1,0,0:0:0:0:
192,192,34775,1,0,0:0:0:0:
320,192,34833,1,0,0:0:0:0:
64,192,34883,1,0,0:0:0:0:
448,192,34950,1,0,0:0:0:0:
192,192,34950,1,0,0:0:0:0:
448,192,35066,1,0,0:0:0:0:
64,192,35182,1,0,0:0:0:0:
320,192,35215,1,0,0:0:0:0:
192,192,35240,1,0,0:0:0:0:
448,192,35298,1,0,0:0:0:0:
64,192,35298,1,0,0:0:0:0:
448,192,35415,1,0,0:0:0:0:
192,192,35415,1,0,0:0:0:0:
320,192,35531,1,0,0:0:0:0:
320,192,35647,1,0,0:0:0:0:
448,192,35676,1,0,0:0:0:0:
192,192,35724,1,0,0:0:0:0:
64,192,35792,1,0,0:0:0:0:
320,192,35879,1,0,0:0:0:0:
448,192,35879,1,0,0:0:0:0:
448,192,36083,1,0,0:0:0:0:
192,192,36112,1,0,0:0:0:0:
320,192,36170,1,0,0:0:0:0:
64,192,36228,1,0,0:0:0:0:
320,192,36286,1,0,0:0:0:0:
192,192,36344,1,0,0:0:0:0:
448,192,36344,1,0,0:0:0:0:
64,192,36422,1,0,0:0:0:0:
320,192,36461,1,0,0:0:0:0:
448,192,36499,1,0,0:0:0:0:
192,192,36577,1,0,0:0:0:0:
320,192,36577,1,0,0:0:0:0:
64,192,36809,1,0,0:0:0:0:
448,192,36809,1,0,0:0:0:0:
320,192,36867,1,0,0:0:0:0:
64,192,36942,1,0,0:0:0:0:
320,192,37042,1,0,0:0:0:0:
64,192,37119,1,0,0:0:0:0:
192,192,37158,1,0,0:0:0:0:
320,192,37274,1,0,0:0:0:0:
448,192,37274,1,0,0:0:0:0:
320,192,37391,1,0,0:0:0:0:
64,192,37507,1,0,0:0:0:0:
192,192,37546,1,0,0:0:0:0:
448,192,37594,1,0,0:0:0:0:
192,192,37652,1,0,0:0:0:0:
320,192,37701,1,0,0:0:0:0:
64,192,37739,1,0,0:0:0:0:
320,192,37806,1,0,0:0:0:0:
192,192,37872,1,0,0:0:0:0:
448,192,37972,1,0,0:0:0:0:
64,192,38001,1,0,0:0:0:0:
448,192,38088,1,0,0:0:0:0:
64,192,38204,1,0,0:0:0:0:
320,192,38204,1,0,0:0:0:0:
64,192,38320,1,0,0:0:0:0:
192,192,38437,1,0,0:0:0:0:
448,192,38466,1,0,0:0:0:0:
320,192,38611,1,0,0:0:0:0:
192,192,38669,1,0,0:0:0:0:
64,192,38669,1,0,0:0:0:0:
320,192,38721,1,0,0:0:0:0:
64,192,38772,1,0,0:0:0:0:
448,192,38824,1,0,0:0:0:0:
192,192,38863,1,0,0:0:0:0:
320,192,38902,1,0,0:0:0:0:
192,192,38960,1,0,0:0:0:0:
448,192,39018,1,0,0:0:0:0:
64,192,39018,1,0,0:0:0:0:
320,192,39134,1,0,0:0:0:0:
448,192,39134,1,0,0:0:0:0:
320,192,39250,1,0,0:0:0:0:
64,192,39367,1,0,0:0:0:0:
448,192,39405,1,0,0:0:0:0:
192,192,39454,1,0,0:0:0:0:
64,192,39512,1,0,0:0:0:0:
448,192,39599,1,0,0:0:0:0:
320,192,39599,1,0,0:0:0:0:
192,192,39715,1,0,0:0:0:0:
448,192,39793,1,0,0:0:0:0:
64,192,39832,1,0,0:0:0:0:
64,192,39948,1,0,0:0:0:0:
192,192,40064,1,0,0:0:0:0:
448,192,40064,1,0,0:0:0:0:
320,192,40103,1,0,0:0:0:0:
64,192,40151,1,0,0:0:0:0:
448,192,40219,1,0,0:0:0:0:
320,192,40267,1,0,0:0:0:0:
192,192,40296,1,0,0:0:0:0:
64,192,40529,1,0,0:0:0:0:
448,192,40529,1,0,0:0:0:0:
192,192,40568,1,0,0:0:0:0:
64,192,40761,1,0,0:0:0:0:
320,192,40790,1,0,0:0:0:0:
320,192,40878,1,0,0:0:0:0:
448,192,40994,1,0,0:0:0:0:
192,192,40994,1,0,0:0:0:0:
64,192,41023,1,0,0:0:0:0:
320,192,41087,1,0,0:0:0:0:
64,192,41168,1,0,0:0:0:0:
448,192,41226,1,0,0:0:0:0:
192,192,41255,1,0,0:0:0:0:
320,192,41304,1,0,0:0:0:0:
448,192,41356,1,0,0:0:0:0:
64,192,41459,1,0,0:0:0:0:
192,192,41459,1,0,0:0:0:0:
64,192,41575,1,0,0:0:0:0:
448,192,41691,1,0,0:0:0:0:
192,192,41730,1,0,0:0:0:0:
320,192,41769,1,0,0:0:0:0:
64,192,41924,1,0,0:0:0:0:
448,192,41924,1,0,0:0:0:0:
64,192,42040,1,0,0:0:0:0:
448,192,42156,1,0,0:0:0:0:
192,192,42185,1,0,0:0:0:0:
64,192,42234,1,0,0:0:0:0:
448,192,42311,1,0,0:0:0:0:
64,192,42389,1,0,0:0:0:0:
192,192,42389,1,0,0:0:0:0:
192,192,42505,1,0,0:0:0:0:
448,192,42621,1,0,0:0:0:0:
64,192,42650,1,0,0:0:0:0:
320,192,42679,1,0,0:0:0:0:
192,192,42737,1,0,0:0:0:0:
448,192,42737,1,0,0:0:0:0:
64,192,42854,1,0,0:0:0:0:
192,192,42854,1,0,0:0:0:0:
64,192,42970,1,0,0:0:0:0:
64,192,43086,1,0,0:0:0:0:
320,192,43125,1,0,0:0:0:0:
192,192,43173,1,0,0:0:0:0:
320,192,43241,1,0,0:0:0:0:
192,192,43319,1,0,0:0:0:0:
448,192,43319,1,0,0:0:0:0:
64,192,43522,1,0,0:0:0:0:
320,192,43551,1,0,0:0:0:0:
64,192,43638,1,0,0:0:0:0:
192,192,43784,1,0,0:0:0:0:
448,192,43784,1,0,0:0:0:0:
320,192,43835,1,0,0:0:0:0:
448,192,43929,1,0,0:0:0:0:
192,192,44016,1,0,0:0:0:0:
320,192,44016,1,0,0:0:0:0:
192,192,44171,1,0,0:0:0:0:
64,192,44249,1,0,0:0:0:0:
448,192,44249,1,0,0:0:0:0:
192,192,44315,1,0,0:0:0:0:
64,192,44404,1,0,0:0:0:0:
320,192,44481,1,0,0:0:0:0:
64,192,44558,1,0,0:0:0:0:
192,192,44597,1,0,0:0:0:0:
320,192,44713,1,0,0:0:0:0:
448,192,44713,1,0,0:0:0:0:
320,192,44830,1,0,0:0:0:0:
64,192,44946,1,0,0:0:0:0:
448,192,44975,1,0,0:0:0:0:
192,192,45023,1,0,0:0:0:0:
320,192,45075,1,0,0:0:0:0:
448,192,45127,1,0,0:0:0:0:
192,192,45178,1,0,0:0:0:0:
64,192,45178,1,0,0:0:0:0:
64,192,45295,1,0,0:0:0:0:
320,192,45411,1,0,0:0:0:0:
192,192,45488,1,0,0:0:0:0:
320,192,45566,1,0,0:0:0:0:
192,192,45643,1,0,0:0:0:0:
448,192,45643,1,0,0:0:0:0:
64,192,45847,1,0,0:0:0:0:
448,192,45876,1,0,0:0:0:0:
192,192,45922,1,0,0:0:0:0:
320,192,45953,1,0,0:0:0:0:
192,192,46021,1,0,0:0:0:0:
64,192,46108,1,0,0:0:0:0:
448,192,46108,1,0,0:0:0:0:
64,192,46225,1,0,0:0:0:0:
192,192,46380,1,0,0:0:0:0:
320,192,46418,1,0,0:0:0:0:
448,192,46457,1,0,0:0:0:0:
64,192,46573,1,0,0:0:0:0:
448,192,46573,1,0,0:0:0:0:
320,192,46612,1,0,0:0:0:0:
192,192,46689,1,0,0:0:0:0:
192,192,46806,1,0,0:0:0:0:
448,192,46844,1,0,0:0:0:0:
64,192,47038,1,0,0:0:0:0:
192,192,47038,1,0,0:0:0:0:
64,192,47154,1,0,0:0:0:0:
448,192,47271,1,0,0:0:0:0:
192,192,47329,1,0,0:0:0:0:
320,192,47387,1,0,0:0:0:0:
192,192,47445,1,0,0:0:0:0:
320,192,47503,1,0,0:0:0:0:
448,192,47503,1,0,0:0:0:0:
64,192,47542,1,0,0:0:0:0:
448,192,47636,1,0,0:0:0:0:
192,192,47736,1,0,0:0:0:0:
320,192,47782,1,0,0:0:0:0:
192,192,47852,1,0,0:0:0:0:
64,192,47968,1,0,0:0:0:0:
448,192,47968,1,0,0:0:0:0:
192,192,48201,1,0,0:0:0:0:
448,192,48201,1,0,0:0:0:0:
320,192,48317,1,0,0:0:0:0:
192,192,48317,1,0,0:0:0:0:
64,192,48433,1,0,0:0:0:0:
448,192,48433,1,0,0:0:0:0:
192,192,48549,1,0,0:0:0:0:
192,192,48666,1,0,0:0:0:0:
448,192,48724,1,0,0:0:0:0:
320,192,48782,1,0,0:0:0:0:
448,192,48840,1,0,0:0:0:0:
64,192,48898,1,0,0:0:0:0:
320,192,48898,1,0,0:0:0:0:
64,192,49014,1,0,0:0:0:0:
448,192,49130,1,0,0:0:0:0:
192,192,49169,1,0,0:0:0:0:
320,192,49208,1,0,0:0:0:0:
192,192,49285,1,0,0:0:0:0:
64,192,49363,1,0,0:0:0:0:
448,192,49363,1,0,0:0:0:0:
448,192,49479,1,0,0:0:0:0:
64,192,49557,1,0,0:0:0:0:
320,192,49595,1,0,0:0:0:0:
192,192,49654,1,0,0:0:0:0:
320,192,49712,1,0,0:0:0:0:
64,192,49828,1,0,0:0:0:0:
448,192,49828,1,0,0:0:0:0:
192,192,49867,1,0,0:0:0:0:
320,192,49921,1,0,0:0:0:0:
448,192,49973,1,0,0:0:0:0:
192,192,50022,1,0,0:0:0:0:
320,192,50060,1,0,0:0:0:0:
64,192,50118,1,0,0:0:0:0:
192,192,50177,1,0,0:0:0:0:
448,192,50177,1,0,0:0:0:0:
64,192,50293,1,0,0:0:0:0:
448,192,50293,1,0,0:0:0:0:
64,192,50409,1,0,0:0:0:0:
192,192,50525,1,0,0:0:0:0:
320,192,50583,1,0,0:0:0:0:
192,192,50642,1,0,0:0:0:0:
448,192,50706,1,0,0:0:0:0:
320,192,50706,1,0,0:0:0:0:
192,192,50758,1,0,0:0:0:0:
64,192,50758,1,0,0:0:0:0:
64,192,50874,1,0,0:0:0:0:
192,192,50990,1,0,0:0:0:0:
320,192,51029,1,0,0:0:0:0:
192,192,51119,1,0,0:0:0:0:
64,192,51223,1,0,0:0:0:0:
448,192,51223,1,0,0:0:0:0:
320,192,51261,1,0,0:0:0:0:
192,192,51310,1,0,0:0:0:0:
64,192,51356,1,0,0:0:0:0:
448,192,51397,1,0,0:0:0:0:
192,192,51455,1,0,0:0:0:0:
320,192,51455,1,0,0:0:0:0:
448,192,51533,1,0,0:0:0:0:
64,192,51688,1,0,0:0:0:0:
448,192,51688,1,0,0:0:0:0:
192,192,51726,1,0,0:0:0:0:
320,192,51775,1,0,0:0:0:0:
448,192,51821,1,0,0:0:0:0:
64,192,51862,1,0,0:0:0:0:
320,192,51920,1,0,0:0:0:0:
192,192,51978,1,0,0:0:0:0:
320,192,52036,1,0,0:0:0:0:
448,192,52036,1,0,0:0:0:0:
448,192,52153,1,0,0:0:0:0:
64,192,52153,1,0,0:0:0:0:
320,192,52269,1,0,0:0:0:0:
320,192,52385,1,0,0:0:0:0:
64,192,52443,1,0,0:0:0:0:
192,192,52501,1,0,0:0:0:0:
64,192,52559,1,0,0:0:0:0:
192,192,52618,1,0,0:0:0:0:
448,192,52618,1,0,0:0:0:0:
448,192,52734,1,0,0:0:0:0:
64,192,52850,1,0,0:0:0:0:
320,192,52889,1,0,0:0:0:0:
192,192,52928,1,0,0:0:0:0:
320,192,53005,1,0,0:0:0:0:
64,192,53083,1,0,0:0:0:0:
448,192,53083,1,0,0:0:0:0:
192,192,53134,1,0,0:0:0:0:
448,192,53199,1,0,0:0:0:0:
64,192,53315,1,0,0:0:0:0:
320,192,53344,1,0,0:0:0:0:
192,192,53373,1,0,0:0:0:0:
448,192,53431,1,0,0:0:0:0:
192,192,53489,1,0,0:0:0:0:
64,192,53547,1,0,0:0:0:0:
448,192,53547,1,0,0:0:0:0:
320,192,53586,1,0,0:0:0:0:
192,192,53640,1,0,0:0:0:0:
64,192,53693,1,0,0:0:0:0:
320,192,53741,1,0,0:0:0:0:
192,192,53780,1,0,0:0:0:0:
448,192,53838,1,0,0:0:0:0:
64,192,53896,1,0,0:0:0:0:
320,192,53896,1,0,0:0:0:0:
64,192,54012,1,0,0:0:0:0:
448,192,54012,1,0,0:0:0:0:
448,192,54129,1,0,0:0:0:0:
64,192,54245,1,0,0:0:0:0:
320,192,54245,1,0,0:0:0:0:
192,192,54303,1,0,0:0:0:0:
320,192,54361,1,0,0:0:0:0:
64,192,54426,1,0,0:0:0:0:
192,192,54448,1,0,0:0:0:0:
448,192,54477,1,0,0:0:0:0:
320,192,54477,1,0,0:0:0:0:
448,192,54594,1,0,0:0:0:0:
320,192,54710,1,0,0:0:0:0:
192,192,54749,1,0,0:0:0:0:
320,192,54839,1,0,0:0:0:0:
64,192,54942,1,0,0:0:0:0:
448,192,54942,1,0,0:0:0:0:
192,192,54981,1,0,0:0:0:0:
320,192,55029,1,0,0:0:0:0:
448,192,55075,1,0,0:0:0:0:
64,192,55117,1,0,0:0:0:0:
320,192,55175,1,0,0:0:0:0:
192,192,55233,1,0,0:0:0:0:
448,192,55291,1,0,0:0:0:0:
64,192,55407,1,0,0:0:0:0:
448,192,55407,1,0,0:0:0:0:
320,192,55446,1,0,0:0:0:0:
192,192,55494,1,0,0:0:0:0:
64,192,55540,1,0,0:0:0:0:
448,192,55582,1,0,0:0:0:0:
192,192,55640,1,0,0:0:0:0:
320,192,55698,1,0,0:0:0:0:
64,192,55756,1,0,0:0:0:0:
192,192,55756,1,0,0:0:0:0:
64,192,55872,1,0,0:0:0:0:
448,192,55872,1,0,0:0:0:0:
192,192,55988,1,0,0:0:0:0:
320,192,55988,1,0,0:0:0:0:
448,192,56105,1,0,0:0:0:0:
192,192,56105,1,0,0:0:0:0:
64,192,56163,1,0,0:0:0:0:
448,192,56221,1,0,0:0:0:0:
192,192,56279,1,0,0:0:0:0:
320,192,56337,1,0,0:0:0:0:
64,192,56337,1,0,0:0:0:0:
320,192,56453,1,0,0:0:0:0:
192,192,56570,1,0,0:0:0:0:
64,192,56570,1,0,0:0:0:0:
448,192,56647,1,0,0:0:0:0:
64,192,56725,1,0,0:0:0:0:
192,192,56802,1,0,0:0:0:0:
320,192,56802,1,0,0:0:0:0:
448,192,56841,1,0,0:0:0:0:
192,192,57035,1,0,0:0:0:0:
64,192,57035,1,0,0:0:0:0:
448,192,57151,1,0,0:0:0:0:
64,192,57209,1,0,0:0:0:0:
320,192,57267,1,0,0:0:0:0:
448,192,57267,1,0,0:0:0:0:
192,192,57333,1,0,0:0:0:0:
448,192,57422,1,0,0:0:0:0:
64,192,57500,1,0,0:0:0:0:
320,192,57538,1,0,0:0:0:0:
192,192,57577,1,0,0:0:0:0:
320,192,57629,1,0,0:0:0:0:
64,192,57732,1,0,0:0:0:0:
448,192,57732,1,0,0:0:0:0:
192,192,57848,1,0,0:0:0:0:
192,192,57964,1,0,0:0:0:0:
320,192,58003,1,0,0:0:0:0:
192,192,58081,1,0,0:0:0:0:
64,192,58197,1,0,0:0:0:0:
448,192,58197,1,0,0:0:0:0:
320,192,58313,1,0,0:0:0:0:
320,192,58429,1,0,0:0:0:0:
192,192,58488,1,0,0:0:0:0:
320,192,58546,1,0,0:0:0:0:
64,192,58662,1,0,0:0:0:0:
448,192,58662,1,0,0:0:0:0:
192,192,58778,1,0,0:0:0:0:
192,192,58894,1,0,0:0:0:0:
320,192,58894,1,0,0:0:0:0:
192,192,59011,1,0,0:0:0:0:
64,192,59127,1,0,0:0:0:0:
448,192,59127,1,0,0:0:0:0:
192,192,59243,1,0,0:0:0:0:
448,192,59282,1,0,0:0:0:0:
320,192,59321,1,0,0:0:0:0:
64,192,59359,1,0,0:0:0:0:
320,192,59476,1,0,0:0:0:0:
448,192,59476,1,0,0:0:0:0:
448,192,59592,1,0,0:0:0:0:
64,192,59592,1,0,0:0:0:0:
320,192,59708,1,0,0:0:0:0:
192,192,59824,1,0,0:0:0:0:
448,192,59824,1,0,0:0:0:0:
192,192,59940,1,0,0:0:0:0:
64,192,59999,1,0,0:0:0:0:
320,192,60057,1,0,0:0:0:0:
448,192,60057,1,0,0:0:0:0:
320,192,60173,1,0,0:0:0:0:
192,192,60289,1,0,0:0:0:0:
448,192,60289,1,0,0:0:0:0:
64,192,60347,1,0,0:0:0:0:
192,192,60405,1,0,0:0:0:0:
320,192,60405,1,0,0:0:0:0:
64,192,60522,1,0,0:0:0:0:
448,192,60522,1,0,0:0:0:0:
192,192,60573,1,0,0:0:0:0:
320,192,60599,1,0,0:0:0:0:
64,192,60754,1,0,0:0:0:0:
192,192,60754,1,0,0:0:0:0:
448,192,60870,1,0,0:0:0:0:
64,192,60928,1,0,0:0:0:0:
448,192,60987,1,0,0:0:0:0:
320,192,60987,1,0,0:0:0:0:
192,192,61053,1,0,0:0:0:0:
448,192,61142,1,0,0:0:0:0:
64,192,61219,1,0,0:0:0:0:
320,192,61258,1,0,0:0:0:0:
192,192,61297,1,0,0:0:0:0:
320,192,61348,1,0,0:0:0:0:
448,192,61452,1,0,0:0:0:0:
64,192,61452,1,0,0:0:0:0:
192,192,61568,1,0,0:0:0:0:
192,192,61684,1,0,0:0:0:0:
320,192,61723,1,0,0:0:0:0:
192,192,61800,1,0,0:0:0:0:
448,192,61917,1,0,0:0:0:0:
64,192,61917,1,0,0:0:0:0:
320,192,62033,1,0,0:0:0:0:
320,192,62149,1,0,0:0:0:0:
192,192,62207,1,0,0:0:0:0:
320,192,62265,1,0,0:0:0:0:
448,192,62381,1,0,0:0:0:0:
64,192,62381,1,0,0:0:0:0:
192,192,62498,1,0,0:0:0:0:
320,192,62614,1,0,0:0:0:0:
192,192,62614,1,0,0:0:0:0:
192,192,62730,1,0,0:0:0:0:
448,192,62730,1,0,0:0:0:0:
320,192,62788,1,0,0:0:0:0:
64,192,62846,1,0,0:0:0:0:
448,192,62846,1,0,0:0:0:0:
64,192,63079,1,0,0:0:0:0:
320,192,63079,1,0,0:0:0:0:
320,192,63195,1,0,0:0:0:0:
192,192,63195,1,0,0:0:0:0:
64,192,63311,1,0,0:0:0:0:
448,192,63311,1,0,0:0:0:0:
320,192,63428,1,0,0:0:0:0:
320,192,63544,1,0,0:0:0:0:
64,192,63602,1,0,0:0:0:0:
192,192,63660,1,0,0:0:0:0:
64,192,63718,1,0,0:0:0:0:
192,192,63776,1,0,0:0:0:0:
448,192,63776,1,0,0:0:0:0:
448,192,63893,1,0,0:0:0:0:
64,192,64009,1,0,0:0:0:0:
320,192,64048,1,0,0:0:0:0:
192,192,64086,1,0,0:0:0:0:
320,192,64164,1,0,0:0:0:0:
64,192,64241,1,0,0:0:0:0:
448,192,64241,1,0,0:0:0:0:
64,192,64357,1,0,0:0:0:0:
448,192,64435,1,0,0:0:0:0:
192,192,64474,1,0,0:0:0:0:
320,192,64532,1,0,0:0:0:0:
192,192,64590,1,0,0:0:0:0:
64,192,64706,1,0,0:0:0:0:
448,192,64706,1,0,0:0:0:0:
320,192,64745,1,0,0:0:0:0:
192,192,64799,1,0,0:0:0:0:
64,192,64851,1,0,0:0:0:0:
320,192,64900,1,0,0:0:0:0:
192,192,64939,1,0,0:0:0:0:
448,192,64997,1,0,0:0:0:0:
64,192,65055,1,0,0:0:0:0:
320,192,65055,1,0,0:0:0:0:
64,192,65171,1,0,0:0:0:0:
448,192,65171,1,0,0:0:0:0:
448,192,65287,1,0,0:0:0:0:
320,192,65404,1,0,0:0:0:0:
192,192,65462,1,0,0:0:0:0:
320,192,65520,1,0,0:0:0:0:
192,192,65584,1,0,0:0:0:0:
64,192,65584,1,0,0:0:0:0:
448,192,65636,1,0,0:0:0:0:
320,192,65636,1,0,0:0:0:0:
448,192,65752,1,0,0:0:0:0:
320,192,65869,1,0,0:0:0:0:
192,192,65907,1,0,0:0:0:0:
320,192,65998,1,0,0:0:0:0:
64,192,66101,1,0,0:0:0:0:
448,192,66101,1,0,0:0:0:0:
192,192,66140,1,0,0:0:0:0:
320,192,66188,1,0,0:0:0:0:
448,192,66234,1,0,0:0:0:0:
64,192,66275,1,0,0:0:0:0:
192,192,66334,1,0,0:0:0:0:
320,192,66334,1,0,0:0:0:0:
64,192,66411,1,0,0:0:0:0:
64,192,66566,1,0,0:0:0:0:
448,192,66566,1,0,0:0:0:0:
320,192,66605,1,0,0:0:0:0:
192,192,66653,1,0,0:0:0:0:
64,192,66699,1,0,0:0:0:0:
448,192,66740,1,0,0:0:0:0:
192,192,66798,1,0,0:0:0:0:
320,192,66857,1,0,0:0:0:0:
64,192,66915,1,0,0:0:0:0:
192,192,66915,1,0,0:0:0:0:
448,192,67031,1,0,0:0:0:0:
64,192,67031,1,0,0:0:0:0:
192,192,67147,1,0,0:0:0:0:
192,192,67263,1,0,0:0:0:0:
448,192,67322,1,0,0:0:0:0:
320,192,67380,1,0,0:0:0:0:
448,192,67438,1,0,0:0:0:0:
64,192,67496,1,0,0:0:0:0:
320,192,67496,1,0,0:0:0:0:
64,192,67612,1,0,0:0:0:0:
448,192,67728,1,0,0:0:0:0:
192,192,67767,1,0,0:0:0:0:
320,192,67806,1,0,0:0:0:0:
192,192,67883,1,0,0:0:0:0:
64,192,67961,1,0,0:0:0:0:
448,192,67961,1,0,0:0:0:0:
320,192,68012,1,0,0:0:0:0:
64,192,68077,1,0,0:0:0:0:
448,192,68193,1,0,0:0:0:0:
192,192,68222,1,0,0:0:0:0:
320,192,68251,1,0,0:0:0:0:
64,192,68310,1,0,0:0:0:0:
320,192,68368,1,0,0:0:0:0:
64,192,68426,1,0,0:0:0:0:
448,192,68426,1,0,0:0:0:0:
192,192,68465,1,0,0:0:0:0:
320,192,68519,1,0,0:0:0:0:
448,192,68571,1,0,0:0:0:0:
192,192,68619,1,0,0:0:0:0:
320,192,68658,1,0,0:0:0:0:
64,192,68716,1,0,0:0:0:0:
192,192,68774,1,0,0:0:0:0:
448,192,68774,1,0,0:0:0:0:
64,192,68891,1,0,0:0:0:0:
448,192,68891,1,0,0:0:0:0:
64,192,69007,1,0,0:0:0:0:
192,192,69123,1,0,0:0:0:0:
448,192,69123,1,0,0:0:0:0:
320,192,69181,1,0,0:0:0:0:
192,192,69239,1,0,0:0:0:0:
448,192,69304,1,0,0:0:0:0:
320,192,69327,1,0,0:0:0:0:
192,192,69356,1,0,0:0:0:0:
64,192,69356,1,0,0:0:0:0:
64,192,69472,1,0,0:0:0:0:
192,192,69588,1,0,0:0:0:0:
320,192,69627,1,0,0:0:0:0:
192,192,69717,1,0,0:0:0:0:
64,192,69821,1,0,0:0:0:0:
448,192,69821,1,0,0:0:0:0:
320,192,69859,1,0,0:0:0:0:
192,192,69908,1,0,0:0:0:0:
64,192,69953,1,0,0:0:0:0:
448,192,69995,1,0,0:0:0:0:
192,192,70053,1,0,0:0:0:0:
320,192,70111,1,0,0:0:0:0:
64,192,70169,1,0,0:0:0:0:
64,192,70286,1,0,0:0:0:0:
448,192,70286,1,0,0:0:0:0:
192,192,70324,1,0,0:0:0:0:
320,192,70373,1,0,0:0:0:0:
448,192,70418,1,0,0:0:0:0:
64,192,70460,1,0,0:0:0:0:
320,192,70518,1,0,0:0:0:0:
192,192,70576,1,0,0:0:0:0:
320,192,70634,1,0,0:0:0:0:
448,192,70634,1,0,0:0:0:0:
64,192,70750,1,0,0:0:0:0:
448,192,70750,1,0,0:0:0:0:
192,192,70867,1,0,0:0:0:0:
320,192,70867,1,0,0:0:0:0:
320,192,70983,1,0,0:0:0:0:
64,192,70983,1,0,0:0:0:0:
448,192,71041,1,0,0:0:0:0:
64,192,71099,1,0,0:0:0:0:
320,192,71157,1,0,0:0:0:0:
448,192,71215,1,0,0:0:0:0:
192,192,71215,1,0,0:0:0:0:
192,192,71332,1,0,0:0:0:0:
448,192,71448,1,0,0:0:0:0:
320,192,71448,1,0,0:0:0:0:
64,192,71525,1,0,0:0:0:0:
448,192,71603,1,0,0:0:0:0:
192,192,71680,1,0,0:0:0:0:
320,192,71680,1,0,0:0:0:0:
64,192,71719,1,0,0:0:0:0:
448,192,71913,1,0,0:0:0:0:
320,192,71913,1,0,0:0:0:0:
64,192,72029,1,0,0:0:0:0:
448,192,72087,1,0,0:0:0:0:
64,192,72145,1,0,0:0:0:0:
192,192,72145,1,0,0:0:0:0:
320,192,72212,1,0,0:0:0:0:
64,192,72300,1,0,0:0:0:0:
448,192,72378,1,0,0:0:0:0:
192,192,72417,1,0,0:0:0:0:
320,192,72455,1,0,0:0:0:0:
192,192,72507,1,0,0:0:0:0:
64,192,72610,1,0,0:0:0:0:
448,192,72610,1,0,0:0:0:0:
320,192,72727,1,0,0:0:0:0:
320,192,72843,1,0,0:0:0:0:
192,192,72882,1,0,0:0:0:0:
320,192,72959,1,0,0:0:0:0:
64,192,73075,1,0,0:0:0:0:
448,192,73075,1,0,0:0:0:0:
192,192,73191,1,0,0:0:0:0:
192,192,73308,1,0,0:0:0:0:
320,192,73366,1,0,0:0:0:0:
192,192,73424,1,0,0:0:0:0:
64,192,73540,1,0,0:0:0:0:
448,192,73540,1,0,0:0:0:0:
320,192,73656,1,0,0:0:0:0:
192,192,73773,1,0,0:0:0:0:
320,192,73773,1,0,0:0:0:0:
320,192,73889,1,0,0:0:0:0:
64,192,74005,1,0,0:0:0:0:
448,192,74005,1,0,0:0:0:0:
320,192,74121,1,0,0:0:0:0:
64,192,74160,1,0,0:0:0:0:
192,192,74199,1,0,0:0:0:0:
448,192,74238,1,0,0:0:0:0:
64,192,74354,1,0,0:0:0:0:
192,192,74354,1,0,0:0:0:0:
448,192,74470,1,0,0:0:0:0:
64,192,74470,1,0,0:0:0:0:
192,192,74586,1,0,0:0:0:0:
64,192,74703,1,0,0:0:0:0:
320,192,74703,1,0,0:0:0:0:
320,192,74819,1,0,0:0:0:0:
448,192,74877,1,0,0:0:0:0:
64,192,74935,1,0,0:0:0:0:
192,192,74935,1,0,0:0:0:0:
192,192,75051,1,0,0:0:0:0:
64,192,75167,1,0,0:0:0:0:
320,192,75167,1,0,0:0:0:0:
448,192,75226,1,0,0:0:0:0:
192,192,75284,1,0,0:0:0:0:
320,192,75284,1,0,0:0:0:0:
64,192,75400,1,0,0:0:0:0:
448,192,75400,1,0,0:0:0:0:
320,192,75452,1,0,0:0:0:0:
192,192,75477,1,0,0:0:0:0:
320,192,75632,1,0,0:0:0:0:
448,192,75632,1,0,0:0:0:0:
64,192,75749,1,0,0:0:0:0:
448,192,75807,1,0,0:0:0:0:
192,192,75865,1,0,0:0:0:0:
64,192,75865,1,0,0:0:0:0:
320,192,75931,1,0,0:0:0:0:
64,192,76020,1,0,0:0:0:0:
448,192,76097,1,0,0:0:0:0:
192,192,76136,1,0,0:0:0:0:
320,192,76175,1,0,0:0:0:0:
192,192,76227,1,0,0:0:0:0:
448,192,76330,1,0,0:0:0:0:
64,192,76330,1,0,0:0:0:0:
320,192,76446,1,0,0:0:0:0:
320,192,76562,1,0,0:0:0:0:
192,192,76601,1,0,0:0:0:0:
320,192,76679,1,0,0:0:0:0:
448,192,76795,1,0,0:0:0:0:
64,192,76795,1,0,0:0:0:0:
192,192,76911,1,0,0:0:0:0:
192,192,77027,1,0,0:0:0:0:
320,192,77085,1,0,0:0:0:0:
192,192,77144,1,0,0:0:0:0:
448,192,77260,1,0,0:0:0:0:
64,192,77260,1,0,0:0:0:0:
320,192,77376,1,0,0:0:0:0:
320,192,77492,1,0,0:0:0:0:
192,192,77492,1,0,0:0:0:0:
64,192,77608,1,0,0:0:0:0:
320,192,77608,1,0,0:0:0:0:
64,192,77725,1,0,0:0:0:0:
320,192,77725,1,0,0:0:0:0:
448,192,77725,1,0,0:0:0:0:
192,192,77725,1,0,0:0:0:0:
448,192,77957,1,0,0:0:0:0:
192,192,77986,1,0,0:0:0:0:
448,192,78073,1,0,0:0:0:0:
320,192,78073,1,0,0:0:0:0:
64,192,78190,1,0,0:0:0:0:
192,192,78190,1,0,0:0:0:0:
192,192,78306,1,0,0:0:0:0:
320,192,78422,1,0,0:0:0:0:
64,192,78461,1,0,0:0:0:0:
448,192,78500,1,0,0:0:0:0:
192,192,78577,1,0,0:0:0:0:
448,192,78655,1,0,0:0:0:0:
320,192,78655,1,0,0:0:0:0:
64,192,78771,1,0,0:0:0:0:
448,192,78887,1,0,0:0:0:0:
64,192,78887,1,0,0:0:0:0:
448,192,79003,1,0,0:0:0:0:
320,192,79061,1,0,0:0:0:0:
64,192,79120,1,0,0:0:0:0:
192,192,79120,1,0,0:0:0:0:
192,192,79352,1,0,0:0:0:0:
320,192,79381,1,0,0:0:0:0:
64,192,79430,1,0,0:0:0:0:
320,192,79507,1,0,0:0:0:0:
448,192,79584,1,0,0:0:0:0:
192,192,79584,1,0,0:0:0:0:
192,192,79701,1,0,0:0:0:0:
448,192,79759,1,0,0:0:0:0:
320,192,79817,1,0,0:0:0:0:
64,192,79856,1,0,0:0:0:0:
192,192,79875,1,0,0:0:0:0:
320,192,79933,1,0,0:0:0:0:
192,192,80049,1,0,0:0:0:0:
64,192,80049,1,0,0:0:0:0:
64,192,80166,1,0,0:0:0:0:
448,192,80282,1,0,0:0:0:0:
192,192,80321,1,0,0:0:0:0:
320,192,80369,1,0,0:0:0:0:
192,192,80437,1,0,0:0:0:0:
448,192,80514,1,0,0:0:0:0:
64,192,80514,1,0,0:0:0:0:
448,192,80631,1,0,0:0:0:0:
64,192,80747,1,0,0:0:0:0:
320,192,80786,1,0,0:0:0:0:
192,192,80892,1,0,0:0:0:0:
64,192,80928,1,0,0:0:0:0:
448,192,80979,1,0,0:0:0:0:
320,192,80979,1,0,0:0:0:0:
192,192,81212,1,0,0:0:0:0:
448,192,81241,1,0,0:0:0:0:
320,192,81299,1,0,0:0:0:0:
448,192,81367,1,0,0:0:0:0:
192,192,81444,1,0,0:0:0:0:
64,192,81444,1,0,0:0:0:0:
320,192,81522,1,0,0:0:0:0:
64,192,81599,1,0,0:0:0:0:
320,192,81677,1,0,0:0:0:0:
64,192,81754,1,0,0:0:0:0:
192,192,81793,1,0,0:0:0:0:
448,192,81909,1,0,0:0:0:0:
320,192,81909,1,0,0:0:0:0:
320,192,82025,1,0,0:0:0:0:
64,192,82142,1,0,0:0:0:0:
448,192,82180,1,0,0:0:0:0:
192,192,82219,1,0,0:0:0:0:
448,192,82297,1,0,0:0:0:0:
320,192,82374,1,0,0:0:0:0:
64,192,82374,1,0,0:0:0:0:
64,192,82490,1,0,0:0:0:0:
448,192,82607,1,0,0:0:0:0:
192,192,82653,1,0,0:0:0:0:
320,192,82694,1,0,0:0:0:0:
320,192,82839,1,0,0:0:0:0:
64,192,82839,1,0,0:0:0:0:
192,192,82955,1,0,0:0:0:0:
192,192,83072,1,0,0:0:0:0:
448,192,83110,1,0,0:0:0:0:
320,192,83188,1,0,0:0:0:0:
448,192,83304,1,0,0:0:0:0:
64,192,83304,1,0,0:0:0:0:
64,192,83420,1,0,0:0:0:0:
448,192,83537,1,0,0:0:0:0:
192,192,83566,1,0,0:0:0:0:
320,192,83653,1,0,0:0:0:0:
448,192,83769,1,0,0:0:0:0:
320,192,83769,1,0,0:0:0:0:
64,192,83808,1,0,0:0:0:0:
448,192,83885,1,0,0:0:0:0:
192,192,84001,1,0,0:0:0:0:
320,192,84027,1,0,0:0:0:0:
64,192,84079,1,0,0:0:0:0:
320,192,84156,1,0,0:0:0:0:
448,192,84234,1,0,0:0:0:0:
192,192,84234,1,0,0:0:0:0:
64,192,84286,1,0,0:0:0:0:
320,192,84350,1,0,0:0:0:0:
64,192,84408,1,0,0:0:0:0:
192,192,84466,1,0,0:0:0:0:
448,192,84495,1,0,0:0:0:0:
320,192,84699,1,0,0:0:0:0:
64,192,84699,1,0,0:0:0:0:
448,192,84728,1,0,0:0:0:0:
192,192,84931,1,0,0:0:0:0:
320,192,84960,1,0,0:0:0:0:
448,192,85164,1,0,0:0:0:0:
64,192,85164,1,0,0:0:0:0:
192,192,85203,1,0,0:0:0:0:
64,192,85396,1,0,0:0:0:0:
320,192,85425,1,0,0:0:0:0:
320,192,85513,1,0,0:0:0:0:
192,192,85629,1,0,0:0:0:0:
448,192,85629,1,0,0:0:0:0:
64,192,85658,1,0,0:0:0:0:
320,192,85722,1,0,0:0:0:0:
64,192,85803,1,0,0:0:0:0:
448,192,85861,1,0,0:0:0:0:
192,192,85890,1,0,0:0:0:0:
320,192,85939,1,0,0:0:0:0:
192,192,85990,1,0,0:0:0:0:
192,192,86094,1,0,0:0:0:0:
448,192,86094,1,0,0:0:0:0:
64,192,86326,1,0,0:0:0:0:
320,192,86384,1,0,0:0:0:0:
192,192,86442,1,0,0:0:0:0:
448,192,86559,1,0,0:0:0:0:
320,192,86559,1,0,0:0:0:0:
448,192,86675,1,0,0:0:0:0:
64,192,86791,1,0,0:0:0:0:
320,192,86820,1,0,0:0:0:0:
448,192,87024,1,0,0:0:0:0:
192,192,87024,1,0,0:0:0:0:
320,192,87082,1,0,0:0:0:0:
192,192,87156,1,0,0:0:0:0:
448,192,87282,1,0,0:0:0:0:
64,192,87334,1,0,0:0:0:0:
320,192,87372,1,0,0:0:0:0:
64,192,87430,1,0,0:0:0:0:
192,192,87489,1,0,0:0:0:0:
448,192,87489,1,0,0:0:0:0:
320,192,87566,1,0,0:0:0:0:
448,192,87644,1,0,0:0:0:0:
192,192,87721,1,0,0:0:0:0:
64,192,87779,1,0,0:0:0:0:
192,192,87837,1,0,0:0:0:0:
448,192,87954,1,0,0:0:0:0:
64,192,87954,1,0,0:0:0:0:
320,192,88031,1,0,0:0:0:0:
448,192,88057,1,0,0:0:0:0:
192,192,88186,1,0,0:0:0:0:
320,192,88225,1,0,0:0:0:0:
64,192,88273,1,0,0:0:0:0:
448,192,88418,1,0,0:0:0:0:
64,192,88418,1,0,0:0:0:0:
320,192,88448,1,0,0:0:0:0:
64,192,88651,1,0,0:0:0:0:
320,192,88680,1,0,0:0:0:0:
448,192,88728,1,0,0:0:0:0:
448,192,88817,1,0,0:0:0:0:
192,192,88883,1,0,0:0:0:0:
64,192,88883,1,0,0:0:0:0:
320,192,88950,1,0,0:0:0:0:
64,192,89038,1,0,0:0:0:0:
320,192,89116,1,0,0:0:0:0:
64,192,89193,1,0,0:0:0:0:
192,192,89232,1,0,0:0:0:0:
448,192,89348,1,0,0:0:0:0:
320,192,89348,1,0,0:0:0:0:
192,192,89406,1,0,0:0:0:0:
448,192,89465,1,0,0:0:0:0:
64,192,89581,1,0,0:0:0:0:
320,192,89620,1,0,0:0:0:0:
192,192,89639,1,0,0:0:0:0:
320,192,89710,1,0,0:0:0:0:
448,192,89813,1,0,0:0:0:0:
64,192,89813,1,0,0:0:0:0:
192,192,89842,1,0,0:0:0:0:
448,192,90046,1,0,0:0:0:0:
64,192,90085,1,0,0:0:0:0:
192,192,90278,1,0,0:0:0:0:
64,192,90278,1,0,0:0:0:0:
192,192,90395,1,0,0:0:0:0:
448,192,90511,1,0,0:0:0:0:
320,192,90540,1,0,0:0:0:0:
64,192,90588,1,0,0:0:0:0:
320,192,90640,1,0,0:0:0:0:
448,192,90692,1,0,0:0:0:0:
192,192,90743,1,0,0:0:0:0:
64,192,90743,1,0,0:0:0:0:
64,192,90976,1,0,0:0:0:0:
448,192,91005,1,0,0:0:0:0:
192,192,91034,1,0,0:0:0:0:
64,192,91092,1,0,0:0:0:0:
320,192,91092,1,0,0:0:0:0:
448,192,91208,1,0,0:0:0:0:
192,192,91208,1,0,0:0:0:0:
192,192,91324,1,0,0:0:0:0:
448,192,91441,1,0,0:0:0:0:
320,192,91470,1,0,0:0:0:0:
448,192,91540,1,0,0:0:0:0:
320,192,91673,1,0,0:0:0:0:
64,192,91673,1,0,0:0:0:0:
192,192,91725,1,0,0:0:0:0:
64,192,91818,1,0,0:0:0:0:
448,192,91906,1,0,0:0:0:0:
192,192,91944,1,0,0:0:0:0:
320,192,91964,1,0,0:0:0:0:
192,192,92051,1,0,0:0:0:0:
448,192,92138,1,0,0:0:0:0:
64,192,92138,1,0,0:0:0:0:
64,192,92371,1,0,0:0:0:0:
320,192,92400,1,0,0:0:0:0:
448,192,92417,1,0,0:0:0:0:
448,192,92603,1,0,0:0:0:0:
320,192,92603,1,0,0:0:0:0:
64,192,92655,1,0,0:0:0:0:
192,192,92719,1,0,0:0:0:0:
320,192,92777,1,0,0:0:0:0:
64,192,92835,1,0,0:0:0:0:
448,192,92874,1,0,0:0:0:0:
320,192,92913,1,0,0:0:0:0:
192,192,92952,1,0,0:0:0:0:
64,192,92952,1,0,0:0:0:0:
448,192,93068,1,0,0:0:0:0:
192,192,93068,1,0,0:0:0:0:
448,192,93184,1,0,0:0:0:0:
64,192,93300,1,0,0:0:0:0:
320,192,93329,1,0,0:0:0:0:
448,192,93378,1,0,0:0:0:0:
192,192,93446,1,0,0:0:0:0:
64,192,93533,1,0,0:0:0:0:
320,192,93533,1,0,0:0:0:0:
64,192,93649,1,0,0:0:0:0:
448,192,93765,1,0,0:0:0:0:
192,192,93804,1,0,0:0:0:0:
320,192,93843,1,0,0:0:0:0:
64,192,93998,1,0,0:0:0:0:
448,192,93998,1,0,0:0:0:0:
192,192,94201,1,0,0:0:0:0:
448,192,94230,1,0,0:0:0:0:
192,192,94288,1,0,0:0:0:0:
320,192,94347,1,0,0:0:0:0:
64,192,94396,1,0,0:0:0:0:
192,192,94463,1,0,0:0:0:0:
448,192,94463,1,0,0:0:0:0:
448,192,94579,1,0,0:0:0:0:
64,192,94695,1,0,0:0:0:0:
320,192,94728,1,0,0:0:0:0:
192,192,94753,1,0,0:0:0:0:
64,192,94811,1,0,0:0:0:0:
448,192,94811,1,0,0:0:0:0:
192,192,94928,1,0,0:0:0:0:
448,192,94928,1,0,0:0:0:0:
320,192,95044,1,0,0:0:0:0:
320,192,95160,1,0,0:0:0:0:
448,192,95189,1,0,0:0:0:0:
192,192,95238,1,0,0:0:0:0:
64,192,95306,1,0,0:0:0:0:
448,192,95393,1,0,0:0:0:0:
320,192,95393,1,0,0:0:0:0:
448,192,95596,1,0,0:0:0:0:
192,192,95625,1,0,0:0:0:0:
320,192,95683,1,0,0:0:0:0:
64,192,95741,1,0,0:0:0:0:
320,192,95800,1,0,0:0:0:0:
448,192,95858,1,0,0:0:0:0:
192,192,95858,1,0,0:0:0:0:
64,192,95935,1,0,0:0:0:0:
320,192,95974,1,0,0:0:0:0:
448,192,96013,1,0,0:0:0:0:
320,192,96090,1,0,0:0:0:0:
192,192,96090,1,0,0:0:0:0:
448,192,96323,1,0,0:0:0:0:
64,192,96323,1,0,0:0:0:0:
320,192,96381,1,0,0:0:0:0:
64,192,96455,1,0,0:0:0:0:
320,192,96555,1,0,0:0:0:0:
64,192,96633,1,0,0:0:0:0:
192,192,96671,1,0,0:0:0:0:
448,192,96788,1,0,0:0:0:0:
320,192,96788,1,0,0:0:0:0:
320,192,96904,1,0,0:0:0:0:
64,192,97020,1,0,0:0:0:0:
192,192,97059,1,0,0:0:0:0:
448,192,97107,1,0,0:0:0:0:
192,192,97165,1,0,0:0:0:0:
320,192,97214,1,0,0:0:0:0:
64,192,97252,1,0,0:0:0:0:
320,192,97319,1,0,0:0:0:0:
192,192,97385,1,0,0:0:0:0:
448,192,97485,1,0,0:0:0:0:
64,192,97514,1,0,0:0:0:0:
448,192,97601,1,0,0:0:0:0:
320,192,97717,1,0,0:0:0:0:
64,192,97717,1,0,0:0:0:0:
64,192,97834,1,0,0:0:0:0:
192,192,97950,1,0,0:0:0:0:
448,192,97979,1,0,0:0:0:0:
320,192,98124,1,0,0:0:0:0:
64,192,98182,1,0,0:0:0:0:
192,192,98182,1,0,0:0:0:0:
320,192,98234,1,0,0:0:0:0:
64,192,98286,1,0,0:0:0:0:
448,192,98337,1,0,0:0:0:0:
192,192,98376,1,0,0:0:0:0:
320,192,98415,1,0,0:0:0:0:
192,192,98473,1,0,0:0:0:0:
64,192,98531,1,0,0:0:0:0:
448,192,98531,1,0,0:0:0:0:
448,192,98647,1,0,0:0:0:0:
320,192,98647,1,0,0:0:0:0:
320,192,98764,1,0,0:0:0:0:
64,192,98880,1,0,0:0:0:0:
448,192,98919,1,0,0:0:0:0:
192,192,98967,1,0,0:0:0:0:
64,192,99025,1,0,0:0:0:0:
320,192,99112,1,0,0:0:0:0:
448,192,99112,1,0,0:0:0:0:
192,192,99228,1,0,0:0:0:0:
448,192,99306,1,0,0:0:0:0:
64,192,99345,1,0,0:0:0:0:
64,192,99461,1,0,0:0:0:0:
448,192,99577,1,0,0:0:0:0:
192,192,99577,1,0,0:0:0:0:
320,192,99616,1,0,0:0:0:0:
64,192,99664,1,0,0:0:0:0:
448,192,99732,1,0,0:0:0:0:
320,192,99781,1,0,0:0:0:0:
192,192,99810,1,0,0:0:0:0:
448,192,100042,1,0,0:0:0:0:
64,192,100042,1,0,0:0:0:0:
192,192,100081,1,0,0:0:0:0:
64,192,100275,1,0,0:0:0:0:
320,192,100304,1,0,0:0:0:0:
320,192,100391,1,0,0:0:0:0:
192,192,100507,1,0,0:0:0:0:
448,192,100507,1,0,0:0:0:0:
64,192,100536,1,0,0:0:0:0:
320,192,100600,1,0,0:0:0:0:
64,192,100681,1,0,0:0:0:0:
448,192,100740,1,0,0:0:0:0:
192,192,100769,1,0,0:0:0:0:
320,192,100817,1,0,0:0:0:0:
448,192,100869,1,0,0:0:0:0:
192,192,100972,1,0,0:0:0:0:
64,192,100972,1,0,0:0:0:0:
64,192,101088,1,0,0:0:0:0:
448,192,101205,1,0,0:0:0:0:
192,192,101243,1,0,0:0:0:0:
320,192,101282,1,0,0:0:0:0:
448,192,101437,1,0,0:0:0:0:
64,192,101437,1,0,0:0:0:0:
64,192,101553,1,0,0:0:0:0:
448,192,101669,1,0,0:0:0:0:
192,192,101699,1,0,0:0:0:0:
64,192,101747,1,0,0:0:0:0:
448,192,101824,1,0,0:0:0:0:
192,192,101902,1,0,0:0:0:0:
64,192,101902,1,0,0:0:0:0:
192,192,102018,1,0,0:0:0:0:
448,192,102134,1,0,0:0:0:0:
64,192,102163,1,0,0:0:0:0:
320,192,102193,1,0,0:0:0:0:
448,192,102251,1,0,0:0:0:0:
192,192,102251,1,0,0:0:0:0:
192,192,102367,1,0,0:0:0:0:
64,192,102367,1,0,0:0:0:0:
64,192,102483,1,0,0:0:0:0:
64,192,102599,1,0,0:0:0:0:
320,192,102638,1,0,0:0:0:0:
192,192,102687,1,0,0:0:0:0:
320,192,102754,1,0,0:0:0:0:
448,192,102832,1,0,0:0:0:0:
192,192,102832,1,0,0:0:0:0:
64,192,103035,1,0,0:0:0:0:
320,192,103064,1,0,0:0:0:0:
64,192,103151,1,0,0:0:0:0:
448,192,103297,1,0,0:0:0:0:
192,192,103297,1,0,0:0:0:0:
320,192,103348,1,0,0:0:0:0:
448,192,103442,1,0,0:0:0:0:
320,192,103529,1,0,0:0:0:0:
192,192,103529,1,0,0:0:0:0:
192,192,103684,1,0,0:0:0:0:
448,192,103762,1,0,0:0:0:0:
64,192,103762,1,0,0:0:0:0:
192,192,103828,1,0,0:0:0:0:
64,192,103917,1,0,0:0:0:0:
320,192,103994,1,0,0:0:0:0:
64,192,104072,1,0,0:0:0:0:
192,192,104110,1,0,0:0:0:0:
448,192,104227,1,0,0:0:0:0:
320,192,104227,1,0,0:0:0:0:
320,192,104343,1,0,0:0:0:0:
64,192,104459,1,0,0:0:0:0:
448,192,104488,1,0,0:0:0:0:
192,192,104537,1,0,0:0:0:0:
320,192,104588,1,0,0:0:0:0:
448,192,104640,1,0,0:0:0:0:
64,192,104692,1,0,0:0:0:0:
192,192,104692,1,0,0:0:0:0:
64,192,104808,1,0,0:0:0:0:
320,192,104924,1,0,0:0:0:0:
192,192,105002,1,0,0:0:0:0:
320,192,105079,1,0,0:0:0:0:
448,192,105157,1,0,0:0:0:0:
192,192,105157,1,0,0:0:0:0:
64,192,105360,1,0,0:0:0:0:
448,192,105389,1,0,0:0:0:0:
192,192,105436,1,0,0:0:0:0:
320,192,105467,1,0,0:0:0:0:
192,192,105534,1,0,0:0:0:0:
448,192,105622,1,0,0:0:0:0:
64,192,105622,1,0,0:0:0:0:
64,192,105738,1,0,0:0:0:0:
192,192,105893,1,0,0:0:0:0:
320,192,105931,1,0,0:0:0:0:
448,192,105970,1,0,0:0:0:0:
448,192,106086,1,0,0:0:0:0:
64,192,106086,1,0,0:0:0:0:
320,192,106125,1,0,0:0:0:0:
192,192,106203,1,0,0:0:0:0:
192,192,106319,5,0,0:0:0:0:
448,192,106358,1,0,0:0:0:0:
192,192,106551,1,0,0:0:0:0:
64,192,106551,1,0,0:0:0:0:
64,192,106668,1,0,0:0:0:0:
448,192,106784,1,0,0:0:0:0:
192,192,106842,1,0,0:0:0:0:
320,192,106900,1,0,0:0:0:0:
192,192,106958,1,0,0:0:0:0:
448,192,107016,1,0,0:0:0:0:
320,192,107016,1,0,0:0:0:0:
64,192,107055,1,0,0:0:0:0:
448,192,107149,1,0,0:0:0:0:
192,192,107249,1,0,0:0:0:0:
320,192,107295,1,0,0:0:0:0:
192,192,107365,1,0,0:0:0:0:
448,192,107481,1,0,0:0:0:0:
64,192,107516,5,0,0:0:0:0:
320,192,107567,1,0,0:0:0:0:
64,192,107619,1,0,0:0:0:0:
448,192,107670,1,0,0:0:0:0:
192,192,107719,1,0,0:0:0:0:
320,192,107777,1,0,0:0:0:0:
192,192,107825,1,0,0:0:0:0:
64,192,107864,1,0,0:0:0:0:
448,192,107864,1,0,0:0:0:0:
320,192,107951,1,0,0:0:0:0:
448,192,107980,1,0,0:0:0:0:
320,192,108072,1,0,0:0:0:0:
320,192,108186,1,0,0:0:0:0:
192,192,108212,1,0,0:0:0:0:
64,192,108405,1,0,0:0:0:0:
320,192,108444,1,0,0:0:0:0:
64,192,108531,1,0,0:0:0:0:
448,192,108637,1,0,0:0:0:0:
320,192,108676,1,0,0:0:0:0:
448,192,108763,1,0,0:0:0:0:
64,192,108879,1,0,0:0:0:0:
320,192,108908,1,0,0:0:0:0:
64,192,108974,1,0,0:0:0:0:
320,192,109040,1,0,0:0:0:0:
192,192,109082,1,0,0:0:0:0:
448,192,109140,1,0,0:0:0:0:
64,192,109169,1,0,0:0:0:0:
448,192,109256,1,0,0:0:0:0:
64,192,109343,1,0,0:0:0:0:
320,192,109401,1,0,0:0:0:0:
448,192,109438,1,0,0:0:0:0:
192,192,109488,1,0,0:0:0:0:
448,192,109546,1,0,0:0:0:0:
64,192,109604,1,0,0:0:0:0:
320,192,109662,1,0,0:0:0:0:
448,192,109720,1,0,0:0:0:0:
64,192,109720,1,0,0:0:0:0:
192,192,109807,1,0,0:0:0:0:
448,192,109836,1,0,0:0:0:0:
192,192,109923,1,0,0:0:0:0:
192,192,110029,1,0,0:0:0:0:
320,192,110068,1,0,0:0:0:0:
192,192,110261,1,0,0:0:0:0:
448,192,110300,1,0,0:0:0:0:
64,192,110416,1,0,0:0:0:0:
448,192,110503,1,0,0:0:0:0:
320,192,110532,1,0,0:0:0:0:
64,192,110561,1,0,0:0:0:0:
320,192,110764,1,0,0:0:0:0:
320,192,110815,1,0,0:0:0:0:
64,192,110867,1,0,0:0:0:0:
448,192,110918,1,0,0:0:0:0:
192,192,110957,1,0,0:0:0:0:
320,192,110996,1,0,0:0:0:0:
448,192,111073,1,0,0:0:0:0:
192,192,111228,1,0,0:0:0:0:
192,192,111286,1,0,0:0:0:0:
448,192,111331,1,0,0:0:0:0:
320,192,111382,1,0,0:0:0:0:
64,192,111434,1,0,0:0:0:0:
320,192,111486,1,0,0:0:0:0:
448,192,111518,1,0,0:0:0:0:
64,192,111576,1,0,0:0:0:0:
320,192,111576,1,0,0:0:0:0:
192,192,111663,1,0,0:0:0:0:
64,192,111692,1,0,0:0:0:0:
192,192,111785,1,0,0:0:0:0:
192,192,111898,1,0,0:0:0:0:
320,192,111924,1,0,0:0:0:0:
448,192,112117,1,0,0:0:0:0:
192,192,112156,1,0,0:0:0:0:
448,192,112243,1,0,0:0:0:0:
64,192,112349,1,0,0:0:0:0:
192,192,112388,1,0,0:0:0:0:
64,192,112475,1,0,0:0:0:0:
448,192,112591,1,0,0:0:0:0:
192,192,112620,1,0,0:0:0:0:
448,192,112686,1,0,0:0:0:0:
192,192,112752,1,0,0:0:0:0:
320,192,112794,1,0,0:0:0:0:
64,192,112852,1,0,0:0:0:0:
448,192,112881,1,0,0:0:0:0:
64,192,112968,1,0,0:0:0:0:
448,192,113055,1,0,0:0:0:0:
192,192,113113,1,0,0:0:0:0:
64,192,113150,1,0,0:0:0:0:
320,192,113200,1,0,0:0:0:0:
64,192,113270,1,0,0:0:0:0:
448,192,113316,1,0,0:0:0:0:
192,192,113374,1,0,0:0:0:0:
448,192,113432,1,0,0:0:0:0:
64,192,113432,1,0,0:0:0:0:
320,192,113519,1,0,0:0:0:0:
64,192,113548,1,0,0:0:0:0:
320,192,113635,1,0,0:0:0:0:
320,192,113741,1,0,0:0:0:0:
192,192,113780,1,0,0:0:0:0:
320,192,113973,1,0,0:0:0:0:
64,192,114012,1,0,0:0:0:0:
448,192,114128,1,0,0:0:0:0:
64,192,114215,1,0,0:0:0:0:
192,192,114244,1,0,0:0:0:0:
448,192,114273,1,0,0:0:0:0:
192,192,114476,1,0,0:0:0:0:
192,192,114528,1,0,0:0:0:0:
448,192,114579,1,0,0:0:0:0:
64,192,114631,1,0,0:0:0:0:
320,192,114669,1,0,0:0:0:0:
192,192,114708,1,0,0:0:0:0:
64,192,114785,1,0,0:0:0:0:
320,192,114940,1,0,0:0:0:0:
320,192,114998,1,0,0:0:0:0:
64,192,115043,1,0,0:0:0:0:
192,192,115095,1,0,0:0:0:0:
448,192,115146,1,0,0:0:0:0:
192,192,115198,1,0,0:0:0:0:
320,192,115230,1,0,0:0:0:0:
64,192,115288,1,0,0:0:0:0:
64,192,115520,1,0,0:0:0:0:
448,192,115520,1,0,0:0:0:0:
192,192,115636,1,0,0:0:0:0:
448,192,115636,1,0,0:0:0:0:
320,192,115868,1,0,0:0:0:0:
320,192,115984,1,0,0:0:0:0:
64,192,116100,1,0,0:0:0:0:
192,192,116100,1,0,0:0:0:0:
192,192,116332,1,0,0:0:0:0:
448,192,116371,1,0,0:0:0:0:
192,192,116564,1,0,0:0:0:0:
64,192,116564,1,0,0:0:0:0:
448,192,116680,1,0,0:0:0:0:
64,192,116738,1,0,0:0:0:0:
448,192,116796,1,0,0:0:0:0:
192,192,116863,1,0,0:0:0:0:
448,192,116951,1,0,0:0:0:0:
64,192,117028,1,0,0:0:0:0:
320,192,117067,1,0,0:0:0:0:
192,192,117106,1,0,0:0:0:0:
320,192,117157,1,0,0:0:0:0:
448,192,117194,1,0,0:0:0:0:
64,192,117260,1,0,0:0:0:0:
64,192,117376,1,0,0:0:0:0:
320,192,117415,1,0,0:0:0:0:
64,192,117492,1,0,0:0:0:0:
448,192,117539,1,0,0:0:0:0:
192,192,117579,1,0,0:0:0:0:
320,192,117637,1,0,0:0:0:0:
192,192,117686,1,0,0:0:0:0:
448,192,117724,1,0,0:0:0:0:
448,192,117840,1,0,0:0:0:0:
192,192,117879,1,0,0:0:0:0:
448,192,117956,1,0,0:0:0:0:
64,192,118003,1,0,0:0:0:0:
320,192,118043,1,0,0:0:0:0:
192,192,118101,1,0,0:0:0:0:
320,192,118150,1,0,0:0:0:0:
64,192,118188,1,0,0:0:0:0:
64,192,118304,1,0,0:0:0:0:
320,192,118343,1,0,0:0:0:0:
64,192,118420,1,0,0:0:0:0:
448,192,118467,1,0,0:0:0:0:
192,192,118507,1,0,0:0:0:0:
320,192,118565,1,0,0:0:0:0:
192,192,118614,1,0,0:0:0:0:
64,192,119000,1,0,0:0:0:0:
64,192,119232,1,0,0:0:0:0:
192,192,119348,1,0,0:0:0:0:
448,192,119348,1,0,0:0:0:0:
192,192,119464,1,0,0:0:0:0:
64,192,119522,1,0,0:0:0:0:
320,192,119580,1,0,0:0:0:0:
320,192,119696,1,0,0:0:0:0:
192,192,119812,1,0,0:0:0:0:
448,192,119812,1,0,0:0:0:0:
192,192,119928,1,0,0:0:0:0:
64,192,120074,1,0,0:0:0:0:
320,192,120122,1,0,0:0:0:0:
192,192,120277,1,0,0:0:0:0:
64,192,120277,1,0,0:0:0:0:
448,192,120393,1,0,0:0:0:0:
64,192,120451,1,0,0:0:0:0:
448,192,120509,1,0,0:0:0:0:
192,192,120575,1,0,0:0:0:0:
448,192,120663,1,0,0:0:0:0:
64,192,120779,1,0,0:0:0:0:
320,192,120818,1,0,0:0:0:0:
192,192,120869,1,0,0:0:0:0:
448,192,120906,1,0,0:0:0:0:
64,192,120973,1,0,0:0:0:0:
64,192,121089,1,0,0:0:0:0:
320,192,121127,1,0,0:0:0:0:
64,192,121205,1,0,0:0:0:0:
448,192,121251,1,0,0:0:0:0:
192,192,121292,1,0,0:0:0:0:
320,192,121350,1,0,0:0:0:0:
192,192,121398,1,0,0:0:0:0:
448,192,121437,1,0,0:0:0:0:
448,192,121553,1,0,0:0:0:0:
192,192,121591,1,0,0:0:0:0:
448,192,121669,1,0,0:0:0:0:
64,192,121715,1,0,0:0:0:0:
320,192,121756,1,0,0:0:0:0:
192,192,121814,1,0,0:0:0:0:
320,192,121862,1,0,0:0:0:0:
64,192,121901,1,0,0:0:0:0:
64,192,122017,1,0,0:0:0:0:
64,192,122162,1,0,0:0:0:0:
448,192,122162,1,0,0:0:0:0:
