osu file format v14

[General]
AudioFilename: Birdy - Wings (NuLogic Remix).mp3
AudioLeadIn: 0
PreviewTime: 89997
Countdown: 1
SampleSet: Soft
StackLeniency: 0.7
Mode: 0
LetterboxInBreaks: 1
WidescreenStoryboard: 1

[Editor]
Bookmarks: 2585,24826,34482,41378,80004,88963,102066,113107,133101,168273,179314,201377,221383,223446,267583,311721,355859
DistanceSpacing: 0.8
BeatDivisor: 4
GridSize: 4
TimelineZoom: 2.099999

[Metadata]
Title:Wings (Nu:Logic Remix)
TitleUnicode:Wings (Nu:Logic Remix)
Artist:Birdy
ArtistUnicode:Birdy
Creator:Secretpipe
Version:Freedom
Source:
Tags:drum and bass dnb collab EvilElvis Aka ProfessionalBox Frey Zetera Hula Sala-
BeatmapID:710881
BeatmapSetID:319375

[Difficulty]
HPDrainRate:7
CircleSize:4
OverallDifficulty:7.5
ApproachRate:9.2
SliderMultiplier:1.8
SliderTickRate:1

[Events]
//Background and Video events
0,0,"secretbase.jpg",0,0
//Break Periods
2,47095,57699
2,201578,217360
//Storyboard Layer 0 (Background)
//Storyboard Layer 1 (Fail)
//Storyboard Layer 2 (Pass)
//Storyboard Layer 3 (Foreground)
//Storyboard Sound Samples

[TimingPoints]
2758,344.827586206897,4,2,0,50,1,0
2758,-166.666666666667,4,2,0,50,0,0
24826,-166.666666666667,4,2,0,55,0,0
46120,-166.666666666667,4,2,0,63,0,0
46206,-166.666666666667,4,2,0,53,0,0
46292,-166.666666666667,4,2,0,63,0,0
46378,-166.666666666667,4,2,0,53,0,0
58269,352.941176470588,4,2,0,50,1,0
58269,-200,4,2,0,50,0,0
58621,344.827586206897,4,2,0,50,1,0
59310,344.827586206897,4,2,0,50,1,0
59999,-200,4,2,0,50,0,0
61034,-200,4,2,0,30,0,0
61378,-200,4,2,0,30,0,0
67585,-200,4,2,0,35,0,0
68965,-133.333333333333,4,2,0,40,0,0
69827,-133.333333333333,4,2,0,33,0,0
71378,-133.333333333333,4,2,0,13,0,0
71723,-133.333333333333,4,2,0,33,0,0
82758,-133.333333333333,4,2,0,35,0,0
90344,-100,4,2,0,40,0,0
91034,-100,4,2,0,65,0,1
91120,-100,4,2,0,55,0,0
102068,-100,4,2,0,55,0,0
113103,-100,4,2,0,65,0,1
113189,-100,4,2,0,55,0,0
133103,-100,4,2,0,37,0,0
133447,-100,4,2,0,39,0,0
133792,-100,4,2,0,41,0,0
134137,-100,4,2,0,43,0,0
134482,-100,4,2,0,44,0,0
134827,-100,4,2,0,45,0,0
135172,-100,4,2,0,55,0,1
135258,-100,4,2,0,60,0,0
157241,-100,4,2,0,70,0,1
157327,-100,4,2,0,60,0,0
179310,-100,4,2,0,50,0,0
217930,-100,4,2,0,35,0,0
222758,-100,4,2,0,40,0,0
223447,-100,4,1,0,65,0,1
223534,-100,4,1,0,55,0,0
267585,-100,4,2,0,40,0,0
310344,-100,4,3,0,40,0,0
311723,-100,4,2,0,40,0,0
333792,-100,4,2,0,40,0,1
355861,-100,4,2,0,40,0,0

[Colours]
Combo1 : 206,173,72
Combo2 : 155,107,220
Combo3 : 60,137,242
Combo4 : 78,154,133

[HitObjects]
108,196,2758,6,0,L|116:140,1,53.9999983520508,0|0,1:0|0:0,0:0:0:0:
188,64,3102,1,8,0:2:0:0:
257,136,3275,1,0,0:0:0:0:
274,143,3361,1,0,0:0:0:0:
292,147,3447,1,0,0:0:0:0:
310,148,3533,1,0,0:0:0:0:
328,146,3620,1,0,1:0:0:0:
421,78,3792,2,0,L|495:83,1,53.9999983520508,8|0,0:2|0:0,0:0:0:0:
400,215,4137,5,0,1:0:0:0:
480,252,4309,1,0,0:0:0:0:
364,310,4482,2,0,L|301:303,1,53.9999983520508,8|0,0:2|0:0,0:0:0:0:
291,300,4740,1,0,0:0:0:0:
272,297,4826,1,0,0:0:0:0:
215,233,4999,1,0,1:0:0:0:
132,330,5171,2,0,L|144:385,1,53.9999983520508,8|0,0:2|0:0,0:0:0:0:
16,251,5516,6,0,L|29:188,1,53.9999983520508,0|0,1:0|0:0,0:0:0:0:
5,104,5861,1,8,0:2:0:0:
80,43,6033,1,0,0:0:0:0:
98,40,6120,1,0,0:0:0:0:
116,39,6206,1,0,0:0:0:0:
134,41,6292,1,0,0:0:0:0:
152,46,6378,1,0,1:0:0:0:
208,107,6551,1,8,0:2:0:0:
286,67,6723,1,0,0:0:0:0:
376,156,6895,6,0,L|369:213,1,53.9999983520508,0|0,1:0|0:0,0:0:0:0:
303,268,7240,1,8,0:2:0:0:
217,223,7413,1,0,0:0:0:0:
217,223,7499,1,0,0:0:0:0:
217,223,7585,1,0,0:0:0:0:
80,295,7758,1,0,1:0:0:0:
120,148,7930,1,8,0:2:0:0:
47,202,8102,1,0,0:0:0:0:
174,308,8275,6,0,L|166:370,1,53.9999983520508,0|0,1:0|0:0,0:0:0:0:
303,268,8620,1,8,0:2:0:0:
287,170,8792,1,0,0:0:0:0:
292,152,8878,1,0,0:0:0:0:
296,134,8964,1,0,0:0:0:0:
300,116,9051,1,0,0:0:0:0:
304,98,9137,1,0,1:0:0:0:
401,46,9309,2,0,P|430:43|461:33,1,53.9999983520508,8|0,0:2|0:0,0:0:0:0:
511,158,9654,5,0,1:0:0:0:
423,139,9826,1,0,0:0:0:0:
374,215,9999,1,8,0:2:0:0:
438,279,10171,1,0,0:0:0:0:
441,297,10258,1,0,0:0:0:0:
441,315,10344,1,0,0:0:0:0:
439,333,10430,1,0,0:0:0:0:
433,350,10516,1,0,1:0:0:0:
316,301,10689,1,8,0:2:0:0:
240,344,10861,1,0,0:0:0:0:
132,251,11033,6,0,L|143:197,1,53.9999983520508,0|0,1:0|0:0,0:0:0:0:
188,120,11378,1,8,0:2:0:0:
268,66,11551,1,0,0:0:0:0:
286,63,11637,1,0,0:0:0:0:
304,63,11723,1,0,0:0:0:0:
322,65,11809,1,0,0:0:0:0:
339,71,11895,1,0,1:0:0:0:
406,135,12068,1,8,0:2:0:0:
360,288,12240,1,0,0:0:0:0:
360,288,12326,1,0,0:0:0:0:
360,288,12413,6,0,L|296:293,1,53.9999983520508,2|0,1:2|0:0,0:0:0:0:
231,344,12758,2,0,L|177:339,1,53.9999983520508,8|0,0:2|0:0,0:0:0:0:
142,332,13016,1,0,0:0:0:0:
107,324,13102,1,0,0:0:0:0:
98,234,13275,1,2,1:2:0:0:
52,134,13447,1,8,0:2:0:0:
0,213,13620,1,0,0:0:0:0:
147,144,13792,6,0,P|179:142|213:132,1,53.9999983520508,0|0,1:0|0:0,0:0:0:0:
324,112,14137,1,8,0:2:0:0:
415,112,14309,2,0,L|440:72,2,26.9999991760254
369,191,14654,1,0,1:0:0:0:
260,178,14826,1,8,0:2:0:0:
303,259,14999,1,0,0:0:0:0:
163,275,15171,5,0,1:0:0:0:
242,328,15344,1,0,0:0:0:0:
176,191,15516,1,8,0:2:0:0:
175,63,15689,1,0,0:0:0:0:
190,54,15775,1,0,0:0:0:0:
207,47,15861,1,0,0:0:0:0:
225,43,15947,1,0,0:0:0:0:
243,43,16033,1,0,1:0:0:0:
365,118,16206,2,0,L|365:194,1,53.9999983520508,8|0,0:2|0:0,0:0:0:0:
429,238,16551,6,0,P|399:226|313:249,1,107.999996704102,0|8,1:0|0:2,0:0:0:0:
197,293,17068,1,0,0:0:0:0:
180,296,17154,1,0,0:0:0:0:
160,296,17240,1,0,0:0:0:0:
62,280,17413,1,0,1:0:0:0:
116,208,17585,1,8,0:2:0:0:
34,95,17758,1,0,0:0:0:0:
116,127,17930,6,0,P|174:102|236:116,1,107.999996704102,0|8,1:0|0:2,0:0:0:0:
358,124,18447,2,0,L|384:81,2,26.9999991760254
264,174,18792,1,0,1:0:0:0:
244,273,18964,1,8,0:2:0:0:
342,229,19137,1,0,0:0:0:0:
176,113,19309,6,0,P|115:107|70:144,1,107.999996704102,0|8,1:0|0:2,0:0:0:0:
22,307,19826,1,0,0:0:0:0:
40,312,19913,1,0,0:0:0:0:
58,316,19999,1,0,0:0:0:0:
76,320,20085,1,0,0:0:0:0:
94,324,20171,1,0,1:0:0:0:
227,351,20344,2,0,P|259:351|304:361,1,53.9999983520508,8|0,0:2|0:0,0:0:0:0:
400,304,20689,5,0,1:0:0:0:
443,169,20861,1,0,0:0:0:0:
345,206,21033,1,8,0:2:0:0:
318,108,21206,1,0,0:0:0:0:
297,100,21292,1,0,0:0:0:0:
277,100,21378,1,0,0:0:0:0:
259,108,21464,1,0,0:0:0:0:
242,117,21551,2,0,P|218:123|174:114,1,53.9999983520508,0|8,1:0|0:2,0:0:0:0:
87,96,21895,1,0,0:0:0:0:
108,185,22068,6,0,P|112:212|112:239,1,53.9999983520508,0|0,1:0|0:0,0:0:0:0:
103,330,22413,1,8,0:2:0:0:
215,309,22585,1,0,0:0:0:0:
230,298,22671,1,0,0:0:0:0:
248,292,22758,1,0,0:0:0:0:
266,291,22844,1,0,0:0:0:0:
284,293,22930,1,0,1:0:0:0:
401,332,23102,2,0,P|400:298|403:266,1,53.9999983520508,8|0,0:2|0:0,0:0:0:0:
492,200,23447,6,2,P|449:204|365:194,1,107.999996704102,2|2,1:2|0:0,0:0:0:0:
299,137,23964,1,2,0:0:0:0:
306,120,24050,1,0,0:0:0:0:
310,102,24137,1,2,0:0:0:0:
311,84,24223,1,0,0:0:0:0:
309,66,24309,1,2,0:2:0:0:
216,92,24482,1,2,0:2:0:0:
392,116,24654,1,0,0:0:0:0:
264,256,24826,6,0,P|263:282|267:309,2,53.9999983520508,6|2|10,1:2|0:0|0:2,0:0:0:0:
212,164,25344,2,0,L|166:162,2,26.9999991760254,2|0|2,0:0|0:0|0:0,0:0:0:0:
299,137,25689,1,2,1:2:0:0:
320,47,25861,1,10,0:2:0:0:
392,102,26033,1,2,0:0:0:0:
225,75,26206,6,0,P|206:107|199:145,2,53.9999983520508,2|2|10,1:2|0:0|0:2,0:0:0:0:
136,49,26723,1,2,0:0:0:0:
123,66,26809,1,0,0:0:0:0:
114,85,26895,1,2,0:0:0:0:
108,105,26982,1,0,0:0:0:0:
102,125,27068,1,2,1:2:0:0:
97,251,27240,1,10,0:2:0:0:
19,195,27413,1,2,0:2:0:0:
193,232,27585,6,0,P|179:196|155:168,2,53.9999983520508,2|2|10,1:2|0:2|0:2,0:0:0:0:
249,344,28102,1,2,0:2:0:0:
270,346,28189,1,0,0:0:0:0:
291,341,28275,1,2,0:2:0:0:
310,331,28361,1,0,0:0:0:0:
326,317,28447,2,0,P|325:278|337:240,1,53.9999983520508,2|10,1:2|0:2,0:0:0:0:
408,203,28792,1,2,0:0:0:0:
320,136,28964,6,0,P|280:140|241:135,1,53.9999983520508,2|2,1:2|0:2,0:0:0:0:
158,208,29309,2,0,P|195:204|231:211,1,53.9999983520508,10|0,0:2|0:2,0:0:0:0:
246,209,29568,1,0,0:0:0:0:
280,216,29654,1,0,0:0:0:0:
336,300,29826,1,2,1:2:0:0:
255,344,29999,1,8,0:2:0:0:
198,271,30171,1,0,0:0:0:0:
143,196,30344,6,0,P|148:160|140:117,1,53.9999983520508,2|2,1:2|0:0,0:0:0:0:
195,65,30689,2,0,P|230:66|271:53,1,53.9999983520508,2|2,0:2|0:2,0:0:0:0:
283,56,30947,1,0,0:0:0:0:
304,52,31033,1,2,0:2:0:0:
325,50,31120,1,0,0:0:0:0:
346,53,31206,1,2,1:2:0:0:
458,113,31378,2,0,P|452:149|453:189,1,53.9999983520508,10|2,0:2|0:0,0:0:0:0:
370,228,31723,6,0,P|372:190|369:153,2,53.9999983520508,2|2|10,1:2|0:0|0:2,0:0:0:0:
337,321,32240,1,2,0:2:0:0:
319,333,32326,1,0,0:0:0:0:
297,338,32413,1,2,0:2:0:0:
275,338,32499,1,0,0:0:0:0:
254,332,32585,2,0,P|249:294|256:253,1,53.9999983520508,2|8,1:2|0:2,0:0:0:0:
230,169,32930,1,2,0:2:0:0:
138,179,33102,5,2,1:2:0:0:
111,267,33275,1,2,0:2:0:0:
45,203,33447,1,8,0:2:0:0:
67,113,33620,2,0,L|56:65,2,26.9999991760254
138,179,33964,1,0,1:0:0:0:
157,88,34137,1,8,0:0:0:0:
230,169,34309,1,0,0:0:0:0:
288,260,34482,6,0,P|264:280|232:288,2,53.9999983520508,2|0|10,1:2|0:0|0:0,0:0:0:0:
348,192,34999,1,0,0:0:0:0:
360,176,35085,1,0,0:0:0:0:
372,160,35171,1,0,0:0:0:0:
384,144,35258,1,0,0:0:0:0:
396,128,35344,1,2,1:2:0:0:
472,164,35516,2,0,L|428:228,1,53.9999983520508,10|2,0:0|0:2,0:0:0:0:
344,288,35861,6,0,L|288:279,1,53.9999983520508,6|0,1:2|0:0,0:0:0:0:
212,207,36206,1,10,0:2:0:0:
284,138,36378,1,2,0:0:0:0:
291,121,36464,1,0,0:0:0:0:
295,103,36551,1,2,0:0:0:0:
296,85,36637,1,0,0:0:0:0:
294,67,36723,1,2,0:2:0:0:
197,61,36895,2,0,P|184:97|185:121,1,53.9999983520508,10|2,0:2|0:0,0:0:0:0:
212,207,37240,6,0,P|185:209|160:220,2,53.9999983520508,2|0|10,1:2|0:0|0:0,0:0:0:0:
308,223,37758,1,2,0:0:0:0:
326,225,37844,1,0,0:0:0:0:
344,224,37930,1,2,0:0:0:0:
362,220,38016,1,0,0:0:0:0:
379,213,38102,1,2,1:2:0:0:
457,138,38275,2,0,L|454:73,1,53.9999983520508,10|2,0:0|0:0,0:0:0:0:
379,30,38620,5,2,1:2:0:0:
323,143,38792,1,2,0:0:0:0:
284,59,38964,2,0,L|221:52,1,53.9999983520508,10|0,0:0|0:0,0:0:0:0:
211,49,39223,1,0,0:0:0:0:
192,46,39309,1,2,0:0:0:0:
102,69,39482,1,2,1:2:0:0:
61,151,39654,2,0,P|71:183|73:206,1,53.9999983520508,10|2,0:0|0:0,0:0:0:0:
143,307,39999,6,0,P|146:276|156:244,1,53.9999983520508,2|0,1:2|0:0,0:0:0:0:
246,197,40344,1,10,0:2:0:0:
205,115,40516,1,0,0:0:0:0:
223,111,40602,1,0,0:0:0:0:
240,109,40689,1,0,0:0:0:0:
259,110,40775,1,0,0:0:0:0:
277,114,40861,1,2,1:2:0:0:
361,211,41033,1,8,0:2:0:0:
408,96,41206,1,2,0:2:0:0:
449,207,41378,6,0,L|442:264,1,53.9999983520508,6|2,1:2|0:2,0:0:0:0:
376,319,41723,1,10,0:2:0:0:
283,267,41895,1,2,0:0:0:0:
266,260,41982,1,0,0:0:0:0:
248,256,42068,1,2,0:0:0:0:
230,255,42154,1,0,0:0:0:0:
212,257,42240,1,2,1:2:0:0:
87,286,42413,2,0,P|80:318|82:363,1,53.9999983520508,10|2,0:2|0:0,0:0:0:0:
39,223,42758,6,0,P|46:191|44:145,1,53.9999983520508,2|2,1:2|0:2,0:0:0:0:
63,79,43102,1,10,0:2:0:0:
147,42,43275,2,0,L|154:4,2,26.9999991760254,2|0|2,0:2|0:0|0:2,0:0:0:0:
136,133,43620,1,2,1:2:0:0:
174,216,43792,1,10,0:2:0:0:
256,178,43964,1,2,0:2:0:0:
339,139,44137,5,2,1:2:0:0:
427,120,44309,1,2,0:2:0:0:
476,196,44482,1,8,0:2:0:0:
412,260,44654,1,0,0:0:0:0:
409,278,44740,1,0,0:0:0:0:
409,296,44826,1,0,0:0:0:0:
411,314,44913,1,0,0:0:0:0:
417,331,44999,1,0,1:0:0:0:
498,288,45171,1,8,0:2:0:0:
476,196,45344,1,0,0:0:0:0:
427,120,45516,5,0,1:0:0:0:
308,44,45689,1,0,0:0:0:0:
333,133,45861,1,10,0:2:0:0:
240,108,46033,1,0,0:0:0:0:
216,135,46120,1,0,3:0:0:0:
203,169,46206,1,0,0:0:0:0:
202,205,46292,1,0,3:0:0:0:
209,241,46378,1,2,1:2:0:0:
249,323,46551,2,0,P|279:321|316:323,1,53.9999983520508,8|0,0:2|1:0,0:0:0:0:
448,336,46895,5,4,0:1:0:0:
344,284,58269,6,0,P|296:281|241:285,1,90,2|2,0:0|0:0,0:0:0:0:
165,298,58965,1,2,0:0:0:0:
95,241,59310,1,2,0:0:0:0:
126,156,59654,1,2,0:0:0:0:
216,136,59999,2,0,P|153:61|79:77,1,180,2|0,0:2|0:0,0:0:0:0:
36,153,61034,6,0,P|41:207|40:242,1,90,2|2,0:0|0:0,0:0:0:0:
138,321,61723,2,0,P|137:276|141:231,1,90,2|2,0:2|0:2,0:0:0:0:
180,149,62413,1,2,0:2:0:0:
264,117,62758,2,0,B|329:109|329:109|373:121|373:121|441:113,2,180,2|0|0,0:2|0:0|0:0,0:0:0:0:
180,149,64482,1,0,0:0:0:0:
138,228,64827,6,0,P|128:279|136:322,1,90
209,365,65516,2,0,P|260:375|303:367,1,90
366,311,66206,2,0,P|371:266|361:222,1,90
309,149,66896,2,0,B|264:152|244:104|244:104|199:130|155:98,2,180,0|2|2,0:0|0:0|0:0,0:0:0:0:
391,186,68620,1,0,0:0:0:0:
320,241,68965,5,6,1:2:0:0:
16,96,69827,6,0,P|56:92|100:100,1,67.5000025749208,0|0,1:0|0:0,0:0:0:0:
216,120,70344,1,0,1:0:0:0:
476,336,71206,2,0,P|436:340|392:332,1,67.5000025749208,0|0,1:0|1:0,0:0:0:0:
276,316,71723,1,0,1:0:0:0:
144,284,72068,6,0,L|160:140,1,135.000005149842
176,28,72585,1,0,1:0:0:0:
276,164,72758,1,0,1:0:0:0:
276,164,73102,2,0,L|261:298,1,135.000005149842
456,316,73965,2,0,L|465:226,1,67.5000025749208,0|0,1:0|1:0,0:0:0:0:
472,160,74309,1,0,0:0:0:0:
392,196,74482,1,0,1:0:0:0:
372,64,74827,6,0,B|309:37|252:96|252:96|200:36|129:61,1,270.000010299683,0|2,1:0|1:2,0:0:0:0:
24,146,75861,1,0,1:0:0:0:
43,279,76206,1,0,1:0:0:0:
146,191,76551,2,0,P|158:234|156:277,1,67.5000025749208,0|0,0:0|1:0,0:0:0:0:
224,350,76896,2,0,P|226:316|236:284,1,67.5000025749208,0|0,1:0|0:0,0:0:0:0:
268,204,77240,1,2,1:2:0:0:
402,219,77585,6,0,P|379:282|371:349,2,135.000005149842,0|0|2,1:0|1:0|1:2,0:0:0:0:
440,92,78620,1,0,1:0:0:0:
308,68,78965,1,0,1:0:0:0:
268,204,79309,2,0,P|230:202|184:215,1,67.5000025749208,0|0,0:0|1:0,0:0:0:0:
111,137,79654,2,0,P|149:139|195:126,1,67.5000025749208,0|0,1:0|0:0,0:0:0:0:
279,97,79999,1,0,1:3:0:0:
441,162,80344,6,0,P|448:232|429:303,2,135.000005149842,2|0|2,0:3|0:0|0:3,0:0:0:0:
279,97,81378,2,0,P|212:93|131:116,1,135.000005149842,0|2,1:0|0:3,0:0:0:0:
23,166,82068,1,2,0:2:0:0:
271,271,82758,1,0,1:0:0:0:
271,271,83102,6,0,P|202:273|125:285,2,135.000005149842,2|0|2,0:3|0:0|0:3,0:0:0:0:
406,271,84137,1,0,1:0:0:0:
456,145,84482,1,2,0:3:0:0:
322,166,84827,2,0,P|288:162|241:171,2,67.5000025749208,0|0|2,0:0|0:0|0:3,0:0:0:0:
148,188,85516,6,0,P|144:154|153:107,3,67.5000025749208,0|0|0|0,3:0|3:0|3:0|3:0,3:0:0:0:
96,28,86206,2,0,P|62:24|15:33,3,67.5000025749208,0|0|0|0,3:0|3:0|3:0|3:0,3:0:0:0:
208,32,86896,2,0,P|242:28|289:37,3,67.5000025749208,0|0|0|0,3:0|3:0|3:0|3:0,3:0:0:0:
356,112,87585,2,0,P|360:146|351:193,3,67.5000025749208,0|0|0|0,3:0|3:0|3:0|3:0,3:0:0:0:
264,296,88275,6,0,L|260:344,7,33.7500012874604,0|0|0|0|0|0|0|0,3:2|3:2|3:2|3:2|3:2|3:2|3:2|3:2,3:2:0:0:
168,268,88965,2,0,L|165:234,6,33.7500012874604,0|0|0|0|0|0|0,3:2|3:2|3:2|3:2|3:2|3:2|3:2,3:2:0:0:
72,316,89568,2,0,L|69:350,4,33.7500012874604,0|0|0|0|0,3:2|3:2|3:2|3:2|3:2,3:2:0:0:
74,296,89999,5,4,3:3:0:0:
72,285,90085,1,4,3:3:0:0:
71,274,90171,1,4,3:3:0:0:
71,260,90258,1,4,3:3:0:0:
75,244,90344,1,4,3:3:0:0:
84,227,90430,1,4,3:3:0:0:
101,214,90516,1,4,3:3:0:0:
124,208,90602,1,4,3:3:0:0:
151,210,90689,1,4,3:3:0:0:
176,225,90775,1,4,3:3:0:0:
205,237,90861,1,4,3:3:0:0:
239,239,90947,1,4,3:3:0:0:
275,228,91033,6,0,P|301:186|308:139,1,90,4|0,1:1|0:0,0:0:0:0:
280,11,91378,1,8,0:2:0:0:
459,81,91551,1,2,0:2:0:0:
454,112,91637,1,0,0:0:0:0:
449,143,91723,1,2,0:2:0:0:
492,240,91896,1,2,1:2:0:0:
343,125,92068,1,8,0:2:0:0:
297,240,92240,1,0,0:0:0:0:
238,76,92413,6,0,P|189:72|143:92,1,90,4|0,1:2|0:0,0:0:0:0:
12,152,92758,1,8,0:2:0:0:
55,298,92930,1,0,0:0:0:0:
83,310,93016,1,0,0:0:0:0:
113,314,93102,1,0,0:0:0:0:
144,311,93189,1,0,0:0:0:0:
174,305,93275,1,0,1:0:0:0:
360,200,93447,2,0,L|381:103,1,90,8|0,0:2|0:0,0:0:0:0:
371,316,93792,6,0,P|416:337|458:334,2,90,0|0|8,1:0|0:0|2:0,0:0:0:0:
301,251,94310,1,0,2:1:0:0:
271,245,94396,1,0,0:0:0:0:
240,242,94483,1,0,0:0:0:0:
210,246,94569,1,0,0:0:0:0:
182,258,94655,1,0,1:1:0:0:
236,336,94827,1,8,2:2:0:0:
408,208,94999,1,0,2:1:0:0:
301,251,95171,5,0,1:0:0:0:
239,45,95344,1,0,0:0:0:0:
182,258,95516,1,8,0:2:0:0:
80,93,95689,1,0,0:0:0:0:
324,132,95861,1,0,0:0:0:0:
324,132,95947,1,0,0:0:0:0:
324,132,96033,1,0,1:0:0:0:
202,268,96206,2,0,P|209:311|232:351,1,90,8|0,0:2|0:0,0:0:0:0:
453,188,96551,5,0,1:0:0:0:
412,26,96723,1,0,0:0:0:0:
412,26,96809,1,0,0:0:0:0:
412,26,96896,1,8,0:2:0:0:
237,132,97068,1,0,0:0:0:0:
453,188,97240,2,0,L|442:290,1,90,0|0,0:0|1:0,0:0:0:0:
237,132,97585,2,0,L|225:23,1,90,8|0,0:2|0:0,0:0:0:0:
186,297,97930,6,0,P|117:334|58:329,1,135,0|0,1:0|0:0,0:0:0:0:
37,312,98275,2,0,L|23:221,1,90,8|0,0:2|0:0,0:0:0:0:
81,104,98620,1,0,0:0:0:0:
272,218,98792,1,0,1:0:0:0:
302,211,98878,1,0,0:0:0:0:
332,204,98965,1,8,0:2:0:0:
180,174,99137,1,0,0:0:0:0:
392,91,99309,6,0,P|441:102|479:130,1,90,0|0,1:0|0:0,0:0:0:0:
262,23,99654,2,0,P|217:44|153:47,1,90,8|0,0:2|0:0,0:0:0:0:
47,17,99999,1,0,0:0:0:0:
109,230,100171,1,0,1:0:0:0:
243,120,100344,2,0,L|341:133,1,90,8|0,0:2|0:0,0:0:0:0:
109,230,100689,6,0,P|73:176|80:105,1,135,0|0,1:0|0:0,0:0:0:0:
101,84,101033,2,0,L|195:72,1,90,8|0,0:2|0:0,0:0:0:0:
259,207,101378,1,0,0:0:0:0:
346,27,101551,1,0,1:0:0:0:
346,27,101637,1,0,0:0:0:0:
346,27,101723,1,8,0:2:0:0:
430,84,101896,1,0,0:0:0:0:
259,207,102068,6,0,P|267:253|293:290,1,90,2|0,1:2|0:0,0:0:0:0:
375,322,102413,1,8,0:2:0:0:
148,114,102585,1,0,0:0:0:0:
139,135,102671,1,0,0:0:0:0:
132,156,102758,2,0,L|146:224,2,45,0|0|0,0:0|0:0|1:0,0:0:0:0:
57,77,103102,1,8,0:2:0:0:
43,240,103275,1,0,0:0:0:0:
43,240,103361,1,0,0:0:0:0:
43,240,103447,6,0,L|65:336,1,90,0|0,1:0|0:0,0:0:0:0:
232,210,103792,2,0,P|243:158|232:96,1,90,8|0,0:2|0:0,0:0:0:0:
160,48,104137,1,0,0:0:0:0:
136,50,104223,1,0,0:0:0:0:
113,52,104309,1,0,1:0:0:0:
358,116,104482,1,8,0:2:0:0:
119,162,104654,2,0,L|139:219,1,45
111,235,104827,6,0,P|49:230|17:190,1,90,0|0,1:0|0:0,0:0:0:0:
190,316,105171,1,8,0:2:0:0:
215,206,105344,1,0,0:0:0:0:
209,184,105430,1,0,0:0:0:0:
206,161,105516,1,0,0:0:0:0:
205,138,105602,1,0,0:0:0:0:
209,116,105689,1,0,1:0:0:0:
349,201,105861,2,0,L|338:306,1,90,8|0,0:2|0:0,0:0:0:0:
336,313,106120,1,0,0:0:0:0:
333,335,106206,5,0,1:0:0:0:
221,224,106378,1,0,0:0:0:0:
360,182,106551,1,8,0:2:0:0:
183,366,106723,1,0,0:0:0:0:
160,368,106809,1,0,0:0:0:0:
137,367,106896,1,0,0:0:0:0:
115,359,106982,1,0,0:0:0:0:
95,347,107068,1,0,1:0:0:0:
39,254,107240,2,0,L|30:161,1,90,8|0,0:2|0:0,0:0:0:0:
82,73,107585,5,0,1:0:0:0:
148,174,107758,1,0,0:0:0:0:
192,12,107930,1,8,0:2:0:0:
256,113,108102,1,0,0:0:0:0:
253,135,108189,1,0,0:0:0:0:
250,157,108275,1,0,0:0:0:0:
247,179,108361,1,0,0:0:0:0:
244,201,108447,1,0,1:0:0:0:
311,284,108620,1,8,0:2:0:0:
411,243,108792,6,0,L|402:191,2,45,0|0|0,0:0|0:0|1:0,0:0:0:0:
439,347,109137,1,0,0:0:0:0:
492,171,109309,2,0,P|502:110|490:58,1,90,8|0,0:2|0:0,0:0:0:0:
482,54,109568,1,0,0:0:0:0:
457,34,109654,2,0,L|357:17,1,90,0|0,0:0|1:0,0:0:0:0:
261,67,109999,1,8,0:2:0:0:
356,125,110171,1,0,0:0:0:0:
356,125,110258,1,0,0:0:0:0:
356,125,110344,5,0,1:0:0:0:
39,209,110689,1,8,0:2:0:0:
123,141,110861,1,0,0:0:0:0:
144,147,110947,1,0,0:0:0:0:
165,153,111033,1,0,0:0:0:0:
186,159,111120,1,0,0:0:0:0:
207,165,111206,1,0,1:0:0:0:
425,177,111378,2,0,P|443:129|433:80,1,90,8|0,0:2|0:0,0:0:0:0:
437,91,111637,1,0,0:0:0:0:
437,91,111723,5,0,1:0:0:0:
340,250,111896,1,0,0:0:0:0:
244,85,112068,2,0,L|335:117,1,90,8|0,0:2|0:0,0:0:0:0:
419,305,112413,5,2,0:2:0:0:
384,333,112499,1,0,0:0:0:0:
341,346,112585,1,2,0:2:0:0:
296,337,112671,1,0,0:0:0:0:
258,311,112758,2,0,P|239:288|232:242,1,45,2|0,0:2|0:0,0:0:0:0:
207,165,112930,2,0,P|197:185|182:201,1,45,2|0,0:2|0:0,0:0:0:0:
145,284,113102,6,0,P|85:313|5:247,1,180,4|8,1:0|0:2,0:0:0:0:
35,144,113620,1,2,0:2:0:0:
31,121,113706,1,0,0:0:0:0:
28,98,113792,1,2,0:2:0:0:
25,75,113878,1,0,0:0:0:0:
22,52,113965,1,2,1:2:0:0:
86,228,114137,1,8,0:2:0:0:
207,165,114309,2,0,L|220:102,1,45
115,16,114482,6,0,L|126:111,1,90,6|0,1:2|0:0,0:0:0:0:
334,149,114827,1,8,0:2:0:0:
86,228,114999,2,0,L|99:177,1,45
164,279,115171,2,0,L|168:345,1,45
247,235,115344,1,0,1:0:0:0:
334,149,115516,2,0,P|397:145|436:159,1,90,8|0,0:2|0:0,0:0:0:0:
442,163,115775,1,0,0:0:0:0:
459,177,115861,6,0,P|494:229|498:277,1,90,0|0,1:0|2:0,0:0:0:0:
458,355,116206,2,0,L|369:363,1,90,8|0,0:2|0:0,0:0:0:0:
293,291,116551,1,0,0:0:0:0:
293,291,116637,1,0,0:0:0:0:
293,291,116723,1,0,1:0:0:0:
192,332,116896,2,0,P|133:331|72:279,1,135,8|0,0:2|0:0,0:0:0:0:
75,257,117240,5,0,1:0:0:0:
201,193,117413,1,0,0:0:0:0:
192,332,117585,1,8,0:2:0:0:
87,120,117758,1,0,0:0:0:0:
82,97,117844,1,0,0:0:0:0:
80,74,117930,1,0,0:0:0:0:
80,51,118016,1,0,0:0:0:0:
84,28,118102,1,0,1:0:0:0:
276,150,118275,2,0,P|284:205|262:256,1,90,8|0,0:2|0:0,0:0:0:0:
274,237,118533,1,0,0:0:0:0:
274,237,118620,5,0,1:0:0:0:
156,257,118792,1,0,0:0:0:0:
219,84,118965,2,0,P|281:62|324:78,1,90,8|0,0:2|0:0,0:0:0:0:
322,77,119223,1,0,0:0:0:0:
343,83,119309,1,0,0:0:0:0:
365,84,119396,1,0,0:0:0:0:
387,81,119482,1,0,1:0:0:0:
484,34,119654,1,8,0:2:0:0:
482,142,119827,1,0,0:0:0:0:
484,164,119913,1,0,0:0:0:0:
486,186,119999,6,0,L|495:304,1,90,0|0,1:0|0:0,0:0:0:0:
366,358,120344,2,0,L|372:268,1,90,8|0,0:2|0:0,0:0:0:0:
361,248,120602,1,0,0:0:0:0:
340,239,120689,1,0,0:0:0:0:
317,235,120775,1,0,0:0:0:0:
294,236,120861,1,0,1:0:0:0:
191,271,121033,2,0,P|138:280|96:267,1,90,8|0,0:2|0:0,0:0:0:0:
42,204,121292,1,0,0:0:0:0:
27,186,121378,6,0,L|13:86,2,90,0|0|8,1:0|0:0|0:2,0:0:0:0:
138,154,121896,1,0,0:0:0:0:
150,130,121982,1,0,0:0:0:0:
157,104,122068,1,0,0:0:0:0:
157,77,122154,1,0,0:0:0:0:
154,49,122240,1,0,1:0:0:0:
282,46,122413,2,0,P|281:110|310:165,1,90,8|0,0:2|0:0,0:0:0:0:
468,244,122758,6,0,P|413:211|351:209,1,90,0|0,1:2|0:0,0:0:0:0:
215,297,123102,2,0,P|270:265|303:213,1,90,8|0,0:2|0:0,0:0:0:0:
282,47,123447,1,0,0:0:0:0:
351,137,123620,1,0,1:0:0:0:
351,137,123706,1,0,0:0:0:0:
351,137,123792,1,8,0:2:0:0:
449,74,123965,1,0,0:0:0:0:
197,119,124137,6,0,P|191:176|198:211,1,90,0|0,1:0|0:0,0:0:0:0:
266,291,124482,1,8,0:2:0:0:
374,282,124654,1,0,0:0:0:0:
397,279,124740,1,0,0:0:0:0:
420,276,124827,2,0,L|466:269,2,45,0|0|0,0:0|0:0|1:0,0:0:0:0:
171,322,125171,1,8,0:2:0:0:
266,291,125344,1,0,0:0:0:0:
266,291,125430,1,0,0:0:0:0:
266,291,125516,6,0,L|286:174,1,90,0|0,1:0|0:0,0:0:0:0:
115,55,125861,2,0,P|92:112|103:173,1,90,8|0,0:2|0:0,0:0:0:0:
108,155,126120,1,0,0:0:0:0:
127,166,126206,1,0,0:0:0:0:
146,177,126292,1,0,0:0:0:0:
165,189,126378,1,0,1:0:0:0:
349,192,126551,1,8,0:2:0:0:
235,70,126723,2,0,L|253:126,1,45
349,192,126896,6,0,P|365:155|367:103,1,90,0|0,1:0|0:0,0:0:0:0:
447,32,127240,1,8,0:2:0:0:
459,139,127413,1,0,0:0:0:0:
457,161,127499,1,0,0:0:0:0:
460,183,127585,1,0,0:0:0:0:
467,205,127671,1,0,0:0:0:0:
477,225,127758,1,0,1:0:0:0:
437,325,127930,2,0,P|375:310|320:313,1,90,8|0,0:2|0:0,0:0:0:0:
326,314,128189,1,0,0:0:0:0:
305,322,128275,5,0,1:0:0:0:
204,282,128447,1,0,0:0:0:0:
288,214,128620,1,8,0:2:0:0:
129,332,128792,1,0,0:0:0:0:
119,311,128878,1,0,0:0:0:0:
112,289,128965,1,0,0:0:0:0:
114,266,129051,1,0,0:0:0:0:
120,244,129137,1,0,1:0:0:0:
1,262,129309,2,0,P|19:313|8:388,1,90,8|0,0:0|0:0,0:0:0:0:
48,144,129654,5,0,1:0:0:0:
148,103,129827,1,0,0:0:0:0:
227,175,129999,1,8,0:2:0:0:
120,244,130171,1,0,0:0:0:0:
120,244,130258,1,0,0:0:0:0:
120,244,130344,1,0,0:0:0:0:
120,244,130430,1,0,0:0:0:0:
120,244,130516,1,0,1:0:0:0:
66,35,130689,1,8,0:2:0:0:
266,90,130861,6,0,L|310:101,2,45,0|0|0,0:0|0:0|1:0,0:0:0:0:
148,103,131206,1,0,0:0:0:0:
360,37,131378,2,0,P|387:77|382:138,1,90,8|0,0:2|0:0,0:0:0:0:
304,205,131723,1,0,0:0:0:0:
304,205,131809,1,0,0:0:0:0:
304,205,131896,1,0,1:0:0:0:
266,90,132068,1,8,0:2:0:0:
281,317,132240,1,0,0:0:0:0:
281,317,132327,1,0,0:0:0:0:
281,317,132413,5,0,1:0:0:0:
438,88,133102,5,4,3:3:0:0:
440,99,133189,1,4,3:3:0:0:
441,110,133275,1,4,3:3:0:0:
441,124,133361,1,4,3:3:0:0:
437,140,133447,1,6,3:3:0:0:
428,157,133533,1,4,3:3:0:0:
411,170,133620,1,4,3:3:0:0:
388,176,133706,1,4,3:3:0:0:
361,174,133792,1,4,3:3:0:0:
336,159,133878,1,4,3:3:0:0:
307,147,133965,1,4,3:3:0:0:
273,145,134051,1,4,3:3:0:0:
241,126,134137,6,0,P|236:96|246:62,2,45,6|4|4,3:3|3:3|3:3,3:0:0:0:
184,219,134482,2,0,P|189:249|179:283,2,45,4|4|4,3:3|3:3|3:3,3:0:0:0:
129,125,134827,2,0,L|126:34,1,90,6|4,3:3|3:3,3:0:0:0:
10,19,135171,6,0,L|16:206,1,180,4|8,1:0|0:2,0:0:0:0:
66,308,135689,1,2,0:2:0:0:
94,320,135775,1,0,0:0:0:0:
125,321,135861,1,2,0:2:0:0:
156,318,135947,1,0,0:0:0:0:
184,305,136033,2,0,P|231:300|291:308,1,90,2|8,1:2|0:2,0:0:0:0:
432,335,136378,1,0,0:0:0:0:
392,225,136551,6,0,P|388:180|393:135,1,90,2|0,1:2|0:0,0:0:0:0:
442,28,136896,1,8,0:2:0:0:
297,76,137068,1,0,0:0:0:0:
269,88,137154,1,0,0:0:0:0:
238,89,137240,1,0,0:0:0:0:
207,86,137327,1,0,0:0:0:0:
179,73,137413,2,0,P|132:68|72:76,1,90,0|8,1:0|0:2,0:0:0:0:
24,136,137758,1,0,0:0:0:0:
103,308,137930,6,0,P|70:341|5:350,2,90,0|0|8,1:0|0:0|0:2,0:0:0:0:
198,238,138447,1,0,0:0:0:0:
228,229,138533,1,0,0:0:0:0:
258,237,138620,2,0,P|302:246|353:236,1,90,2|0,0:2|1:0,0:0:0:0:
348,58,138965,2,0,P|303:50|259:59,1,90,10|0,0:2|0:0,0:0:0:0:
154,110,139309,6,0,L|159:204,2,90,6|0|10,1:2|0:0|0:0,0:0:0:0:
59,40,139827,1,2,0:2:0:0:
61,71,139913,1,0,0:0:0:0:
62,103,139999,1,2,0:2:0:0:
64,134,140085,1,0,0:0:0:0:
66,165,140171,1,2,1:2:0:0:
107,280,140344,2,0,P|155:281|207:296,1,90,10|0,0:2|0:0,0:0:0:0:
314,323,140689,5,6,1:2:0:0:
456,265,140861,1,0,0:0:0:0:
361,195,141033,1,8,2:0:0:0:
196,292,141206,2,0,L|198:247,2,45,2|0|2,0:0|0:0|0:2,0:0:0:0:
241,120,141551,1,0,1:0:0:0:
76,280,141723,1,8,0:2:0:0:
128,153,141896,1,0,0:0:0:0:
155,39,142068,6,0,P|111:24|41:41,2,90,6|0|8,1:2|0:0|0:2,0:0:0:0:
255,134,142585,1,0,0:0:0:0:
255,134,142671,1,0,0:0:0:0:
255,134,142758,1,0,0:0:0:0:
255,134,142844,1,0,0:0:0:0:
255,134,142930,1,0,1:0:0:0:
342,211,143102,2,0,P|349:263|348:326,1,90,8|0,0:2|0:0,0:0:0:0:
467,217,143447,6,0,P|468:172|474:127,2,90,0|0|8,1:0|0:0|0:2,0:0:0:0:
445,341,143965,1,2,0:2:0:0:
414,349,144051,1,0,0:0:0:0:
382,346,144137,1,2,0:2:0:0:
351,340,144223,1,0,0:0:0:0:
322,325,144309,1,2,1:2:0:0:
227,256,144482,2,0,P|223:209|228:140,1,90,10|0,0:2|0:0,0:0:0:0:
312,88,144827,6,0,P|238:113|120:100,2,180,6|10|2,1:2|0:2|0:0,0:0:0:0:
336,76,145603,1,0,0:0:0:0:
360,64,145689,1,2,1:2:0:0:
428,248,145861,1,8,0:2:0:0:
301,203,146033,1,2,0:2:0:0:
188,232,146206,5,6,1:2:0:0:
104,152,146378,1,0,0:0:0:0:
52,256,146551,1,8,0:2:0:0:
140,336,146723,1,2,0:0:0:0:
169,351,146809,1,0,0:0:0:0:
200,357,146896,1,2,0:0:0:0:
232,360,146982,1,0,0:0:0:0:
263,352,147068,1,0,1:0:0:0:
408,308,147240,2,0,P|456:300|504:312,1,90,10|0,0:2|0:0,0:0:0:0:
429,212,147585,6,0,P|384:220|341:211,1,90,6|0,1:2|0:0,0:0:0:0:
233,163,147930,1,8,0:2:0:0:
80,120,148103,1,2,0:2:0:0:
80,120,148189,1,0,0:0:0:0:
80,120,148275,1,2,0:2:0:0:
80,120,148361,1,0,0:0:0:0:
80,120,148447,1,0,1:0:0:0:
236,44,148620,1,8,0:2:0:0:
441,99,148792,1,0,0:0:0:0:
260,240,148965,5,0,1:0:0:0:
307,82,149137,1,0,0:0:0:0:
412,278,149309,1,8,0:2:0:0:
288,336,149482,1,2,0:2:0:0:
260,344,149568,1,0,0:0:0:0:
228,344,149654,1,2,0:2:0:0:
196,340,149740,1,0,0:0:0:0:
164,332,149827,1,0,1:0:0:0:
56,284,149999,2,0,P|56:236|48:184,1,90,10|0,0:2|0:0,0:0:0:0:
148,92,150344,6,0,P|136:181|136:270,2,180,6|10|2,1:2|0:0|0:2,0:0:0:0:
156,64,151120,1,0,0:0:0:0:
164,36,151206,1,0,1:0:0:0:
376,56,151378,1,10,0:2:0:0:
296,152,151551,1,0,0:0:0:0:
400,208,151723,5,6,1:2:0:0:
280,344,151896,1,0,0:0:0:0:
136,240,152068,1,10,0:2:0:0:
48,164,152240,1,2,0:2:0:0:
73,137,152327,1,0,0:0:0:0:
103,120,152413,1,2,0:2:0:0:
140,115,152499,1,0,0:0:0:0:
176,119,152585,1,2,1:2:0:0:
296,152,152758,2,0,L|288:248,1,90,8|0,0:2|0:0,0:0:0:0:
280,344,153102,5,0,1:0:0:0:
432,248,153275,1,0,0:0:0:0:
448,68,153447,1,8,0:2:0:0:
296,40,153620,1,0,0:0:0:0:
263,21,153706,1,0,0:0:0:0:
230,14,153792,1,0,0:0:0:0:
192,21,153878,1,0,0:0:0:0:
159,36,153965,1,0,1:0:0:0:
32,124,154137,2,0,P|40:176|32:232,1,90,8|0,0:2|0:0,0:0:0:0:
156,348,154482,5,0,1:0:0:0:
252,164,154654,1,0,0:0:0:0:
120,240,154827,1,8,0:2:0:0:
268,284,154999,1,0,0:0:0:0:
301,303,155085,1,0,0:0:0:0:
334,310,155171,1,0,0:0:0:0:
372,303,155258,1,0,0:0:0:0:
405,288,155344,1,0,1:0:0:0:
484,200,155516,2,0,P|480:155|488:110,1,90,8|0,0:2|0:0,0:0:0:0:
360,28,155861,6,0,P|367:72|364:117,1,90,0|0,1:0|0:0,0:0:0:0:
336,220,156206,1,8,0:2:0:0:
252,164,156378,1,0,0:0:0:0:
219,145,156465,1,0,0:0:0:0:
186,138,156551,2,0,P|140:136|96:156,1,90,2|0,0:2|1:2,0:0:0:0:
72,268,156896,2,0,P|118:270|162:250,1,90,2|0,0:0|0:0,0:0:0:0:
324,324,157240,5,4,1:1:0:0:
399,191,157413,1,0,0:0:0:0:
284,80,157585,1,8,0:2:0:0:
168,64,157758,2,0,P|177:38|196:8,2,45,0|0|2,0:0|0:0|0:2,0:0:0:0:
104,164,158102,1,0,0:0:0:0:
176,256,158275,1,8,0:2:0:0:
288,208,158447,1,0,0:0:0:0:
324,324,158620,6,0,P|290:342|226:351,2,90,6|0|8,1:2|0:0|0:2,0:0:0:0:
406,233,159137,1,0,0:0:0:0:
410,201,159223,1,0,0:0:0:0:
415,170,159309,1,0,0:0:0:0:
421,138,159396,1,0,0:0:0:0:
427,107,159482,1,0,1:0:0:0:
334,29,159654,2,0,P|283:35|226:31,1,90,8|0,0:2|0:0,0:0:0:0:
168,123,159999,6,0,P|219:117|276:121,2,90,0|0|8,1:0|0:0|0:2,0:0:0:0:
53,147,160516,1,0,0:0:0:0:
44,191,160602,1,0,0:0:0:0:
64,231,160689,2,0,P|108:240|159:230,1,90,2|0,0:2|1:0,0:0:0:0:
256,179,161033,2,0,P|299:170|343:178,1,90,10|0,0:2|0:0,0:0:0:0:
449,230,161378,6,0,L|454:324,2,90,6|0|10,1:2|0:0|0:0,0:0:0:0:
361,151,161896,1,2,0:0:0:0:
363,182,161982,1,0,0:0:0:0:
364,214,162068,1,2,0:2:0:0:
366,245,162154,1,0,0:0:0:0:
368,276,162240,1,2,1:2:0:0:
270,341,162413,2,0,P|217:348|158:333,1,90,10|0,0:2|0:0,0:0:0:0:
85,274,162758,6,0,P|77:229|83:185,1,90,6|0,1:2|0:0,0:0:0:0:
109,70,163102,1,8,0:2:0:0:
227,100,163275,1,2,0:2:0:0:
256,110,163361,1,0,0:0:0:0:
286,116,163447,1,2,0:2:0:0:
316,107,163533,1,0,0:0:0:0:
346,97,163620,1,2,1:2:0:0:
473,164,163792,2,0,L|465:264,1,90,10|0,0:2|0:0,0:0:0:0:
369,320,164137,6,0,P|321:314|256:327,1,90,6|0,1:2|0:0,0:0:0:0:
165,343,164482,1,8,0:2:0:0:
87,247,164654,1,0,0:0:0:0:
85,216,164740,1,0,0:0:0:0:
83,185,164827,1,0,0:0:0:0:
82,153,164913,1,0,0:0:0:0:
80,122,164999,1,0,1:0:0:0:
175,52,165171,2,0,L|180:149,1,90,8|0,0:2|0:0,0:0:0:0:
254,242,165516,5,0,1:0:0:0:
478,192,165689,1,0,0:0:0:0:
388,316,165861,1,10,0:2:0:0:
345,118,166033,1,0,0:0:0:0:
174,50,166206,2,0,L|164:162,1,90,2|0,0:2|1:0,0:0:0:0:
211,314,166551,2,0,L|219:224,1,90,2|0,0:2|0:0,0:0:0:0:
287,57,166896,6,0,L|277:169,1,90,6|0,1:2|0:0,0:0:0:0:
324,321,167240,2,0,L|332:231,1,90,10|0,0:2|0:0,0:0:0:0:
433,174,167585,2,0,L|424:263,2,90,2|0|10,0:2|1:0|0:2,0:0:0:0:
440,56,168102,1,0,0:0:0:0:
256,148,168275,5,6,1:2:0:0:
344,192,168447,1,0,0:0:0:0:
300,60,168620,1,8,0:0:0:0:
168,104,168792,1,0,0:2:0:0:
128,108,168878,1,0,0:0:0:0:
88,108,168965,1,2,0:2:0:0:
48,96,169051,1,0,0:0:0:0:
12,80,169137,1,0,1:0:0:0:
75,216,169309,2,0,P|119:205|164:204,1,90,8|0,0:0|0:0,0:0:0:0:
348,204,169654,5,0,1:0:0:0:
256,344,169827,1,0,0:0:0:0:
164,204,169999,2,0,P|156:140|160:92,1,90,8|0,0:2|0:0,0:0:0:0:
158,92,170258,1,0,0:0:0:0:
160,68,170344,1,2,2:0:0:0:
352,68,170516,1,0,1:0:0:0:
256,236,170689,2,0,L|144:248,1,90,8|0,0:2|0:0,0:0:0:0:
8,180,171033,5,0,1:0:0:0:
104,168,171206,1,0,0:0:0:0:
76,336,171378,1,8,0:2:0:0:
244,364,171551,1,0,0:2:0:0:
216,332,171637,1,0,0:0:0:0:
208,292,171723,1,2,0:2:0:0:
216,252,171809,1,0,0:0:0:0:
236,216,171896,1,0,1:0:0:0:
303,287,172068,2,0,P|348:287|393:282,1,90,8|0,0:0|0:0,0:0:0:0:
500,132,172413,6,0,P|455:132|410:126,1,90,6|0,1:2|0:0,0:0:0:0:
316,96,172758,1,8,0:0:0:0:
460,40,172930,1,0,0:0:0:0:
460,40,173016,1,0,0:0:0:0:
460,40,173102,1,2,0:0:0:0:
440,192,173275,1,0,1:0:0:0:
296,248,173447,2,0,P|296:184|312:144,1,90,8|0,0:0|0:0,0:0:0:0:
216,20,173792,6,0,P|216:84|200:124,1,90,4|0,1:2|0:0,0:0:0:0:
52,228,174137,2,0,P|52:164|68:124,1,90,8|0,0:0|0:0,0:0:0:0:
88,108,174396,1,0,0:0:0:0:
128,96,174482,1,2,0:2:0:0:
168,96,174568,1,0,0:0:0:0:
208,108,174654,1,0,1:0:0:0:
256,332,174827,1,8,0:2:0:0:
164,296,174999,1,0,0:0:0:0:
236,228,175171,6,0,L|340:216,1,90,0|0,1:0|0:0,0:0:0:0:
436,276,175516,1,8,0:0:0:0:
429,151,175689,1,0,0:0:0:0:
384,147,175775,1,0,0:0:0:0:
340,140,175861,1,2,0:0:0:0:
256,284,176033,1,0,1:0:0:0:
82,151,176206,2,0,P|126:147|171:140,1,90,8|0,0:0|0:0,0:0:0:0:
256,192,176551,5,0,1:0:0:0:
116,52,176723,1,0,0:0:0:0:
20,228,176896,1,8,0:0:0:0:
152,292,177068,1,0,0:0:0:0:
156,252,177154,1,0,0:0:0:0:
156,212,177240,1,2,0:0:0:0:
148,172,177327,1,0,0:0:0:0:
132,136,177413,1,0,1:0:0:0:
380,136,177585,2,0,P|364:172|356:224,1,90,8|0,0:0|0:0,0:0:0:0:
500,296,177930,5,0,1:0:0:0:
380,136,178102,1,0,0:0:0:0:
496,176,178275,1,8,0:0:0:0:
356,221,178447,1,0,0:0:0:0:
308,228,178533,1,0,0:0:0:0:
260,233,178620,1,2,0:0:0:0:
100,112,178792,1,0,1:0:0:0:
196,88,178965,2,0,P|188:156|160:192,1,90,8|0,0:0|0:0,0:0:0:0:
316,296,179309,6,0,P|324:228|352:192,1,90,0|0,1:0|0:0,0:0:0:0:
432,240,179654,1,8,0:0:0:0:
256,368,179827,1,0,0:0:0:0:
232,364,179913,1,0,0:0:0:0:
208,360,179999,1,2,0:0:0:0:
184,356,180085,1,0,0:0:0:0:
160,352,180171,1,0,1:0:0:0:
72,156,180344,1,8,1:2:0:0:
180,92,180516,1,0,0:0:0:0:
256,192,180689,6,0,L|240:284,1,90,0|0,1:0|0:0,0:0:0:0:
48,336,181033,1,8,0:0:0:0:
144,308,181206,1,0,0:0:0:0:
144,308,181292,1,0,0:0:0:0:
144,308,181378,1,2,0:0:0:0:
256,192,181551,1,0,1:0:0:0:
100,152,181723,1,8,0:0:0:0:
168,224,181896,1,0,0:0:0:0:
344,224,182068,6,0,P|408:220|464:212,1,90,0|0,1:0|0:0,0:0:0:0:
168,224,182413,2,0,P|104:220|48:212,1,90,8|0,0:0|0:0,0:0:0:0:
44,196,182671,1,0,0:0:0:0:
32,156,182758,1,2,0:0:0:0:
40,116,182844,1,0,0:0:0:0:
68,84,182930,1,0,1:0:0:0:
248,68,183102,2,0,P|260:116|256:176,1,90,8|0,0:0|0:0,0:0:0:0:
164,124,183447,5,0,1:0:0:0:
332,12,183620,1,0,0:0:0:0:
344,216,183792,1,8,0:0:0:0:
256,140,183965,1,0,0:0:0:0:
296,108,184051,1,0,0:0:0:0:
344,100,184137,1,2,0:0:0:0:
440,192,184309,1,0,1:0:0:0:
256,320,184482,1,8,0:0:0:0:
72,192,184654,1,0,0:0:0:0:
124,108,184827,6,0,L|220:120,1,90,4|0,1:2|0:0,0:0:0:0:
156,248,185171,1,8,0:0:0:0:
72,192,185344,1,0,0:0:0:0:
40,164,185430,1,0,0:0:0:0:
24,128,185516,1,2,0:0:0:0:
28,88,185602,1,0,0:0:0:0:
44,52,185689,1,0,1:0:0:0:
213,119,185861,5,8,0:0:0:0:
80,292,186033,1,0,0:0:0:0:
72,192,186206,6,0,P|80:132|96:92,1,90,0|0,1:0|0:0,0:0:0:0:
272,36,186551,1,8,0:0:0:0:
312,128,186723,1,0,0:0:0:0:
312,128,186809,1,0,0:0:0:0:
312,128,186896,1,2,0:0:0:0:
213,119,187068,1,0,1:0:0:0:
371,45,187240,1,8,0:0:0:0:
480,176,187413,1,0,0:0:0:0:
324,252,187585,6,0,L|352:128,1,90,0|0,1:0|0:0,0:0:0:0:
256,48,187930,1,8,0:0:0:0:
168,164,188102,1,0,0:0:0:0:
177,203,188189,1,0,0:0:0:0:
186,243,188275,1,2,0:0:0:0:
196,282,188361,1,0,0:0:0:0:
205,321,188447,1,0,1:0:0:0:
28,292,188620,2,0,P|87:242|107:222,1,90,8|0,0:0|0:0,0:0:0:0:
168,164,188965,5,0,1:0:0:0:
44,144,189137,1,0,0:0:0:0:
132,316,189309,1,8,0:0:0:0:
256,296,189482,1,0,0:0:0:0:
256,296,189568,1,0,0:0:0:0:
256,296,189654,1,2,0:0:0:0:
256,88,189827,1,0,1:0:0:0:
256,192,189999,2,0,L|345:182,1,90,8|0,0:0|0:0,0:0:0:0:
172,140,190344,5,0,1:0:0:0:
256,88,190516,1,0,0:0:0:0:
345,182,190689,2,0,P|357:226|337:278,1,90,8|0,0:0|0:0,0:0:0:0:
328,308,190947,1,0,0:0:0:0:
304,312,191033,1,2,0:0:0:0:
280,316,191120,1,0,0:0:0:0:
256,320,191206,1,0,1:0:0:0:
128,192,191378,1,8,0:0:0:0:
256,64,191551,1,0,0:0:0:0:
384,192,191723,6,0,P|388:252|384:292,1,90,0|0,1:0|0:0,0:0:0:0:
292,156,192068,2,0,P|320:116|376:92,1,90,8|0,0:0|0:0,0:0:0:0:
396,92,192327,1,0,0:0:0:0:
436,104,192413,1,2,0:0:0:0:
384,192,192585,1,0,1:0:0:0:
128,192,192758,1,8,0:0:0:0:
220,156,192930,1,0,0:0:0:0:
200,252,193102,6,0,L|180:352,1,90,0|0,1:0|0:0,0:0:0:0:
312,132,193447,2,0,L|332:32,1,90,8|0,0:0|0:0,0:0:0:0:
361,19,193706,1,0,0:0:0:0:
401,16,193792,1,2,0:0:0:0:
438,31,193878,1,0,0:0:0:0:
459,65,193965,1,0,1:0:0:0:
336,232,194137,1,8,0:0:0:0:
240,204,194309,1,0,0:0:0:0:
312,132,194482,6,0,P|360:148|412:152,1,90,0|0,1:0|0:0,0:0:0:0:
264,304,194827,2,0,P|219:309|176:324,1,90,8|0,0:0|0:0,0:0:0:0:
157,335,195085,1,0,0:0:0:0:
138,348,195171,1,2,0:0:0:0:
48,312,195344,1,0,1:0:0:0:
124,156,195516,1,8,0:0:0:0:
40,212,195689,1,0,0:0:0:0:
212,200,195861,6,0,L|336:192,1,90,0|0,1:0|0:0,0:0:0:0:
372,264,196206,1,8,0:0:0:0:
143,271,196378,1,0,0:0:0:0:
118,241,196465,1,0,0:0:0:0:
108,202,196551,1,2,0:0:0:0:
115,162,196637,1,0,0:0:0:0:
139,130,196723,1,0,1:0:0:0:
280,128,196896,2,0,P|280:175|252:210,1,90,8|0,0:0|0:0,0:0:0:0:
180,40,197240,5,0,1:0:0:0:
332,40,197413,1,0,0:0:0:0:
400,176,197585,2,0,L|380:304,1,90,8|0,0:0|0:0,0:0:0:0:
383,287,197844,1,0,0:0:0:0:
380,309,197930,1,2,0:0:0:0:
480,328,198102,1,0,1:0:0:0:
400,176,198275,2,0,P|360:184|276:192,1,90,8|0,0:0|0:0,0:0:0:0:
112,176,198620,6,0,P|152:184|236:192,1,90,0|0,1:0|0:0,0:0:0:0:
16,152,198965,1,8,0:0:0:0:
84,80,199137,1,2,0:0:0:0:
84,80,199223,1,0,0:0:0:0:
84,80,199309,1,0,1:0:0:0:
256,108,199482,1,0,0:0:0:0:
144,244,199654,1,8,0:0:0:0:
160,144,199827,1,2,0:0:0:0:
160,144,199913,1,0,0:0:0:0:
160,144,199999,5,0,1:0:0:0:
256,64,200171,1,0,0:0:0:0:
352,144,200344,1,8,0:0:0:0:
256,308,200516,2,0,L|256:264,1,45,2|0,0:0|0:0,0:0:0:0:
168,272,200689,2,0,L|184:228,1,45,0|0,1:0|0:0,0:0:0:0:
344,272,200861,2,0,L|328:229,1,45
140,360,201033,2,0,L|80:368,1,45,8|0,0:0|0:0,0:0:0:0:
372,360,201206,2,0,L|432:368,1,45
256,263,201378,5,0,0:0:0:0:
432,136,217930,6,0,P|424:72|452:24,3,90,0|0|0|0,3:3|3:3|3:3|3:3,3:3:0:0:
348,208,218620,2,0,P|304:218|261:208,3,90,0|0|0|0,3:3|3:3|3:3|3:3,3:3:0:0:
96,136,219309,2,0,P|139:125|182:136,3,90,0|0|0|0,3:3|3:3|3:3|3:3,3:3:0:0:
32,268,219999,2,0,L|25:159,3,90,0|0|0|0,3:3|3:3|3:3|3:3,3:3:0:0:
117,312,220689,6,0,L|116:356,7,45,0|0|0|0|0|0|0|0,3:3|3:3|3:3|3:3|3:3|3:3|3:3|3:3,3:3:0:0:
176,257,221378,2,0,L|174:212,7,45,0|0|0|0|0|0|0|0,3:3|3:3|3:3|3:3|3:3|3:3|3:3|3:3,3:3:0:0:
228,313,222068,2,0,L|226:358,3,45,0|0|0|0,3:3|3:3|3:3|3:3,3:3:0:0:
240,272,222413,5,4,3:3:0:0:
248,244,222499,1,4,3:3:0:0:
264,216,222585,1,4,3:3:0:0:
287,194,222671,1,4,3:3:0:0:
315,180,222758,1,4,3:3:0:0:
346,178,222844,1,4,3:3:0:0:
377,180,222930,1,4,3:3:0:0:
406,191,223016,1,4,3:3:0:0:
436,198,223102,1,4,3:3:0:0:
466,192,223189,1,4,3:3:0:0:
491,173,223275,1,4,3:3:0:0:
507,146,223361,1,4,3:3:0:0:
498,100,223447,6,0,P|452:70|387:70,1,90,4|0,1:0|2:0,0:0:0:0:
246,102,223792,1,8,0:0:0:0:
406,207,223965,1,2,2:2:0:0:
418,211,224051,1,0,2:2:0:0:
431,214,224137,2,0,L|424:145,1,45,2|0,2:2|2:0,0:0:0:0:
307,265,224309,2,0,L|312:309,1,45,0|0,0:0|2:0,0:0:0:0:
414,310,224482,1,8,0:0:0:0:
243,194,224654,1,0,0:0:0:0:
70,329,224827,6,0,P|24:300|21:184,1,180,4|8,0:0|0:0,0:0:0:0:
151,94,225344,1,2,2:0:0:0:
232,228,225516,1,2,2:0:0:0:
227,268,225602,1,0,2:0:0:0:
225,308,225689,1,0,0:0:0:0:
105,203,225861,1,8,0:0:0:0:
214,95,226033,1,0,0:0:0:0:
354,212,226206,6,0,P|415:209|503:199,1,135,4|0,0:0|2:0,0:0:0:0:
479,220,226551,2,0,P|461:177|453:128,1,90,8|2,0:0|2:0,0:0:0:0:
357,307,226896,1,2,2:0:0:0:
316,309,226982,1,0,2:0:0:0:
275,309,227068,1,0,0:0:0:0:
147,206,227240,1,8,0:0:0:0:
197,60,227413,1,0,0:0:0:0:
350,210,227585,6,0,P|302:207|251:188,1,90,4|0,0:0|2:0,0:0:0:0:
123,61,227930,1,8,0:0:0:0:
19,185,228102,1,2,2:0:0:0:
14,197,228189,1,0,2:0:0:0:
9,209,228275,2,0,L|80:224,1,45,2|0,2:0|2:0,0:0:0:0:
196,165,228447,2,0,L|151:174,1,45,0|0,0:0|2:0,0:0:0:0:
155,270,228620,1,8,0:0:0:0:
293,171,228792,1,0,0:0:0:0:
397,320,228965,6,0,P|406:225|474:180,1,180,4|8,0:0|0:0,0:0:0:0:
311,220,229482,1,2,2:0:0:0:
177,140,229654,2,0,L|173:53,1,45,2|0,2:0|2:0,0:0:0:0:
218,22,229827,1,0,0:0:0:0:
373,97,229999,1,8,0:0:0:0:
228,208,230171,1,2,2:0:0:0:
334,14,230344,6,0,L|447:9,1,90,4|0,0:0|2:0,0:0:0:0:
196,142,230689,2,0,P|190:97|190:50,1,90,8|2,0:0|2:0,0:0:0:0:
368,255,231033,1,2,2:0:0:0:
327,250,231120,1,0,2:0:0:0:
286,245,231206,1,0,0:0:0:0:
332,110,231378,1,8,0:0:0:0:
176,236,231551,1,0,0:0:0:0:
154,270,231637,1,0,0:0:0:0:
131,303,231723,6,0,P|171:309|237:313,1,90,4|0,0:0|2:0,0:0:0:0:
418,172,232068,2,0,P|373:175|328:181,1,90,8|2,0:0|2:0,0:0:0:0:
290,206,232327,1,0,2:0:0:0:
245,206,232413,1,2,2:0:0:0:
202,190,232499,1,0,2:0:0:0:
178,151,232585,1,0,1:0:0:0:
205,0,232758,1,8,0:0:0:0:
327,91,232930,1,2,2:0:0:0:
117,211,233102,6,0,P|72:210|27:204,1,90,4|0,0:0|2:0,0:0:0:0:
262,135,233447,2,0,P|268:180|269:225,1,90,8|2,0:0|2:0,0:0:0:0:
250,373,233792,1,2,2:0:0:0:
276,337,233878,1,0,2:0:0:0:
315,315,233965,1,0,1:0:0:0:
359,312,234051,1,0,2:0:0:0:
400,329,234137,1,8,1:0:0:0:
458,215,234309,1,0,0:0:0:0:
340,118,234482,6,0,P|289:112|242:114,1,90,4|0,0:0|2:0,0:0:0:0:
156,252,234827,2,0,P|100:254|51:245,1,90,8|2,0:0|2:0,0:0:0:0:
28,235,235085,1,0,2:0:0:0:
0,204,235171,1,2,2:0:0:0:
182,139,235344,1,0,1:0:0:0:
230,322,235516,1,8,0:0:0:0:
272,188,235689,1,0,0:0:0:0:
431,281,235861,6,0,P|493:239|501:154,1,135,4|0,0:0|2:0,0:0:0:0:
478,112,236206,2,0,L|373:114,1,90,8|2,0:0|2:0,0:0:0:0:
295,241,236551,1,2,2:0:0:0:
295,241,236637,1,0,2:0:0:0:
295,241,236723,1,0,1:0:0:0:
233,120,236896,1,8,0:0:0:0:
100,225,237068,1,0,0:0:0:0:
61,235,237154,1,0,0:0:0:0:
21,247,237240,6,0,L|32:142,1,90,4|0,0:0|2:0,0:0:0:0:
160,38,237585,2,0,P|204:26|252:27,1,90,8|2,0:0|2:0,0:0:0:0:
425,164,237930,1,2,2:0:0:0:
399,128,238016,1,0,2:0:0:0:
360,106,238102,1,0,1:0:0:0:
316,103,238189,1,0,2:0:0:0:
275,120,238275,1,8,1:0:0:0:
196,252,238447,1,0,0:0:0:0:
101,131,238620,6,0,P|29:112|-16:120,1,90,4|0,0:0|2:0,0:0:0:0:
255,145,238965,2,0,P|298:132|335:108,1,90,8|2,0:0|2:0,0:0:0:0:
344,274,239309,1,2,2:0:0:0:
337,313,239396,1,0,2:0:0:0:
329,352,239482,1,0,0:0:0:0:
493,270,239654,1,8,0:0:0:0:
348,186,239827,1,2,2:0:0:0:
185,306,239999,6,0,P|83:293|36:205,1,180,4|8,0:0|0:0,0:0:0:0:
86,67,240516,1,2,2:0:0:0:
98,61,240602,1,0,2:0:0:0:
110,56,240689,2,0,L|116:112,1,45,2|0,2:0|2:0,0:0:0:0:
200,194,240861,2,0,L|205:150,1,45,0|0,0:0|2:0,0:0:0:0:
294,86,241033,1,8,0:0:0:0:
468,198,241206,1,0,0:0:0:0:
495,181,241292,1,0,0:0:0:0:
512,154,241378,6,0,P|510:90|480:16,1,135,4|0,0:0|2:0,0:0:0:0:
410,42,241723,2,0,P|356:45|304:48,1,90,8|2,0:0|2:0,0:0:0:0:
178,150,242068,1,2,2:0:0:0:
137,150,242154,1,0,2:0:0:0:
97,144,242240,1,0,0:0:0:0:
227,39,242413,1,8,0:0:0:0:
329,157,242585,1,0,0:0:0:0:
333,197,242671,1,0,0:0:0:0:
322,236,242758,6,0,P|381:242|440:320,1,135,4|0,0:0|2:0,0:0:0:0:
401,369,243102,2,0,P|351:369|287:367,1,90,8|2,0:0|2:0,0:0:0:0:
161,304,243447,1,2,2:0:0:0:
120,304,243533,1,0,2:0:0:0:
82,317,243620,1,0,1:0:0:0:
270,269,243792,1,8,0:0:0:0:
206,130,243965,1,2,2:0:0:0:
366,51,244137,6,0,L|414:55,3,45,4|0|0|0,0:0|0:0|0:0|0:0,0:0:0:0:
458,154,244482,2,0,L|502:171,3,45,8|0|2|0,0:0|0:0|0:2|0:0,0:0:0:0:
472,273,244827,1,2,1:2:0:0:
431,292,244913,1,0,0:0:0:0:
386,291,244999,1,0,0:0:0:0:
347,268,245085,1,0,0:0:0:0:
313,237,245171,2,0,P|283:229|241:225,1,45,8|0,0:0|2:0,0:0:0:0:
147,272,245344,2,0,P|116:278|82:281,1,45,2|0,2:0|2:0,0:0:0:0:
22,148,245516,6,0,P|68:79|168:78,1,180,4|8,0:0|0:0,0:0:0:0:
317,197,246033,1,2,2:0:0:0:
313,237,246120,1,0,2:0:0:0:
308,278,246206,2,0,P|234:291|202:286,1,90,2|0,2:0|0:0,0:0:0:0:
285,103,246551,1,8,0:0:0:0:
402,201,246723,1,0,0:0:0:0:
164,181,246896,6,0,P|107:213|90:295,1,135,4|0,0:0|2:0,0:0:0:0:
14,237,247240,2,0,L|9:138,1,90,8|2,0:0|2:0,0:0:0:0:
177,27,247585,1,2,2:0:0:0:
179,67,247671,1,0,2:0:0:0:
181,107,247758,1,0,0:0:0:0:
35,33,247930,1,8,0:0:0:0:
283,63,248102,1,0,0:0:0:0:
285,103,248189,1,0,0:0:0:0:
287,143,248275,6,0,P|233:195|110:180,1,180,4|8,0:0|0:0,0:0:0:0:
266,316,248792,1,2,2:0:0:0:
279,319,248878,1,0,2:0:0:0:
292,321,248965,2,0,L|358:296,1,45,2|0,2:0|2:0,0:0:0:0:
416,193,249137,2,0,L|373:208,1,45,0|0,0:0|2:0,0:0:0:0:
473,295,249309,1,8,0:0:0:0:
494,123,249482,1,0,0:0:0:0:
289,213,249654,6,0,P|230:219|163:219,1,90,4|0,0:0|2:0,0:0:0:0:
1,343,249999,2,0,P|45:344|90:349,1,90,8|2,0:0|2:0,0:0:0:0:
159,118,250344,1,2,2:0:0:0:
117,135,250430,1,0,2:0:0:0:
88,169,250516,1,0,0:0:0:0:
76,212,250602,1,0,2:0:0:0:
84,256,250689,1,8,0:0:0:0:
251,217,250861,1,0,0:0:0:0:
45,110,251033,6,0,P|53:62|72:0,1,90,4|0,0:0|2:0,0:0:0:0:
300,75,251378,2,0,P|311:118|319:162,1,90,8|2,0:0|2:0,0:0:0:0:
313,207,251637,1,0,2:0:0:0:
289,245,251723,1,2,2:0:0:0:
246,259,251809,1,0,2:0:0:0:
201,261,251896,1,0,1:0:0:0:
200,101,252068,1,8,0:0:0:0:
406,189,252240,1,0,0:0:0:0:
416,228,252327,1,0,0:0:0:0:
420,268,252413,6,0,L|443:109,1,135,4|0,0:0|2:0,0:0:0:0:
495,244,252758,2,0,L|481:347,1,90,8|2,0:0|2:0,0:0:0:0:
263,238,253102,1,2,2:0:0:0:
302,242,253189,1,0,2:0:0:0:
340,259,253275,1,0,0:0:0:0:
206,350,253447,1,8,0:0:0:0:
112,221,253620,1,0,0:0:0:0:
119,181,253706,1,0,0:0:0:0:
126,141,253792,2,0,P|208:142|264:83,1,135,4|0,0:0|2:0,0:0:0:0:
324,122,254137,6,0,P|314:78|310:33,1,90,8|2,0:0|2:0,0:0:0:0:
484,123,254482,2,0,P|480:167|470:211,1,90,2|0,2:0|2:0,0:0:0:0:
205,226,254827,2,0,L|304:217,1,90,8|0,0:0|2:0,0:0:0:0:
154,366,255171,2,0,P|108:364|64:357,1,90,4|0,0:0|2:0,0:0:0:0:
360,344,255516,2,0,P|401:336|450:335,1,90,8|2,0:0|2:0,0:0:0:0:
255,268,255861,2,0,L|247:322,1,45,2|0,2:0|2:0,0:0:0:0:
322,209,256033,1,0,0:0:0:0:
146,239,256206,1,8,0:0:0:0:
414,243,256378,1,0,0:0:0:0:
421,203,256465,1,0,0:0:0:0:
407,164,256551,6,0,P|352:119|270:134,1,135,4|0,0:0|2:0,0:0:0:0:
215,107,256896,2,0,B|230:80|230:80|228:18,1,90,8|2,0:0|2:0,0:0:0:0:
34,112,257240,1,2,2:0:0:0:
36,152,257327,1,0,2:0:0:0:
39,192,257413,1,0,0:0:0:0:
234,230,257585,1,8,0:0:0:0:
140,92,257758,1,0,0:0:0:0:
136,281,257930,6,0,P|179:330|307:311,1,180,4|8,0:0|0:0,0:0:0:0:
426,160,258447,1,2,2:0:0:0:
414,152,258533,1,0,2:0:0:0:
402,144,258620,2,0,L|351:153,1,45,2|0,2:0|2:0,0:0:0:0:
246,229,258792,2,0,L|290:221,1,45,0|0,1:0|2:0,0:0:0:0:
229,130,258965,1,8,0:0:0:0:
161,292,259137,1,0,0:0:0:0:
396,364,259309,6,0,P|380:288|355:210,1,135,4|0,0:0|2:0,0:0:0:0:
400,166,259654,2,0,L|498:170,1,90,8|2,0:0|2:0,0:0:0:0:
278,62,259999,2,0,L|223:66,1,45,2|0,2:0|2:0,0:0:0:0:
161,94,260171,1,0,0:0:0:0:
317,160,260344,1,8,0:0:0:0:
141,188,260516,1,0,0:0:0:0:
101,193,260602,1,0,0:0:0:0:
61,203,260689,6,0,P|31:261|22:309,1,90,4|0,0:0|2:0,0:0:0:0:
229,336,261033,2,0,P|215:293|193:254,1,90,8|2,0:0|2:0,0:0:0:0:
331,188,261378,1,2,2:0:0:0:
375,194,261465,1,0,2:0:0:0:
418,182,261551,1,0,0:0:0:0:
452,154,261637,1,0,2:0:0:0:
472,114,261723,1,8,0:0:0:0:
345,52,261896,1,2,2:0:0:0:
493,237,262068,6,0,L|486:344,1,90,4|0,0:0|2:0,0:0:0:0:
286,221,262413,2,0,L|295:96,1,90,8|2,0:0|2:0,0:0:0:0:
292,131,262671,1,0,2:0:0:0:
292,131,262758,1,2,2:0:0:0:
391,247,262930,1,0,0:0:0:0:
186,294,263102,2,0,L|196:190,1,90,8|0,0:0|0:0,0:0:0:0:
411,88,263447,6,0,P|328:94|267:11,1,180,4|8,0:0|0:0,0:0:0:0:
354,191,263965,1,2,2:0:0:0:
363,206,264051,1,0,2:0:0:0:
371,221,264137,2,0,L|360:286,1,45,2|0,2:0|2:0,0:0:0:0:
248,318,264309,2,0,L|255:273,1,45,0|0,1:0|2:0,0:0:0:0:
370,357,264482,1,8,0:0:0:0:
483,244,264654,1,2,2:0:0:0:
270,172,264827,6,0,P|163:164|115:168,1,135,4|0,1:0|2:0,0:0:0:0:
57,189,265171,2,0,L|70:82,1,90,8|2,0:0|2:0,0:0:0:0:
105,75,265430,1,0,2:0:0:0:
148,63,265516,1,2,2:0:0:0:
193,62,265602,1,0,2:0:0:0:
236,71,265689,1,0,1:0:0:0:
306,206,265861,1,8,0:0:0:0:
506,106,266033,1,2,2:0:0:0:
468,90,266120,1,0,2:0:0:0:
428,83,266206,6,0,L|437:183,1,90,4|0,0:0|2:0,0:0:0:0:
328,326,266551,2,0,L|319:236,1,90,8|2,0:0|2:0,0:0:0:0:
319,236,266809,1,0,2:0:0:0:
319,236,266896,1,2,2:0:0:0:
465,266,267068,1,0,0:0:0:0:
295,155,267240,1,8,0:0:0:0:
216,292,267413,1,2,2:0:0:0:
64,236,267585,6,0,P|48:196|60:136,1,90
292,240,267930,2,0,P|308:304|300:332,1,90,10|0,0:0|0:0,0:0:0:0:
302,325,268189,1,0,0:0:0:0:
302,325,268275,1,0,0:0:0:0:
216,292,268447,1,0,0:0:0:0:
392,212,268620,2,0,L|488:220,1,90,8|0,0:0|0:0,0:0:0:0:
292,240,268965,5,0,0:0:0:0:
316,144,269137,1,0,0:0:0:0:
392,212,269309,1,8,0:0:0:0:
216,292,269482,1,2,0:0:0:0:
172,300,269568,1,0,0:0:0:0:
128,288,269654,1,2,0:0:0:0:
92,259,269740,1,0,0:0:0:0:
80,216,269827,1,2,0:0:0:0:
192,104,269999,2,0,L|180:208,1,90,8|0,0:0|0:0,0:0:0:0:
136,48,270344,6,0,P|180:24|224:32,1,90,2|0,0:2|0:0,0:0:0:0:
316,144,270689,1,8,0:0:0:0:
424,44,270861,2,0,L|416:92,1,45,2|0,0:0|0:0,0:0:0:0:
468,176,271033,2,0,L|460:228,1,45,2|0,0:0|0:0,0:0:0:0:
504,312,271206,1,0,0:0:0:0:
292,312,271378,2,0,L|381:300,1,90,8|0,0:0|0:0,0:0:0:0:
216,360,271723,6,0,P|200:304|212:268,1,90
316,144,272068,1,8,0:0:0:0:
184,92,272240,2,0,L|176:36,2,45,2|0|0,0:0|0:0|0:0,0:0:0:0:
132,224,272585,1,0,0:0:0:0:
36,72,272758,2,0,L|52:164,1,90,8|0,0:0|0:0,0:0:0:0:
88,324,273102,5,0,0:0:0:0:
51,160,273275,1,0,0:0:0:0:
0,260,273447,1,8,0:0:0:0:
132,224,273620,1,2,0:0:0:0:
132,224,273706,1,0,0:0:0:0:
132,224,273792,2,0,L|208:208,1,45,2|0,0:0|0:0,0:0:0:0:
368,140,273965,1,0,0:0:0:0:
292,208,274137,2,0,P|280:256|288:304,1,90,8|0,0:0|0:0,0:0:0:0:
384,352,274396,1,2,0:0:0:0:
384,352,274482,6,0,L|484:340,1,90
285,295,274827,2,0,L|185:307,1,90,8|2,0:0|0:0,0:0:0:0:
168,344,275085,1,0,0:0:0:0:
124,356,275171,1,2,0:0:0:0:
80,348,275258,1,0,0:0:0:0:
48,316,275344,1,2,0:0:0:0:
176,188,275516,1,8,0:0:0:0:
120,264,275689,1,0,0:0:0:0:
128,108,275861,6,0,B|208:76|208:132|320:88,1,180,0|8,0:0|0:0,0:0:0:0:
500,144,276378,1,2,0:0:0:0:
512,188,276465,1,0,0:0:0:0:
496,232,276551,2,0,P|470:225|448:204,1,45,2|0,0:0|0:0,0:0:0:0:
388,136,276723,2,0,P|384:100|392:72,1,45,2|0,0:0|0:0,0:0:0:0:
456,24,276896,1,8,0:0:0:0:
216,48,277068,1,0,0:0:0:0:
284,116,277240,6,0,P|296:160|296:220,1,90
204,308,277585,2,0,L|104:300,1,90,8|0,0:0|0:0,0:0:0:0:
114,300,277844,1,2,0:0:0:0:
114,300,277930,1,0,0:0:0:0:
292,360,278102,1,0,0:0:0:0:
340,240,278275,2,0,P|396:196|472:216,1,135,8|0,0:0|0:0,0:0:0:0:
428,372,278620,6,0,L|416:280,1,90
236,144,278965,2,0,L|248:236,1,90,8|2,0:0|0:0,0:0:0:0:
252,264,279223,1,0,0:0:0:0:
256,296,279309,1,2,0:0:0:0:
260,328,279396,1,0,0:0:0:0:
264,360,279482,1,2,0:0:0:0:
340,240,279654,2,0,P|376:220|444:228,1,90,8|0,0:0|0:0,0:0:0:0:
168,356,279999,6,0,P|123:356|84:335,1,90
144,260,280344,1,8,0:0:0:0:
264,360,280516,2,0,L|324:352,1,45,2|0,0:0|0:0,0:0:0:0:
404,304,280689,2,0,L|476:312,1,45,2|0,0:0|0:0,0:0:0:0:
512,376,280861,1,0,0:0:0:0:
340,240,281033,2,0,P|328:184|340:144,1,90
428,56,281292,1,2,0:0:0:0:
428,56,281378,6,0,L|328:48,1,90
136,56,281723,1,8,0:0:0:0:
164,176,281896,1,2,0:0:0:0:
119,178,281982,1,0,0:0:0:0:
77,165,282068,1,2,0:0:0:0:
46,134,282154,1,0,0:0:0:0:
29,92,282240,1,2,0:0:0:0:
252,92,282413,2,0,L|264:200,1,90,8|0,0:0|0:0,0:0:0:0:
332,280,282671,1,2,0:0:0:0:
332,280,282758,6,0,L|440:260,1,90
264,360,283102,2,0,L|156:380,1,90,8|0,0:0|0:0,0:0:0:0:
368,184,283447,2,0,B|504:157|504:157|484:216,1,180,0|8,0:0|0:0,0:0:0:0:
228,272,283965,1,2,0:0:0:0:
228,272,284051,1,0,0:0:0:0:
228,272,284137,6,0,P|208:216|220:180,1,90,2|0,0:0|0:0,0:0:0:0:
324,56,284482,1,8,0:0:0:0:
208,100,284654,2,0,P|160:108|132:100,1,45,2|0,0:0|0:0,0:0:0:0:
64,76,284827,2,0,P|32:56|20:32,1,45,2|0,0:0|0:0,0:0:0:0:
19,166,284999,1,0,0:0:0:0:
116,188,285171,2,0,P|128:240|120:276,1,90,8|0,0:0|0:0,0:0:0:0:
108,320,285430,1,2,0:0:0:0:
84,360,285516,6,0,L|188:356,1,90
368,296,285861,2,0,L|278:289,1,90,8|2,0:0|0:0,0:0:0:0:
408,364,286120,1,0,0:0:0:0:
440,332,286206,1,2,0:0:0:0:
448,288,286292,1,0,0:0:0:0:
436,244,286378,1,2,0:0:0:0:
272,140,286551,2,0,P|263:167|264:200,1,45,10|0,0:0|0:0,0:0:0:0:
278,289,286723,2,0,P|314:317|330:321,1,45,2|0,0:0|0:0,0:0:0:0:
368,108,286896,6,0,L|172:92,1,180,0|8,0:0|0:0,0:0:0:0:
56,180,287413,1,2,0:0:0:0:
56,180,287499,1,0,0:0:0:0:
56,180,287585,2,0,L|68:252,1,45,2|0,0:0|0:0,0:0:0:0:
44,316,287758,1,0,0:0:0:0:
0,112,287930,2,0,P|44:92|96:108,1,90,8|0,0:0|0:0,0:0:0:0:
192,260,288275,6,0,P|176:208|188:160,1,90
368,108,288620,1,10,0:0:0:0:
264,212,288792,1,0,0:0:0:0:
224,80,288965,1,2,0:0:0:0:
368,212,289137,1,0,0:0:0:0:
180,172,289309,1,10,0:0:0:0:
304,40,289482,1,0,0:0:0:0:
452,168,289654,6,0,P|464:216|440:284,1,90,4|0,0:0|0:0,0:0:0:0:
288,332,289999,2,0,L|188:324,1,90,8|2,0:0|0:0,0:0:0:0:
160,352,290258,1,0,0:0:0:0:
116,360,290344,1,2,0:0:0:0:
72,344,290430,1,0,0:0:0:0:
44,308,290516,1,2,0:0:0:0:
180,172,290689,2,0,L|269:179,1,90,8|0,0:0|0:0,0:0:0:0:
112,92,291033,5,0,0:0:0:0:
352,128,291206,2,0,P|368:180|356:232,1,90,0|8,0:0|0:0,0:0:0:0:
260,56,291551,2,0,L|332:44,1,45,2|0,0:0|0:0,0:0:0:0:
484,113,291723,2,0,L|440:123,1,45,2|0,0:0|0:0,0:0:0:0:
352,128,291896,1,0,0:0:0:0:
503,35,292068,2,0,L|394:61,1,90,8|0,0:0|0:0,0:0:0:0:
263,142,292413,6,0,P|251:98|267:42,1,90
84,8,292758,2,0,P|96:52|80:108,1,90,8|2,0:0|0:0,0:0:0:0:
72,136,293016,1,0,0:0:0:0:
48,172,293102,2,0,L|0:176,2,45,2|0|2,0:0|0:0|0:0,0:0:0:0:
144,244,293447,2,0,P|160:292|156:340,1,90,8|0,0:0|0:0,0:0:0:0:
48,172,293792,5,0,0:0:0:0:
224,200,293965,1,0,0:0:0:0:
68,304,294137,1,8,0:0:0:0:
176,116,294309,1,2,0:0:0:0:
220,100,294396,1,0,0:0:0:0:
264,108,294482,1,2,0:0:0:0:
304,132,294568,1,0,0:0:0:0:
348,144,294654,1,2,0:0:0:0:
392,132,294740,1,0,0:0:0:0:
420,96,294827,6,0,L|432:24,1,45,10|0,0:0|0:0,0:0:0:0:
508,168,294999,2,0,L|496:244,1,45,2|0,0:0|0:0,0:0:0:0:
340,48,295171,6,0,L|348:4,2,45
224,200,295516,1,8,0:0:0:0:
420,96,295689,1,2,0:0:0:0:
428,140,295775,1,0,0:0:0:0:
434,184,295861,1,2,0:0:0:0:
440,228,295947,1,0,0:0:0:0:
446,272,296033,1,2,0:0:0:0:
332,308,296206,1,8,0:0:0:0:
352,200,296378,1,0,0:0:0:0:
508,340,296551,6,0,P|460:364|404:352,1,90
160,260,296896,2,0,L|264:248,1,90,8|2,0:0|0:0,0:0:0:0:
128,336,297154,1,0,0:0:0:0:
92,304,297240,1,2,0:0:0:0:
80,260,297327,1,0,0:0:0:0:
92,216,297413,1,2,0:0:0:0:
232,152,297585,1,8,0:0:0:0:
152,32,297758,1,0,0:0:0:0:
116,124,297930,5,0,0:0:0:0:
328,76,298102,2,0,L|236:64,1,90,0|8,0:0|0:0,0:0:0:0:
336,172,298447,2,0,L|400:184,1,45,2|0,0:0|0:0,0:0:0:0:
464,48,298620,2,0,L|400:36,1,45,2|0,0:0|0:0,0:0:0:0:
238,64,298792,1,0,0:0:0:0:
456,220,298965,2,0,P|466:176|452:134,1,90,8|0,0:0|0:0,0:0:0:0:
220,224,299309,6,0,P|209:267|223:309,1,90
304,264,299654,1,8,0:0:0:0:
128,180,299827,1,2,0:0:0:0:
96,184,299913,1,0,0:0:0:0:
64,188,299999,1,2,0:0:0:0:
32,192,300085,1,0,0:0:0:0:
0,196,300171,1,2,0:0:0:0:
104,272,300344,2,0,L|160:264,1,45,10|0,0:0|0:0,0:0:0:0:
56,100,300516,2,0,L|0:108,1,45,2|0,0:0|0:0,0:0:0:0:
128,180,300689,6,0,L|296:160,1,135
356,104,301033,2,0,P|364:52|352:12,1,90,10|0,0:0|0:0,0:0:0:0:
354,16,301292,1,0,0:0:0:0:
354,16,301378,1,2,0:0:0:0:
262,164,301551,1,0,0:0:0:0:
412,200,301723,2,0,L|508:188,1,90,8|0,0:0|0:0,0:0:0:0:
316,272,302068,6,0,P|304:324|316:368,1,90
262,164,302413,2,0,P|212:136|132:160,1,135,10|0,0:0|0:0,0:0:0:0:
80,96,302758,2,0,B|92:72|92:72|84:0,1,90
4,184,303102,2,0,L|16:296,1,90,8|0,0:0|0:0,0:0:0:0:
92,328,303361,1,2,0:0:0:0:
104,336,303447,6,0,L|208:324,1,90
417,274,303706,1,2,0:0:0:0:
405,282,303792,2,0,L|301:270,1,90,8|0,0:0|0:0,0:0:0:0:
96,208,304051,1,2,0:0:0:0:
108,216,304137,2,0,L|212:204,1,90
416,144,304396,1,2,0:0:0:0:
404,152,304482,2,0,L|300:140,1,90,8|0,0:0|0:0,0:0:0:0:
200,72,304740,1,2,0:0:0:0:
188,84,304827,6,0,L|84:96,1,90
20,168,305171,1,8,0:0:0:0:
236,168,305344,1,2,0:0:0:0:
271,140,305430,1,0,0:0:0:0:
288,98,305516,1,2,0:0:0:0:
282,52,305602,1,0,0:0:0:0:
319,76,305689,1,2,0:0:0:0:
363,76,305775,1,0,0:0:0:0:
403,56,305861,2,0,L|464:38,3,45,10|0|2|0,0:0|0:0|0:0|0:0,0:0:0:0:
349,153,306206,6,0,L|335:324,1,135
235,326,306551,2,0,L|243:227,1,90,10|0,0:0|0:0,0:0:0:0:
242,236,306809,1,0,0:0:0:0:
242,236,306896,1,2,0:0:0:0:
324,375,307068,1,0,0:0:0:0:
135,292,307240,2,0,L|143:193,1,90,8|0,0:0|0:0,0:0:0:0:
349,153,307585,6,0,L|339:279,1,90
235,326,307930,1,8,0:0:0:0:
266,96,308102,1,2,0:0:0:0:
296,62,308189,1,0,0:0:0:0:
338,47,308275,1,2,0:0:0:0:
382,50,308361,1,0,0:0:0:0:
417,75,308447,1,2,0:0:0:0:
249,243,308620,1,8,0:0:0:0:
349,153,308792,1,0,0:0:0:0:
445,260,308965,6,0,L|345:253,1,90
182,141,309309,2,0,P|170:101|187:39,1,90,8|0,0:0|0:0,0:0:0:0:
178,54,309568,1,2,0:0:0:0:
178,54,309654,1,0,0:0:0:0:
60,106,309827,1,0,0:0:0:0:
282,29,309999,2,0,L|397:37,1,90,8|0,0:0|0:0,0:0:0:0:
505,119,310344,6,0,L|510:163,3,45,2|0|2|0,0:0|0:0|0:0|0:0,0:0:0:0:
402,176,310689,2,0,L|396:220,3,45,10|0|2|0,0:0|0:0|0:0|0:0,0:0:0:0:
462,311,311033,1,2,0:0:0:0:
421,330,311120,1,0,0:0:0:0:
376,329,311206,1,2,0:0:0:0:
337,306,311292,1,0,0:0:0:0:
303,275,311378,2,0,L|234:257,1,45,10|0,0:0|0:0,0:0:0:0:
131,300,311551,2,0,L|68:308,1,45,2|0,0:0|0:0,0:0:0:0:
14,197,311723,6,0,B|127:217|88:162|191:179,1,180,4|8,1:0|1:0,0:0:0:0:
312,118,312240,1,2,0:0:0:0:
312,118,312327,1,0,0:0:0:0:
312,118,312413,2,0,L|360:127,1,45,2|0,1:0|0:0,0:0:0:0:
366,231,312585,2,0,L|317:240,1,45,0|0,1:0|0:0,0:0:0:0:
421,172,312758,2,0,L|514:187,1,90,8|2,1:0|0:0,0:0:0:0:
256,37,313102,5,0,1:0:0:0:
199,264,313275,1,2,0:0:0:0:
321,75,313447,2,0,L|221:88,1,90,8|2,1:0|0:0,0:0:0:0:
209,89,313706,1,0,0:0:0:0:
186,89,313792,2,0,L|192:139,1,45,0|8,1:0|0:0,0:0:0:0:
114,141,313965,2,0,L|108:191,1,45,0|0,1:0|0:0,0:0:0:0:
28,166,314137,1,8,1:0:0:0:
427,339,314309,5,8,1:0:0:0:
427,339,314396,1,0,0:0:0:0:
427,339,314482,2,0,P|416:272|423:205,1,135,4|0,1:0|0:0,0:0:0:0:
456,192,314827,2,0,L|366:182,1,90,8|2,1:0|0:0,0:0:0:0:
137,148,315171,1,2,1:0:0:0:
315,23,315344,1,0,1:0:0:0:
229,246,315516,1,8,1:0:0:0:
167,11,315689,5,2,0:0:0:0:
338,257,315861,1,4,1:2:0:0:
91,81,316033,1,0,0:0:0:0:
413,165,316206,2,0,L|408:75,1,90,4|0,1:2|0:0,0:0:0:0:
293,177,316551,1,4,1:2:0:0:
256,191,316637,1,10,0:0:0:0:
216,194,316723,1,0,1:0:0:0:
177,183,316809,1,2,0:0:0:0:
141,167,316896,1,8,1:0:0:0:
102,158,316982,1,0,0:0:0:0:
62,162,317068,2,0,L|58:206,1,45,8|0,1:0|0:0,0:0:0:0:
99,345,317240,6,0,P|99:281|1:236,1,180,4|8,1:0|1:0,0:0:0:0:
148,56,317758,1,2,0:0:0:0:
148,56,317844,1,0,0:0:0:0:
148,56,317930,2,0,P|118:78|96:87,1,45,0|0,1:0|0:0,0:0:0:0:
248,116,318102,2,0,P|238:95|231:72,1,45,0|0,1:0|0:0,0:0:0:0:
165,155,318275,2,0,L|183:263,1,90,8|2,1:0|0:0,0:0:0:0:
512,242,318620,5,0,1:0:0:0:
284,242,318792,1,2,0:0:0:0:
400,362,318965,2,0,L|403:261,1,90,8|2,1:0|0:0,0:0:0:0:
414,248,319223,1,0,0:0:0:0:
425,223,319309,2,0,L|357:211,1,45,0|8,1:0|0:0,0:0:0:0:
270,141,319482,2,0,L|338:129,1,45,0|0,1:0|0:0,0:0:0:0:
392,74,319654,1,8,1:0:0:0:
139,24,319827,5,8,1:0:0:0:
139,24,319913,1,0,0:0:0:0:
139,24,319999,2,0,P|160:84|141:181,1,135,4|0,1:0|0:0,0:0:0:0:
153,154,320344,2,0,L|56:143,1,90,10|0,1:0|0:0,0:0:0:0:
203,246,320689,2,0,L|106:257,1,90,2|8,1:0|1:2,0:0:0:0:
359,170,321033,2,0,L|269:159,1,90,10|2,1:0|0:0,0:0:0:0:
487,373,321378,6,0,L|503:275,1,90,4|2,1:2|1:0,0:0:0:0:
332,373,321723,2,0,L|286:289,1,90,4|8,1:2|0:0,0:0:0:0:
405,329,322068,2,0,L|400:233,1,90,0|2,1:0|1:0,0:0:0:0:
512,54,322413,1,8,1:0:0:0:
480,36,322499,1,10,0:0:0:0:
444,31,322585,1,8,1:0:0:0:
410,44,322671,1,2,0:0:0:0:
387,71,322758,6,0,L|400:178,1,90,4|2,1:0|0:0,0:0:0:0:
255,320,323102,1,8,1:0:0:0:
152,113,323275,1,2,0:0:0:0:
152,113,323361,1,0,0:0:0:0:
152,113,323447,2,0,L|208:125,1,45,0|0,1:0|0:0,0:0:0:0:
368,174,323620,2,0,L|298:185,1,45,0|0,1:0|0:0,0:0:0:0:
178,289,323792,2,0,L|281:279,1,90,8|2,1:0|0:0,0:0:0:0:
89,94,324137,5,0,1:0:0:0:
88,358,324309,1,2,0:0:0:0:
249,146,324482,1,8,1:0:0:0:
10,262,324654,1,10,0:0:0:0:
10,262,324740,1,8,0:0:0:0:
10,262,324827,2,0,P|33:267|73:255,1,45,0|0,1:0|0:0,0:0:0:0:
128,283,324999,2,0,P|153:281|172:285,1,45,0|0,1:0|0:0,0:0:0:0:
232,342,325171,1,8,1:0:0:0:
326,271,325344,1,8,1:0:0:0:
330,311,325430,1,0,0:0:0:0:
331,351,325516,6,0,B|436:320|388:377|510:353,1,180,4|8,1:0|1:0,0:0:0:0:
412,233,326033,1,2,0:0:0:0:
412,233,326120,1,8,0:0:0:0:
412,233,326206,2,0,L|407:170,1,45,0|0,1:0|0:0,0:0:0:0:
494,140,326378,2,0,L|487:91,1,45,0|0,1:0|0:0,0:0:0:0:
429,28,326551,2,0,L|315:45,1,90,8|2,1:0|0:0,0:0:0:0:
51,179,326896,5,4,1:2:0:0:
236,64,327068,1,4,3:0:0:0:
267,279,327240,1,4,1:2:0:0:
104,76,327413,5,4,3:0:0:0:
140,273,327585,1,4,1:2:0:0:
304,158,327758,1,4,3:0:0:0:
127,152,327930,5,8,1:0:0:0:
215,137,328102,1,8,1:0:0:0:
183,224,328275,2,0,L|35:221,1,135,4|0,1:0|0:0,0:0:0:0:
48,221,328620,2,0,P|40:274|46:326,1,90,8|2,1:0|0:0,0:0:0:0:
354,359,328965,2,0,L|359:309,1,45,0|0,1:2|0:0,0:0:0:0:
411,244,329137,2,0,L|419:193,1,45,8|0,1:0|0:0,0:0:0:0:
431,125,329309,1,8,1:0:0:0:
450,29,329482,1,2,0:0:0:0:
184,54,329654,6,0,P|247:63|332:51,1,135,4|0,1:0|0:0,0:0:0:0:
318,55,329999,2,0,L|320:160,1,90,8|0,1:0|0:0,0:0:0:0:
77,362,330344,2,0,L|81:312,1,45,0|0,1:2|0:0,0:0:0:0:
42,238,330516,2,0,L|43:186,1,45,8|0,1:0|0:0,0:0:0:0:
46,117,330689,1,8,1:0:0:0:
45,19,330861,1,4,1:2:0:0:
238,205,331033,5,6,1:0:0:0:
252,86,331206,1,0,0:0:0:0:
277,287,331378,2,0,L|170:280,1,90,4|2,1:2|1:0,0:0:0:0:
160,275,331637,1,0,0:0:0:0:
133,271,331723,2,0,P|128:301|136:335,1,45
158,202,331896,2,0,P|159:179|154:157,1,45,4|0,1:2|0:0,0:0:0:0:
151,83,332068,2,0,P|91:115|73:157,1,90,2|2,1:0|1:0,0:0:0:0:
56,144,332327,1,0,0:0:0:0:
31,155,332413,6,0,L|45:255,1,90,4|2,1:2|0:2,0:0:0:0:
389,253,332758,2,0,L|375:353,1,90,8|2,1:0|0:0,0:0:0:0:
499,106,333102,6,0,L|485:206,1,90,2|2,1:0|1:0,0:0:0:0:
141,204,333447,2,0,L|155:304,1,90,8|8,1:0|1:0,0:0:0:0:
365,105,333792,6,0,B|255:117|297:62|189:72,1,180,4|8,1:0|1:0,0:0:0:0:
167,61,334223,1,0,0:0:0:0:
140,54,334309,2,0,L|85:64,1,45,2|0,0:0|0:0,0:0:0:0:
80,144,334482,2,0,L|11:132,1,45,2|0,0:0|0:0,0:0:0:0:
131,227,334654,1,0,1:0:0:0:
26,266,334827,1,8,1:0:0:0:
273,277,334999,5,0,0:0:0:0:
164,306,335171,2,0,L|180:157,1,135,4|0,1:3|0:0,0:0:0:0:
178,171,335516,2,0,L|281:188,1,90,8|4,1:0|3:0,0:0:0:0:
296,173,335775,1,2,0:0:0:0:
327,171,335861,1,0,0:0:0:0:
357,179,335947,1,10,0:0:0:0:
381,198,336033,1,4,3:0:0:0:
409,210,336120,1,0,0:0:0:0:
440,211,336206,1,8,1:0:0:0:
459,302,336378,1,8,1:0:0:0:
274,365,336551,6,0,P|267:306|277:263,1,90,4|0,1:3|0:0,0:0:0:0:
385,362,336896,1,8,1:0:0:0:
485,113,337068,1,4,1:3:0:0:
485,113,337154,1,2,0:0:0:0:
485,113,337240,2,0,L|425:126,1,45,4|2,1:3|0:0,0:0:0:0:
351,90,337413,2,0,L|360:147,1,45,8|0,1:0|0:0,0:0:0:0:
293,194,337585,1,8,1:0:0:0:
494,218,337758,5,0,1:0:0:0:
494,218,337844,1,0,1:0:0:0:
494,218,337930,1,4,1:2:0:0:
416,302,338102,1,4,3:0:0:0:
312,275,338275,1,8,1:0:0:0:
82,91,338447,5,4,1:2:0:0:
82,91,338533,1,2,0:0:0:0:
82,91,338620,1,4,3:0:0:0:
184,40,338792,1,8,1:0:0:0:
272,103,338965,1,4,1:2:0:0:
172,161,339137,1,8,1:0:0:0:
172,161,339223,1,2,0:0:0:0:
172,161,339309,6,0,P|146:209|166:308,1,135,4|0,1:0|0:0,0:0:0:0:
153,286,339654,2,0,L|55:298,1,90,8|4,1:0|0:3,0:0:0:0:
370,287,339999,1,0,1:0:0:0:
339,292,340085,1,2,0:0:0:0:
307,297,340171,1,4,3:0:0:0:
239,365,340344,1,8,1:0:0:0:
357,166,340516,1,0,1:0:0:0:
388,171,340602,1,0,1:0:0:0:
420,176,340689,6,0,L|514:193,1,90,4|2,1:2|0:0,0:0:0:0:
246,264,341033,1,8,1:0:0:0:
500,338,341206,1,4,1:2:0:0:
469,343,341292,1,0,0:0:0:0:
437,348,341378,2,0,L|343:365,1,90,0|8,1:0|1:0,0:0:0:0:
498,264,341723,1,4,1:2:0:0:
238,56,341896,5,8,1:0:0:0:
238,56,341982,1,0,0:0:0:0:
238,56,342068,2,0,P|213:113|248:200,1,135,4|0,1:0|0:0,0:0:0:0:
230,180,342413,2,0,L|332:168,1,90,8|4,1:0|3:0,0:0:0:0:
412,204,342758,1,0,1:0:0:0:
412,204,342844,1,0,0:0:0:0:
412,204,342930,1,2,0:0:0:0:
373,297,343102,1,8,1:0:0:0:
290,260,343275,1,8,1:0:0:0:
290,260,343361,1,0,0:0:0:0:
290,260,343447,5,4,1:2:0:0:
459,279,343620,1,4,3:0:0:0:
412,204,343792,1,4,1:2:0:0:
459,279,343965,1,4,3:0:0:0:
456,301,344051,1,0,0:0:0:0:
452,323,344137,1,2,1:0:0:0:
336,368,344309,1,4,1:3:0:0:
265,105,344482,1,10,1:0:0:0:
201,166,344654,1,10,1:0:0:0:
209,187,344740,1,0,1:0:0:0:
217,207,344827,6,0,L|116:228,1,90,4|2,1:0|0:0,0:0:0:0:
196,301,345171,1,8,1:0:0:0:
20,175,345344,1,2,0:0:0:0:
41,181,345430,1,2,0:0:0:0:
62,187,345516,1,2,0:0:0:0:
155,104,345689,1,4,3:0:0:0:
37,70,345861,1,8,1:0:0:0:
118,321,346033,1,2,0:0:0:0:
97,327,346120,1,2,0:0:0:0:
76,333,346206,5,4,1:3:0:0:
13,259,346378,1,2,0:0:0:0:
95,211,346551,1,8,1:0:0:0:
188,283,346723,1,2,1:2:0:0:
188,283,346809,1,2,0:0:0:0:
188,283,346896,1,2,0:0:0:0:
191,361,347068,1,2,1:2:0:0:
259,227,347240,1,8,1:0:0:0:
274,327,347413,1,8,1:0:0:0:
428,255,347585,6,0,L|325:271,1,90,4|2,1:0|0:0,0:0:0:0:
401,340,347930,1,8,1:0:0:0:
492,136,348102,1,2,0:0:0:0:
492,158,348189,1,2,0:0:0:0:
492,183,348275,2,0,L|498:237,2,45,2|2|4,0:0|0:0|3:0,0:0:0:0:
503,330,348620,1,8,1:0:0:0:
414,48,348792,5,2,0:0:0:0:
411,70,348878,1,2,0:0:0:0:
408,92,348965,1,4,1:2:0:0:
229,107,349137,1,4,3:0:0:0:
21,174,349309,5,8,1:0:0:0:
199,189,349482,1,8,1:0:0:0:
456,216,349654,5,4,1:2:0:0:
278,231,349827,1,4,3:0:0:0:
58,296,349999,5,8,1:0:0:0:
236,311,350171,1,8,1:0:0:0:
302,20,350344,6,0,L|206:26,1,90,4|2,1:0|0:0,0:0:0:0:
124,33,350689,1,8,1:0:0:0:
57,102,350861,1,2,0:0:0:0:
57,102,350947,1,2,0:0:0:0:
57,102,351033,1,2,0:0:0:0:
141,153,351206,1,4,3:0:0:0:
56,202,351378,1,8,1:0:0:0:
186,271,351551,5,2,0:0:0:0:
186,271,351637,1,2,0:0:0:0:
186,271,351723,1,0,1:0:0:0:
124,362,351896,1,2,0:0:0:0:
1,242,352068,2,0,L|91:273,1,90,8|2,1:0|1:2,0:0:0:0:
86,271,352327,1,2,0:0:0:0:
86,271,352413,1,2,0:0:0:0:
214,357,352585,1,2,1:2:0:0:
292,309,352758,1,8,1:0:0:0:
356,367,352930,1,8,1:0:0:0:
356,367,353016,1,2,0:0:0:0:
356,367,353102,6,0,L|448:356,1,90,4|0,1:0|0:0,0:0:0:0:
205,272,353447,1,8,1:0:0:0:
323,209,353620,1,8,1:0:0:0:
323,209,353706,1,0,0:0:0:0:
323,209,353792,2,0,L|426:228,1,90,0|4,0:0|1:2,0:0:0:0:
234,114,354137,1,8,1:0:0:0:
409,39,354309,5,8,1:0:0:0:
386,42,354396,1,0,0:0:0:0:
363,45,354482,1,4,1:2:0:0:
457,281,354654,1,8,1:0:0:0:
212,212,354827,1,8,1:0:0:0:
335,146,354999,1,4,1:2:0:0:
297,344,355171,5,8,1:0:0:0:
61,230,355344,1,4,1:2:0:0:
172,285,355516,5,2,1:0:0:0:
398,221,355689,1,2,1:0:0:0:
126,129,355861,5,4,1:0:0:0:
