osu file format v14

[General]
AudioFilename: audio.mp3
AudioLeadIn: 0
PreviewTime: 147537
Countdown: 0
SampleSet: Soft
StackLeniency: 0.7
Mode: 0
LetterboxInBreaks: 0
WidescreenStoryboard: 1

[Editor]
DistanceSpacing: 1.2
BeatDivisor: 4
GridSize: 4
TimelineZoom: 1

[Metadata]
Title:Wings
TitleUnicode:Wings
Artist:Birdy
ArtistUnicode:Birdy
Creator:Alvin-
Version:Normal
Source:
Tags:
BeatmapID:1427279
BeatmapSetID:674563

[Difficulty]
HPDrainRate:4
CircleSize:3
OverallDifficulty:5
ApproachRate:5
SliderMultiplier:1.7
SliderTickRate:1

[Events]
//Background and Video events
0,0,"bg1.jpg",0,0
//Break Periods
2,28068,47935
2,97274,101641
2,195316,216985
//Storyboard Layer 0 (Background)
//Storyboard Layer 1 (Fail)
//Storyboard Layer 2 (Pass)
//Storyboard Layer 3 (Foreground)
//Storyboard Sound Samples

[TimingPoints]
4800,720.895714285716,4,2,1,80,1,0
49135,-133.333333333333,4,2,1,50,0,0
50937,-100,4,2,1,70,0,0
74005,-80,4,2,1,80,0,1
97074,-100,4,2,1,70,0,0
125910,-80,4,2,1,80,0,1
170606,-100,4,2,1,70,0,0
172047,-71.4285714285714,4,2,1,70,0,0
195116,-100,4,2,1,70,0,0
218185,-80,4,2,1,80,0,1
241253,-100,4,2,1,50,0,0

[Colours]
Combo1 : 255,255,79
Combo2 : 173,91,255
Combo3 : 255,81,81

[HitObjects]
364,116,4799,6,0,P|392:188|384:228,1,85,6|0,0:0|0:0,0:0:0:0:
336,280,5520,2,0,P|264:316|248:348,1,85,8|0,0:0|0:0,0:0:0:0:
164,344,6241,1,2,0:0:0:0:
164,344,6602,1,2,0:0:0:0:
196,248,6962,2,0,L|192:148,1,85,8|0,0:0|0:0,0:0:0:0:
172,64,7683,6,0,P|104:48|68:60,1,85,2|0,0:0|0:0,0:0:0:0:
36,136,8404,2,0,L|40:240,1,85,8|0,0:0|0:0,0:0:0:0:
140,208,9125,2,2,L|144:312,1,85
244,280,9846,1,8,0:0:0:0:
244,280,10206,1,2,0:0:0:0:
340,244,10567,6,0,P|412:264|436:296,1,85,2|0,0:0|0:0,0:0:0:0:
492,200,11288,2,0,L|496:96,1,85,8|0,0:0|0:0,0:0:0:0:
428,40,12008,1,2,0:0:0:0:
428,40,12369,1,2,0:0:0:0:
340,88,12729,2,0,P|272:80|244:56,1,85,8|0,0:0|0:0,0:0:0:0:
164,36,13450,6,0,P|100:48|64:84,1,85,2|0,0:0|0:0,0:0:0:0:
152,136,14171,2,0,L|160:240,1,85,8|0,0:0|0:0,0:0:0:0:
260,220,14892,2,2,L|267:120,1,85
328,56,15613,1,8,0:0:0:0:
328,56,15973,1,2,0:0:0:0:
428,84,16334,6,0,P|464:120|476:188,1,85,2|0,0:0|0:0,0:0:0:0:
448,248,17055,2,0,P|408:304|404:352,1,85,8|0,0:0|0:0,0:0:0:0:
304,340,17776,1,2,0:0:0:0:
304,340,18136,1,2,0:0:0:0:
204,336,18497,2,0,L|80:352,1,85,8|0,0:0|0:0,0:0:0:0:
52,268,19217,6,0,L|151:255,1,85,2|0,0:0|0:0,0:0:0:0:
240,256,19938,2,0,L|364:272,1,85,8|0,0:0|0:0,0:0:0:0:
428,268,20659,2,2,P|476:232|488:184,1,85
492,108,21380,1,8,0:0:0:0:
492,108,21741,1,2,0:0:0:0:
416,40,22101,6,0,P|352:36|300:64,1,85,2|0,0:0|0:0,0:0:0:0:
240,88,22822,2,0,P|164:88|132:64,1,85,8|0,0:0|0:0,0:0:0:0:
72,28,23543,1,2,0:0:0:0:
72,28,23903,1,2,0:0:0:0:
20,116,24264,2,0,L|24:232,1,85,8|0,0:0|0:0,0:0:0:0:
68,292,24985,6,0,P|116:328|164:328,1,85,2|0,0:0|0:0,0:0:0:0:
240,316,25705,2,0,P|304:308|352:332,1,85,8|0,0:0|0:0,0:0:0:0:
420,348,26426,2,2,L|424:244,1,85
432,160,27147,1,8,0:0:0:0:
432,160,27508,1,0,0:0:0:0:
384,68,27868,1,0,0:0:0:0:
256,192,49135,5,0,0:0:0:0:
256,192,49495,2,0,L|256:320,2,127.500004863739,0|0|2,0:0|0:0|0:0,0:0:0:0:
256,92,51297,5,0,0:0:0:0:
256,92,51658,2,0,P|208:48|168:44,1,85,8|0,0:0|0:0,0:0:0:0:
88,52,52379,1,2,0:0:0:0:
88,52,52739,1,2,0:0:0:0:
24,132,53100,2,0,L|28:240,1,85,8|0,0:0|0:0,0:0:0:0:
40,320,53820,6,0,P|92:336|140:316,1,85,2|0,0:0|0:0,0:0:0:0:
216,288,54541,2,0,L|220:196,1,85,8|0,0:0|0:0,0:0:0:0:
228,100,55262,2,2,P|280:84|332:104,1,85
388,156,55983,1,8,0:0:0:0:
388,156,56344,1,2,0:0:0:0:
328,240,56704,6,0,L|336:348,1,85,2|0,0:0|0:0,0:0:0:0:
428,368,57425,2,0,L|440:264,1,85,8|0,0:0|0:0,0:0:0:0:
456,184,58146,1,2,0:0:0:0:
456,184,58506,1,2,0:0:0:0:
468,84,58867,2,0,P|416:44|368:44,1,85,8|0,0:0|0:0,0:0:0:0:
296,48,59588,6,0,P|228:56|188:36,1,85,2|0,0:0|0:0,0:0:0:0:
116,28,60308,2,0,P|60:60|40:96,1,85,8|0,0:0|0:0,0:0:0:0:
28,176,61029,2,2,L|36:280,1,85
104,336,61750,1,8,0:0:0:0:
104,336,62111,1,2,0:0:0:0:
148,244,62471,6,0,L|140:148,1,85,2|0,0:0|0:0,0:0:0:0:
168,60,63192,2,0,P|240:40|272:52,1,85,8|0,0:0|0:0,0:0:0:0:
232,144,63913,1,2,0:0:0:0:
232,144,64273,1,2,0:0:0:0:
176,228,64634,6,0,P|222:248|268:240,1,85,8|0,0:0|0:0,0:0:0:0:
348,200,65355,2,0,L|356:304,1,85,2|0,0:0|0:0,0:0:0:0:
456,288,66076,2,0,L|460:196,1,85,8|0,0:0|0:0,0:0:0:0:
468,100,66797,2,2,P|420:68|372:68,1,85
296,88,67517,1,8,0:0:0:0:
296,88,67878,1,2,0:0:0:0:
200,124,68238,6,0,P|144:136|96:116,1,85,2|0,0:0|0:0,0:0:0:0:
36,72,68959,2,0,L|28:172,1,85,8|0,0:0|0:0,0:0:0:0:
28,260,69680,1,2,0:0:0:0:
28,260,70041,1,2,0:0:0:0:
116,212,70401,2,0,P|192:236|208:264,1,85,8|0,0:0|0:0,0:0:0:0:
264,312,71122,6,0,P|328:336|372:320,1,85,2|0,0:0|0:0,0:0:0:0:
436,296,71843,2,0,L|428:184,1,85,8|0,0:0|0:0,0:0:0:0:
424,108,72564,1,2,0:0:0:0:
424,108,72924,1,2,0:0:0:0:
348,36,73285,1,8,0:0:0:0:
348,36,73645,1,2,0:0:0:0:
220,40,74005,6,0,P|160:92|152:140,1,106.25,6|0,0:0|0:0,0:0:0:0:
196,236,74726,2,0,P|220:288|208:352,1,106.25,8|0,0:0|0:0,0:0:0:0:
92,308,75447,1,2,0:0:0:0:
92,308,75808,1,2,0:0:0:0:
124,184,76168,2,0,L|116:68,1,106.25,8|0,0:0|0:0,0:0:0:0:
240,112,76889,6,0,P|308:116|352:72,1,106.25,2|0,0:0|0:0,0:0:0:0:
448,36,77610,2,0,L|440:160,1,106.25,8|0,0:0|0:0,0:0:0:0:
444,268,78331,1,2,0:0:0:0:
444,268,78691,1,2,0:0:0:0:
344,192,79052,1,8,0:0:0:0:
328,316,79412,1,2,0:0:0:0:
200,332,79773,6,0,P|132:296|116:236,1,106.25,6|0,0:0|0:0,0:0:0:0:
128,144,80494,2,0,P|136:80|112:28,1,106.25,8|0,0:0|0:0,0:0:0:0:
12,104,81214,1,2,0:0:0:0:
12,104,81575,1,2,0:0:0:0:
20,232,81935,2,0,L|28:360,1,106.25,8|0,0:0|0:0,0:0:0:0:
136,276,82656,6,0,P|200:260|256:288,1,106.25,2|0,0:0|0:0,0:0:0:0:
348,336,83377,2,0,P|448:332|472:308,1,106.25,8|0,0:0|0:0,0:0:0:0:
500,216,84098,1,2,0:0:0:0:
500,216,84458,1,2,0:0:0:0:
484,92,84819,1,8,0:0:0:0:
388,176,85179,1,2,0:0:0:0:
276,112,85540,6,0,P|208:96|148:120,1,106.25,6|0,0:0|0:0,0:0:0:0:
116,220,86261,2,0,P|184:236|244:208,1,106.25,8|0,0:0|0:0,0:0:0:0:
344,204,86982,2,2,P|320:292|344:344,1,106.25
448,276,87703,2,0,P|472:188|448:136,1,106.25,8|0,0:0|0:0,0:0:0:0:
400,68,88423,6,0,L|276:80,1,106.25,2|0,0:0|0:0,0:0:0:0:
200,164,89144,2,0,L|324:176,1,106.25,8|0,0:0|0:0,0:0:0:0:
360,288,89865,1,2,0:0:0:0:
360,288,90226,1,2,0:0:0:0:
236,312,90586,1,8,0:0:0:0:
112,340,90947,1,2,0:0:0:0:
152,220,91307,6,0,P|136:144|96:112,1,106.25,6|0,0:0|0:0,0:0:0:0:
200,28,92028,2,0,P|248:52|312:44,1,106.25,8|0,0:0|0:0,0:0:0:0:
328,172,92749,1,2,0:0:0:0:
328,172,93109,1,2,0:0:0:0:
256,276,93470,2,0,P|276:356|312:384,1,106.25,8|0,0:0|0:0,0:0:0:0:
420,376,94191,6,0,P|461:330|468:284,1,106.25,2|0,0:0|0:0,0:0:0:0:
428,168,94911,2,0,P|380:120|368:68,1,106.25,8|0,0:0|0:0,0:0:0:0:
496,64,95632,1,2,0:0:0:0:
496,64,95993,1,2,0:0:0:0:
428,168,96353,1,8,0:0:0:0:
304,188,96714,1,0,0:0:0:0:
304,188,97074,1,0,0:0:0:0:
164,136,102841,6,0,P|212:176|224:228,1,85,2|0,0:0|0:0,0:0:0:0:
256,292,103563,2,0,P|304:336|344:340,1,85,8|0,0:0|0:0,0:0:0:0:
424,320,104284,1,2,0:0:0:0:
424,320,104644,1,2,0:0:0:0:
476,232,105005,2,0,L|468:140,1,85,8|0,0:0|0:0,0:0:0:0:
424,56,105725,6,0,P|372:40|320:60,1,85,2|0,0:0|0:0,0:0:0:0:
276,120,106446,2,0,L|272:216,1,85,8|0,0:0|0:0,0:0:0:0:
212,288,107167,2,2,P|160:304|104:280,1,85
168,204,107888,1,8,0:0:0:0:
168,204,108249,1,2,0:0:0:0:
200,108,108609,6,0,L|192:4,1,85,2|0,0:0|0:0,0:0:0:0:
92,24,109330,2,0,L|80:124,1,85,8|0,0:0|0:0,0:0:0:0:
72,208,110051,1,2,0:0:0:0:
72,208,110411,1,2,0:0:0:0:
56,308,110772,2,0,P|108:348|156:344,1,85,8|0,0:0|0:0,0:0:0:0:
228,336,111493,6,0,P|296:328|332:344,1,85,2|0,0:0|0:0,0:0:0:0:
408,356,112213,2,0,P|464:324|476:288,1,85,8|0,0:0|0:0,0:0:0:0:
484,208,112934,2,2,L|476:96,1,85
404,52,113655,1,8,0:0:0:0:
404,52,114016,1,2,0:0:0:0:
348,136,114376,6,0,L|356:236,1,85,2|0,0:0|0:0,0:0:0:0:
312,312,115097,2,0,P|236:332|200:316,1,85,8|0,0:0|0:0,0:0:0:0:
256,232,115818,1,2,0:0:0:0:
256,232,116178,1,2,0:0:0:0:
316,148,116539,2,0,P|270:128|224:132,1,85,8|0,0:0|0:0,0:0:0:0:
144,176,117260,6,0,L|136:64,1,85,2|0,0:0|0:0,0:0:0:0:
40,120,117981,2,0,L|36:216,1,85,8|0,0:0|0:0,0:0:0:0:
32,308,118702,2,2,P|80:340|128:340,1,85
204,320,119422,1,8,0:0:0:0:
204,320,119783,1,2,0:0:0:0:
292,272,120143,6,0,P|348:260|396:280,1,85,2|0,0:0|0:0,0:0:0:0:
456,328,120864,2,0,L|464:224,1,85,8|0,0:0|0:0,0:0:0:0:
476,140,121585,1,2,0:0:0:0:
476,140,121946,1,2,0:0:0:0:
380,172,122306,2,0,P|304:148|284:112,1,85,8|0,0:0|0:0,0:0:0:0:
236,72,123027,6,0,P|172:48|132:56,1,85,2|0,0:0|0:0,0:0:0:0:
68,96,123748,2,0,L|72:204,1,85,8|0,0:0|0:0,0:0:0:0:
80,284,124469,1,2,0:0:0:0:
80,284,124829,1,2,0:0:0:0:
172,324,125190,1,8,0:0:0:0:
172,324,125550,1,2,0:0:0:0:
300,316,125910,6,0,P|360:264|364:216,1,106.25,6|0,0:0|0:0,0:0:0:0:
312,124,126631,2,0,P|288:72|300:8,1,106.25,8|0,0:0|0:0,0:0:0:0:
416,56,127352,1,2,0:0:0:0:
416,56,127713,1,2,0:0:0:0:
380,180,128073,2,0,L|388:300,1,106.25,8|0,0:0|0:0,0:0:0:0:
268,240,128794,6,0,P|200:236|152:272,1,106.25,2|0,0:0|0:0,0:0:0:0:
64,332,129515,2,0,L|60:208,1,106.25,8|0,0:0|0:0,0:0:0:0:
56,100,130236,1,2,0:0:0:0:
56,100,130596,1,2,0:0:0:0:
156,176,130957,1,8,0:0:0:0:
172,52,131317,1,2,0:0:0:0:
300,52,131678,6,0,P|368:88|384:152,1,106.25,6|0,0:0|0:0,0:0:0:0:
388,240,132399,2,0,P|380:304|404:356,1,106.25,8|0,0:0|0:0,0:0:0:0:
508,288,133119,1,2,0:0:0:0:
508,288,133480,1,2,0:0:0:0:
496,160,133840,2,0,L|488:28,1,106.25,8|0,0:0|0:0,0:0:0:0:
372,108,134561,6,0,P|308:124|248:92,1,106.25,2|0,0:0|0:0,0:0:0:0:
160,48,135282,2,0,P|60:52|32:80,1,106.25,8|0,0:0|0:0,0:0:0:0:
8,168,136003,1,2,0:0:0:0:
8,168,136363,1,2,0:0:0:0:
24,292,136724,1,8,0:0:0:0:
120,208,137084,1,2,0:0:0:0:
236,276,137445,6,0,P|304:292|364:260,1,106.25,6|0,0:0|0:0,0:0:0:0:
392,168,138166,2,0,P|324:152|256:184,1,106.25,8|0,0:0|0:0,0:0:0:0:
164,184,138887,2,2,P|188:96|168:48,1,106.25
60,108,139608,2,0,P|36:196|52:240,1,106.25,8|0,0:0|0:0,0:0:0:0:
108,316,140328,6,0,L|232:304,1,106.25,2|0,0:0|0:0,0:0:0:0:
300,212,141049,2,0,L|180:204,1,106.25,8|0,0:0|0:0,0:0:0:0:
152,84,141770,1,2,0:0:0:0:
152,84,142131,1,2,0:0:0:0:
276,60,142491,1,8,0:0:0:0:
400,32,142852,1,2,0:0:0:0:
364,156,143212,6,0,P|380:232|424:268,1,106.25,6|0,0:0|0:0,0:0:0:0:
328,356,143933,2,0,P|280:332|204:340,1,106.25,8|0,0:0|0:0,0:0:0:0:
196,208,144654,1,2,0:0:0:0:
196,208,145014,1,2,0:0:0:0:
264,100,145375,2,0,P|244:20|204:-8,1,106.25,8|0,0:0|0:0,0:0:0:0:
100,0,146096,6,0,P|58:45|52:96,1,106.25,2|0,0:0|0:0,0:0:0:0:
80,212,146816,2,0,P|128:260|136:324,1,106.25,8|0,0:0|0:0,0:0:0:0:
12,312,147537,1,2,0:0:0:0:
12,312,147898,1,10,0:0:0:0:
80,212,148258,1,8,0:0:0:0:
204,204,148619,1,2,0:0:0:0:
256,88,148979,6,0,P|320:140|328:200,1,106.25,6|0,0:0|0:0,0:0:0:0:
273,275,149700,2,0,P|209:223|203:177,1,106.25,8|0,0:0|0:0,0:0:0:0:
152,88,150420,2,2,P|88:44|36:48,1,106.25
60,172,151141,2,0,L|64:288,1,106.25,8|0,0:0|0:0,0:0:0:0:
176,220,151862,6,0,P|252:216|304:268,1,106.25,2|0,0:0|0:0,0:0:0:0:
380,304,152583,2,0,P|424:280|444:208,1,106.25,8|0,0:0|0:0,0:0:0:0:
416,108,153304,1,2,0:0:0:0:
416,108,153664,1,2,0:0:0:0:
364,224,154025,1,8,0:0:0:0:
288,124,154385,1,2,0:0:0:0:
216,20,154746,6,0,P|151:23|104:64,1,106.25,6|0,0:0|0:0,0:0:0:0:
104,172,155467,2,0,P|168:168|208:128,1,106.25,8|0,0:0|0:0,0:0:0:0:
320,104,156188,2,2,P|312:176|336:220,1,106.25
404,304,156908,2,0,L|280:316,1,106.25,8|0,0:0|0:0,0:0:0:0:
172,316,157629,6,0,L|48:300,1,106.25,2|0,0:0|0:0,0:0:0:0:
8,188,158350,2,0,L|124:172,1,106.25,8|0,0:0|0:0,0:0:0:0:
240,160,159071,1,2,0:0:0:0:
240,160,159432,1,2,0:0:0:0:
296,48,159792,1,8,0:0:0:0:
372,152,160153,1,2,0:0:0:0:
312,264,160513,6,0,P|248:292|184:272,1,106.25,6|0,0:0|0:0,0:0:0:0:
141,182,161234,2,0,P|209:154|264:172,1,106.25,8|0,0:0|0:0,0:0:0:0:
372,152,161955,2,2,P|368:76|396:40,1,106.25
492,120,162676,2,0,L|488:240,1,106.25,8|0,0:0|0:0,0:0:0:0:
400,320,163397,6,0,L|392:200,1,106.25,2|0,0:0|0:0,0:0:0:0:
376,88,164117,2,0,P|300:48|248:60,1,106.25,8|0,0:0|0:0,0:0:0:0:
292,176,164838,1,2,0:0:0:0:
292,176,165199,1,2,0:0:0:0:
172,136,165559,1,8,0:0:0:0:
52,96,165920,1,2,0:0:0:0:
80,220,166280,6,0,P|132:276|196:272,1,106.25,6|0,0:0|0:0,0:0:0:0:
284,272,167001,2,0,P|360:276|396:300,1,106.25,8|0,0:0|0:0,0:0:0:0:
496,224,167722,1,2,0:0:0:0:
496,224,168082,1,2,0:0:0:0:
436,112,168443,2,0,L|304:120,1,106.25,8|0,0:0|0:0,0:0:0:0:
204,128,169164,6,0,P|124:100|104:64,1,106.25,2|0,0:0|0:0,0:0:0:0:
212,8,169885,2,0,P|292:36|312:68,1,106.25,8|0,0:0|0:0,0:0:0:0:
304,152,170606,1,2,0:0:0:0:
196,168,170966,1,10,0:0:0:0:
196,168,171326,1,8,0:0:0:0:
264,256,171687,1,2,0:0:0:0:
392,232,172047,6,0,P|412:168|392:112,1,118.999996368408,6|0,0:0|0:0,0:0:0:0:
276,172,172768,2,0,P|208:164|148:204,1,118.999996368408,8|0,0:0|0:0,0:0:0:0:
68,100,173489,1,2,0:0:0:0:
68,100,173850,1,2,0:0:0:0:
164,185,174210,2,0,L|156:308,1,118.999996368408,8|0,0:0|0:0,0:0:0:0:
272,244,174931,6,0,P|340:240|388:280,1,118.999996368408,6|0,0:0|0:0,0:0:0:0:
480,352,175652,2,0,L|472:228,1,118.999996368408,8|0,0:0|0:0,0:0:0:0:
464,104,176373,1,2,0:0:0:0:
464,104,176733,1,2,0:0:0:0:
356,180,177094,1,8,0:0:0:0:
340,52,177454,1,2,0:0:0:0:
208,52,177815,6,0,P|140:88|120:152,1,118.999996368408,6|0,0:0|0:0,0:0:0:0:
120,256,178536,2,0,P|128:320|104:376,1,118.999996368408,8|0,0:0|0:0,0:0:0:0:
0,300,179256,1,2,0:0:0:0:
0,300,179617,1,2,0:0:0:0:
8,168,179977,2,0,L|16:44,1,118.999996368408,8|0,0:0|0:0,0:0:0:0:
132,108,180698,6,0,P|196:124|256:100,1,118.999996368408,6|0,0:0|0:0,0:0:0:0:
360,44,181419,2,0,P|460:48|488:76,1,118.999996368408,8|0,0:0|0:0,0:0:0:0:
496,184,182140,1,2,0:0:0:0:
496,184,182500,1,2,0:0:0:0:
484,316,182861,1,8,0:0:0:0:
384,232,183221,1,2,0:0:0:0:
264,280,183582,6,0,P|196:296|136:264,1,118.999996368408,6|0,0:0|0:0,0:0:0:0:
92,164,184303,2,0,P|160:148|228:188,1,118.999996368408,8|0,0:0|0:0,0:0:0:0:
336,168,185024,2,2,P|312:80|336:24,1,118.999996368408
444,96,185745,2,0,P|468:184|440:244,1,118.999996368408,8|0,0:0|0:0,0:0:0:0:
388,316,186465,6,0,L|256:308,1,118.999996368408,6|0,0:0|0:0,0:0:0:0:
184,212,187186,2,0,L|308:204,1,118.999996368408,8|0,0:0|0:0,0:0:0:0:
360,84,187907,1,2,0:0:0:0:
360,84,188268,1,2,0:0:0:0:
232,60,188628,1,8,0:0:0:0:
104,36,188989,1,2,0:0:0:0:
148,160,189349,6,0,P|132:236|84:272,1,118.999996368408,6|0,0:0|0:0,0:0:0:0:
168,376,190070,2,0,P|216:352|288:360,1,118.999996368408,8|0,0:0|0:0,0:0:0:0:
328,236,190791,1,2,0:0:0:0:
328,236,191151,1,2,0:0:0:0:
264,120,191512,2,0,P|284:40|328:8,1,118.999996368408,8|0,0:0|0:0,0:0:0:0:
440,20,192233,6,0,P|482:65|492:124,1,118.999996368408,6|0,0:0|0:0,0:0:0:0:
384,192,192953,2,0,P|336:240|336:324,1,118.999996368408,8|0,0:0|0:0,0:0:0:0:
456,296,193674,1,2,0:0:0:0:
456,296,194035,1,2,0:0:0:0:
484,168,194395,1,8,0:0:0:0:
484,168,194756,1,0,0:0:0:0:
436,88,195116,1,0,0:0:0:0:
360,256,218185,6,0,P|292:272|240:248,1,106.25,6|0,0:0|0:0,0:0:0:0:
208,144,218906,2,0,P|232:92|220:32,1,106.25,8|0,0:0|0:0,0:0:0:0:
104,76,219627,1,2,0:0:0:0:
104,76,219988,1,2,0:0:0:0:
120,204,220348,2,0,L|112:328,1,106.25,8|0,0:0|0:0,0:0:0:0:
232,268,221069,6,0,P|300:264|348:308,1,106.25,2|0,0:0|0:0,0:0:0:0:
448,336,221790,2,0,L|440:216,1,106.25,8|0,0:0|0:0,0:0:0:0:
432,104,222511,1,2,0:0:0:0:
432,104,222871,1,2,0:0:0:0:
332,180,223232,1,8,0:0:0:0:
316,56,223592,1,2,0:0:0:0:
188,52,223953,6,0,P|120:88|104:152,1,106.25,6|0,0:0|0:0,0:0:0:0:
124,240,224674,2,0,P|132:304|104:356,1,106.25,8|0,0:0|0:0,0:0:0:0:
4,280,225394,1,2,0:0:0:0:
4,280,225755,1,2,0:0:0:0:
16,152,226115,2,0,L|24:24,1,106.25,8|0,0:0|0:0,0:0:0:0:
136,104,226836,6,0,P|200:120|256:88,1,106.25,2|0,0:0|0:0,0:0:0:0:
348,44,227557,2,0,P|448:48|472:72,1,106.25,8|0,0:0|0:0,0:0:0:0:
500,164,228278,1,2,0:0:0:0:
500,164,228638,1,2,0:0:0:0:
484,292,228999,1,8,0:0:0:0:
380,216,229359,1,2,0:0:0:0:
268,272,229720,6,0,P|200:288|140:256,1,106.25,6|0,0:0|0:0,0:0:0:0:
108,164,230441,2,0,P|176:148|236:176,1,106.25,8|0,0:0|0:0,0:0:0:0:
336,164,231162,2,2,P|312:76|336:20,1,106.25
440,88,231883,2,0,P|464:176|440:228,1,106.25,8|0,0:0|0:0,0:0:0:0:
400,300,232603,6,0,L|272:288,1,106.25,2|0,0:0|0:0,0:0:0:0:
204,200,233324,2,0,L|332:188,1,106.25,8|0,0:0|0:0,0:0:0:0:
344,68,234045,1,2,0:0:0:0:
344,68,234406,1,2,0:0:0:0:
220,44,234766,1,8,0:0:0:0:
96,20,235127,1,2,0:0:0:0:
136,140,235487,6,0,P|120:216|76:252,1,106.25,6|0,0:0|0:0,0:0:0:0:
172,344,236208,2,0,P|220:320|292:328,1,106.25,8|0,0:0|0:0,0:0:0:0:
336,208,236929,1,2,0:0:0:0:
336,208,237289,1,2,0:0:0:0:
256,108,237650,2,0,P|276:28|316:0,1,106.25,8|0,0:0|0:0,0:0:0:0:
420,4,238371,6,0,P|460:44|472:108,1,106.25,2|0,0:0|0:0,0:0:0:0:
428,208,239091,2,0,P|380:256|372:320,1,106.25,8|0,0:0|0:0,0:0:0:0:
496,316,239812,1,2,0:0:0:0:
496,316,240173,1,10,0:0:0:0:
428,208,240533,1,8,0:0:0:0:
300,192,240894,1,0,0:0:0:0:
300,192,241254,1,0,0:0:0:0:
256,192,241614,12,0,247111,0:0:0:0:
