osu file format v14

[General]
AudioFilename: audio.mp3
AudioLeadIn: 0
PreviewTime: -1
Countdown: 0
SampleSet: Normal
StackLeniency: 1
Mode: 0
LetterboxInBreaks: 1
WidescreenStoryboard: 0

[Editor]
DistanceSpacing: 1.2
BeatDivisor: 4
GridSize: 16
TimelineZoom: 1.7

[Metadata]
Title:Wings
TitleUnicode:Wings
Artist:Birdy (Nu:Logic Remix)
ArtistUnicode:Birdy (Nu:Logic Remix)
Creator:TheBlueEight
Version:The Flight
Source:
Tags:DnB suicide sheep dubstep female vocal awesome song
BeatmapID:1169690
BeatmapSetID:552284

[Difficulty]
HPDrainRate:6
CircleSize:4.2
OverallDifficulty:9
ApproachRate:9.2
SliderMultiplier:1.8
SliderTickRate:2

[Events]
//Background and Video events
0,0,"art-hanyijie-guy-sky-clouds-ships-happiness-dog-birds-landscape-anime.jpg",0,0
//Break Periods
2,47202,67124
//Storyboard Layer 0 (Background)
//Storyboard Layer 1 (Fail)
//Storyboard Layer 2 (Pass)
//Storyboard Layer 3 (Foreground)
//Storyboard Sound Samples

[TimingPoints]
2865,344.827586206897,4,1,0,100,1,0
2865,-100,4,1,0,100,0,0
47002,-142.857142857143,4,1,0,100,0,0
58378,352.941176470588,4,1,0,100,1,0
58716,344.827586206897,4,1,0,100,1,0
59419,344.827586206897,4,1,0,100,1,0
69074,-100,4,1,0,100,0,0
80453,-55.5555555555556,4,1,0,100,0,0
84936,-83.3333333333333,4,1,0,100,0,0
85625,-125,4,1,0,100,0,0
91143,-76.9230769230769,4,1,0,100,0,1
135281,-83.3333333333333,4,1,0,100,0,0
179419,-100,4,1,0,100,0,0
200798,-111.111111111111,4,1,0,100,0,0
200970,-125,4,1,0,100,0,0
201143,-142.857142857143,4,1,0,100,0,0
201315,-166.666666666667,4,1,0,100,0,0
201487,-200,4,1,0,100,0,0

[HitObjects]
360,120,2865,5,0,0:0:0:0:
432,48,3037,1,0,0:0:0:0:
440,192,3209,1,0,0:0:0:0:
192,144,3382,1,0,0:0:0:0:
192,168,3468,1,0,0:0:0:0:
192,192,3554,1,0,0:0:0:0:
192,216,3640,1,0,0:0:0:0:
192,240,3727,1,0,0:0:0:0:
432,48,3899,1,0,0:0:0:0:
352,120,4071,1,0,0:0:0:0:
440,240,4244,6,0,P|440:296|408:312,1,90
264,216,4589,1,0,0:0:0:0:
144,272,4761,2,0,L|176:336,1,45
48,256,4933,2,0,L|15:191,1,45
32,344,5106,1,0,0:0:0:0:
200,216,5278,1,0,0:0:0:0:
120,84,5451,1,0,0:0:0:0:
248,24,5623,5,0,0:0:0:0:
304,112,5796,1,0,0:0:0:0:
360,24,5968,1,0,0:0:0:0:
448,256,6140,1,0,0:0:0:0:
448,240,6227,1,0,0:0:0:0:
448,224,6313,1,0,0:0:0:0:
448,208,6399,1,0,0:0:0:0:
448,192,6485,1,0,0:0:0:0:
312,336,6658,1,0,0:0:0:0:
440,336,6830,1,0,0:0:0:0:
104,336,7002,6,0,L|208:336,1,90
376,336,7347,1,0,0:0:0:0:
224,184,7520,1,0,0:0:0:0:
192,224,7606,1,0,0:0:0:0:
144,240,7692,1,0,0:0:0:0:
96,216,7778,1,0,0:0:0:0:
72,168,7865,1,0,0:0:0:0:
160,72,8037,1,0,0:0:0:0:
144,272,8209,1,0,0:0:0:0:
352,72,8382,5,0,0:0:0:0:
368,272,8554,1,0,0:0:0:0:
440,168,8727,1,0,0:0:0:0:
288,184,8899,1,0,0:0:0:0:
320,224,8985,1,0,0:0:0:0:
368,240,9071,1,0,0:0:0:0:
416,216,9157,1,0,0:0:0:0:
440,168,9244,1,0,0:0:0:0:
352,72,9416,1,0,0:0:0:0:
368,272,9588,1,0,0:0:0:0:
256,56,9761,6,0,P|216:104|192:96,1,90
80,48,10106,1,0,0:0:0:0:
56,160,10278,2,0,L|32:208,1,45
128,256,10451,2,0,L|144:312,1,45
48,368,10623,1,0,0:0:0:0:
160,304,10796,2,0,P|216:256|288:264,1,135
296,264,11140,6,0,P|352:240|352:216,1,90
152,56,11485,1,0,0:0:0:0:
204,240,11658,1,0,0:0:0:0:
256,232,11744,1,0,0:0:0:0:
304,204,11830,1,0,0:0:0:0:
324,152,11916,1,0,0:0:0:0:
320,96,12002,1,0,0:0:0:0:
128,320,12175,1,0,0:0:0:0:
232,256,12347,1,0,0:0:0:0:
80,320,12520,5,0,0:0:0:0:
280,248,12692,1,0,0:0:0:0:
40,296,12865,5,0,0:0:0:0:
320,272,13037,1,0,0:0:0:0:
224,360,13210,5,0,0:0:0:0:
224,360,13296,5,0,0:0:0:0:
224,360,13382,5,0,0:0:0:0:
176,208,13554,1,0,0:0:0:0:
248,56,13727,1,0,0:0:0:0:
400,160,13899,5,0,0:0:0:0:
488,48,14071,1,0,0:0:0:0:
464,240,14244,1,0,0:0:0:0:
288,144,14416,1,0,0:0:0:0:
256,120,14502,1,0,0:0:0:0:
224,96,14589,1,0,0:0:0:0:
192,72,14675,1,0,0:0:0:0:
160,48,14761,1,0,0:0:0:0:
56,112,14933,1,0,0:0:0:0:
128,208,15106,1,0,0:0:0:0:
8,304,15278,6,0,B|24:352|24:352|72:336,1,90
184,264,15623,1,0,0:0:0:0:
352,168,15796,2,0,L|384:136,1,45
200,176,15968,2,0,L|152:152,1,45
296,312,16140,1,0,0:0:0:0:
264,56,16313,1,0,0:0:0:0:
276,145,16485,1,0,0:0:0:0:
392,320,16658,5,0,0:0:0:0:
480,224,16830,1,0,0:0:0:0:
320,152,17002,1,0,0:0:0:0:
248,296,17175,1,0,0:0:0:0:
248,296,17261,1,0,0:0:0:0:
248,296,17347,2,0,L|288:272,1,45
496,152,17520,1,0,0:0:0:0:
408,48,17692,1,0,0:0:0:0:
320,176,17865,1,0,0:0:0:0:
208,88,18037,6,0,P|168:48|112:56,1,90
96,208,18382,1,0,0:0:0:0:
240,128,18554,1,0,0:0:0:0:
216,80,18640,1,0,0:0:0:0:
176,48,18727,1,0,0:0:0:0:
128,32,18813,1,0,0:0:0:0:
76,28,18899,1,0,0:0:0:0:
216,200,19071,1,0,0:0:0:0:
4,92,19244,1,0,0:0:0:0:
32,308,19416,5,0,0:0:0:0:
112,240,19589,1,0,0:0:0:0:
180,336,19761,1,0,0:0:0:0:
244,184,19933,2,0,L|288:152,1,45
308,368,20106,2,0,L|372:392,1,45
412,224,20278,1,0,0:0:0:0:
340,112,20451,1,0,0:0:0:0:
432,40,20623,1,0,0:0:0:0:
160,60,20796,6,0,L|256:88,1,90
64,36,21140,1,0,0:0:0:0:
112,152,21313,1,0,0:0:0:0:
120,176,21399,1,0,0:0:0:0:
128,192,21485,1,0,0:0:0:0:
136,208,21571,1,0,0:0:0:0:
144,224,21658,1,0,0:0:0:0:
240,328,21830,1,0,0:0:0:0:
112,312,22002,1,0,0:0:0:0:
336,264,22175,5,0,0:0:0:0:
256,168,22347,1,0,0:0:0:0:
376,152,22520,1,0,0:0:0:0:
208,288,22692,2,0,L|264:240,1,45
360,296,22865,2,0,L|320:248,1,45
200,96,23037,1,0,0:0:0:0:
152,192,23209,1,0,0:0:0:0:
304,80,23382,1,0,0:0:0:0:
144,32,23554,6,0,P|88:56|96:104,1,90
256,160,23899,2,0,L|336:216,2,90
376,272,24416,1,0,0:0:0:0:
288,40,24589,1,0,0:0:0:0:
224,272,24761,1,0,0:0:0:0:
416,88,24933,5,0,0:0:0:0:
152,120,25106,1,0,0:0:0:0:
312,216,25278,1,0,0:0:0:0:
272,24,25451,1,0,0:0:0:0:
272,24,25537,1,0,0:0:0:0:
272,24,25623,1,0,0:0:0:0:
272,24,25709,1,0,0:0:0:0:
272,24,25796,1,0,0:0:0:0:
432,168,25968,5,0,0:0:0:0:
336,80,26140,1,0,0:0:0:0:
288,224,26313,5,0,0:0:0:0:
296,336,26485,1,0,0:0:0:0:
200,152,26658,1,0,0:0:0:0:
152,288,26830,1,0,0:0:0:0:
152,288,26916,1,0,0:0:0:0:
152,288,27002,1,0,0:0:0:0:
152,288,27089,1,0,0:0:0:0:
152,288,27175,1,0,0:0:0:0:
304,208,27347,5,0,0:0:0:0:
192,272,27520,1,0,0:0:0:0:
72,64,27692,5,0,0:0:0:0:
256,120,27865,1,0,0:0:0:0:
184,32,28037,1,0,0:0:0:0:
120,168,28209,1,0,0:0:0:0:
120,168,28296,1,0,0:0:0:0:
120,168,28382,1,0,0:0:0:0:
120,168,28468,1,0,0:0:0:0:
120,168,28554,1,0,0:0:0:0:
52,253,28727,5,0,0:0:0:0:
120,168,28899,1,0,0:0:0:0:
264,72,29071,6,0,P|296:112|328:96,1,90
256,208,29416,1,0,0:0:0:0:
328,8,29589,2,0,L|288:104,2,90
432,312,30278,1,0,0:0:0:0:
432,312,30451,5,0,0:0:0:0:
440,200,30623,1,0,0:0:0:0:
312,328,30796,1,0,0:0:0:0:
320,192,30968,1,0,0:0:0:0:
320,192,31054,1,0,0:0:0:0:
320,192,31140,1,0,0:0:0:0:
320,192,31227,1,0,0:0:0:0:
320,192,31313,1,0,0:0:0:0:
464,336,31485,5,0,0:0:0:0:
320,192,31658,1,0,0:0:0:0:
432,72,31830,5,0,0:0:0:0:
440,184,32002,1,0,0:0:0:0:
312,56,32175,1,0,0:0:0:0:
320,192,32347,1,0,0:0:0:0:
320,192,32433,1,0,0:0:0:0:
320,192,32519,1,0,0:0:0:0:
320,192,32606,1,0,0:0:0:0:
320,192,32692,1,0,0:0:0:0:
464,48,32864,5,0,0:0:0:0:
320,192,33037,1,0,0:0:0:0:
256,128,33209,5,0,0:0:0:0:
154,80,33381,1,0,0:0:0:0:
228,246,33554,1,0,0:0:0:0:
103,189,33726,1,0,0:0:0:0:
103,189,33812,1,0,0:0:0:0:
103,189,33898,1,0,0:0:0:0:
103,189,33985,1,0,0:0:0:0:
103,189,34071,1,0,0:0:0:0:
290,107,34243,5,0,0:0:0:0:
103,189,34416,1,0,0:0:0:0:
224,312,34589,6,0,B|272:280|272:216|272:216|352:192,1,180
160,224,35106,1,0,0:0:0:0:
248,104,35278,1,0,0:0:0:0:
336,240,35451,1,0,0:0:0:0:
32,16,35796,1,0,0:0:0:0:
32,16,35968,5,0,0:0:0:0:
40,128,36140,1,0,0:0:0:0:
168,64,36313,1,0,0:0:0:0:
136,216,36485,1,0,0:0:0:0:
136,216,36571,1,0,0:0:0:0:
136,216,36658,1,0,0:0:0:0:
136,216,36744,1,0,0:0:0:0:
136,216,36830,1,0,0:0:0:0:
288,144,37002,1,0,0:0:0:0:
232,312,37175,1,0,0:0:0:0:
288,144,37347,5,0,0:0:0:0:
232,312,37520,1,0,0:0:0:0:
384,232,37692,1,0,0:0:0:0:
376,352,37865,1,0,0:0:0:0:
376,352,37951,1,0,0:0:0:0:
376,352,38037,1,0,0:0:0:0:
376,352,38123,1,0,0:0:0:0:
376,352,38209,1,0,0:0:0:0:
384,232,38382,1,0,0:0:0:0:
232,312,38554,1,0,0:0:0:0:
384,232,38727,5,0,0:0:0:0:
232,312,38899,1,0,0:0:0:0:
288,144,39071,1,0,0:0:0:0:
120,200,39244,1,0,0:0:0:0:
120,200,39330,1,0,0:0:0:0:
120,200,39416,1,0,0:0:0:0:
120,200,39502,1,0,0:0:0:0:
120,200,39589,1,0,0:0:0:0:
168,64,39761,1,0,0:0:0:0:
40,128,39933,1,0,0:0:0:0:
32,16,40106,5,0,0:0:0:0:
136,120,40278,1,0,0:0:0:0:
256,240,40451,2,0,L|184:168,2,90
312,112,40968,1,0,0:0:0:0:
136,264,41313,1,0,0:0:0:0:
136,264,41485,5,0,0:0:0:0:
224,176,41658,1,0,0:0:0:0:
256,280,41830,1,0,0:0:0:0:
104,144,42002,2,0,L|72:96,1,45
64,80,42175,2,0,L|112:48,1,45
136,32,42347,1,0,0:0:0:0:
256,72,42520,1,0,0:0:0:0:
256,184,42692,1,0,0:0:0:0:
376,120,42865,5,0,0:0:0:0:
288,208,43038,1,0,0:0:0:0:
256,104,43210,1,0,0:0:0:0:
408,240,43382,2,0,L|440:288,1,45
448,304,43555,2,0,L|400:336,1,45
376,352,43727,1,0,0:0:0:0:
256,312,43900,1,0,0:0:0:0:
256,200,44072,1,0,0:0:0:0:
256,88,44244,5,0,0:0:0:0:
256,256,44416,1,0,0:0:0:0:
256,144,44589,1,0,0:0:0:0:
256,200,44761,1,0,0:0:0:0:
256,200,44847,1,0,0:0:0:0:
256,200,44933,1,0,0:0:0:0:
256,200,45020,1,0,0:0:0:0:
256,200,45106,1,0,0:0:0:0:
256,64,45278,5,4,0:0:0:0:
160,320,45451,5,4,0:0:0:0:
384,160,45623,5,4,0:0:0:0:
128,160,45796,5,4,0:0:0:0:
352,320,45968,5,4,0:0:0:0:
256,64,46140,5,0,0:0:0:0:
256,64,46227,2,2,L|256:128,1,45
160,320,46399,6,4,L|192:288,1,45
384,160,46571,6,2,L|320:160,1,45
128,160,46744,6,4,L|192:160,1,45
352,320,46916,6,6,L|320:288,1,45
96,64,67694,5,0,0:0:0:0:
416,64,68384,5,0,0:0:0:0:
256,320,69074,5,0,0:0:0:0:
208,128,69936,6,0,B|168:112|144:88|144:88|144:104|120:104,1,90
136,304,70453,1,0,0:0:0:0:
392,104,71315,5,0,0:0:0:0:
128,64,71832,1,0,0:0:0:0:
232,64,72694,6,0,B|216:104|192:128|192:128|208:128|208:152,1,90
392,240,73211,1,0,0:0:0:0:
424,40,73556,1,0,0:0:0:0:
128,80,74074,6,0,P|76:95|109:118,1,90
176,200,74419,1,0,0:0:0:0:
256,336,74591,1,0,0:0:0:0:
256,336,74936,5,0,0:0:0:0:
256,48,75281,1,0,0:0:0:0:
128,256,75625,1,0,0:0:0:0:
384,256,75970,1,0,0:0:0:0:
96,32,76315,1,0,0:0:0:0:
416,32,76660,1,0,0:0:0:0:
256,128,76832,6,0,L|256:224,1,90
256,336,77350,1,0,0:0:0:0:
256,336,77694,5,0,0:0:0:0:
256,48,78039,1,0,0:0:0:0:
128,128,78383,1,0,0:0:0:0:
384,128,78728,1,0,0:0:0:0:
96,304,79073,1,0,0:0:0:0:
416,304,79418,1,0,0:0:0:0:
256,48,79591,6,0,L|256:160,1,90
256,192,80108,1,0,0:0:0:0:
112,184,80453,6,0,B|152:104|152:104|112:72|112:72|216:120,1,242.999992584229
336,184,80798,6,0,B|352:112|352:112|384:152|384:152|400:104|400:104|448:192,1,242.999992584229
224,264,81143,6,0,B|289:229|289:229|279:280|279:280|326:261|326:261|289:354,1,242.999992584229
160,272,81487,6,0,B|113:195|113:195|65:212|65:212|160:149,1,242.999992584229
416,72,82177,1,0,0:0:0:0:
416,168,82350,2,0,P|408:256|344:248,1,161.999995056153
216,88,82867,1,0,0:0:0:0:
176,112,83212,5,0,0:0:0:0:
336,272,83556,5,0,0:0:0:0:
336,112,83901,5,0,0:0:0:0:
176,272,84246,5,0,0:0:0:0:
256,48,84591,5,0,0:0:0:0:
256,336,84936,2,0,B|208:272|272:240|272:240|240:208|240:208|272:192|272:192|224:128|272:32,1,323.999990112305
128,256,85625,6,0,B|96:272|96:272|64:256,3,72
224,128,86315,2,0,B|192:112|192:112|160:128,3,72
320,256,87005,6,0,B|288:272|288:272|256:256,3,72
416,128,87694,2,0,B|384:112|384:112|352:128,3,72
416,272,88384,6,0,L|384:320,7,36
272,192,89074,2,0,L|288:240,7,36
416,112,89763,2,0,L|384:160,3,36
368,112,90108,1,0,0:0:0:0:
336,80,90194,1,0,0:0:0:0:
304,48,90281,1,0,0:0:0:0:
272,32,90367,1,0,0:0:0:0:
224,16,90453,1,0,0:0:0:0:
176,16,90539,1,0,0:0:0:0:
128,32,90625,1,0,0:0:0:0:
96,64,90712,1,0,0:0:0:0:
80,112,90798,5,0,0:0:0:0:
96,160,90884,1,0,0:0:0:0:
120,200,90970,2,0,L|160:240,1,36
368,288,91143,6,0,P|440:240|408:176,1,116.999994644165
312,72,91487,1,0,0:0:0:0:
96,144,91660,1,0,0:0:0:0:
104,192,91746,1,0,0:0:0:0:
128,232,91832,1,0,0:0:0:0:
168,264,91919,1,0,0:0:0:0:
216,272,92005,1,0,0:0:0:0:
240,48,92177,5,0,0:0:0:0:
128,152,92350,1,0,0:0:0:0:
304,224,92522,1,0,0:0:0:0:
184,32,92694,1,0,0:0:0:0:
192,264,92867,1,0,0:0:0:0:
416,152,93039,1,0,0:0:0:0:
409,110,93125,1,0,0:0:0:0:
388,75,93211,1,0,0:0:0:0:
353,47,93298,1,0,0:0:0:0:
311,41,93384,1,0,0:0:0:0:
104,160,93556,6,0,P|128:240|176:264,1,116.999994644165
368,344,93901,2,0,P|352:272|296:256,1,116.999994644165
96,344,94246,1,0,0:0:0:0:
256,240,94419,1,0,0:0:0:0:
256,184,94505,1,0,0:0:0:0:
256,128,94591,1,0,0:0:0:0:
256,72,94677,1,0,0:0:0:0:
256,16,94763,1,0,0:0:0:0:
72,176,94936,5,0,0:0:0:0:
232,248,95108,1,0,0:0:0:0:
112,104,95281,1,0,0:0:0:0:
112,312,95453,1,0,0:0:0:0:
280,112,95625,1,0,0:0:0:0:
48,240,95798,1,0,0:0:0:0:
48,240,95884,1,0,0:0:0:0:
48,240,95970,1,0,0:0:0:0:
48,240,96056,2,0,L|96:280,1,58.4999973220826
320,320,96315,2,0,P|392:296|400:216,1,116.999994644165
424,40,96660,5,0,0:0:0:0:
320,200,96832,1,0,0:0:0:0:
472,144,97005,1,0,0:0:0:0:
256,80,97177,1,0,0:0:0:0:
216,51,97263,1,0,0:0:0:0:
171,38,97349,1,0,0:0:0:0:
120,43,97436,1,0,0:0:0:0:
80,71,97522,1,0,0:0:0:0:
192,264,97694,5,0,0:0:0:0:
232,112,97867,1,0,0:0:0:0:
256,312,98039,1,0,0:0:0:0:
184,112,98212,1,0,0:0:0:0:
144,296,98384,1,0,0:0:0:0:
336,192,98556,1,0,0:0:0:0:
380,172,98642,1,0,0:0:0:0:
413,139,98728,1,0,0:0:0:0:
435,93,98815,1,0,0:0:0:0:
431,44,98901,1,0,0:0:0:0:
112,56,99074,1,0,0:0:0:0:
112,56,99246,1,0,0:0:0:0:
120,168,99419,6,0,B|64:224|64:224|88:248|128:240,1,116.999994644165
336,168,99763,1,0,0:0:0:0:
336,72,99936,2,0,P|370:24|386:32,1,58.4999973220826
408,248,100108,2,0,P|452:285|443:301,1,58.4999973220826
256,248,100281,2,0,P|202:270|192:255,1,58.4999973220826
128,80,100453,6,0,P|64:128|80:160,1,116.999994644165
248,360,100798,1,0,0:0:0:0:
88,224,100970,1,0,0:0:0:0:
184,240,101143,1,0,0:0:0:0:
80,336,101315,2,0,L|128:368,1,58.4999973220826
224,232,101487,2,0,L|272:200,1,58.4999973220826
400,336,101660,1,0,0:0:0:0:
400,88,101832,1,0,0:0:0:0:
400,88,102005,1,0,0:0:0:0:
208,64,102177,6,0,P|136:48|104:112,1,116.999994644165
208,256,102522,1,0,0:0:0:0:
296,64,102694,1,0,0:0:0:0:
296,64,102781,1,0,0:0:0:0:
320,72,102867,1,0,0:0:0:0:
320,72,102953,1,0,0:0:0:0:
336,80,103039,1,0,0:0:0:0:
344,288,103212,1,0,0:0:0:0:
280,48,103384,1,0,0:0:0:0:
240,288,103556,5,0,0:0:0:0:
336,48,103729,1,0,0:0:0:0:
376,304,103901,1,0,0:0:0:0:
216,64,104074,1,0,0:0:0:0:
216,64,104161,1,0,0:0:0:0:
192,72,104247,1,0,0:0:0:0:
192,72,104333,1,0,0:0:0:0:
176,80,104419,1,0,0:0:0:0:
352,144,104591,1,0,0:0:0:0:
144,224,104763,1,0,0:0:0:0:
352,232,104936,5,0,0:0:0:0:
152,152,105108,1,0,0:0:0:0:
392,152,105281,1,0,0:0:0:0:
120,240,105453,1,0,0:0:0:0:
120,240,105539,1,0,0:0:0:0:
120,240,105625,1,0,0:0:0:0:
120,240,105712,1,0,0:0:0:0:
120,240,105798,1,0,0:0:0:0:
344,248,105970,1,0,0:0:0:0:
88,168,106143,1,0,0:0:0:0:
328,168,106315,5,0,0:0:0:0:
80,256,106487,1,0,0:0:0:0:
384,264,106660,1,0,0:0:0:0:
152,168,106832,1,0,0:0:0:0:
152,168,106919,2,0,L|104:208,1,58.4999973220826
152,168,107091,2,0,L|200:216,1,58.4999973220826
336,72,107350,1,0,0:0:0:0:
160,72,107522,1,0,0:0:0:0:
208,280,107694,6,0,P|256:312|304:280,1,116.999994644165
256,56,108039,1,0,0:0:0:0:
328,192,108212,1,0,0:0:0:0:
288,192,108298,1,0,0:0:0:0:
248,192,108384,1,0,0:0:0:0:
208,192,108470,1,0,0:0:0:0:
168,192,108556,1,0,0:0:0:0:
352,96,108729,5,0,0:0:0:0:
160,96,108901,1,0,0:0:0:0:
256,352,109074,1,0,0:0:0:0:
256,128,109246,1,0,0:0:0:0:
176,256,109419,1,0,0:0:0:0:
336,256,109591,1,0,0:0:0:0:
336,256,109677,1,0,0:0:0:0:
336,256,109763,1,0,0:0:0:0:
336,256,109850,1,0,0:0:0:0:
336,256,109936,1,0,0:0:0:0:
256,80,110108,1,0,0:0:0:0:
256,272,110281,1,0,0:0:0:0:
208,80,110453,6,0,P|256:48|304:80,1,116.999994644165
256,320,110798,1,0,0:0:0:0:
256,160,110970,1,0,0:0:0:0:
256,160,111056,1,0,0:0:0:0:
256,160,111143,1,0,0:0:0:0:
256,160,111229,1,0,0:0:0:0:
256,160,111315,1,0,0:0:0:0:
128,96,111487,1,0,0:0:0:0:
384,96,111660,1,0,0:0:0:0:
256,352,111832,5,0,0:0:0:0:
258,346,111919,1,0,0:0:0:0:
260,338,112005,1,0,0:0:0:0:
260,328,112091,1,0,0:0:0:0:
253,316,112177,1,0,0:0:0:0:
247,297,112263,1,0,0:0:0:0:
246,277,112350,1,0,0:0:0:0:
248,260,112436,1,0,0:0:0:0:
256,238,112522,1,0,0:0:0:0:
265,210,112608,1,0,0:0:0:0:
259,179,112694,1,0,0:0:0:0:
252,149,112781,1,0,0:0:0:0:
261,108,112867,2,0,L|207:68,1,58.4999973220826
276,306,113039,2,0,L|332:261,1,58.4999973220826
