osu file format v14

[General]
AudioFilename: audio.mp3
AudioLeadIn: 0
PreviewTime: 61522
Countdown: 0
SampleSet: Soft
StackLeniency: 0.5
Mode: 0
LetterboxInBreaks: 0
WidescreenStoryboard: 1

[Editor]
Bookmarks: 48706,61679
DistanceSpacing: 1
BeatDivisor: 4
GridSize: 4
TimelineZoom: 1

[Metadata]
Title:Laika (TV Size)
TitleUnicode:ライカ (TV Size)
Artist:Bird Bear Hare and Fish
ArtistUnicode:Bird Bear Hare and Fish
Creator:Vendanger
Version:Normal
Source:BORUTO-ボルト- NARUTO NEXT GENERATIONS
Tags:galileo galilei bbhf moon boots leica boruto anime japanese rock jrock ed ending male vocalist hooni
BeatmapID:2190801
BeatmapSetID:1044688

[Difficulty]
HPDrainRate:3
CircleSize:3.5
OverallDifficulty:4
ApproachRate:5
SliderMultiplier:1
SliderTickRate:1

[Events]
//Background and Video events
0,0,"z.jpg",0,0
//Break Periods
//Storyboard Layer 0 (Background)
//Storyboard Layer 1 (Fail)
//Storyboard Layer 2 (Pass)
//Storyboard Layer 3 (Foreground)
//Storyboard Layer 4 (Overlay)
//Storyboard Sound Samples

[TimingPoints]
104,405.405405405405,4,2,1,20,1,0
9833,-100,4,2,1,50,0,0
22806,-100,4,2,1,45,0,0
26658,-100,4,2,2,45,0,0
26860,-100,4,2,1,45,0,0
28279,-100,4,2,2,45,0,0
28482,-100,4,2,1,45,0,0
28887,-100,4,2,3,45,0,0
29090,-100,4,2,1,45,0,0
36387,-100,4,2,2,45,0,0
36590,-100,4,2,1,45,0,0
41860,-100,4,2,3,45,0,0
42063,-100,4,2,1,45,0,0
48752,-100,4,2,1,60,0,0
49158,-100,4,2,1,35,0,0
51995,-100,4,2,1,60,0,0
52806,-100,4,2,1,35,0,0
55239,-100,4,2,1,60,0,0
55441,-100,4,2,1,35,0,0
58482,-100,4,2,1,40,0,0
60103,-100,4,2,1,45,0,0
60914,-100,4,2,1,55,0,0
61725,-100,4,2,1,60,0,1
90914,-100,4,2,1,40,0,0
91016,-100,4,2,1,5,0,0

[Colours]
Combo1 : 255,118,72
Combo2 : 0,149,221
Combo3 : 253,204,113

[HitObjects]
56,48,9833,6,0,L|68:168,1,100,6|10,3:2|0:2,0:0:0:0:
144,208,10644,2,0,L|136:278,1,50,2|2,3:2|3:2,0:0:0:0:
132,308,11049,1,10,0:2:0:0:
132,308,11252,2,0,P|192:300|232:312,1,100,2|0,3:2|3:0,0:0:0:0:
272,336,11860,1,8,0:0:0:0:
372,344,12266,2,0,L|440:341,1,50,0|0,3:0|3:0,0:0:0:0:
468,324,12671,1,8,0:0:0:0:
492,228,13076,6,0,L|504:108,1,100,2|10,3:2|0:2,0:0:0:0:
480,32,13887,2,0,L|411:25,1,50,2|2,3:2|3:2,0:0:0:0:
392,52,14293,1,10,0:2:0:0:
392,52,14495,2,0,P|340:60|284:44,1,100,2|0,3:2|3:0,0:0:0:0:
252,20,15103,1,8,0:0:0:0:
152,36,15509,2,0,L|158:104,1,50,0|0,3:0|3:0,0:0:0:0:
172,132,15914,2,0,L|165:200,1,50,8|0,0:0|3:0,0:0:0:0:
148,228,16320,6,0,P|200:220|280:244,1,100,2|10,3:2|0:2,0:0:0:0:
344,256,17131,2,0,L|337:324,1,50,2|2,3:2|3:2,0:0:0:0:
356,352,17536,1,10,0:2:0:0:
356,352,17739,2,0,P|405:359|454:351,1,100,2|0,3:2|3:0,0:0:0:0:
496,324,18347,1,8,0:0:0:0:
504,224,18752,2,0,L|498:174,1,50,0|0,3:0|3:0,0:0:0:0:
504,128,19158,1,8,0:0:0:0:
464,36,19563,6,0,B|416:56|416:56|328:56,1,100,2|10,3:2|0:0,0:0:0:0:
268,64,20374,2,0,L|261:132,1,50,2|2,3:2|3:2,0:0:0:0:
257,166,20779,1,10,0:2:0:0:
257,166,20982,2,0,P|209:154|141:170,2,100,2|2|2,3:2|3:2|3:2,0:0:0:0:
348,206,22198,2,0,L|336:274,1,50,2|8,3:2|0:0,0:0:0:0:
313,351,22806,5,6,3:2:0:0:
224,304,23212,1,10,0:2:0:0:
139,364,23617,2,0,L|38:352,1,100,2|10,3:2|0:0,0:0:0:0:
4,317,24225,2,0,P|8:284|8:256,1,50,2|0,1:2|1:0,0:0:0:0:
80,196,24833,1,8,0:0:0:0:
80,196,25036,2,0,L|81:83,1,100,8|0,0:3|3:0,0:0:0:0:
60,52,25644,1,8,0:0:0:0:
148,8,26049,1,0,3:0:0:0:
228,68,26455,6,0,L|296:64,1,50,8|10,0:0|0:3,0:0:0:0:
324,84,26860,1,2,3:2:0:0:
276,172,27266,1,10,0:0:0:0:
330,260,27671,2,0,P|374:248|438:260,1,100,2|8,1:2|0:0,0:0:0:0:
468,284,28279,2,0,L|464:348,1,50,10|0,3:3|3:0,0:0:0:0:
376,384,28887,2,0,L|326:379,1,50,2|2,0:3|0:0,0:0:0:0:
284,360,29293,5,4,3:2:0:0:
184,360,29698,2,0,L|173:249,1,100,8|0,0:0|3:0,0:0:0:0:
116,188,30509,1,8,0:0:0:0:
116,188,30712,2,0,L|122:120,1,50,0|0,1:0|3:0,0:0:0:0:
132,40,31320,1,8,0:0:0:0:
232,48,31725,2,0,L|331:38,1,100,2|10,3:2|0:2,0:0:0:0:
360,60,32333,6,0,P|368:104|368:124,1,50,2|0,0:3|3:0,0:0:0:0:
292,172,32941,2,0,P|280:220|288:272,1,100,8|0,0:0|3:0,0:0:0:0:
364,340,33752,1,8,0:0:0:0:
364,340,33955,2,0,L|436:344,1,50,0|0,1:1|1:0,0:0:0:0:
456,252,34563,2,0,L|528:256,2,50,8|8|0,0:0|0:3|3:0,0:0:0:0:
360,240,35374,2,0,L|358:190,1,50,10|2,0:2|3:2,0:0:0:0:
336,144,35779,6,0,P|348:92|328:28,1,100,6|10,3:2|0:0,0:0:0:0:
300,16,36387,2,0,L|248:20,1,50,10|0,0:3|3:0,0:0:0:0:
192,104,36995,1,8,0:0:0:0:
192,104,37198,2,0,L|136:100,1,50,0|0,1:0|1:0,0:0:0:0:
44,124,37806,1,8,0:0:0:0:
68,220,38212,6,0,L|62:288,1,50,2|2,3:2|3:2,0:0:0:0:
44,316,38617,1,10,0:2:0:0:
44,316,38820,2,0,B|92:304|92:304|160:320,1,100,2|2,0:3|0:0,0:0:0:0:
188,336,39428,1,10,0:0:0:0:
284,364,39833,2,0,B|332:380|332:380|388:364,1,100,0|8,3:0|0:0,0:0:0:0:
428,348,40441,1,0,1:0:0:0:
428,348,40644,6,0,L|436:248,1,100,2|10,3:2|0:0,0:0:0:0:
392,160,41455,1,2,3:2:0:0:
432,68,41860,2,0,L|364:60,1,50,10|2,0:3|0:0,0:0:0:0:
336,40,42266,5,4,3:2:0:0:
240,72,42671,2,0,L|229:189,1,100,8|0,0:0|3:0,0:0:0:0:
156,240,43482,1,8,0:0:0:0:
156,240,43685,2,0,L|161:298,1,50,0|0,1:0|1:0,0:0:0:0:
244,332,44293,2,0,L|239:390,2,50,8|8|0,0:0|0:3|3:0,0:0:0:0:
272,292,44901,6,0,L|388:284,1,100,2|2,3:2|0:3,0:0:0:0:
420,300,45509,1,0,3:0:0:0:
435,201,45914,2,0,L|444:94,1,100,8|0,0:0|3:0,0:0:0:0:
348,64,46725,1,8,0:0:0:0:
348,64,46928,2,0,L|342:131,1,50,0|0,1:0|1:0,0:0:0:0:
252,156,47536,2,0,L|247:106,1,50,8|8,0:0|0:3,0:0:0:0:
228,60,47941,2,0,P|179:73|118:53,1,100,0|0,3:0|3:0,0:0:0:0:
36,36,48752,6,0,L|45:140,1,100,4|0,3:2|3:0,0:0:0:0:
76,176,49360,1,2,0:0:0:0:
76,176,49563,2,0,L|66:280,1,100,2|2,3:2|3:2,0:0:0:0:
28,368,50374,1,0,3:0:0:0:
128,380,50779,1,0,3:0:0:0:
224,356,51185,2,0,P|272:348|328:356,1,100,0|0,3:0|3:0,0:0:0:0:
364,380,51793,1,0,3:0:0:0:
364,380,51995,6,0,L|373:267,1,100,4|0,3:2|3:0,0:0:0:0:
376,180,52806,1,0,3:0:0:0:
376,180,53009,2,0,L|370:113,1,50,2|2,0:0|3:2,0:0:0:0:
360,80,53414,2,0,L|364:30,1,50,2|0,0:0|3:0,0:0:0:0:
276,0,54022,1,0,3:0:0:0:
184,32,54428,1,0,3:0:0:0:
184,32,54631,2,0,L|117:26,1,50,8|0,0:0|3:0,0:0:0:0:
36,32,55239,5,6,3:2:0:0:
16,128,55644,1,2,3:2:0:0:
60,216,56049,2,0,P|68:280|60:331,1,100,2|2,3:2|3:2,0:0:0:0:
40,360,56658,2,0,B|128:336|128:336|204:348,1,150,2|2,0:2|3:2,0:0:0:0:
224,376,57468,1,2,0:0:0:0:
320,348,57874,1,2,0:0:0:0:
468,360,58482,6,0,L|477:247,1,100,0|0,3:0|3:0,0:0:0:0:
440,168,59293,2,0,L|432:68,1,100,0|0,3:0|3:0,0:0:0:0:
352,8,60103,1,0,3:0:0:0:
256,32,60509,1,0,3:0:0:0:
156,20,60914,2,0,L|150:86,1,50,0|0,3:0|3:0,0:0:0:0:
132,116,61320,2,0,L|137:182,1,50,0|0,3:0|3:0,0:0:0:0:
152,212,61725,6,0,L|142:326,1,100,6|10,3:2|0:0,0:0:0:0:
224,376,62536,2,0,L|227:326,1,50,2|2,3:2|3:2,0:0:0:0:
252,284,62941,1,10,0:2:0:0:
252,284,63144,2,0,P|300:292|356:276,1,100,2|0,3:2|3:0,0:0:0:0:
392,256,63752,1,8,0:0:0:0:
492,244,64158,2,0,L|489:194,1,50,0|0,3:0|3:0,0:0:0:0:
504,144,64563,1,8,0:0:0:0:
484,48,64968,6,0,L|434:51,1,50,2|2,3:2|0:2,0:0:0:0:
388,76,65374,1,10,0:0:0:0:
296,52,65779,1,2,3:2:0:0:
296,52,65982,2,0,L|246:49,1,50,2|8,3:2|0:0,0:0:0:0:
200,28,66387,2,0,P|212:80|196:136,1,100,2|0,3:2|3:0,0:0:0:0:
176,168,66995,1,8,0:0:0:0:
148,264,67401,2,0,L|198:267,1,50,0|0,3:0|3:0,0:0:0:0:
236,300,67806,2,0,L|286:297,1,50,8|0,0:0|3:0,0:0:0:0:
324,332,68212,6,0,P|322:282|335:234,1,100,2|10,3:2|0:0,0:0:0:0:
420,180,69022,2,0,L|417:130,1,50,2|2,3:2|3:2,0:0:0:0:
440,84,69428,1,10,0:2:0:0:
440,84,69631,2,0,P|388:96|328:76,1,100,2|0,3:2|3:0,0:0:0:0:
308,48,70239,1,10,0:0:0:0:
308,48,70441,2,0,L|191:54,1,100,2|0,0:0|3:0,0:0:0:0:
160,72,71049,1,10,0:0:0:0:
160,72,71252,6,0,L|44:64,1,100,2|0,0:0|0:0,0:0:0:0:
16,44,71860,1,8,0:0:0:0:
4,144,72266,2,0,L|7:194,1,50,0|0,3:0|3:0,0:0:0:0:
24,240,72671,1,8,0:0:0:0:
24,240,72874,6,0,P|72:228|128:244,1,100,2|2,3:2|3:2,0:0:0:0:
160,272,73482,1,10,0:2:0:0:
160,272,73685,2,0,B|208:288|208:288|254:270,1,100,2|2,3:2|3:2,0:0:0:0:
304,264,74293,1,8,0:0:0:0:
396,300,74698,6,0,L|399:250,1,50,6|2,3:2|0:2,0:0:0:0:
432,212,75103,2,0,L|429:162,1,50,10|2,0:2|0:2,0:0:0:0:
408,116,75509,2,0,L|411:66,1,50,2|2,3:2|3:2,0:0:0:0:
436,24,75914,1,10,0:2:0:0:
436,24,76117,2,0,P|392:32|324:16,1,100,2|0,3:2|3:0,0:0:0:0:
292,4,76725,1,8,0:0:0:0:
192,16,77131,2,0,L|195:66,1,50,0|0,3:0|3:0,0:0:0:0:
220,108,77536,1,8,0:0:0:0:
196,204,77941,6,0,L|146:207,1,50,2|2,3:2|0:2,0:0:0:0:
100,224,78347,1,10,0:0:0:0:
4,244,78752,1,2,3:2:0:0:
4,244,78955,2,0,L|7:294,1,50,2|8,3:2|0:0,0:0:0:0:
24,340,79360,2,0,P|68:328|128:344,1,100,2|0,3:2|3:0,0:0:0:0:
160,368,79968,1,8,0:0:0:0:
240,312,80374,2,0,L|243:262,1,50,0|0,3:0|3:0,0:0:0:0:
276,224,80779,2,0,L|273:174,1,50,8|0,0:0|3:0,0:0:0:0:
248,128,81185,6,0,P|296:144|356:116,1,100,2|10,3:2|0:2,0:0:0:0:
436,96,81995,2,0,L|439:146,1,50,2|2,3:2|3:2,0:0:0:0:
460,192,82401,1,10,0:2:0:0:
460,192,82603,2,0,L|453:306,1,100,2|0,3:2|3:0,0:0:0:0:
472,340,83212,1,10,0:0:0:0:
472,340,83414,2,0,P|420:328|356:348,1,100,2|0,0:2|3:0,0:0:0:0:
332,360,84022,1,10,0:2:0:0:
332,360,84225,6,0,L|224:353,1,100,2|0,0:0|0:0,0:0:0:0:
184,360,84833,1,8,0:0:0:0:
84,348,85239,2,0,L|79:281,1,50,0|0,3:0|3:0,0:0:0:0:
60,252,85644,1,8,0:0:0:0:
60,252,85847,6,0,B|73:205|73:205|60:155,1,100,2|2,3:2|3:2,0:0:0:0:
40,112,86455,1,10,0:2:0:0:
40,112,86658,2,0,P|88:96|144:112,1,100,2|2,3:2|3:2,0:0:0:0:
172,140,87266,1,8,0:0:0:0:
276,116,87671,6,0,L|386:122,1,100,4|0,3:2|3:0,0:0:0:0:
472,152,88482,1,0,3:0:0:0:
448,248,88887,1,0,3:0:0:0:
472,344,89293,2,0,P|424:336|360:348,1,100,0|0,3:0|3:0,0:0:0:0:
276,356,90103,2,0,P|226:363|177:355,1,100,0|8,3:0|0:3,0:0:0:0:
100,292,90914,5,8,0:0:0:0:
