osu file format v14

[General]
AudioFilename: audio.mp3
AudioLeadIn: 0
PreviewTime: 61522
Countdown: 0
SampleSet: Soft
StackLeniency: 0.5
Mode: 0
LetterboxInBreaks: 0
WidescreenStoryboard: 0

[Editor]
Bookmarks: 48701,61674
DistanceSpacing: 0.2
BeatDivisor: 4
GridSize: 4
TimelineZoom: 1

[Metadata]
Title:Laika (TV Size)
TitleUnicode:ライカ (TV Size)
Artist:Bird Bear Hare and Fish
ArtistUnicode:Bird Bear Hare and Fish
Creator:Vendanger
Version:Hope
Source:BORUTO-ボルト- NARUTO NEXT GENERATIONS
Tags:galileo galilei bbhf moon boots leica boruto anime japanese rock jrock ed ending male vocalist hooni
BeatmapID:2183893
BeatmapSetID:1044688

[Difficulty]
HPDrainRate:5
CircleSize:4
OverallDifficulty:8
ApproachRate:9
SliderMultiplier:1.8
SliderTickRate:1

[Events]
//Background and Video events
0,0,"z.jpg",0,0
//Break Periods
//Storyboard Layer 0 (Background)
//Storyboard Layer 1 (Fail)
//Storyboard Layer 2 (Pass)
//Storyboard Layer 3 (Foreground)
//Storyboard Layer 4 (Overlay)
//Storyboard Sound Samples

[TimingPoints]
104,405.405405405405,4,2,1,20,1,0
104,-125,4,2,1,20,0,0
2435,-125,4,2,1,5,0,0
2536,-125,4,2,1,25,0,0
3043,-125,4,2,1,5,0,0
3144,-100,4,2,1,50,0,0
3549,-100,4,2,1,30,0,0
6590,-100,4,2,1,40,0,0
7401,-100,4,2,1,45,0,0
8212,-100,4,2,1,50,0,0
9833,-76.9230769230769,4,2,1,50,0,0
10137,-76.9230769230769,4,2,1,5,0,0
10239,-76.9230769230769,4,2,1,50,0,0
13381,-76.9230769230769,4,2,1,5,0,0
13482,-76.9230769230769,4,2,1,50,0,0
14799,-76.9230769230769,4,2,1,5,0,0
14901,-76.9230769230769,4,2,1,50,0,0
16624,-76.9230769230769,4,2,1,5,0,0
16725,-76.9230769230769,4,2,1,50,0,0
19867,-76.9230769230769,4,2,1,5,0,0
19968,-76.9230769230769,4,2,1,50,0,0
22097,-76.9230769230769,4,2,1,5,0,0
22198,-76.9230769230769,4,2,1,50,0,0
22806,-90.9090909090909,4,2,1,45,0,0
23414,-90.9090909090909,4,2,2,45,0,0
23617,-90.9090909090909,4,2,1,45,0,0
26658,-90.9090909090909,4,2,2,45,0,0
26860,-90.9090909090909,4,2,1,45,0,0
28279,-90.9090909090909,4,2,2,45,0,0
28482,-90.9090909090909,4,2,1,45,0,0
28887,-90.9090909090909,4,2,3,45,0,0
29090,-90.9090909090909,4,2,1,45,0,0
36387,-90.9090909090909,4,2,2,45,0,0
36590,-90.9090909090909,4,2,1,45,0,0
41252,-90.9090909090909,4,2,2,45,0,0
41455,-90.9090909090909,4,2,1,45,0,0
41860,-90.9090909090909,4,2,3,45,0,0
42063,-90.9090909090909,4,2,1,45,0,0
42570,-90.9090909090909,4,2,1,5,0,0
42671,-90.9090909090909,4,2,1,45,0,0
48448,-90.9090909090909,4,2,1,5,0,0
48549,-90.9090909090909,4,2,1,45,0,0
48651,-90.9090909090909,4,2,1,5,0,0
48752,-142.857142857143,4,2,1,60,0,0
49158,-142.857142857143,4,2,1,35,0,0
51995,-142.857142857143,4,2,1,60,0,0
52806,-142.857142857143,4,2,1,35,0,0
55239,-142.857142857143,4,2,1,60,0,0
55441,-142.857142857143,4,2,1,35,0,0
56353,-142.857142857143,4,2,1,5,0,0
56455,-142.857142857143,4,2,1,35,0,0
58482,-142.857142857143,4,2,1,40,0,0
59293,-142.857142857143,4,2,1,45,0,0
60103,-142.857142857143,4,2,1,50,0,0
60914,-142.857142857143,4,2,1,55,0,0
61725,-66.6666666666667,4,2,1,60,0,1
62029,-66.6666666666667,4,2,1,5,0,1
62131,-66.6666666666667,4,2,1,60,0,1
62435,-66.6666666666667,4,2,1,5,0,1
62536,-66.6666666666667,4,2,1,60,0,1
68516,-66.6666666666667,4,2,1,5,0,1
68617,-66.6666666666667,4,2,1,60,0,1
68921,-66.6666666666667,4,2,1,5,0,1
69022,-66.6666666666667,4,2,1,60,0,1
87671,-125,4,2,1,50,0,0
87975,-125,4,2,1,5,0,0
88076,-125,4,2,1,35,0,0
90306,-125,4,2,1,5,0,0
90408,-125,4,2,1,35,0,0
90712,-125,4,2,1,5,0,0
90813,-125,4,2,1,35,0,0
90914,-83.3333333333333,4,2,1,40,0,0

[Colours]
Combo1 : 255,118,72
Combo2 : 0,149,221
Combo3 : 253,204,113

[HitObjects]
32,52,104,5,2,0:0:0:0:
44,72,306,1,2,0:0:0:0:
56,92,509,2,0,L|48:188,1,72,2|2,0:0|0:0,0:0:0:0:
128,288,914,2,0,L|141:120,1,144,2|2,0:0|0:0,0:0:0:0:
144,44,1522,2,0,P|212:26|308:58,1,144,2|2,0:0|0:0,0:0:0:0:
336,128,2131,2,0,P|392:136|456:120,1,108,2|0,0:0|0:0,0:0:0:0:
464,108,2536,1,2,0:0:0:0:
512,232,2739,2,0,L|504:344,1,108,2|0,0:0|0:0,0:0:0:0:
428,368,3144,1,8,0:0:0:0:
428,368,3245,1,8,0:0:0:0:
428,368,3347,6,0,L|435:267,1,90,0|0,3:0|0:0,0:0:0:0:
348,220,3752,2,0,L|341:309,1,90,0|0,3:0|0:0,0:0:0:0:
156,368,4158,2,0,L|149:267,1,90,0|0,3:0|0:0,0:0:0:0:
236,220,4563,2,0,L|243:309,1,90,0|0,3:0|0:0,0:0:0:0:
160,144,4968,6,0,P|228:116|268:116,1,90,0|0,3:0|0:0,0:0:0:0:
324,56,5374,2,0,P|256:28|216:28,1,90,0|0,3:0|0:0,0:0:0:0:
332,160,5779,2,0,P|371:138|415:130,1,90,0|0,3:0|0:0,0:0:0:0:
496,247,6185,2,0,P|456:225|412:217,1,90,0|0,3:0|0:0,0:0:0:0:
512,144,6590,5,0,3:0:0:0:
415,130,6793,1,0,3:0:0:0:
472,52,6995,1,0,3:0:0:0:
333,71,7198,1,0,3:0:0:0:
392,0,7401,5,0,3:0:0:0:
332,156,7603,1,0,3:0:0:0:
248,64,7806,1,0,3:0:0:0:
244,256,8008,1,0,3:0:0:0:
333,71,8212,5,0,3:0:0:0:
133,161,8414,1,0,3:0:0:0:
300,0,8617,1,0,3:0:0:0:
336,252,8819,1,0,3:0:0:0:
156,82,9022,5,0,3:0:0:0:
424,200,9225,1,0,3:0:0:0:
240,28,9428,1,0,3:0:0:0:
492,107,9631,1,0,3:0:0:0:
204,16,9833,6,0,L|196:208,1,175.499991966248,6|0,3:2|0:0,0:0:0:0:
188,264,10239,2,0,P|252:232|324:248,1,116.999994644165,10|0,0:2|0:0,0:0:0:0:
432,256,10644,1,2,3:2:0:0:
264,112,10847,1,2,3:2:0:0:
296,312,11049,1,10,0:2:0:0:
416,108,11252,6,0,L|428:252,1,116.999994644165,2|0,3:2|0:0,0:0:0:0:
340,84,11658,1,0,3:0:0:0:
300,280,11860,2,0,L|290:163,1,116.999994644165,8|0,0:0|0:0,0:0:0:0:
396,28,12266,1,0,3:0:0:0:
376,180,12468,1,0,3:0:0:0:
252,44,12671,2,0,P|196:28|116:48,1,116.999994644165,8|0,0:0|0:0,0:0:0:0:
16,224,13076,6,0,P|89:245|195:218,1,175.499991966248,2|0,3:2|0:0,0:0:0:0:
224,156,13482,2,0,L|216:324,1,116.999994644165,10|0,0:2|0:0,0:0:0:0:
136,368,13887,1,2,3:2:0:0:
356,328,14090,1,2,3:2:0:0:
196,296,14293,1,10,0:2:0:0:
392,384,14495,6,0,L|383:203,1,175.499991966248,2|0,3:2|0:0,0:0:0:0:
336,144,14901,1,0,3:0:0:0:
308,280,15103,2,0,L|316:109,1,116.999994644165,8|0,0:0|0:0,0:0:0:0:
388,28,15509,1,0,3:0:0:0:
228,80,15712,1,0,3:0:0:0:
448,120,15914,1,8,0:0:0:0:
296,16,16117,1,0,3:0:0:0:
376,224,16320,6,0,B|388:260|388:260|224:232,1,175.499991966248,2|0,3:2|0:0,0:0:0:0:
180,264,16725,2,0,B|348:292,1,116.999994644165,10|0,0:2|0:0,0:0:0:0:
436,368,17131,1,2,3:2:0:0:
468,144,17333,1,2,3:2:0:0:
396,288,17536,1,10,0:2:0:0:
360,104,17739,6,0,P|344:168|344:256,1,116.999994644165,2|0,3:2|0:0,0:0:0:0:
412,376,18144,1,0,3:0:0:0:
220,352,18347,2,0,L|356:340,1,116.999994644165,8|0,0:0|0:0,0:0:0:0:
424,228,18752,1,0,3:0:0:0:
448,368,18955,1,0,3:0:0:0:
280,264,19158,2,0,L|163:274,1,116.999994644165,8|0,0:0|0:0,0:0:0:0:
336,344,19563,6,0,P|364:263|325:188,1,175.499991966248,2|0,3:2|0:0,0:0:0:0:
260,160,19968,2,0,L|377:150,1,116.999994644165,10|0,0:0|0:0,0:0:0:0:
512,44,20374,1,2,3:2:0:0:
408,232,20576,1,2,3:2:0:0:
368,64,20779,1,10,0:2:0:0:
488,240,20982,6,0,B|499:194|499:194|483:126,1,116.999994644165,2|0,3:2|0:0,0:0:0:0:
288,168,21387,2,0,B|276:213|276:213|292:281,1,116.999994644165,2|8,3:2|0:0,0:0:0:0:
512,240,21793,2,0,B|523:194|523:194|492:48,1,175.499991966248,2|0,3:2|0:0,0:0:0:0:
472,0,22198,1,2,3:2:0:0:
272,32,22401,1,8,0:0:0:0:
392,84,22603,1,2,3:2:0:0:
216,152,22806,6,0,P|292:144|336:152,1,99.0000030212403,6|2,3:2|0:0,0:0:0:0:
160,64,23212,1,10,0:2:0:0:
144,224,23414,1,10,0:3:0:0:
56,128,23617,2,0,L|44:252,1,99.0000030212403,2|0,3:2|3:0,0:0:0:0:
104,364,24022,1,10,0:0:0:0:
184,256,24225,2,0,L|194:316,2,49.5000015106202,2|0|0,1:2|1:0|1:0,0:0:0:0:
184,256,24833,5,8,0:0:0:0:
176,384,25036,1,8,0:3:0:0:
192,232,25239,1,0,3:0:0:0:
260,320,25442,1,0,3:0:0:0:
116,288,25644,1,8,0:0:0:0:
256,184,25847,2,0,L|372:192,1,99.0000030212403,2|0,2:3|3:0,0:0:0:0:
354,190,26455,5,8,0:0:0:0:
408,320,26658,1,10,0:3:0:0:
476,192,26860,2,0,P|480:128|468:80,1,99.0000030212403,2|2,3:2|3:2,0:0:0:0:
328,16,27266,2,0,P|319:64|324:113,1,99.0000030212403,10|2,0:0|1:2,0:0:0:0:
348,148,27570,1,0,1:0:0:0:
348,148,27671,6,0,P|300:136|236:156,1,99.0000030212403,2|2,1:2|0:0,0:0:0:0:
136,200,28076,1,8,0:0:0:0:
160,80,28279,2,0,L|152:178,1,99.0000030212403,10|0,3:3|3:0,0:0:0:0:
76,256,28685,1,0,3:0:0:0:
24,96,28887,2,0,L|32:194,1,99.0000030212403,10|2,0:3|0:0,0:0:0:0:
24,352,29293,6,0,B|72:332|72:332|136:340,1,99.0000030212403,4|0,3:2|0:0,0:0:0:0:
268,384,29698,1,8,0:0:0:0:
200,280,29901,1,8,0:3:0:0:
152,352,30103,2,0,P|192:368|260:344,1,99.0000030212403,0|0,3:0|3:0,0:0:0:0:
380,264,30509,1,8,0:0:0:0:
316,344,30712,2,0,L|309:294,1,49.5000015106202,0|0,1:0|1:0,0:0:0:0:
308,160,30914,6,0,P|376:136|420:140,1,99.0000030212403,0|0,3:0|0:0,0:0:0:0:
472,80,31320,2,0,P|404:56|360:60,1,99.0000030212403,8|8,0:0|0:3,0:0:0:0:
268,88,31725,1,2,3:2:0:0:
264,232,31928,1,2,3:2:0:0:
288,80,32131,1,10,0:2:0:0:
352,244,32333,1,2,0:3:0:0:
216,156,32536,6,0,P|156:148|96:160,1,99.0000030212403,0|0,3:0|0:0,0:0:0:0:
4,208,32941,1,8,0:0:0:0:
72,84,33144,1,8,0:3:0:0:
104,184,33347,2,0,L|96:300,1,99.0000030212403,0|0,3:0|3:0,0:0:0:0:
176,384,33752,1,8,0:0:0:0:
240,316,33955,2,0,L|332:310,2,49.5000015106202,0|0|0,1:1|1:0|1:0,0:0:0:0:
240,316,34563,5,8,0:0:0:0:
156,188,34766,1,8,0:3:0:0:
232,280,34968,1,0,3:0:0:0:
104,292,35171,1,2,3:2:0:0:
240,196,35374,2,0,P|304:192|348:200,1,99.0000030212403,10|2,0:2|3:2,0:0:0:0:
396,264,35678,1,0,3:0:0:0:
396,264,35779,6,0,L|388:124,1,99.0000030212403,6|2,3:2|0:0,0:0:0:0:
463,56,36185,1,10,0:0:0:0:
504,184,36387,1,10,0:3:0:0:
368,92,36590,2,0,L|362:190,1,99.0000030212403,0|0,3:0|3:0,0:0:0:0:
348,348,36995,1,8,0:0:0:0:
408,276,37198,2,0,L|476:288,2,49.5000015106202,0|0|0,1:0|1:0|1:0,0:0:0:0:
408,276,37806,5,8,0:0:0:0:
256,268,38009,1,8,0:3:0:0:
388,252,38212,1,2,3:2:0:0:
320,352,38415,1,2,3:2:0:0:
348,188,38617,1,10,0:2:0:0:
192,328,38820,6,0,P|172:264|180:216,1,99.0000030212403,2|0,0:3|0:0,0:0:0:0:
288,152,39225,1,2,0:0:0:0:
288,152,39428,2,0,P|308:216|300:264,1,99.0000030212403,10|8,0:0|0:3,0:0:0:0:
200,320,39833,1,0,3:0:0:0:
328,340,40036,1,0,3:0:0:0:
224,216,40239,1,8,0:0:0:0:
356,244,40441,2,0,L|416:240,1,49.5000015106202,0|0,1:0|1:0,0:0:0:0:
476,144,40644,6,0,L|362:151,1,99.0000030212403,2|2,3:2|0:0,0:0:0:0:
244,196,41049,1,10,0:0:0:0:
316,60,41252,1,10,0:3:0:0:
376,180,41455,2,0,P|384:236|368:292,1,99.0000030212403,2|0,3:2|3:0,0:0:0:0:
240,332,41860,2,0,P|230:283|238:235,1,99.0000030212403,10|2,0:3|0:0,0:0:0:0:
332,48,42266,6,0,L|144:24,1,148.50000453186,4|0,3:2|0:0,0:0:0:0:
148,44,42671,1,8,0:0:0:0:
104,172,42874,1,8,0:3:0:0:
192,128,43076,1,0,3:0:0:0:
56,84,43279,1,0,3:0:0:0:
204,156,43482,1,8,0:0:0:0:
96,200,43685,2,0,L|88:272,2,49.5000015106202,0|0|0,1:0|1:0|1:0,0:0:0:0:
96,200,44293,5,8,0:0:0:0:
16,348,44495,2,0,L|1:218,1,99.0000030212403,8|0,0:3|3:0,0:0:0:0:
40,132,44901,1,2,3:2:0:0:
152,260,45103,1,10,0:2:0:0:
16,224,45306,1,2,0:3:0:0:
164,144,45509,6,0,P|232:136|284:148,1,99.0000030212403,0|0,3:0|0:0,0:0:0:0:
424,244,45914,2,0,L|412:108,1,99.0000030212403,8|8,0:0|0:3,0:0:0:0:
332,212,46320,1,0,3:0:0:0:
344,84,46522,2,0,L|332:220,1,99.0000030212403,0|8,3:0|0:0,0:0:0:0:
232,236,46928,2,0,L|224:148,2,49.5000015106202,0|0|0,1:0|1:0|1:0,0:0:0:0:
232,236,47536,6,0,P|164:260|112:244,1,99.0000030212403,8|8,0:0|0:3,0:0:0:0:
169,132,47941,2,0,P|237:108|289:124,1,99.0000030212403,0|0,3:0|3:0,0:0:0:0:
332,156,48245,1,0,3:0:0:0:
332,156,48347,2,0,L|324:224,1,49.5000015106202,0|0,3:0|0:0,0:0:0:0:
408,260,48549,2,0,L|414:211,1,49.5000015106202,0|0,3:0|0:0,0:0:0:0:
326,205,48752,6,0,P|256:207|193:176,1,125.999996154785,4|0,3:2|3:0,0:0:0:0:
152,108,49360,1,2,0:0:0:0:
104,228,49563,2,0,L|92:156,1,62.9999980773926,2|0,3:2|0:0,0:0:0:0:
188,228,49968,2,0,L|177:290,1,62.9999980773926,2|0,3:2|0:0,0:0:0:0:
160,376,50374,5,0,3:0:0:0:
252,352,50779,1,0,3:0:0:0:
336,384,51185,1,0,3:0:0:0:
416,348,51590,2,0,L|428:276,1,62.9999980773926,0|0,3:0|3:0,0:0:0:0:
448,200,51894,1,0,3:0:0:0:
448,200,51995,6,0,P|477:236|361:242,1,251.999992309571,4|0,3:2|3:0,0:0:0:0:
352,152,53009,1,2,0:0:0:0:
352,152,53212,1,2,3:2:0:0:
256,184,53414,2,0,L|194:175,1,62.9999980773926,2|0,0:0|3:0,0:0:0:0:
128,108,54022,1,0,3:0:0:0:
40,160,54428,1,0,3:0:0:0:
4,16,54631,1,8,0:0:0:0:
32,120,54833,1,0,3:0:0:0:
96,8,55036,1,2,0:0:0:0:
96,8,55137,1,2,0:0:0:0:
96,8,55239,6,0,L|99:70,1,62.9999980773926,6|0,3:2|0:0,0:0:0:0:
136,160,55644,1,2,3:2:0:0:
136,160,55847,1,2,0:2:0:0:
200,76,56049,2,0,P|248:84|312:68,1,94.499997116089,2|2,3:2|0:0,0:0:0:0:
320,60,56455,1,2,3:2:0:0:
364,144,56658,2,0,P|412:136|500:148,1,125.999996154785,2|0,0:2|0:0,0:0:0:0:
512,228,57266,1,2,3:2:0:0:
432,284,57468,2,0,L|425:221,1,62.9999980773926,2|0,0:0|3:0,0:0:0:0:
344,144,57874,2,0,L|330:269,1,125.999996154785,2|0,0:0|0:0,0:0:0:0:
276,340,58482,5,0,3:0:0:0:
276,340,58685,1,0,3:0:0:0:
252,248,58887,1,0,3:0:0:0:
252,248,59090,1,0,3:0:0:0:
176,320,59293,5,0,3:0:0:0:
128,232,59495,1,0,3:0:0:0:
188,340,59698,1,0,3:0:0:0:
192,176,59901,1,0,3:0:0:0:
88,312,60103,5,0,3:0:0:0:
284,240,60306,1,0,3:0:0:0:
120,64,60509,1,0,3:0:0:0:
172,288,60712,1,0,3:0:0:0:
304,96,60914,5,0,3:0:0:0:
20,148,61117,1,0,3:0:0:0:
280,176,61320,1,0,3:0:0:0:
0,248,61523,1,0,3:0:0:0:
280,28,61725,6,0,L|264:252,1,202.500007724762,6|0,3:2|0:0,0:0:0:0:
176,320,62131,2,0,L|160:96,1,202.500007724762,10|0,0:0|0:0,0:0:0:0:
196,24,62536,1,2,3:2:0:0:
392,160,62739,1,2,3:2:0:0:
184,188,62941,1,10,0:2:0:0:
456,96,63144,6,0,P|388:72|352:236,1,270.000010299683,2|0,3:2|3:0,0:0:0:0:
472,120,63752,2,0,L|460:268,1,135.000005149842,8|0,0:0|0:0,0:0:0:0:
336,372,64158,1,0,3:0:0:0:
500,336,64360,1,0,3:0:0:0:
312,280,64563,2,0,L|460:268,1,135.000005149842,8|0,0:0|0:0,0:0:0:0:
292,144,64968,5,2,3:2:0:0:
248,352,65171,1,2,0:2:0:0:
156,180,65374,2,0,P|160:268|144:320,1,135.000005149842,10|0,0:0|0:0,0:0:0:0:
8,176,65779,1,2,3:2:0:0:
104,80,65982,2,0,L|252:96,1,135.000005149842,2|8,3:2|0:0,0:0:0:0:
408,264,66387,6,0,L|89:229,1,270.000010299683,2|0,3:2|3:0,0:0:0:0:
184,84,66995,2,0,P|172:160|188:216,1,135.000005149842,8|0,0:0|0:0,0:0:0:0:
320,300,67401,1,0,3:0:0:0:
304,144,67603,1,0,3:0:0:0:
200,336,67806,1,8,0:0:0:0:
352,288,68009,1,0,3:0:0:0:
72,164,68212,6,0,P|168:144|295:144,1,202.500007724762,2|0,3:2|0:0,0:0:0:0:
352,236,68618,2,0,P|232:228|128:240,1,202.500007724762,10|0,0:0|0:0,0:0:0:0:
48,284,69022,1,2,3:2:0:0:
244,332,69225,1,2,3:2:0:0:
88,132,69428,1,10,0:2:0:0:
268,352,69631,6,0,P|244:276|264:80,1,270.000010299683,2|0,3:2|3:0,0:0:0:0:
144,276,70239,1,10,0:0:0:0:
356,180,70441,2,0,P|443:247|338:281,1,270.000010299683,2|0,0:0|3:0,0:0:0:0:
216,228,71049,1,10,0:0:0:0:
456,88,71252,2,0,P|380:56|212:148,1,270.000010299683,2|0,0:0|0:0,0:0:0:0:
168,324,71860,2,0,L|160:182,1,135.000005149842,8|0,0:0|0:0,0:0:0:0:
156,68,72266,1,0,3:0:0:0:
60,216,72468,1,0,3:0:0:0:
260,232,72671,1,8,0:0:0:0:
24,88,72874,6,0,B|8:156|8:156|28:232,1,135.000005149842,2|0,3:2|0:0,0:0:0:0:
192,328,73279,1,2,3:2:0:0:
0,348,73482,1,10,0:2:0:0:
208,172,73685,2,0,B|224:240|224:240|208:303,1,135.000005149842,2|0,3:2|0:0,0:0:0:0:
124,128,74090,1,2,3:2:0:0:
275,79,74293,2,0,L|132:96,1,135.000005149842,8|0,0:0|3:0,0:0:0:0:
104,264,74698,5,6,3:2:0:0:
324,136,74901,1,2,0:2:0:0:
108,172,75103,1,10,0:2:0:0:
328,220,75306,1,2,0:2:0:0:
224,28,75509,1,2,3:2:0:0:
204,268,75712,1,2,3:2:0:0:
352,124,75914,1,10,0:2:0:0:
68,48,76117,6,0,L|80:336,1,270.000010299683,2|0,3:2|3:0,0:0:0:0:
226,384,76725,2,0,L|233:202,1,135.000005149842,8|0,0:0|0:0,0:0:0:0:
108,193,77131,1,0,3:0:0:0:
108,324,77333,1,0,3:0:0:0:
312,216,77536,2,0,P|267:167|202:166,1,135.000005149842,8|0,0:0|0:0,0:0:0:0:
108,228,77941,5,2,3:2:0:0:
208,316,78144,1,2,0:2:0:0:
252,84,78347,2,0,L|100:72,1,135.000005149842,10|0,0:0|0:0,0:0:0:0:
0,172,78752,1,2,3:2:0:0:
96,320,78955,2,0,P|110:254|102:187,1,135.000005149842,2|8,3:2|0:0,0:0:0:0:
300,236,79360,6,0,P|329:112|400:188,1,270.000010299683,2|0,3:2|3:0,0:0:0:0:
404,380,79968,2,0,P|376:308|380:244,1,135.000005149842,8|0,0:0|0:0,0:0:0:0:
468,124,80374,1,0,3:0:0:0:
508,240,80576,1,0,3:0:0:0:
348,88,80779,1,8,0:0:0:0:
488,112,80981,1,0,3:0:0:0:
212,208,81185,6,0,P|278:217|345:208,1,135.000005149842,2|0,3:2|0:0,0:0:0:0:
264,96,81590,1,10,0:2:0:0:
168,280,81793,1,2,0:2:0:0:
112,56,81995,1,2,3:2:0:0:
304,196,82198,1,2,3:2:0:0:
92,240,82401,1,10,0:2:0:0:
348,56,82603,6,0,L|332:348,1,270.000010299683,2|0,3:2|3:0,0:0:0:0:
456,180,83212,1,10,0:0:0:0:
224,64,83414,2,0,P|156:104|276:120,1,270.000010299683,2|0,0:2|3:0,0:0:0:0:
360,32,84022,1,10,0:2:0:0:
433,253,84225,2,0,B|453:305|453:305|241:277,1,270.000010299683,2|0,0:0|0:0,0:0:0:0:
132,160,84833,2,0,B|300:182,1,135.000005149842,8|0,0:0|0:0,0:0:0:0:
192,56,85239,1,0,3:0:0:0:
120,188,85441,1,0,3:0:0:0:
308,72,85644,1,8,0:0:0:0:
96,32,85847,6,0,B|80:100|80:100|96:162,1,135.000005149842,2|0,3:2|0:0,0:0:0:0:
184,332,86252,1,2,3:2:0:0:
0,240,86455,1,10,0:2:0:0:
240,232,86658,2,0,B|256:162|256:162|240:100,1,135.000005149842,2|0,3:2|0:0,0:0:0:0:
120,56,87063,1,2,3:2:0:0:
271,7,87266,2,0,L|128:24,1,135.000005149842,8|0,0:0|3:0,0:0:0:0:
316,232,87671,6,0,L|449:214,1,108,4|0,3:2|0:0,0:2:0:0:
464,232,88076,1,0,3:0:0:0:
444,136,88482,1,0,3:0:0:0:
460,44,88887,1,0,3:0:0:0:
372,8,89293,5,0,3:0:0:0:
280,32,89698,1,0,3:0:0:0:
188,8,90103,2,0,P|180:64|184:100,1,72,0|0,3:0|0:0,0:0:0:0:
200,108,90408,1,8,0:3:0:0:
200,108,90509,2,0,L|112:96,1,72,8|0,0:3|0:0,0:0:0:0:
96,108,90813,1,0,3:0:0:0:
96,108,90914,5,8,0:0:0:0:
