osu file format v14

[General]
AudioFilename: audio.mp3
AudioLeadIn: 0
PreviewTime: 61522
Countdown: 0
SampleSet: Soft
StackLeniency: 0.5
Mode: 0
LetterboxInBreaks: 0
WidescreenStoryboard: 1

[Editor]
Bookmarks: 48701,61674
DistanceSpacing: 0.2
BeatDivisor: 4
GridSize: 4
TimelineZoom: 1

[Metadata]
Title:Laika (TV Size)
TitleUnicode:ライカ (TV Size)
Artist:Bird Bear Hare and Fish
ArtistUnicode:Bird Bear Hare and Fish
Creator:Vendanger
Version:Hooni's Hard
Source:BORUTO-ボルト- NARUTO NEXT GENERATIONS
Tags:galileo galilei bbhf moon boots leica boruto anime japanese rock jrock ed ending male vocalist hooni
BeatmapID:2378127
BeatmapSetID:1044688

[Difficulty]
HPDrainRate:4.5
CircleSize:3.5
OverallDifficulty:6.5
ApproachRate:7.5
SliderMultiplier:1.4
SliderTickRate:1

[Events]
//Background and Video events
0,0,"z.jpg",0,0
//Break Periods
//Storyboard Layer 0 (Background)
//Storyboard Layer 1 (Fail)
//Storyboard Layer 2 (Pass)
//Storyboard Layer 3 (Foreground)
//Storyboard Layer 4 (Overlay)
//Storyboard Sound Samples

[TimingPoints]
104,405.405405405405,4,2,1,50,1,0
104,-125,4,2,1,50,0,0
3347,-111.111111111111,4,2,1,30,0,0
6590,-100,4,2,1,40,0,0
7401,-100,4,2,1,45,0,0
8212,-90.9090909090909,4,2,1,50,0,0
9833,-83.3333333333333,4,2,1,50,0,0
10137,-83.3333333333333,4,2,1,5,0,0
10239,-83.3333333333333,4,2,1,50,0,0
13381,-83.3333333333333,4,2,1,5,0,0
13482,-83.3333333333333,4,2,1,50,0,0
16624,-83.3333333333333,4,2,1,5,0,0
16725,-83.3333333333333,4,2,1,50,0,0
19867,-83.3333333333333,4,2,1,5,0,0
19968,-83.3333333333333,4,2,1,50,0,0
22806,-90.9090909090909,4,2,1,45,0,0
23414,-90.9090909090909,4,2,2,45,0,0
23617,-90.9090909090909,4,2,1,45,0,0
26658,-90.9090909090909,4,2,2,45,0,0
26860,-90.9090909090909,4,2,1,45,0,0
28279,-90.9090909090909,4,2,2,45,0,0
28482,-90.9090909090909,4,2,1,45,0,0
28887,-90.9090909090909,4,2,3,45,0,0
29090,-90.9090909090909,4,2,1,45,0,0
36387,-90.9090909090909,4,2,2,45,0,0
36590,-90.9090909090909,4,2,1,45,0,0
41252,-90.9090909090909,4,2,2,45,0,0
41455,-90.9090909090909,4,2,1,45,0,0
41860,-90.9090909090909,4,2,3,45,0,0
42063,-90.9090909090909,4,2,1,45,0,0
48752,-111.111111111111,4,2,1,35,0,0
58482,-100,4,2,1,40,0,0
60103,-90.9090909090909,4,2,1,45,0,0
60914,-90.9090909090909,4,2,1,55,0,0
61725,-83.3333333333333,4,2,1,60,0,1
62029,-83.3333333333333,4,2,1,5,0,1
62131,-83.3333333333333,4,2,1,60,0,1
65272,-83.3333333333333,4,2,1,5,0,1
65374,-83.3333333333333,4,2,1,60,0,1
68516,-83.3333333333333,4,2,1,5,0,1
68617,-83.3333333333333,4,2,1,60,0,1
74495,-83.3333333333333,4,2,1,60,0,0
74698,-83.3333333333333,4,2,1,60,0,1
75002,-83.3333333333333,4,2,1,5,0,1
75103,-83.3333333333333,4,2,1,60,0,1
78245,-83.3333333333333,4,2,1,5,0,1
78347,-83.3333333333333,4,2,1,60,0,1
81489,-83.3333333333333,4,2,1,5,0,1
81590,-83.3333333333333,4,2,1,60,0,1
87671,-142.857142857143,4,2,1,35,0,0

[Colours]
Combo1 : 255,118,72
Combo2 : 0,149,221
Combo3 : 253,204,113

[HitObjects]
61,271,3144,5,8,0:0:0:0:
61,271,3245,1,8,0:0:0:0:
61,271,3347,2,0,L|47:197,1,62.9999980773926,0|0,3:0|0:0,0:0:0:0:
134,174,3752,2,0,L|147:100,1,62.9999980773926,0|0,3:0|0:0,0:0:0:0:
102,27,4158,2,0,P|163:20|217:50,1,125.999996154785,0|0,3:0|3:0,0:0:0:0:
265,133,4766,6,0,L|255:195,1,62.9999980773926,0|0,0:0|3:0,0:0:0:0:
341,247,5171,1,0,0:0:0:0:
341,247,5374,2,0,L|365:109,1,125.999996154785,0|0,3:0|3:0,0:0:0:0:
352,33,5982,1,0,0:0:0:0:
352,33,6185,2,0,P|383:32|416:45,1,62.9999980773926,0|0,3:0|0:0,0:0:0:0:
492,106,6590,5,0,3:0:0:0:
492,106,6793,1,0,3:0:0:0:
473,205,6995,2,0,L|457:286,1,70,0|0,3:0|3:0,0:0:0:0:
443,378,7401,1,0,3:0:0:0:
443,378,7604,1,0,3:0:0:0:
366,307,7806,2,0,P|333:293|299:294,1,70,0|0,3:0|3:0,0:0:0:0:
201,334,8212,5,0,3:0:0:0:
201,334,8415,1,0,3:0:0:0:
218,231,8617,1,0,3:0:0:0:
218,231,8820,1,0,3:0:0:0:
118,271,9022,2,0,L|101:176,1,77.0000023498536,0|0,3:0|3:0,0:0:0:0:
88,88,9428,1,0,3:0:0:0:
3,154,9631,1,0,3:0:0:0:
189,126,9833,6,0,B|239:117|239:117|260:101|260:101|320:90,1,125.999996154785,6|0,3:2|0:0,0:0:0:0:
349,82,10239,2,0,L|366:182,1,83.9999974365235,10|0,0:2|0:0,0:0:0:0:
383,272,10644,1,2,3:2:0:0:
383,272,10847,1,2,3:2:0:0:
462,203,11049,1,10,0:2:0:0:
474,337,11252,6,0,P|404:380|322:370,1,167.999994873047,2|0,3:2|3:0,0:0:0:0:
240,297,11860,2,0,L|225:214,1,83.9999974365235,8|0,0:0|0:0,0:0:0:0:
209,110,12266,1,0,3:0:0:0:
209,110,12468,1,0,3:0:0:0:
306,151,12671,2,0,P|347:152|386:137,1,83.9999974365235,8|0,0:0|0:0,0:0:0:0:
505,94,13076,6,0,L|480:231,1,125.999996154785,2|0,3:2|0:0,0:0:0:0:
472,259,13482,2,0,P|433:243|391:245,1,83.9999974365235,10|0,0:2|0:0,0:0:0:0:
295,280,13887,1,2,3:2:0:0:
295,280,14090,1,2,3:2:0:0:
371,353,14293,1,10,0:2:0:0:
193,321,14495,6,0,B|184:266|184:266|201:211|201:211|191:157,1,167.999994873047,2|0,3:2|3:0,0:0:0:0:
134,70,15103,2,0,P|172:54|214:55,1,83.9999974365235,8|0,0:0|0:0,0:0:0:0:
297,135,15509,1,0,3:0:0:0:
297,135,15712,1,0,3:0:0:0:
191,157,15914,2,0,L|206:240,1,83.9999974365235,8|0,0:0|3:0,0:0:0:0:
283,329,16320,6,0,B|229:357|229:357|164:351,1,125.999996154785,2|0,3:2|0:0,0:0:0:0:
123,343,16725,2,0,L|108:260,1,83.9999974365235,10|0,0:2|0:0,0:0:0:0:
90,161,17131,1,2,3:2:0:0:
90,161,17333,1,2,3:2:0:0:
7,225,17536,1,10,0:2:0:0:
69,60,17739,6,0,B|110:48|145:72|145:72|180:96|229:82,1,167.999994873047,2|0,3:2|3:0,0:0:0:0:
318,17,18347,2,0,L|333:100,1,83.9999974365235,8|0,0:0|0:0,0:0:0:0:
355,207,18752,1,0,3:0:0:0:
355,207,18955,1,0,3:0:0:0:
259,164,19158,2,0,P|217:162|178:178,1,83.9999974365235,8|0,0:0|0:0,0:0:0:0:
79,255,19563,6,0,P|89:194|60:139,1,125.999996154785,2|0,3:2|0:0,0:0:0:0:
38,99,19968,2,0,L|121:84,1,83.9999974365235,10|0,0:0|0:0,0:0:0:0:
229,70,20374,1,2,3:2:0:0:
229,70,20576,1,2,3:2:0:0:
192,168,20779,1,10,0:2:0:0:
332,139,20982,6,0,L|415:124,1,83.9999974365235,2|0,3:2|0:0,0:0:0:0:
482,205,21387,2,0,L|467:288,1,83.9999974365235,2|8,3:2|0:0,0:0:0:0:
396,377,21793,2,0,P|354:379|315:363,1,83.9999974365235,2|0,3:2|0:0,0:0:0:0:
250,281,22198,2,0,P|211:265|169:267,1,83.9999974365235,2|8,3:2|0:0,0:0:0:0:
70,312,22603,1,2,3:2:0:0:
76,181,22806,6,0,L|88:105,1,77.0000023498536,6|2,3:2|0:0,0:0:0:0:
110,10,23212,1,10,0:2:0:0:
110,10,23414,1,10,0:3:0:0:
192,80,23617,2,0,B|218:103|258:119|258:119|304:114|332:103,1,154.000004699707,2|10,3:2|0:0,0:0:0:0:
425,63,24225,2,0,L|432:21,2,38.5000011749268,2|0|0,1:2|1:0|1:0,0:0:0:0:
396,262,24833,6,0,L|320:250,1,77.0000023498536,8|8,0:0|0:3,0:0:0:0:
292,343,25239,2,0,L|216:355,1,77.0000023498536,0|0,3:0|3:0,0:0:0:0:
122,375,25644,1,8,0:0:0:0:
153,284,25847,1,2,2:3:0:0:
59,303,26049,1,0,3:0:0:0:
79,104,26455,6,0,L|155:92,1,77.0000023498536,8|10,0:0|0:3,0:0:0:0:
188,187,26861,2,0,L|264:199,1,77.0000023498536,2|2,3:2|3:2,0:0:0:0:
363,217,27266,1,10,0:0:0:0:
283,311,27468,1,2,1:2:0:0:
283,311,27570,1,0,1:0:0:0:
283,311,27671,6,0,B|240:303|240:303|207:307|207:307|176:292|176:292|134:284,1,154.000004699707,2|8,1:2|0:0,0:0:0:0:
47,234,28279,2,0,P|33:265|36:317,1,77.0000023498536,10|0,3:3|3:0,0:0:0:0:
146,184,28685,1,0,3:0:0:0:
146,184,28887,2,0,P|160:153|157:101,1,77.0000023498536,10|2,0:3|0:0,3:0:0:0:
121,6,29293,1,4,3:2:0:0:
319,33,29698,6,0,L|395:45,1,77.0000023498536,8|8,0:0|0:3,0:0:0:0:
456,125,30103,2,0,L|380:137,1,77.0000023498536,0|0,3:0|3:0,0:0:0:0:
285,158,30509,1,8,0:0:0:0:
353,226,30712,2,0,L|359:263,2,38.5000011749268,0|0|0,1:0|1:0|3:0,0:0:0:0:
158,319,31320,6,0,L|146:243,1,77.0000023498536,8|8,0:0|0:3,0:0:0:0:
48,223,31725,2,0,L|60:147,1,77.0000023498536,2|2,3:2|3:2,0:0:0:0:
79,51,32131,1,10,0:2:0:0:
79,51,32333,1,2,0:3:0:0:
154,117,32536,6,0,P|185:131|237:128,1,77.0000023498536,0|0,3:0|0:0,3:0:0:0:
306,69,32941,2,0,P|344:68|379:82,1,77.0000023498536,8|8,0:0|0:3,3:0:0:0:
441,162,33347,2,0,L|429:238,1,77.0000023498536,0|0,3:0|3:0,0:0:0:0:
414,333,33752,1,8,0:0:0:0:
341,270,33955,2,0,L|293:261,2,38.5000011749268,0|0|0,1:1|1:0|1:0,0:0:0:0:
141,279,34563,6,0,L|153:203,1,77.0000023498536,8|8,0:0|0:3,0:0:0:0:
56,177,34968,2,0,L|44:101,1,77.0000023498536,0|2,3:0|3:2,0:0:0:0:
30,1,35374,1,10,0:2:0:0:
149,90,35576,1,2,3:2:0:0:
149,90,35678,1,0,3:0:0:0:
149,90,35779,6,0,P|187:90|222:76,1,77.0000023498536,6|2,3:2|0:0,0:0:0:0:
300,6,36185,1,10,0:0:0:0:
300,6,36387,1,10,0:3:0:0:
316,105,36590,2,0,L|328:181,1,77.0000023498536,0|0,3:0|3:0,0:0:0:0:
346,280,36995,1,8,0:0:0:0:
252,246,37198,2,0,L|214:253,2,38.5000011749268,0|0|0,1:0|1:0|1:0,0:0:0:0:
465,210,37806,6,0,L|453:134,1,77.0000023498536,8|8,0:0|0:3,0:0:0:0:
441,38,38212,1,2,3:2:0:0:
441,38,38414,1,2,3:2:0:0:
363,101,38617,1,10,0:2:0:0:
261,25,38820,6,0,B|208:34|208:34|167:63|167:63|118:72,1,154.000004699707,2|2,0:3|0:0,0:0:0:0:
30,120,39428,2,0,P|16:89|19:37,1,77.0000023498536,10|8,0:0|0:3,0:0:0:0:
114,175,39833,2,0,P|128:206|125:258,1,77.0000023498536,0|0,3:0|3:0,0:0:0:0:
82,338,40239,1,8,0:0:0:0:
188,332,40441,1,0,1:0:0:0:
188,332,40543,1,0,1:0:0:0:
188,332,40644,6,0,L|264:320,1,77.0000023498536,2|2,3:2|0:0,0:0:0:0:
367,309,41049,1,10,0:0:0:0:
367,309,41252,1,10,0:3:0:0:
443,243,41455,2,0,B|431:177|431:177|415:162|415:162|402:89,1,154.000004699707,2|10,3:2|0:3,0:0:0:0:
384,0,42063,1,2,0:0:0:0:
293,89,42266,6,0,P|228:128|154:116,1,154.000004699707,4|8,3:2|0:0,0:0:0:0:
69,64,42874,1,8,0:3:0:0:
69,64,43076,2,0,L|57:140,1,77.0000023498536,0|0,3:0|3:0,0:0:0:0:
38,239,43482,1,8,0:0:0:0:
132,204,43685,2,0,L|180:213,2,38.5000011749268,0|0|0,1:0|1:0|1:0,0:0:0:0:
331,267,44293,6,0,P|330:228|344:193,1,77.0000023498536,8|8,0:0|0:3,0:0:0:0:
451,217,44698,2,0,P|451:255|437:290,1,77.0000023498536,0|2,3:0|3:2,0:0:0:0:
366,372,45103,1,10,0:2:0:0:
366,372,45306,1,2,0:3:0:0:
259,355,45509,6,0,B|210:346|210:346|169:317|169:317|116:308,1,154.000004699707,0|8,3:0|0:0,0:0:0:0:
17,292,46117,2,0,L|30:216,1,77.0000023498536,8|0,0:3|3:0,0:0:0:0:
46,117,46522,1,0,3:0:0:0:
123,181,46725,1,8,0:0:0:0:
140,82,46928,2,0,L|147:44,2,38.5000011749268,0|0|0,1:0|1:0|1:0,0:0:0:0:
338,51,47536,6,0,L|326:127,1,77.0000023498536,8|8,0:0|0:3,0:0:0:0:
309,225,47941,1,0,3:0:0:0:
410,195,48144,1,0,3:0:0:0:
410,195,48245,1,0,3:0:0:0:
410,195,48347,2,0,P|448:194|483:208,1,77.0000023498536,0|0,3:0|3:0,0:0:0:0:
353,311,48752,6,0,P|292:319|237:290,1,125.999996154785,4|0,3:2|3:0,0:0:0:0:
198,209,49360,1,2,0:0:0:0:
198,209,49563,2,0,L|210:138,1,62.9999980773926,2|0,3:2|0:0,0:0:0:0:
125,97,49968,2,0,L|100:234,2,125.999996154785,2|0|0,3:2|3:0|3:0,0:0:0:0:
289,192,51185,6,0,B|338:200|338:200|363:192|363:192|422:202,1,125.999996154785,0|0,3:0|3:0,0:0:0:0:
507,158,51793,1,0,3:0:0:0:
507,158,51894,1,0,3:0:0:0:
507,158,51995,6,0,P|514:219|485:273,2,125.999996154785,4|0|0,3:2|3:0|3:0,0:0:0:0:
436,95,53009,2,0,L|368:83,1,62.9999980773926,2|2,0:0|3:2,0:0:0:0:
326,9,53414,1,2,0:0:0:0:
326,9,53617,2,0,L|201:30,1,125.999996154785,0|0,3:0|3:0,0:0:0:0:
16,65,54428,6,0,L|28:142,1,62.9999980773926,0|8,3:0|0:0,0:0:0:0:
43,220,54833,1,0,3:0:0:0:
125,155,55036,1,2,0:0:0:0:
125,155,55137,1,2,0:0:0:0:
125,155,55239,6,0,P|154:144|185:145,1,62.9999980773926,6|0,3:2|0:0,0:0:0:0:
263,199,55644,2,0,P|294:200|323:189,1,62.9999980773926,2|2,3:2|0:2,0:0:0:0:
381,114,56049,2,0,B|372:175|372:175|402:238,1,125.999996154785,2|2,3:2|3:2,0:0:0:0:
445,323,56658,5,2,0:2:0:0:
445,323,56860,2,0,L|320:344,1,125.999996154785,0|2,3:0|3:2,0:0:0:0:
227,356,57468,2,0,L|215:285,1,62.9999980773926,2|0,0:0|3:0,0:0:0:0:
299,247,57874,2,0,L|311:176,1,62.9999980773926,2|0,0:0|3:0,0:0:0:0:
342,13,58482,6,0,P|309:-1|275:0,1,70,0|0,3:0|3:0,0:0:0:0:
200,63,58887,2,0,P|165:63|133:49,1,70,0|0,3:0|3:0,0:0:0:0:
42,12,59293,2,0,L|29:98,1,70,0|0,3:0|3:0,0:0:0:0:
16,184,59698,1,0,3:0:0:0:
16,184,59901,1,0,3:0:0:0:
117,148,60103,6,0,P|154:143|190:156,1,77.0000023498536,0|0,3:0|3:0,0:0:0:0:
275,234,60509,1,0,3:0:0:0:
275,234,60712,1,0,3:0:0:0:
375,195,60914,2,0,L|392:100,1,77.0000023498536,0|0,3:0|3:0,0:0:0:0:
409,13,61320,1,0,3:0:0:0:
491,82,61522,1,0,3:0:0:0:
307,48,61725,6,0,B|257:39|257:39|236:23|236:23|176:12,1,125.999996154785,6|0,3:2|0:0,0:0:0:0:
147,4,62131,2,0,L|130:104,1,83.9999974365235,10|0,0:0|0:0,0:0:0:0:
119,194,62536,1,2,3:2:0:0:
119,194,62739,1,2,3:2:0:0:
36,130,62941,1,10,0:2:0:0:
88,299,63144,6,0,B|137:313|172:289|172:289|207:265|248:277,1,167.999994873047,2|0,3:2|3:0,0:0:0:0:
338,333,63752,2,0,L|352:250,1,83.9999974365235,8|0,0:0|0:0,0:0:0:0:
376,146,64158,1,0,3:0:0:0:
376,146,64360,1,0,3:0:0:0:
271,176,64563,2,0,P|229:176|190:160,1,83.9999974365235,8|0,0:0|0:0,0:0:0:0:
92,82,64968,6,0,L|67:219,1,125.999996154785,2|0,3:2|0:0,0:0:0:0:
64,248,65374,2,0,P|102:263|144:263,1,83.9999974365235,10|0,0:0|0:0,0:0:0:0:
248,227,65779,1,2,3:2:0:0:
248,227,65982,1,2,3:2:0:0:
231,335,66185,1,8,0:0:0:0:
391,271,66387,6,0,B|401:217|401:217|384:162|384:162|393:107,1,167.999994873047,2|0,3:2|3:0,0:0:0:0:
452,15,66995,2,0,P|413:0|371:0,1,83.9999974365235,8|0,0:0|0:0,0:0:0:0:
288,71,67401,1,0,3:0:0:0:
288,71,67603,1,0,3:0:0:0:
195,14,67806,2,0,L|181:97,1,83.9999974365235,8|0,0:0|3:0,0:0:0:0:
106,177,68212,6,0,P|161:205|223:200,1,125.999996154785,2|0,3:2|0:0,0:0:0:0:
263,188,68617,2,0,L|249:271,1,83.9999974365235,10|0,0:0|0:0,0:0:0:0:
235,383,69022,1,2,3:2:0:0:
235,383,69225,1,2,3:2:0:0:
151,313,69428,1,10,0:2:0:0:
330,330,69631,6,0,B|380:301|380:301|400:190,1,167.999994873047,2|0,3:2|3:0,0:0:0:0:
382,85,70239,2,0,L|465:99,1,83.9999974365235,10|2,0:0|0:0,0:0:0:0:
404,196,70644,1,0,3:0:0:0:
404,196,70847,1,0,3:0:0:0:
302,158,71049,2,0,L|219:172,1,83.9999974365235,10|2,0:0|0:0,0:0:0:0:
148,267,71455,6,0,P|105:196|116:114,1,167.999994873047,0|8,3:0|0:0,0:0:0:0:
351,73,72266,1,0,3:0:0:0:
351,73,72468,1,0,3:0:0:0:
255,20,72671,1,8,0:0:0:0:
290,159,72874,6,0,B|321:126|357:115|357:115|398:114|442:131,1,167.999994873047,2|2,3:2|3:2,0:0:0:0:
457,240,73482,1,10,0:2:0:0:
457,240,73685,2,0,B|425:272|389:283|389:283|348:284|304:267,1,167.999994873047,2|2,3:2|3:2,0:0:0:0:
204,225,74293,1,8,0:0:0:0:
220,333,74495,1,0,3:0:0:0:
103,271,74698,6,0,P|95:209|121:152,1,125.999996154785,6|0,3:2|0:0,0:0:0:0:
148,120,75103,2,0,L|231:134,1,83.9999974365235,10|2,0:2|0:2,0:0:0:0:
344,152,75509,1,2,3:2:0:0:
344,152,75712,1,2,3:2:0:0:
298,53,75914,1,10,0:2:0:0:
454,136,76117,6,0,B|466:177|442:212|442:212|418:247|432:296,1,167.999994873047,2|0,3:2|3:0,0:0:0:0:
338,352,76725,2,0,P|299:337|257:336,1,83.9999974365235,8|0,0:0|0:0,0:0:0:0:
160,382,77131,1,0,3:0:0:0:
160,382,77333,1,0,3:0:0:0:
82,305,77536,2,0,L|96:222,1,83.9999974365235,8|0,0:0|0:0,0:0:0:0:
121,107,77941,6,0,P|182:99|238:125,1,125.999996154785,2|0,3:2|0:0,0:0:0:0:
272,150,78346,2,0,L|256:232,1,83.9999974365235,10|0,0:0|0:0,0:0:0:0:
239,343,78752,1,2,3:2:0:0:
239,343,78955,1,2,3:2:0:0:
158,269,79158,1,8,0:0:0:0:
344,297,79360,6,0,B|353:242|353:242|387:196|387:196|398:142,1,167.999994873047,2|0,3:2|3:0,0:0:0:0:
458,51,79968,2,0,P|418:35|377:34,1,83.9999974365235,8|0,0:0|0:0,0:0:0:0:
293,104,80374,1,0,3:0:0:0:
293,104,80576,1,0,3:0:0:0:
224,19,80779,2,0,L|142:3,1,83.9999974365235,8|0,0:0|3:0,0:0:0:0:
52,87,81185,6,0,B|60:137|60:137|52:162|52:162|62:222,1,125.999996154785,2|0,3:2|0:0,0:0:0:0:
65,252,81590,2,0,P|104:236|145:235,1,83.9999974365235,10|2,0:2|0:2,0:0:0:0:
243,297,81995,1,2,3:2:0:0:
243,297,82198,1,2,3:2:0:0:
320,219,82401,1,10,0:2:0:0:
444,304,82603,6,0,B|481:259|481:259|461:148,1,167.999994873047,2|0,3:2|3:0,0:0:0:0:
440,43,83212,2,0,L|358:59,1,83.9999974365235,10|2,0:0|0:2,0:0:0:0:
254,84,83617,1,0,3:0:0:0:
254,84,83820,1,0,3:0:0:0:
327,165,84022,2,0,P|342:203|342:245,1,83.9999974365235,10|2,0:2|0:0,0:0:0:0:
258,328,84428,6,0,B|217:316|182:340|182:340|147:364|98:350,1,167.999994873047,0|8,3:0|0:0,0:0:0:0:
26,131,85239,1,0,3:0:0:0:
26,131,85441,1,0,3:0:0:0:
122,78,85644,1,8,0:0:0:0:
227,162,85847,6,0,B|258:129|294:118|294:118|335:117|379:134,1,167.999994873047,2|2,3:2|3:2,0:0:0:0:
394,243,86455,1,10,0:2:0:0:
394,243,86658,2,0,B|362:275|326:286|326:286|285:287|241:270,1,167.999994873047,2|2,3:2|3:2,0:0:0:0:
146,227,87266,1,8,0:0:0:0:
146,227,87468,1,0,3:0:0:0:
42,292,87671,6,0,P|15:251|21:204,1,97.9999970092774,4|0,3:2|3:0,0:0:0:0:
212,125,88482,2,0,L|115:107,1,97.9999970092774,0|0,3:0|3:0,0:0:0:0:
276,237,89293,2,0,L|372:219,1,97.9999970092774,0|0,3:0|3:0,0:0:0:0:
512,83,90103,6,0,L|463:74,1,48.9999985046387,0|0,3:0|0:0,0:0:0:0:
436,40,90408,1,8,0:3:0:0:
436,40,90509,2,0,L|339:57,1,97.9999970092774,8|8,0:3|0:0,0:0:0:0:
