osu file format v14

[General]
AudioFilename: Binaria - Kami Iro Awase (TV SIZE).mp3
AudioLeadIn: 0
PreviewTime: 44321
Countdown: 0
SampleSet: Soft
StackLeniency: 0.7
Mode: 0
LetterboxInBreaks: 0
WidescreenStoryboard: 0

[Editor]
DistanceSpacing: 1.1
BeatDivisor: 4
GridSize: 4
TimelineZoom: 1

[Metadata]
Title:Kami-Iro Awase
TitleUnicode:カミイロアワセ
Artist:Binaria
ArtistUnicode:Binaria
Creator:Lefia
Version:Easy
Source:ダンガンロンパ3 -The End of 希望ヶ峰学園- 絶望編
Tags:Danganronpa 3 Hope's Peak Academy Despair side Opening song
BeatmapID:1043916
BeatmapSetID:489789

[Difficulty]
HPDrainRate:3
CircleSize:2.5
OverallDifficulty:2
ApproachRate:3
SliderMultiplier:0.8
SliderTickRate:1

[Events]
//Background and Video events
0,0,"BG.jpg",0,0
Video,0,"Video.avi"
//Break Periods
//Storyboard Layer 0 (Background)
//Storyboard Layer 1 (Fail)
//Storyboard Layer 2 (Pass)
//Storyboard Layer 3 (Foreground)
//Storyboard Sound Samples

[TimingPoints]
421,400,4,2,1,20,1,0
821,-100,4,2,1,5,0,0
1221,-100,4,2,1,20,0,0
2421,-100,4,2,1,5,0,0
2821,-100,4,2,1,20,0,0
4021,-100,4,2,1,5,0,0
4954,-100,4,2,1,40,0,0
6821,-100,4,2,1,30,0,0
32421,-100,4,2,1,35,0,0
42021,-100,4,2,1,60,0,0
44421,-100,4,2,1,35,0,0
45221,-100,4,2,1,60,0,1
58621,-100,4,2,1,60,0,0
59421,-100,4,2,1,60,0,1
70821,-100,4,2,1,60,0,0
83621,-100,4,2,1,45,0,0
84021,-100,4,3,1,45,0,0
84221,-100,4,2,1,45,0,0
85621,-100,4,3,1,45,0,0
85821,-100,4,2,1,45,0,0

[Colours]
Combo1 : 86,228,254
Combo2 : 255,128,192
Combo3 : 252,186,254
Combo4 : 196,234,255

[HitObjects]
232,280,421,6,0,B|156:308|156:308|80:280,1,160,2|2,0:0|0:0,0:0:0:0:
80,104,2021,2,0,B|156:76|156:76|232:104,1,160,2|2,0:0|0:0,0:0:0:0:
232,280,3621,2,0,B|284:296|284:296|324:260|324:260|340:208|340:208|384:184|384:184|448:192,1,266.666666666667,2|2,0:0|0:0,0:0:0:0:
437,190,6821,6,0,L|436:64,2,120,8|8|0,0:0|0:0|0:0,0:0:0:0:
484,264,8421,2,0,P|416:276|364:240,1,120,8|8,0:0|0:0,0:0:0:0:
296,208,9421,2,0,L|224:200,1,40,0|8,0:0|3:0,0:0:0:0:
168,188,10021,6,0,B|119:181|119:181|87:188|87:188|46:184,2,120,8|8|0,0:0|0:0|0:0,0:0:0:0:
248,152,11621,2,0,P|256:187|208:264,1,120,8|8,0:0|0:0,0:0:0:0:
132,272,12621,2,0,L|92:274,1,40,0|8,0:0|3:0,0:0:0:0:
36,204,13221,6,0,B|8:140|56:140|28:84,2,120,8|8|0,0:0|0:0|0:0,0:0:0:0:
92,273,14821,2,0,P|148:296|208:264,1,120,8|8,0:0|0:0,0:0:0:0:
256,204,15821,2,0,L|256:132,1,40,0|8,0:0|3:0,0:0:0:0:
340,132,16421,6,0,B|332:76|332:76|340:44|340:44|332:-8,2,120,8|8|0,0:0|0:0|0:0,0:0:0:0:
352,220,18021,2,0,B|324:264|324:264|240:260,1,120,8|8,0:0|0:0,0:0:0:0:
176,224,19021,2,0,L|112:228,1,40,0|8,0:0|3:0,0:0:0:0:
56,264,19621,6,0,P|48:208|80:156,2,120,8|8|0,0:0|0:0|0:0,0:0:0:0:
128,316,21221,2,0,B|240:308,1,80,8|0,0:0|0:0,0:0:0:0:
248,232,22021,2,0,B|360:240,1,80,8|8,0:0|3:0,0:0:0:0:
404,196,22821,6,0,P|416:256|352:320,2,120,8|8|0,0:0|0:0|0:0,0:0:0:0:
328,152,24421,2,0,B|213:143|213:143|188:120,1,120,8|8,0:0|0:0,0:0:0:0:
188,56,25421,2,0,L|128:64,1,40,0|8,0:0|3:0,0:0:0:0:
88,124,26021,6,0,P|60:60|88:0,2,120,8|8|0,0:0|0:0|0:0,0:0:0:0:
172,148,27621,2,0,L|180:236,1,80,8|0,0:0|0:0,0:0:0:0:
264,212,28421,2,0,L|256:300,1,80,8|8,0:0|3:0,0:0:0:0:
300,368,29221,6,0,P|232:376|176:328,2,120,8|8|0,0:0|0:0|0:0,0:0:0:0:
360,304,30821,2,0,L|368:164,1,120,8|8,0:0|0:0,0:0:0:0:
284,156,31821,2,0,L|280:84,1,40,0|8,0:0|3:0,0:0:0:0:
352,64,32421,6,0,L|180:100,1,160,2|0,0:0|0:0,0:0:0:0:
40,180,34021,2,0,L|212:216,1,160,2|0,0:0|0:0,0:0:0:0:
360,276,35621,6,0,B|308:338|308:338|222:342,1,160,2|0,0:0|0:0,0:0:0:0:
156,292,36821,1,0,0:0:0:0:
196,212,37221,2,0,L|204:100,1,80,2|0,0:0|0:0,0:0:0:0:
272,80,38021,2,0,L|264:20,2,40
288,168,38821,6,0,B|406:169|406:169|452:192,1,160,2|0,0:0|0:0,0:0:0:0:
352,340,40421,2,0,B|233:338|233:338|196:319,1,160,2|0,0:0|0:0,0:0:0:0:
76,192,42021,5,10,0:0:0:0:
172,44,42821,1,10,0:0:0:0:
256,200,43621,1,10,0:0:0:0:
340,44,44421,2,0,L|356:156,1,80,2|0,0:0|0:0,0:0:0:0:
440,132,45221,6,0,L|424:244,1,80,4|8,0:0|3:0,0:0:0:0:
404,296,46021,2,0,P|364:304|304:288,1,80,0|8,0:0|3:0,0:0:0:0:
252,252,46821,2,0,P|184:240|108:272,1,120,2|2,0:0|0:0,3:0:0:0:
72,192,47821,2,0,L|64:120,1,40,0|8,0:0|3:0,0:0:0:0:
108,76,48421,6,0,P|148:68|208:84,1,80,2|8,0:0|3:0,0:0:0:0:
260,120,49221,2,0,P|328:132|404:100,1,120,0|2,0:0|0:0,3:0:0:0:
440,180,50221,2,0,L|448:252,1,40,0|8,0:0|3:0,0:0:0:0:
300,320,51221,1,8,3:0:0:0:
228,272,51621,6,0,L|224:176,1,80,4|8,0:0|3:0,0:0:0:0:
312,208,52421,2,0,L|316:112,1,80,0|8,0:0|3:0,0:0:0:0:
288,44,53221,2,0,P|208:32|156:60,1,120,2|2,0:0|0:0,3:0:0:0:
128,124,54221,2,0,L|124:192,1,40,0|8,0:0|3:0,0:0:0:0:
184,232,54821,6,0,P|224:244|264:232,1,80,2|8,0:0|3:0,0:0:0:0:
328,180,55621,2,0,P|366:170|456:196,1,120,0|2,0:0|0:0,3:0:0:0:
508,244,56621,2,0,L|504:308,1,40,0|8,0:0|3:0,0:0:0:0:
432,332,57221,2,0,L|336:344,1,80,0|8,0:0|3:0,0:0:0:0:
304,268,58021,6,0,L|224:277,1,80,2|0,0:0|0:0,0:0:0:0:
92,272,59021,1,0,0:0:0:0:
76,184,59421,2,0,P|68:136|84:92,1,80,4|0,0:0|0:0,0:0:0:0:
148,56,60221,2,0,P|186:47|225:56,1,80,0|8,0:0|3:0,0:0:0:0:
344,116,61221,6,0,L|352:216,1,80,4|8,0:0|3:0,0:0:0:0:
440,192,62021,2,0,L|432:328,1,120,0|2,0:0|0:0,3:0:0:0:
352,348,63021,2,0,L|288:336,1,40,0|8,0:0|3:0,0:0:0:0:
148,276,64021,1,8,3:0:0:0:
124,192,64421,6,0,L|120:96,1,80,4|8,0:0|3:0,0:0:0:0:
92,28,65221,2,0,L|228:44,1,120,0|2,0:0|0:0,3:0:0:0:
264,112,66221,2,0,L|312:116,1,40,0|8,0:0|3:0,0:0:0:0:
390,112,66821,2,0,L|386:191,1,80,0|8,0:0|3:0,0:0:0:0:
364,276,67621,6,0,B|284:312|284:244|204:276,1,160,2|0,0:0|0:0,3:0:0:0:
128,236,68821,2,0,L|116:160,1,40,8|0,3:0|0:0,0:0:0:0:
184,132,69421,2,0,L|172:56,1,40,0|8,0:0|3:0,0:0:0:0:
244,32,70021,2,0,L|348:44,1,80,0|8,0:0|3:0,0:0:0:0:
368,116,70821,6,0,P|376:168|364:212,1,80,4|8,0:0|3:0,0:0:0:0:
308,256,71621,2,0,P|268:261|229:252,1,80,0|8,0:0|3:0,0:0:0:0:
148,216,72421,2,0,L|140:124,1,80,2|8,0:0|3:0,0:0:0:0:
228,132,73221,2,0,L|228:40,1,80,0|8,0:0|3:0,0:0:0:0:
316,56,74021,6,0,L|316:136,1,80,4|8,0:0|3:0,0:0:0:0:
404,132,74821,2,0,L|398:212,1,80,0|8,0:0|3:0,0:0:0:0:
372,296,75621,2,0,B|336:320|336:320|296:324,1,80,2|8,0:0|3:0,0:0:0:0:
212,324,76421,2,0,B|175:320|175:320|139:296,1,80,0|8,0:0|3:0,0:0:0:0:
84,228,77221,6,0,L|76:140,1,80,4|8,0:0|3:0,0:0:0:0:
104,64,78021,2,0,P|156:52|204:68,1,80,0|8,0:0|3:0,0:0:0:0:
236,124,78821,2,0,L|315:116,1,80,0|8,0:0|3:0,0:0:0:0:
392,160,79621,1,0,0:0:0:0:
340,228,80021,2,0,L|340:288,1,40,8|2,3:0|0:0,0:0:0:0:
392,340,80621,6,0,P|332:356|264:312,1,120,2|0,0:0|0:0,0:0:0:0:
252,252,81621,1,8,3:0:0:0:
180,200,82021,2,0,L|88:216,1,80,0|8,0:0|3:0,0:0:0:0:
144,292,82821,2,0,L|52:308,1,80,0|8,0:0|3:0,0:0:0:0:
16,232,83621,6,0,L|28:100,2,120,2|8|8,0:0|0:0|3:0,0:0:0:0:
101,213,85221,2,0,L|113:81,1,120,2|8,0:0|0:0,0:0:0:0:
196,68,86221,2,0,L|304:100,1,100,2|0,0:0|3:0,0:0:0:0:
