osu file format v14

[General]
AudioFilename: audio.mp3
AudioLeadIn: 0
PreviewTime: -1
Countdown: 1
SampleSet: Normal
StackLeniency: 0.7
Mode: 0
LetterboxInBreaks: 0
WidescreenStoryboard: 0

[Editor]
DistanceSpacing: 1.3
BeatDivisor: 4
GridSize: 8
TimelineZoom: 1

[Metadata]
Title:Surprise Surprise
TitleUnicode:Surprise Surprise
Artist:Billy Talent
ArtistUnicode:Billy Talent
Creator:Dziuras
Version:Insane
Source:
Tags:
BeatmapID:1806431
BeatmapSetID:863630

[Difficulty]
HPDrainRate:5
CircleSize:4
OverallDifficulty:5
ApproachRate:9
SliderMultiplier:2.1
SliderTickRate:1

[Events]
//Background and Video events
//Break Periods
//Storyboard Layer 0 (Background)
//Storyboard Layer 1 (Fail)
//Storyboard Layer 2 (Pass)
//Storyboard Layer 3 (Foreground)
//Storyboard Layer 4 (Overlay)
//Storyboard Sound Samples

[TimingPoints]
260,400,4,1,0,100,1,0
16260,402.684563758389,4,1,0,100,1,0
41830,-50,4,1,0,100,0,0
42837,-100,4,1,0,100,0,0
43441,-50,4,1,0,100,0,0
44447,-100,4,1,0,100,0,0
48273,-50,4,1,0,100,0,0
51092,-100,4,1,0,100,0,0
54917,400,4,1,0,100,1,0
61317,402.684563758389,4,1,0,100,1,0
73800,402.684563758389,4,1,0,100,1,0
75400,-50,4,1,0,100,0,0
76000,-100,4,1,0,100,0,0
77000,-66.6666666666667,4,1,0,100,0,0
77600,-100,4,1,0,100,0,0
81853,-66.6666666666667,4,1,0,100,0,0
82256,-100,4,1,0,100,0,0
83464,-66.6666666666667,4,1,0,100,0,0
83867,-100,4,1,0,100,0,0
86484,-100,4,1,0,100,0,0
99773,-50,4,1,0,100,0,0
103195,-100,4,1,0,100,0,0
106115,-50,4,1,0,100,0,0
109538,-100,4,1,0,100,0,0
180500,400,4,1,0,100,1,0

[HitObjects]
230,168,260,5,4,0:0:0:0:
105,231,460,2,0,B|-7:249|205:269|47:298,2,105
141,268,1060,1,0,0:0:0:0:
254,199,1260,5,2,0:0:0:0:
146,109,1460,1,2,0:0:0:0:
283,82,1660,1,2,0:0:0:0:
182,179,1860,1,4,0:0:0:0:
134,200,2060,2,0,B|22:218|234:238|76:267,2,105
182,179,2660,1,0,0:0:0:0:
94,288,2860,5,2,0:0:0:0:
301,321,3060,1,10,0:0:0:0:
263,186,3260,1,2,0:0:0:0:
111,143,3460,6,0,L|220:83,1,105,4|0,0:0|0:0,0:0:0:0:
121,118,3860,2,0,L|239:78,1,105,4|0,0:0|0:0,0:0:0:0:
136,96,4260,2,0,L|259:77,1,105,4|2,0:0|0:0,0:0:0:0:
384,144,4660,5,2,0:0:0:0:
251,306,4860,1,2,0:0:0:0:
148,327,5060,6,0,L|88:218,1,105,4|0,0:0|0:0,0:0:0:0:
124,316,5460,2,0,L|83:198,1,105,4|0,0:0|0:0,0:0:0:0:
101,302,5860,2,0,L|81:179,1,105,4|2,0:0|0:0,0:0:0:0:
149,57,6260,5,2,0:0:0:0:
311,187,6460,1,2,0:0:0:0:
377,268,6660,6,0,L|268:328,1,105,4|0,0:0|0:0,0:0:0:0:
366,292,7060,2,0,L|248:333,1,105,4|0,0:0|0:0,0:0:0:0:
352,315,7460,2,0,L|229:335,1,105,4|2,0:0|0:0,0:0:0:0:
113,248,7860,5,2,0:0:0:0:
205,59,8060,1,2,0:0:0:0:
401,232,8260,1,2,0:0:0:0:
146,166,8460,5,6,0:0:0:0:
408,150,8660,1,2,0:0:0:0:
161,239,8860,5,6,0:0:0:0:
373,84,9060,1,2,0:0:0:0:
263,263,9260,5,4,0:0:0:0:
303,110,9460,1,4,0:0:0:0:
332,210,9660,1,0,0:0:0:0:
229,189,9860,2,0,P|209:141|232:84,1,105,4|0,0:0|0:0,0:0:0:0:
231,202,10260,2,0,P|189:171|181:110,1,105,4|0,0:0|0:0,0:0:0:0:
239,213,10660,2,0,P|188:207|150:158,1,105,4|2,0:0|0:0,0:0:0:0:
271,63,11060,1,2,0:0:0:0:
431,198,11260,1,2,0:0:0:0:
336,244,11460,6,0,P|288:264|231:241,1,105,4|0,0:0|0:0,0:0:0:0:
349,242,11860,2,0,P|318:284|257:292,1,105,4|0,0:0|0:0,0:0:0:0:
360,234,12260,2,0,P|354:285|305:323,1,105,4|2,0:0|0:0,0:0:0:0:
171,254,12660,1,2,0:0:0:0:
137,46,12860,1,2,0:0:0:0:
233,87,13060,6,0,P|253:135|230:192,1,105,4|0,0:0|0:0,0:0:0:0:
231,74,13460,2,0,P|273:105|281:166,1,105,4|0,0:0|0:0,0:0:0:0:
223,63,13860,2,0,P|274:69|312:118,1,105,4|2,0:0|0:0,0:0:0:0:
243,252,14260,1,6,0:0:0:0:
35,286,14460,1,2,0:0:0:0:
199,79,14660,1,6,0:0:0:0:
459,113,14860,5,2,0:0:0:0:
201,162,15060,1,6,0:0:0:0:
439,51,15260,5,2,0:0:0:0:
241,223,15460,1,6,0:0:0:0:
382,1,15660,5,6,0:0:0:0:
329,204,15860,1,2,0:0:0:0:
310,47,16060,1,2,0:0:0:0:
310,47,16461,5,4,0:0:0:0:
265,305,16662,1,0,0:0:0:0:
127,80,16864,1,0,0:0:0:0:
353,211,17065,1,0,0:0:0:0:
353,211,17468,1,8,0:0:0:0:
353,211,18072,5,4,0:0:0:0:
125,170,18273,1,0,0:0:0:0:
316,39,18475,1,0,0:0:0:0:
195,235,18676,1,0,0:0:0:0:
195,235,19078,1,8,0:0:0:0:
195,235,19683,5,4,0:0:0:0:
365,9,19884,1,0,0:0:0:0:
370,293,20086,1,0,0:0:0:0:
225,51,20286,1,0,0:0:0:0:
225,51,20690,1,8,0:0:0:0:
225,51,21293,5,4,0:0:0:0:
119,232,21494,1,0,0:0:0:0:
61,29,21696,1,0,0:0:0:0:
188,195,21897,1,0,0:0:0:0:
188,195,22300,1,8,0:0:0:0:
188,195,22904,5,4,0:0:0:0:
374,10,23105,1,0,0:0:0:0:
109,26,23307,1,0,0:0:0:0:
347,136,23508,1,0,0:0:0:0:
347,136,23911,1,8,0:0:0:0:
347,136,24515,5,4,0:0:0:0:
306,364,24716,1,0,0:0:0:0:
175,173,24918,1,0,0:0:0:0:
371,294,25119,1,0,0:0:0:0:
371,294,25521,1,8,0:0:0:0:
371,294,26125,5,4,0:0:0:0:
145,124,26326,1,0,0:0:0:0:
429,119,26528,1,0,0:0:0:0:
187,264,26728,1,0,0:0:0:0:
187,264,27132,1,8,0:0:0:0:
187,264,27736,5,4,0:0:0:0:
83,81,27937,1,0,0:0:0:0:
288,132,28139,1,0,0:0:0:0:
80,159,28340,1,4,0:0:0:0:
322,305,28541,5,8,0:0:0:0:
211,66,28743,1,8,0:0:0:0:
371,245,28944,1,8,0:0:0:0:
278,57,29145,2,0,P|328:52|355:94,1,105,4|0,0:0|0:0,0:0:0:0:
278,57,29548,2,0,P|327:75|338:124,1,105,4|0,0:0|0:0,0:0:0:0:
278,57,29951,2,0,P|320:96|314:146,1,105,4|0,0:0|0:0,0:0:0:0:
212,136,30353,1,4,0:0:0:0:
94,310,30555,1,0,0:0:0:0:
303,309,30756,6,0,P|346:281|373:240,1,105,4|0,0:0|0:0,0:0:0:0:
303,309,31159,2,0,P|333:262|336:213,1,105,4|0,0:0|0:0,0:0:0:0:
303,309,31562,2,0,P|311:254|289:210,1,105,4|0,0:0|0:0,0:0:0:0:
202,269,31964,1,4,0:0:0:0:
76,99,32166,1,0,0:0:0:0:
280,54,32367,6,0,B|324:57|324:57|378:83,1,105,4|0,0:0|0:0,0:0:0:0:
280,54,32770,2,0,B|308:91|308:91|333:146,1,105,4|0,0:0|0:0,0:0:0:0:
280,54,33172,2,0,B|278:107|278:107|261:164,1,105,4|0,0:0|0:0,0:0:0:0:
162,129,33575,1,4,0:0:0:0:
255,316,33776,1,0,0:0:0:0:
411,174,33978,6,0,B|351:155|351:155|297:129,1,105,4|0,0:0|0:0,0:0:0:0:
411,174,34380,2,0,B|356:186|356:186|296:190,1,105,4|0,0:0|0:0,0:0:0:0:
411,174,34783,2,0,B|375:213|375:213|325:247,1,105,4|0,0:0|0:0,0:0:0:0:
133,69,35186,5,6,0:0:0:0:
95,275,35387,1,2,0:0:0:0:
245,60,35588,2,0,P|301:69|350:126,2,105,6|2|6,0:0|0:0|0:0,0:0:0:0:
245,324,36192,6,0,P|301:315|350:258,2,105,2|6|2,0:0|0:0|0:0,0:0:0:0:
471,190,36796,1,6,0:0:0:0:
207,190,36998,1,2,0:0:0:0:
431,324,37199,2,0,P|388:270|371:219,1,105,6|2,0:0|0:0,0:0:0:0:
115,194,37602,1,4,0:0:0:0:
368,128,37803,2,0,P|385:66|426:24,1,105,2|6,0:0|0:0,0:0:0:0:
202,196,38206,1,0,0:0:0:0:
431,324,38407,2,0,P|388:270|371:219,1,105,4|0,0:0|0:0,0:0:0:0:
117,180,38810,5,4,0:0:0:0:
376,96,39011,1,0,0:0:0:0:
144,260,39213,5,4,0:0:0:0:
332,34,39414,1,0,0:0:0:0:
258,329,39615,5,4,0:0:0:0:
144,33,39817,1,0,0:0:0:0:
447,148,40018,5,4,0:0:0:0:
146,298,40219,1,0,0:0:0:0:
393,53,40421,5,4,0:0:0:0:
81,226,40622,1,4,0:0:0:0:
434,128,40823,5,4,0:0:0:0:
55,143,41025,1,4,0:0:0:0:
414,289,41226,5,4,0:0:0:0:
262,246,41427,2,0,P|215:208|199:159,1,105,0|4,0:0|0:0,0:0:0:0:
408,135,41830,2,8,P|454:230|366:267,2,210,8|12|8,0:0|0:0|0:0,0:0:0:0:
104,135,42434,2,8,P|58:230|146:267,2,210,12|8|12,0:0|0:0|0:0,0:0:0:0:
261,274,43038,5,0,0:0:0:0:
261,64,43239,1,4,0:0:0:0:
408,135,43441,2,8,P|454:230|366:267,2,210,8|12|8,0:0|0:0|0:0,0:0:0:0:
104,135,44045,2,8,P|58:230|146:267,2,210,12|8|12,0:0|0:0|0:0,0:0:0:0:
261,64,44649,5,0,0:0:0:0:
261,274,44850,1,4,0:0:0:0:
415,132,45051,1,0,0:0:0:0:
205,155,45253,2,0,B|143:155|143:155|107:120,1,105,4|0,0:0|0:0,0:0:0:0:
197,64,45655,5,4,0:0:0:0:
415,132,45857,1,0,0:0:0:0:
248,292,46058,2,0,B|182:292|182:292|144:266,1,105,4|0,0:0|0:0,0:0:0:0:
264,96,46461,2,0,B|331:96|331:96|371:120,1,105,4|0,0:0|0:0,0:0:0:0:
288,251,46864,2,0,B|333:270|333:270|386:260,1,105,4|0,0:0|0:0,0:0:0:0:
288,251,47266,2,0,B|287:306|287:306|322:347,1,105,4|0,0:0|0:0,0:0:0:0:
288,251,47669,2,0,B|238:283|238:283|220:334,2,105,4|0|4,0:0|0:0|0:0,0:0:0:0:
408,249,48273,6,8,P|454:154|366:117,2,210,8|12|8,0:0|0:0|0:0,0:0:0:0:
104,249,48877,2,8,P|58:154|146:117,2,210,12|8|12,0:0|0:0|0:0,0:0:0:0:
261,110,49481,5,0,0:0:0:0:
261,320,49682,1,4,0:0:0:0:
408,249,49884,2,8,P|454:154|366:117,2,210,8|12|8,0:0|0:0|0:0,0:0:0:0:
104,249,50488,2,8,P|58:154|146:117,2,210,12|8|12,0:0|0:0|0:0,0:0:0:0:
261,320,51092,5,0,0:0:0:0:
261,110,51293,1,4,0:0:0:0:
415,252,51494,1,0,0:0:0:0:
205,229,51696,2,0,B|143:229|143:229|107:264,1,105,4|0,0:0|0:0,0:0:0:0:
197,320,52098,5,4,0:0:0:0:
415,252,52300,1,0,0:0:0:0:
248,92,52501,2,0,B|182:92|182:92|144:118,1,105,4|0,0:0|0:0,0:0:0:0:
264,288,52904,2,0,B|331:288|331:288|371:264,1,105,4|0,0:0|0:0,0:0:0:0:
333,60,53306,5,12,0:0:0:0:
203,251,53508,1,12,0:0:0:0:
93,24,53709,5,12,0:0:0:0:
116,296,53911,1,8,0:0:0:0:
244,32,54112,5,12,0:0:0:0:
348,36,54313,2,0,P|333:92|281:119,2,105
393,124,54917,6,0,L|361:239,1,105,4|0,0:0|0:0,0:0:0:0:
403,148,55317,2,0,L|348:260,1,105,4|0,0:0|0:0,0:0:0:0:
408,175,55717,2,0,L|335:275,1,105,4|2,0:0|0:0,0:0:0:0:
199,316,56117,5,2,0:0:0:0:
178,107,56317,1,2,0:0:0:0:
236,20,56517,6,0,L|356:54,1,105,4|0,0:0|0:0,0:0:0:0:
261,10,56917,2,0,L|374:65,1,105,4|0,0:0|0:0,0:0:0:0:
287,4,57317,2,0,L|388:77,1,105,4|2,0:0|0:0,0:0:0:0:
427,211,57717,5,2,0:0:0:0:
220,234,57917,1,2,0:0:0:0:
116,223,58117,6,0,L|151:104,1,105,4|0,0:0|0:0,0:0:0:0:
107,199,58517,2,0,L|161:86,1,105,4|0,0:0|0:0,0:0:0:0:
101,172,58917,2,0,L|173:71,1,105,4|2,0:0|0:0,0:0:0:0:
396,253,59317,5,2,0:0:0:0:
198,322,59517,1,2,0:0:0:0:
181,61,59717,1,2,0:0:0:0:
315,288,59917,5,6,0:0:0:0:
118,114,60117,1,2,0:0:0:0:
356,225,60317,5,6,0:0:0:0:
96,185,60517,1,2,0:0:0:0:
301,136,60717,5,4,0:0:0:0:
164,216,60917,1,4,0:0:0:0:
214,125,61117,1,0,0:0:0:0:
214,125,61518,5,4,0:0:0:0:
414,292,61719,1,0,0:0:0:0:
151,299,61921,1,0,0:0:0:0:
377,169,62122,1,0,0:0:0:0:
377,169,62525,1,8,0:0:0:0:
377,169,63129,5,4,0:0:0:0:
228,346,63330,1,0,0:0:0:0:
210,115,63531,1,0,0:0:0:0:
319,318,63733,1,0,0:0:0:0:
319,318,64135,1,8,0:0:0:0:
319,318,64739,5,4,0:0:0:0:
208,58,64941,1,0,0:0:0:0:
457,196,65142,1,0,0:0:0:0:
174,200,65343,1,0,0:0:0:0:
174,200,65746,1,8,0:0:0:0:
174,200,66350,5,4,0:0:0:0:
278,382,66551,1,0,0:0:0:0:
73,331,66753,1,0,0:0:0:0:
281,304,66954,1,0,0:0:0:0:
281,304,67357,1,8,0:0:0:0:
281,304,67961,5,4,0:0:0:0:
213,52,68162,1,0,0:0:0:0:
95,288,68363,1,0,0:0:0:0:
309,137,68565,1,0,0:0:0:0:
309,137,68968,1,8,0:0:0:0:
309,137,69572,5,4,0:0:0:0:
486,286,69773,1,0,0:0:0:0:
255,304,69974,1,0,0:0:0:0:
458,195,70176,1,0,0:0:0:0:
458,195,70578,1,8,0:0:0:0:
458,195,71182,5,4,0:0:0:0:
198,306,71384,1,0,0:0:0:0:
315,48,71585,1,0,0:0:0:0:
341,329,71786,1,0,0:0:0:0:
341,332,72189,1,8,0:0:0:0:
340,340,72793,5,4,0:0:0:0:
236,158,72994,1,0,0:0:0:0:
441,209,73196,1,0,0:0:0:0:
233,236,73397,1,0,0:0:0:0:
351,149,73598,2,8,L|408:71,2,52.5,8|0|8,0:0|0:0|0:0,0:0:0:0:
210,306,74001,5,4,0:0:0:0:
210,306,74404,1,0,0:0:0:0:
211,117,74605,2,0,P|295:106|340:125,1,105,4|0,0:0|0:0,0:0:0:0:
414,271,75008,2,0,P|439:212|441:157,1,105,4|0,0:0|0:0,0:0:0:0:
259,273,75410,2,2,P|155:258|211:189,1,210,6|2,0:0|0:0,0:0:0:0:
281,57,75813,5,0,0:0:0:0:
445,186,76014,1,0,0:0:0:0:
300,308,76216,2,0,P|237:298|179:259,1,105
238,82,76618,2,0,P|310:98|353:121,1,105
421,245,77021,6,2,P|450:162|367:184,1,157.500006008148,6|2,0:0|0:0,0:0:0:0:
390,22,77424,1,4,0:0:0:0:
465,125,77625,1,0,0:0:0:0:
412,307,77826,1,4,0:0:0:0:
384,119,78028,1,0,0:0:0:0:
333,302,78229,1,4,0:0:0:0:
305,93,78430,1,0,0:0:0:0:
253,275,78632,1,4,0:0:0:0:
229,66,78833,1,0,0:0:0:0:
177,248,79034,2,4,P|61:198|51:285,2,210
251,133,80041,5,0,0:0:0:0:
175,249,80242,1,4,0:0:0:0:
304,259,80444,1,0,0:0:0:0:
386,145,80645,2,0,P|446:155|459:216,2,105,4|0|4,0:0|0:0|0:0,0:0:0:0:
176,119,81249,1,0,0:0:0:0:
209,326,81451,2,0,P|131:322|107:296,1,105,4|0,0:0|0:0,0:0:0:0:
56,126,81853,6,2,P|131:82|182:130,1,157.500006008148,6|2,0:0|0:0,0:0:0:0:
258,230,82256,2,0,P|325:224|335:164,2,105,4|0|0,0:0|0:0|0:0,0:0:0:0:
381,59,82860,1,0,0:0:0:0:
463,251,83061,2,0,P|429:298|378:309,1,105,4|0,0:0|0:0,0:0:0:0:
203,258,83464,2,2,P|162:197|228:157,1,157.500006008148,6|2,0:0|0:0,0:0:0:0:
322,166,83867,2,0,P|373:148|396:89,1,105
186,90,84269,5,4,0:0:0:0:
106,238,84471,1,0,0:0:0:0:
310,284,84672,2,0,P|304:225|261:163,1,105,4|0,0:0|0:0,0:0:0:0:
408,89,85075,2,0,P|363:43|295:50,1,105,4|0,0:0|0:0,0:0:0:0:
171,148,85477,1,4,0:0:0:0:
317,160,85679,1,0,0:0:0:0:
126,247,85880,1,4,0:0:0:0:
272,252,86081,1,0,0:0:0:0:
181,97,86283,1,4,0:0:0:0:
190,305,86484,5,8,0:0:0:0:
301,66,86686,1,8,0:0:0:0:
141,245,86887,1,8,0:0:0:0:
234,57,87088,2,0,P|184:52|157:94,1,105,4|0,0:0|0:0,0:0:0:0:
234,57,87491,2,0,P|185:75|174:124,1,105,4|0,0:0|0:0,0:0:0:0:
234,57,87894,2,0,P|192:96|198:146,1,105,4|0,0:0|0:0,0:0:0:0:
300,136,88296,1,4,0:0:0:0:
418,310,88498,1,0,0:0:0:0:
209,309,88699,6,0,P|166:281|139:240,1,105,4|0,0:0|0:0,0:0:0:0:
209,309,89102,2,0,P|179:262|176:213,1,105,4|0,0:0|0:0,0:0:0:0:
209,309,89505,2,0,P|201:254|223:210,1,105,4|0,0:0|0:0,0:0:0:0:
310,269,89907,1,4,0:0:0:0:
436,99,90109,1,0,0:0:0:0:
232,54,90310,6,0,B|188:57|188:57|134:83,1,105,4|0,0:0|0:0,0:0:0:0:
232,54,90713,2,0,B|204:91|204:91|179:146,1,105,4|0,0:0|0:0,0:0:0:0:
232,54,91115,2,0,B|234:107|234:107|251:164,1,105,4|0,0:0|0:0,0:0:0:0:
350,129,91518,1,4,0:0:0:0:
257,316,91719,1,0,0:0:0:0:
101,174,91921,6,0,B|161:155|161:155|215:129,1,105,4|0,0:0|0:0,0:0:0:0:
101,174,92323,2,0,B|156:186|156:186|216:190,1,105,4|0,0:0|0:0,0:0:0:0:
101,174,92726,2,0,B|137:213|137:213|187:247,1,105,4|0,0:0|0:0,0:0:0:0:
379,69,93129,5,6,0:0:0:0:
417,275,93330,1,2,0:0:0:0:
267,60,93531,2,0,P|211:69|162:126,2,105,6|2|6,0:0|0:0|0:0,0:0:0:0:
267,324,94135,6,0,P|211:315|162:258,2,105,2|6|2,0:0|0:0|0:0,0:0:0:0:
41,190,94739,1,6,0:0:0:0:
305,190,94941,1,2,0:0:0:0:
81,324,95142,2,0,P|124:270|141:219,1,105,6|2,0:0|0:0,0:0:0:0:
397,194,95545,1,4,0:0:0:0:
144,128,95746,2,0,P|127:66|86:24,1,105,2|6,0:0|0:0,0:0:0:0:
310,196,96149,1,0,0:0:0:0:
81,324,96350,2,0,P|124:270|141:219,1,105,4|0,0:0|0:0,0:0:0:0:
395,180,96753,5,4,0:0:0:0:
136,96,96954,1,0,0:0:0:0:
368,260,97156,5,4,0:0:0:0:
180,34,97357,1,0,0:0:0:0:
254,329,97558,5,4,0:0:0:0:
368,33,97760,1,0,0:0:0:0:
65,148,97961,5,4,0:0:0:0:
366,298,98162,1,0,0:0:0:0:
119,53,98364,5,4,0:0:0:0:
431,226,98565,1,4,0:0:0:0:
78,128,98766,5,4,0:0:0:0:
457,143,98968,1,4,0:0:0:0:
98,289,99169,5,4,0:0:0:0:
250,246,99370,2,0,P|297:208|313:159,1,105,0|4,0:0|0:0,0:0:0:0:
104,135,99773,2,8,P|58:230|146:267,2,210,8|12|8,0:0|0:0|0:0,0:0:0:0:
408,135,100377,2,8,P|454:230|366:267,2,210,12|8|12,0:0|0:0|0:0,0:0:0:0:
251,274,100981,5,0,0:0:0:0:
251,64,101182,1,4,0:0:0:0:
104,135,101384,2,8,P|58:230|146:267,2,210,8|12|8,0:0|0:0|0:0,0:0:0:0:
408,135,101988,2,8,P|454:230|366:267,2,210,12|8|12,0:0|0:0|0:0,0:0:0:0:
251,64,102592,5,0,0:0:0:0:
251,274,102793,1,4,0:0:0:0:
97,132,102994,1,0,0:0:0:0:
307,155,103196,2,0,B|369:155|369:155|405:120,1,105,4|0,0:0|0:0,0:0:0:0:
315,64,103598,5,4,0:0:0:0:
97,132,103800,1,0,0:0:0:0:
264,292,104001,2,0,B|330:292|330:292|368:266,1,105,4|0,0:0|0:0,0:0:0:0:
248,96,104404,2,0,B|181:96|181:96|141:120,1,105,4|0,0:0|0:0,0:0:0:0:
224,251,104807,2,0,B|179:270|179:270|126:260,1,105,4|0,0:0|0:0,0:0:0:0:
224,251,105209,2,0,B|225:306|225:306|190:347,1,105,4|0,0:0|0:0,0:0:0:0:
224,251,105612,2,0,B|274:283|274:283|292:334,2,105,4|0|4,0:0|0:0|0:0,0:0:0:0:
104,249,106216,6,8,P|58:154|146:117,2,210,8|12|8,0:0|0:0|0:0,0:0:0:0:
408,249,106820,2,8,P|454:154|366:117,2,210,12|8|12,0:0|0:0|0:0,0:0:0:0:
251,110,107424,5,0,0:0:0:0:
251,320,107625,1,4,0:0:0:0:
104,249,107827,2,8,P|58:154|146:117,2,210,8|12|8,0:0|0:0|0:0,0:0:0:0:
408,249,108431,2,8,P|454:154|366:117,2,210,12|8|12,0:0|0:0|0:0,0:0:0:0:
251,320,109035,5,0,0:0:0:0:
251,110,109236,1,4,0:0:0:0:
97,252,109437,1,0,0:0:0:0:
307,229,109639,2,0,B|369:229|369:229|405:264,1,105,4|0,0:0|0:0,0:0:0:0:
315,320,110041,5,4,0:0:0:0:
97,252,110243,1,0,0:0:0:0:
264,92,110444,2,0,B|330:92|330:92|368:118,1,105,4|0,0:0|0:0,0:0:0:0:
248,288,110847,2,0,B|181:288|181:288|141:264,1,105,4|0,0:0|0:0,0:0:0:0:
179,60,111249,5,12,0:0:0:0:
309,251,111451,1,12,0:0:0:0:
419,24,111652,5,12,0:0:0:0:
396,296,111854,1,8,0:0:0:0:
268,32,112055,5,12,0:0:0:0:
164,36,112256,2,0,P|179:92|231:119,2,105
