osu file format v14

[General]
AudioFilename: audio.mp3
AudioLeadIn: 0
PreviewTime: 66195
Countdown: 0
SampleSet: Soft
StackLeniency: 0.7
Mode: 0
LetterboxInBreaks: 0
WidescreenStoryboard: 0

[Editor]
Bookmarks: 5853,11339,22310,33282,44253,55225,63453,66196,88139,93625,104596,112824,115567,137510,159453,164121,164939,186882,192407,197893,203378,208825,214139,218253,421396
DistanceSpacing: 0.7
BeatDivisor: 4
GridSize: 4
TimelineZoom: 1.7

[Metadata]
Title:Ghost Ship Of Cannibal Rats / Big Red Gun
TitleUnicode:Ghost Ship Of Cannibal Rats / Big Red Gun
Artist:Billy Talent
ArtistUnicode:Billy Talent
Creator:donacdum
Version:Delirium
Source:
Tags:afraid of heights punk rock alternative post-hardcore
BeatmapID:1432334
BeatmapSetID:677214

[Difficulty]
HPDrainRate:5.8
CircleSize:4.2
OverallDifficulty:8.8
ApproachRate:9.5
SliderMultiplier:1.7
SliderTickRate:1

[Events]
//Background and Video events
0,0,"wallhaven-68304.jpg",0,0
//Break Periods
2,217978,408270
//Storyboard Layer 0 (Background)
//Storyboard Layer 1 (Fail)
//Storyboard Layer 2 (Pass)
//Storyboard Layer 3 (Foreground)
//Storyboard Sound Samples

[TimingPoints]
5893,342.857142857143,4,2,1,25,1,0
5893,-100,4,2,1,25,0,0
11339,-100,4,2,1,65,0,0
33282,-133.333333333333,4,2,1,65,0,0
44253,-100,4,2,1,65,0,0
55224,-133.333333333333,4,2,1,65,0,0
66196,-83.3333333333333,4,2,1,75,0,1
71510,-100,4,2,1,75,0,1
77339,-83.3333333333333,4,2,1,75,0,1
82482,-100,4,2,1,75,0,1
88139,-100,4,2,1,65,0,0
93624,-133.333333333333,4,2,1,65,0,0
104253,-100,4,2,1,65,0,0
104595,-133.333333333333,4,2,1,65,0,0
115567,-83.3333333333333,4,2,1,65,0,1
120881,-100,4,2,1,65,0,1
126710,-83.3333333333333,4,2,1,65,0,1
131853,-100,4,2,1,65,0,1
137510,-100,4,2,1,65,0,0
164938,-83.3333333333333,4,2,1,65,0,1
170293,-100,4,2,1,65,0,1
175950,-83.3333333333333,4,2,1,65,0,1
181264,-100,4,2,1,65,0,1
186881,-100,4,2,1,65,0,0
224295,375,4,2,1,25,1,0
234789,-100,4,2,1,25,0,0

[Colours]
Combo1 : 192,192,192
Combo2 : 128,128,128
Combo3 : 128,128,64
Combo4 : 174,114,0

[HitObjects]
108,259,5853,5,0,0:0:0:0:
108,259,6578,5,0,0:0:0:0:
108,259,7264,5,0,0:0:0:0:
108,259,7950,5,0,0:0:0:0:
180,332,8635,5,0,0:0:0:0:
184,232,9321,5,0,0:0:0:0:
188,132,10007,5,0,0:0:0:0:
192,32,10693,5,0,0:0:0:0:
180,332,11035,1,8,0:0:0:0:
312,252,11378,5,2,0:0:0:0:
312,252,11550,1,2,0:0:0:0:
196,172,11721,2,0,P|146:161|83:167,1,85,2|0,0:0|0:0,0:0:0:0:
20,328,12064,1,8,0:0:0:0:
108,276,12235,2,0,P|148:264|191:261,1,85,2|0,0:0|0:0,0:0:0:0:
8,212,12578,1,2,0:0:0:0:
8,212,12750,5,2,0:0:0:0:
170,126,12921,2,0,P|212:127|266:136,1,85,8|2,0:0|0:0,0:0:0:0:
352,256,13264,1,2,0:0:0:0:
376,96,13435,2,0,L|371:2,1,85,8|2,0:0|0:0,0:0:0:0:
284,212,13778,2,0,P|268:180|252:120,1,85,4|2,0:0|0:0,0:0:0:0:
184,32,14121,5,2,0:0:0:0:
184,32,14293,1,2,0:0:0:0:
172,148,14464,2,0,P|168:192|156:256,1,85,2|0,0:0|0:0,0:0:0:0:
28,364,14807,1,8,0:0:0:0:
132,344,14978,2,0,P|175:339|244:340,1,85,2|0,0:0|0:0,0:0:0:0:
348,360,15321,1,2,0:0:0:0:
348,360,15493,5,2,0:0:0:0:
272,140,15664,1,8,0:0:0:0:
184,256,15835,1,2,0:0:0:0:
184,256,16007,1,2,0:0:0:0:
388,208,16178,2,0,P|434:198|492:202,1,85,8|2,0:0|0:0,0:0:0:0:
268,260,16521,2,0,L|174:255,1,85,4|2,0:0|0:0,0:0:0:0:
68,152,16864,5,2,0:0:0:0:
68,152,17035,1,2,0:0:0:0:
184,124,17207,2,0,P|225:124|292:136,1,85,2|0,0:0|0:0,0:0:0:0:
28,56,17550,1,8,0:0:0:0:
68,152,17721,2,0,L|61:253,1,85,2|0,0:0|0:0,0:0:0:0:
96,360,18064,1,2,0:0:0:0:
96,360,18235,5,2,0:0:0:0:
284,276,18407,2,0,P|332:268|388:268,1,85,8|2,0:0|0:0,0:0:0:0:
168,220,18750,1,2,0:0:0:0:
356,176,18921,2,0,L|470:181,1,85,8|2,0:0|0:0,0:0:0:0:
276,116,19264,2,0,P|240:101|195:92,1,85,4|2,0:0|0:0,0:0:0:0:
52,156,19607,5,2,0:0:0:0:
52,156,19778,1,2,0:0:0:0:
124,232,19950,2,0,L|248:228,1,85,2|0,0:0|0:0,0:0:0:0:
400,168,20293,1,8,0:0:0:0:
278,103,20464,2,0,P|244:94|189:92,1,85,2|0,0:0|0:0,0:0:0:0:
416,64,20807,1,2,0:0:0:0:
416,64,20978,5,2,0:0:0:0:
272,248,21150,1,8,0:0:0:0:
284,108,21321,1,2,0:0:0:0:
284,108,21493,1,2,0:0:0:0:
428,192,21664,5,8,0:0:0:0:
156,224,21835,1,8,0:0:0:0:
284,108,22007,2,0,L|392:100,1,85,6|0,0:0|0:0,0:0:0:0:
160,228,22350,5,6,0:0:0:0:
160,228,22521,1,2,0:0:0:0:
250,282,22693,2,0,P|293:275|347:261,1,85,2|0,0:0|0:0,0:0:0:0:
512,148,23035,1,8,0:0:0:0:
448,256,23207,2,0,L|446:358,1,85,2|0,0:0|0:0,0:0:0:0:
344,180,23550,5,0,0:0:0:0:
344,180,23721,1,0,0:0:0:0:
250,282,23893,2,0,P|212:280|163:274,1,85,2|0,0:0|0:0,0:0:0:0:
60,264,24235,1,2,0:0:0:0:
223,107,24407,2,0,P|270:98|322:98,1,85,8|2,0:0|0:0,0:0:0:0:
142,146,24750,2,0,L|48:140,1,85,4|2,0:0|0:0,0:0:0:0:
0,208,25093,5,2,0:0:0:0:
0,208,25264,1,2,0:0:0:0:
136,264,25435,2,0,L|252:256,1,85,2|0,0:0|0:0,0:0:0:0:
416,176,25778,1,8,0:0:0:0:
356,276,25950,2,0,L|352:376,1,85,2|0,0:0|0:0,0:0:0:0:
300,136,26293,1,2,0:0:0:0:
300,136,26464,5,2,0:0:0:0:
104,188,26635,2,0,P|60:184|-7:172,1,85,8|0,0:0|0:0,0:0:0:0:
212,104,26978,1,2,0:0:0:0:
148,280,27150,2,0,L|40:288,1,85,8|2,0:0|0:0,0:0:0:0:
232,236,27493,2,0,P|272:236|324:248,1,85,4|2,0:0|0:0,0:0:0:0:
448,348,27835,5,4,0:0:0:0:
448,348,28007,1,0,0:0:0:0:
476,240,28178,2,0,P|476:192|464:144,1,85,2|0,0:0|0:0,0:0:0:0:
308,296,28521,1,8,0:0:0:0:
276,180,28693,2,0,P|236:168|176:164,1,85,2|0,0:0|0:0,0:0:0:0:
384,116,29035,1,2,0:0:0:0:
384,116,29207,5,2,0:0:0:0:
268,64,29378,2,0,L|168:68,1,85
80,76,29721,1,2,0:0:0:0:
264,200,29893,2,0,P|309:205|378:224,1,85,8|2,0:0|0:0,0:0:0:0:
184,232,30235,2,0,L|81:236,1,85,4|2,0:0|0:0,0:0:0:0:
16,356,30578,5,6,0:0:0:0:
136,316,30750,1,2,0:0:0:0:
136,316,30921,2,0,L|240:320,1,85,2|0,0:0|0:0,0:0:0:0:
444,364,31264,5,8,0:0:0:0:
368,276,31435,2,0,P|328:268|252:264,1,85,2|0,0:0|0:0,0:0:0:0:
507,246,31778,1,2,0:0:0:0:
507,246,31950,5,2,0:0:0:0:
304,140,32121,2,0,L|212:144,1,85,8|0,0:0|0:0,0:0:0:0:
112,196,32464,1,2,0:0:0:0:
264,48,32635,5,8,0:0:0:0:
224,252,32807,1,8,0:0:0:0:
116,200,32978,2,0,P|120:152|128:104,1,85,2|0,0:0|0:0,0:0:0:0:
224,252,33321,6,0,L|420:244,1,191.250007295609,6|2,0:0|0:0,0:0:0:0:
216,336,34007,2,0,P|184:333|154:328,1,63.7500024318696,8|0,0:0|0:0,0:0:0:0:
56,160,34350,6,0,B|160:196|152:144|264:172,1,191.250007295609,2|0,0:0|0:0,0:0:0:0:
312,224,35035,2,0,L|384:220,1,63.7500024318696,2|0,0:0|0:0,0:0:0:0:
252,80,35378,6,0,P|220:68|190:63,1,63.7500024318696,8|0,0:0|0:0,0:0:0:0:
328,120,35721,2,0,L|411:117,1,63.7500024318696
208,172,36064,6,0,L|215:367,1,191.250007295609,2|2,0:0|0:0,0:0:0:0:
352,200,36750,2,0,P|321:188|274:185,1,63.7500024318696,8|0,0:0|0:0,0:0:0:0:
92,80,37093,6,0,P|192:84|295:100,1,191.250007295609,2|0,0:0|0:0,0:0:0:0:
360,152,37778,2,0,P|392:152|440:148,1,63.7500024318696,2|0,0:0|0:0,0:0:0:0:
272,248,38121,5,8,0:0:0:0:
360,28,38293,1,8,0:0:0:0:
356,232,38464,2,0,P|387:238|418:241,1,63.7500024318696,8|0,0:0|0:0,0:0:0:0:
232,144,38807,6,0,B|145:119|145:119|23:150,1,191.250007295609,6|2,0:0|0:0,0:0:0:0:
212,228,39493,2,0,P|248:228|292:220,1,63.7500024318696,8|0,0:0|0:0,0:0:0:0:
504,120,39835,6,0,L|288:108,1,191.250007295609,2|0,0:0|0:0,0:0:0:0:
236,68,40521,2,0,L|164:72,1,63.7500024318696,2|0,0:0|0:0,0:0:0:0:
236,220,40864,6,0,P|268:228|312:224,1,63.7500024318696,8|0,0:0|0:0,0:0:0:0:
164,176,41207,2,0,L|92:170,1,63.7500024318696
144,332,41550,6,0,L|336:328,1,191.250007295609,2|2,0:0|0:0,0:0:0:0:
148,256,42235,2,0,P|116:248|72:248,1,63.7500024318696,8|0,0:0|0:0,0:0:0:0:
276,224,42578,6,0,L|294:23,1,191.250007295609,2|0,0:0|0:0,0:0:0:0:
216,8,43264,2,0,P|188:8|152:12,1,63.7500024318696,2|0,0:0|0:0,0:0:0:0:
140,236,43607,5,8,0:0:0:0:
64,64,43778,1,8,0:0:0:0:
44,264,43950,2,0,L|40:348,1,63.7500024318696,12|0,0:0|0:0,0:0:0:0:
196,152,44293,5,2,0:0:0:0:
196,152,44464,1,2,0:0:0:0:
292,92,44635,2,0,P|340:84|400:84,1,85,2|0,0:0|0:0,0:0:0:0:
128,36,44978,1,8,0:0:0:0:
196,152,45150,2,0,P|196:232|184:328,1,170,2|2,0:0|0:0,0:0:0:0:
296,268,45664,5,2,0:0:0:0:
296,268,45835,2,0,P|336:260|392:260,1,85,2|0,0:0|0:0,0:0:0:0:
492,308,46178,1,2,0:0:0:0:
344,140,46350,2,0,P|308:132|256:132,1,85,8|2,0:0|0:0,0:0:0:0:
424,188,46693,2,0,L|520:180,1,85,4|2,0:0|0:0,0:0:0:0:
392,48,47035,5,2,0:0:0:0:
392,48,47207,1,2,0:0:0:0:
344,140,47378,2,0,L|336:240,1,85,2|0,0:0|0:0,0:0:0:0:
512,384,47721,1,8,0:0:0:0:
416,352,47893,2,0,P|376:340|324:332,1,85,2|0,0:0|0:0,0:0:0:0:
196,368,48235,1,2,0:0:0:0:
196,368,48407,5,2,0:0:0:0:
312,216,48578,2,0,P|355:219|423:231,1,85,8|0,0:0|0:0,0:0:0:0:
240,128,48921,1,2,0:0:0:0:
144,300,49093,2,0,L|36:308,1,85,8|2,0:0|0:0,0:0:0:0:
268,320,49435,2,0,L|352:327,1,85,4|2,0:0|0:0,0:0:0:0:
480,364,49778,5,2,0:0:0:0:
480,364,49950,1,2,0:0:0:0:
436,256,50121,2,0,L|348:248,1,85,2|0,0:0|0:0,0:0:0:0:
120,340,50464,1,8,0:0:0:0:
176,256,50635,2,0,P|212:252|264:252,1,85,2|0,0:0|0:0,0:0:0:0:
364,344,50978,1,2,0:0:0:0:
364,344,51150,5,2,0:0:0:0:
436,256,51321,2,0,L|432:164,1,85,2|0,0:0|0:0,0:0:0:0:
432,80,51664,1,2,0:0:0:0:
200,168,51835,2,0,P|156:164|84:151,1,85,8|2,0:0|0:0,0:0:0:0:
272,104,52178,2,0,L|376:100,1,85,4|2,0:0|0:0,0:0:0:0:
512,216,52521,5,2,0:0:0:0:
512,216,52693,1,2,0:0:0:0:
396,184,52864,2,0,P|355:178|303:178,1,85,2|0,0:0|0:0,0:0:0:0:
504,352,53207,1,8,0:0:0:0:
384,328,53378,2,0,L|288:332,1,85,2|0,0:0|0:0,0:0:0:0:
136,368,53721,1,2,0:0:0:0:
136,368,53893,5,2,0:0:0:0:
208,200,54064,2,0,P|252:192|316:188,1,85,8|0,0:0|0:0,0:0:0:0:
408,188,54407,1,2,0:0:0:0:
256,296,54578,5,8,0:0:0:0:
312,72,54750,1,8,0:0:0:0:
408,188,54921,2,0,P|408:228|400:280,1,85,2|0,0:0|0:0,0:0:0:0:
256,296,55264,6,0,L|60:288,1,191.250007295609,6|2,0:0|0:0,0:0:0:0:
308,356,55950,2,0,P|339:352|370:347,1,63.7500024318696,8|0,0:0|0:0,0:0:0:0:
436,248,56293,6,0,L|448:32,1,191.250007295609,2|0,0:0|0:0,0:0:0:0:
372,24,56978,2,0,P|340:20|284:28,1,63.7500024318696,2|0,0:0|0:0,0:0:0:0:
136,136,57321,6,0,L|199:139,1,63.7500024318696,8|0,0:0|0:0,0:0:0:0:
332,116,57664,2,0,P|302:108|253:108,1,63.7500024318696
148,256,58007,6,0,P|248:252|351:236,1,191.250007295609,2|0,0:0|0:0,0:0:0:0:
128,168,58693,2,0,P|96:172|65:178,1,63.7500024318696,8|0,0:0|0:0,0:0:0:0:
164,64,59035,6,0,P|264:68|367:84,1,191.250007295609,2|0,0:0|0:0,0:0:0:0:
432,136,59721,2,0,P|464:136|512:132,1,63.7500024318696,2|0,0:0|0:0,0:0:0:0:
344,232,60064,5,8,0:0:0:0:
432,12,60235,1,8,0:0:0:0:
428,216,60407,2,0,P|459:222|490:225,1,63.7500024318696,8|0,0:0|0:0,0:0:0:0:
372,136,60750,6,0,B|276:100|288:168|164:124,1,191.250007295609,6|2,0:0|0:0,0:0:0:0:
420,76,61435,2,0,L|483:79,1,63.7500024318696,8|0,0:0|0:0,0:0:0:0:
332,4,61778,6,0,L|116:16,1,191.250007295609,2|0,0:0|0:0,0:0:0:0:
48,92,62464,2,0,L|111:95,1,63.7500024318696,2|0,0:0|0:0,0:0:0:0:
272,224,62807,6,0,P|240:232|192:236,1,63.7500024318696,8|0,0:0|0:0,0:0:0:0:
88,164,63150,2,0,L|172:172,1,63.7500024318696
168,344,63493,1,4,0:0:0:0:
324,128,65378,5,2,0:0:0:0:
324,128,65464,1,2,0:0:0:0:
324,128,65550,1,8,0:0:0:0:
120,196,65721,1,8,0:0:0:0:
168,8,65893,1,8,0:0:0:0:
168,8,66235,5,6,0:0:0:0:
244,200,66407,1,8,0:0:0:0:
128,192,66578,1,2,0:0:0:0:
128,192,66750,1,2,0:0:0:0:
300,80,66921,2,0,P|356:80|436:92,1,101.999996887207,8|2,0:0|0:0,0:0:0:0:
496,132,67264,1,0,0:0:0:0:
272,216,67435,1,2,0:0:0:0:
272,216,67607,6,0,L|388:208,1,101.999996887207,2|0,0:0|0:0,0:0:0:0:
144,188,67950,1,0,0:0:0:0:
208,104,68121,1,2,0:0:0:0:
252,320,68293,2,0,P|302:333|378:340,1,101.999996887207,8|2,0:0|0:0,0:0:0:0:
480,276,68635,1,0,0:0:0:0:
373,208,68807,2,0,P|376:132|384:48,1,152.999995330811,2|0,0:0|0:0,0:0:0:0:
383,55,69150,5,8,0:0:0:0:
496,156,69321,1,2,0:0:0:0:
496,156,69493,1,2,0:0:0:0:
284,88,69664,2,0,L|180:80,1,101.999996887207,8|2,0:0|0:0,0:0:0:0:
48,132,70007,1,0,0:0:0:0:
188,228,70178,1,2,0:0:0:0:
188,228,70350,6,0,P|240:216|320:216,1,101.999996887207,2|0,0:0|0:0,0:0:0:0:
112,304,70693,2,0,L|8:296,1,101.999996887207,0|2,0:0|0:0,0:0:0:0:
272,340,71035,5,8,0:0:0:0:
168,92,71207,1,8,0:0:0:0:
164,368,71378,1,8,0:0:0:0:
288,213,71550,2,0,P|336:205|392:201,1,85,4|2,0:0|0:0,0:0:0:0:
484,160,71893,5,0,0:0:0:0:
440,260,72064,1,0,0:0:0:0:
440,260,72235,1,2,0:0:0:0:
408,68,72407,2,0,L|512:56,1,85,8|0,0:0|0:0,0:0:0:0:
316,36,72750,2,0,P|272:28|224:28,1,85,2|0,0:0|0:0,0:0:0:0:
304,224,73093,6,0,L|312:112,1,85
236,32,73435,1,2,0:0:0:0:
236,32,73607,1,0,0:0:0:0:
32,136,73778,5,8,0:0:0:0:
76,220,73950,2,0,P|120:228|168:228,1,85,2|0,0:0|0:0,0:0:0:0:
280,136,74293,1,2,0:0:0:0:
252,280,74464,2,0,L|256:376,1,85,2|0,0:0|0:0,0:0:0:0:
404,228,74807,5,0,0:0:0:0:
404,228,74978,1,2,0:0:0:0:
180,172,75150,2,0,B|140:172|140:172|84:180,1,85,8|0,0:0|0:0,0:0:0:0:
344,128,75493,1,2,0:0:0:0:
256,64,75664,1,0,0:0:0:0:
280,244,75835,6,0,L|288:352,1,85
400,364,76178,1,2,0:0:0:0:
400,364,76350,1,0,0:0:0:0:
168,344,76521,5,8,0:0:0:0:
368,136,76693,1,8,0:0:0:0:
264,376,76864,1,8,0:0:0:0:
268,116,77035,2,0,L|264:20,1,85,8|2,0:0|0:0,0:0:0:0:
112,28,77378,5,12,0:0:0:0:
88,136,77550,1,2,0:0:0:0:
88,136,77721,1,2,0:0:0:0:
292,72,77893,2,0,P|344:76|416:88,1,101.999996887207,8|2,0:0|0:0,0:0:0:0:
504,176,78235,1,0,0:0:0:0:
332,176,78407,1,2,0:0:0:0:
332,176,78578,6,0,P|276:176|220:184,1,101.999996887207,2|0,0:0|0:0,0:0:0:0:
444,304,78921,1,0,0:0:0:0:
420,204,79093,1,2,0:0:0:0:
248,328,79264,2,0,L|140:324,1,101.999996887207,8|2,0:0|0:0,0:0:0:0:
12,372,79607,1,0,0:0:0:0:
84,216,79778,2,0,P|88:148|88:64,1,152.999995330811,2|0,0:0|0:0,0:0:0:0:
87,63,80121,5,8,0:0:0:0:
248,32,80293,1,2,0:0:0:0:
248,32,80464,1,2,0:0:0:0:
192,200,80635,2,0,P|184:248|176:316,1,101.999996887207,8|0,0:0|0:0,0:0:0:0:
324,136,80978,1,0,0:0:0:0:
168,68,81150,1,2,0:0:0:0:
168,68,81321,6,0,P|120:68|36:76,1,101.999996887207,2|0,0:0|0:0,0:0:0:0:
36,204,81664,1,0,0:0:0:0:
36,204,81835,1,2,0:0:0:0:
212,108,82007,5,8,0:0:0:0:
160,368,82178,1,8,0:0:0:0:
124,128,82350,1,8,0:0:0:0:
236,296,82521,2,0,P|276:304|352:308,1,85,4|2,0:0|0:0,0:0:0:0:
424,192,82864,5,0,0:0:0:0:
284,224,83035,1,0,0:0:0:0:
284,224,83207,1,2,0:0:0:0:
428,36,83378,2,0,P|470:38|512:48,1,85,8|0,0:0|0:0,0:0:0:0:
312,88,83721,1,0,0:0:0:0:
344,0,83893,1,0,0:0:0:0:
424,192,84064,6,0,L|428:304,1,85
356,372,84407,1,2,0:0:0:0:
356,372,84578,1,0,0:0:0:0:
208,176,84750,2,0,P|168:168|104:164,1,85,8|2,0:0|0:0,0:0:0:0:
308,248,85093,1,0,0:0:0:0:
256,108,85264,1,2,0:0:0:0:
256,108,85435,2,0,L|352:112,1,85,2|0,0:0|0:0,0:0:0:0:
480,144,85778,5,0,0:0:0:0:
412,52,85950,1,2,0:0:0:0:
376,232,86121,2,0,L|380:336,1,85,8|0,0:0|0:0,0:0:0:0:
500,360,86464,1,2,0:0:0:0:
460,264,86635,1,0,0:0:0:0:
288,340,86807,6,0,P|248:337|184:324,1,85
64,284,87150,1,0,0:0:0:0:
64,284,87321,1,0,0:0:0:0:
332,236,87493,5,8,0:0:0:0:
56,188,87664,1,8,0:0:0:0:
284,356,87835,1,8,0:0:0:0:
164,108,88007,1,8,0:0:0:0:
164,312,88178,5,2,0:0:0:0:
164,312,88350,1,2,0:0:0:0:
248,247,88521,2,0,P|291:237|359:237,1,85,2|0,0:0|0:0,0:0:0:0:
508,376,88864,1,8,0:0:0:0:
464,276,89035,2,0,L|468:184,1,85,2|0,0:0|0:0,0:0:0:0:
492,72,89378,1,2,0:0:0:0:
492,72,89550,5,2,0:0:0:0:
264,188,89721,2,0,P|236:192|168:196,1,85,8|2,0:0|0:0,0:0:0:0:
64,144,90064,1,2,0:0:0:0:
280,48,90235,2,0,P|320:52|380:68,1,85,8|2,0:0|0:0,0:0:0:0:
208,100,90578,2,0,L|120:96,1,85,4|2,0:0|0:0,0:0:0:0:
304,180,90921,5,2,0:0:0:0:
304,180,91093,1,2,0:0:0:0:
220,256,91264,2,0,P|180:262|135:261,1,85,2|0,0:0|0:0,0:0:0:0:
432,332,91607,1,8,0:0:0:0:
388,248,91778,2,0,L|396:148,1,85,2|0,0:0|0:0,0:0:0:0:
456,40,92121,1,2,0:0:0:0:
456,40,92293,5,2,0:0:0:0:
216,140,92464,1,8,0:0:0:0:
272,24,92635,1,2,0:0:0:0:
272,24,92807,1,2,0:0:0:0:
316,248,92978,5,8,0:0:0:0:
192,48,93150,1,8,0:0:0:0:
324,136,93321,2,0,P|368:144|436:144,1,85,4|0,0:0|0:0,0:0:0:0:
472,48,93664,5,2,0:0:0:0:
472,48,93835,1,2,0:0:0:0:
472,48,94007,2,0,L|384:40,1,63.7500024318696,2|0,0:0|0:0,0:0:0:0:
268,32,94350,1,8,0:0:0:0:
316,96,94521,2,0,P|314:128|308:160,1,63.7500024318696,2|0,0:0|0:0,0:0:0:0:
247,248,94864,5,2,0:0:0:0:
247,248,95035,1,2,0:0:0:0:
247,248,95207,2,0,P|213:243|166:241,1,63.7500024318696,2|0,0:0|0:0,0:0:0:0:
96,243,95550,1,2,0:0:0:0:
198,143,95721,2,0,L|275:140,1,63.7500024318696,8|2,0:0|0:0,0:0:0:0:
266,145,96235,5,0,0:0:0:0:
266,145,96578,6,0,P|297:147|337:153,2,63.7500024318696,2|2|0,0:0|0:0|0:0,0:0:0:0:
182,263,97093,1,8,0:0:0:0:
259,236,97264,2,0,L|331:239,1,63.7500024318696,2|0,0:0|0:0,0:0:0:0:
416,303,97607,1,2,0:0:0:0:
416,303,97778,5,2,0:0:0:0:
447,161,97950,2,0,P|478:155|510:152,1,63.7500024318696,8|0,0:0|0:0,0:0:0:0:
391,219,98293,1,2,0:0:0:0:
347,99,98464,2,0,L|352:27,1,63.7500024318696,8|2,0:0|0:0,0:0:0:0:
254,84,98807,6,0,P|222:84|190:80,1,63.7500024318696
106,34,99150,1,0,0:0:0:0:
86,113,99321,5,2,0:0:0:0:
86,113,99493,2,0,L|88:187,1,63.7500024318696,2|0,0:0|0:0,0:0:0:0:
148,319,99835,1,8,0:0:0:0:
203,258,100007,2,0,L|268:253,1,63.7500024318696,2|0,0:0|0:0,0:0:0:0:
357,190,100350,5,2,0:0:0:0:
357,190,100521,1,2,0:0:0:0:
357,190,100693,2,0,P|323:179|273:175,1,63.7500024318696,2|0,0:0|0:0,0:0:0:0:
204,188,101035,1,2,0:0:0:0:
285,78,101207,2,0,L|279:2,1,63.7500024318696,8|0,0:0|0:0,0:0:0:0:
284,18,101721,5,2,0:0:0:0:
284,18,102064,6,0,P|252:19|216:25,2,63.7500024318696,2|2|0,0:0|0:0|0:0,0:0:0:0:
419,90,102578,1,8,0:0:0:0:
354,137,102750,2,0,L|356:215,1,63.7500024318696,2|0,0:0|0:0,0:0:0:0:
412,309,103093,1,2,0:0:0:0:
412,309,103264,1,2,0:0:0:0:
301,268,103435,2,0,P|276:262|224:259,1,63.7500024318696,8|0,0:0|0:0,0:0:0:0:
147,290,103778,1,2,0:0:0:0:
205,64,103950,5,8,0:0:0:0:
241,330,104121,1,8,0:0:0:0:
151,214,104293,2,0,P|153:178|161:104,1,85
241,330,104635,6,0,L|233:134,1,191.250007295609,6|2,0:0|0:0,0:0:0:0:
387,325,105321,2,0,P|355:319|323:315,1,63.7500024318696,8|0,0:0|0:0,0:0:0:0:
133,328,105664,6,0,L|121:112,1,191.250007295609,2|0,0:0|0:0,0:0:0:0:
171,80,106350,2,0,P|205:79|259:84,1,63.7500024318696,2|0,0:0|0:0,0:0:0:0:
444,194,106693,6,0,L|381:191,1,63.7500024318696,8|0,0:0|0:0,0:0:0:0:
254,246,107035,2,0,L|333:238,1,63.7500024318696
497,117,107378,6,0,P|408:106|295:102,1,191.250007295609,2|0,0:0|0:0,0:0:0:0:
49,187,108064,2,0,P|87:187|125:193,1,63.7500024318696,8|0,0:0|0:0,0:0:0:0:
275,255,108407,6,0,P|175:259|72:275,1,191.250007295609,2|0,0:0|0:0,0:0:0:0:
25,358,109093,2,0,L|105:354,1,63.7500024318696,2|0,0:0|0:0,0:0:0:0:
182,346,109435,5,8,0:0:0:0:
206,104,109607,1,8,0:0:0:0:
21,263,109778,2,0,P|52:269|83:272,1,63.7500024318696,8|0,0:0|0:0,0:0:0:0:
262,199,110121,6,0,B|364:164|346:231|470:187,1,191.250007295609,6|2,0:0|0:0,0:0:0:0:
164,300,110807,2,0,P|208:288|252:272,1,63.7500024318696,8|0,0:0|0:0,0:0:0:0:
297,162,111150,6,0,L|309:378,1,191.250007295609,2|0,0:0|0:0,0:0:0:0:
382,336,111835,2,0,L|379:273,1,63.7500024318696,2|0,0:0|0:0,0:0:0:0:
310,102,112178,6,0,P|278:94|230:90,1,63.7500024318696,8|0,0:0|0:0,0:0:0:0:
126,170,112521,2,0,L|189:163,1,63.7500024318696
177,0,112864,1,4,0:0:0:0:
320,145,114750,5,2,0:0:0:0:
320,145,114835,1,2,0:0:0:0:
320,145,114921,1,8,0:0:0:0:
116,77,115093,1,8,0:0:0:0:
164,265,115264,1,8,0:0:0:0:
308,244,115607,5,6,0:0:0:0:
116,77,115778,1,8,0:0:0:0:
252,72,115950,1,2,0:0:0:0:
252,72,116121,1,2,0:0:0:0:
100,252,116293,2,0,P|44:246|-34:225,1,101.999996887207,8|2,0:0|0:0,0:0:0:0:
228,148,116635,1,0,0:0:0:0:
184,332,116807,1,2,0:0:0:0:
184,332,116978,6,0,L|68:340,1,101.999996887207,2|0,0:0|0:0,0:0:0:0:
324,260,117321,1,0,0:0:0:0:
276,352,117493,1,2,0:0:0:0:
168,148,117664,2,0,L|180:20,1,101.999996887207,8|2,0:0|0:0,0:0:0:0:
344,140,118007,1,0,0:0:0:0:
208,248,118178,2,0,P|132:251|48:259,1,152.999995330811,2|0,0:0|0:0,0:0:0:0:
55,258,118521,5,8,0:0:0:0:
160,156,118693,1,2,0:0:0:0:
160,156,118864,1,2,0:0:0:0:
280,368,119035,2,0,L|384:376,1,101.999996887207,8|2,0:0|0:0,0:0:0:0:
176,288,119378,1,0,0:0:0:0:
296,232,119550,1,2,0:0:0:0:
296,232,119721,6,0,P|348:220|428:220,1,101.999996887207,2|0,0:0|0:0,0:0:0:0:
212,176,120064,2,0,L|108:168,1,101.999996887207,0|2,0:0|0:0,0:0:0:0:
392,152,120407,5,8,0:0:0:0:
140,264,120578,1,8,0:0:0:0:
292,64,120750,1,8,0:0:0:0:
296,240,120921,2,0,L|288:336,1,85,4|2,0:0|0:0,0:0:0:0:
348,384,121264,5,0,0:0:0:0:
200,348,121435,1,0,0:0:0:0:
200,348,121607,1,2,0:0:0:0:
400,244,121778,2,0,L|504:232,1,85,8|0,0:0|0:0,0:0:0:0:
324,176,122121,2,0,P|280:168|232:168,1,85,2|0,0:0|0:0,0:0:0:0:
140,324,122464,6,0,L|136:212,1,85
120,96,122807,1,2,0:0:0:0:
120,96,122978,1,0,0:0:0:0:
360,256,123150,5,8,0:0:0:0:
360,256,123321,2,0,L|348:168,1,85,2|0,0:0|0:0,0:0:0:0:
240,100,123664,1,2,0:0:0:0:
324,32,123835,2,0,P|367:24|419:21,1,85,2|0,0:0|0:0,0:0:0:0:
420,164,124178,5,0,0:0:0:0:
420,164,124350,1,2,0:0:0:0:
240,100,124521,2,0,B|144:104,1,85,8|0,0:0|0:0,0:0:0:0:
76,224,124864,1,2,0:0:0:0:
20,120,125035,1,0,0:0:0:0:
164,184,125207,6,0,L|172:292,1,85
268,368,125550,1,2,0:0:0:0:
268,368,125721,1,0,0:0:0:0:
424,180,125893,5,8,0:0:0:0:
170,268,126064,1,8,0:0:0:0:
376,352,126235,1,8,0:0:0:0:
296,112,126407,2,0,L|292:16,1,85,8|2,0:0|0:0,0:0:0:0:
112,28,126750,5,12,0:0:0:0:
56,128,126921,1,2,0:0:0:0:
56,128,127093,1,2,0:0:0:0:
296,112,127264,2,0,P|348:116|420:128,1,101.999996887207,8|2,0:0|0:0,0:0:0:0:
172,168,127607,1,0,0:0:0:0:
304,264,127778,1,2,0:0:0:0:
304,264,127950,6,0,L|296:368,1,101.999996887207,2|0,0:0|0:0,0:0:0:0:
268,120,128293,1,0,0:0:0:0:
384,208,128464,1,2,0:0:0:0:
136,144,128635,2,0,L|24:132,1,101.999996887207,8|2,0:0|0:0,0:0:0:0:
212,220,128978,1,0,0:0:0:0:
268,120,129150,2,0,P|336:116|420:116,1,152.999995330811,2|0,0:0|0:0,0:0:0:0:
420,116,129493,5,8,0:0:0:0:
388,244,129664,1,2,0:0:0:0:
388,244,129835,1,2,0:0:0:0:
168,100,130007,2,0,P|160:52|152:-16,1,101.999996887207,8|0,0:0|0:0,0:0:0:0:
304,176,130350,1,0,0:0:0:0:
137,200,130521,1,2,0:0:0:0:
137,200,130693,6,0,P|89:200|5:208,1,101.999996887207,2|0,0:0|0:0,0:0:0:0:
232,272,131035,1,0,0:0:0:0:
232,272,131207,1,2,0:0:0:0:
220,88,131378,5,8,0:0:0:0:
148,356,131550,1,8,0:0:0:0:
64,144,131721,1,8,0:0:0:0:
232,272,131893,2,0,P|272:280|348:284,1,85,4|2,0:0|0:0,0:0:0:0:
448,236,132235,5,0,0:0:0:0:
432,348,132407,1,0,0:0:0:0:
432,348,132578,1,2,0:0:0:0:
316,188,132750,2,0,P|320:152|328:100,1,85,8|0,0:0|0:0,0:0:0:0:
436,52,133093,1,0,0:0:0:0:
340,0,133264,1,0,0:0:0:0:
412,152,133435,6,0,L|416:264,1,85
352,368,133778,1,2,0:0:0:0:
352,368,133950,1,0,0:0:0:0:
208,176,134121,2,0,P|168:168|104:164,1,85,8|2,0:0|0:0,0:0:0:0:
28,204,134464,1,0,0:0:0:0:
108,64,134635,1,2,0:0:0:0:
108,64,134807,2,0,L|204:68,1,85,2|0,0:0|0:0,0:0:0:0:
320,92,135150,5,0,0:0:0:0:
248,20,135321,1,2,0:0:0:0:
208,216,135493,2,0,L|212:320,1,85,8|0,0:0|0:0,0:0:0:0:
136,120,135835,1,2,0:0:0:0:
252,144,136007,1,0,0:0:0:0:
96,208,136178,6,0,P|60:208|5:204,1,85
140,124,136521,1,0,0:0:0:0:
140,124,136693,1,0,0:0:0:0:
268,312,136864,6,0,P|308:324|380:324,1,85,8|2,0:0|0:0,0:0:0:0:
181,201,137207,1,2,0:0:0:0:
152,204,137293,1,2,0:0:0:0:
125,206,137378,1,2,0:0:0:0:
96,208,137464,1,2,0:0:0:0:
56,212,137550,5,12,0:0:0:0:
144,336,137721,1,2,0:0:0:0:
144,336,137893,1,2,0:0:0:0:
192,84,138064,5,12,0:0:0:0:
64,128,138235,1,2,0:0:0:0:
64,128,138407,1,2,0:0:0:0:
288,248,138578,5,12,0:0:0:0:
304,112,138750,1,2,0:0:0:0:
304,112,138921,1,2,0:0:0:0:
52,240,139093,5,12,0:0:0:0:
188,256,139265,1,2,0:0:0:0:
188,256,139436,1,2,0:0:0:0:
56,36,139607,5,12,0:0:0:0:
180,104,139778,1,2,0:0:0:0:
216,112,139864,1,2,0:0:0:0:
256,108,139950,1,2,0:0:0:0:
292,92,140035,1,2,0:0:0:0:
328,84,140121,1,2,0:0:0:0:
364,92,140207,1,2,0:0:0:0:
396,112,140293,5,12,0:0:0:0:
360,272,140464,1,2,0:0:0:0:
360,272,140635,1,2,0:0:0:0:
220,24,140807,5,12,0:0:0:0:
276,177,140978,1,2,0:0:0:0:
276,177,141149,1,2,0:0:0:0:
512,100,141321,5,12,0:0:0:0:
336,20,141492,1,2,0:0:0:0:
336,20,141663,1,2,0:0:0:0:
352,292,141835,5,12,0:0:0:0:
512,200,142006,1,2,0:0:0:0:
512,200,142177,1,2,0:0:0:0:
260,96,142350,5,8,0:0:0:0:
352,292,142521,1,2,0:0:0:0:
316,308,142607,1,2,0:0:0:0:
276,308,142693,1,2,0:0:0:0:
240,296,142778,1,2,0:0:0:0:
204,292,142864,1,2,0:0:0:0:
168,300,142950,1,2,0:0:0:0:
148,332,143035,5,6,0:0:0:0:
144,156,143207,1,2,0:0:0:0:
144,156,143378,2,0,P|96:140|44:140,1,85,2|0,0:0|0:0,0:0:0:0:
396,92,143721,1,8,0:0:0:0:
316,152,143893,2,0,L|320:240,1,85,2|0,0:0|0:0,0:0:0:0:
328,360,144235,1,2,0:0:0:0:
328,360,144407,5,2,0:0:0:0:
128,224,144578,2,0,P|88:212|12:204,1,85,8|0,0:0|0:0,0:0:0:0:
264,168,144921,1,2,0:0:0:0:
124,360,145093,2,0,L|24:352,1,85,8|2,0:0|0:0,0:0:0:0:
228,260,145435,1,8,0:0:0:0:
272,264,145521,1,8,0:0:0:0:
316,268,145607,1,8,0:0:0:0:
360,272,145693,1,8,0:0:0:0:
400,280,145778,5,2,0:0:0:0:
292,120,145950,1,2,0:0:0:0:
292,120,146121,2,0,P|252:108|196:104,1,85,2|0,0:0|0:0,0:0:0:0:
76,316,146464,1,8,0:0:0:0:
76,316,146635,2,0,L|84:224,1,85,2|0,0:0|0:0,0:0:0:0:
100,88,146978,1,2,0:0:0:0:
100,88,147150,5,2,0:0:0:0:
264,264,147321,2,0,P|308:264|372:256,1,85,8|0,0:0|0:0,0:0:0:0:
396,160,147664,1,2,0:0:0:0:
156,328,147835,1,8,0:0:0:0:
216,132,148007,1,8,0:0:0:0:
212,88,148093,1,8,0:0:0:0:
208,44,148178,1,8,0:0:0:0:
184,60,148264,5,2,0:0:0:0:
156,68,148350,1,2,0:0:0:0:
128,68,148435,1,2,0:0:0:0:
88,60,148521,5,8,0:0:0:0:
248,136,148693,1,2,0:0:0:0:
248,136,148864,1,2,0:0:0:0:
0,248,149035,5,8,0:0:0:0:
180,240,149207,1,2,0:0:0:0:
180,240,149378,1,2,0:0:0:0:
24,0,149550,5,8,0:0:0:0:
64,184,149722,1,2,0:0:0:0:
64,184,149893,1,2,0:0:0:0:
416,108,150064,5,8,0:0:0:0:
248,72,150236,1,2,0:0:0:0:
248,72,150407,1,2,0:0:0:0:
304,304,150578,5,8,0:0:0:0:
232,144,150750,1,2,0:0:0:0:
196,136,150836,1,2,0:0:0:0:
156,140,150922,1,2,0:0:0:0:
120,156,151007,1,2,0:0:0:0:
84,164,151093,1,2,0:0:0:0:
48,156,151179,1,2,0:0:0:0:
16,136,151264,6,0,L|28:44,1,85,6|0,0:0|0:0,0:0:0:0:
120,272,151607,1,8,0:0:0:0:
112,104,151778,6,0,L|124:12,1,85,6|0,0:0|0:0,0:0:0:0:
216,240,152121,1,8,0:0:0:0:
268,96,152293,5,2,0:0:0:0:
268,96,152464,1,2,0:0:0:0:
92,276,152635,1,8,0:0:0:0:
84,112,152807,6,0,P|44:104|-8:96,1,85,2|0,0:0|0:0,0:0:0:0:
216,240,153150,1,8,0:0:0:0:
268,96,153321,1,2,0:0:0:0:
140,172,153493,1,2,0:0:0:0:
116,196,153578,1,2,0:0:0:0:
108,228,153664,1,2,0:0:0:0:
112,260,153750,1,2,0:0:0:0:
132,288,153835,1,2,0:0:0:0:
140,320,153921,1,2,0:0:0:0:
136,352,154007,5,6,0:0:0:0:
200,260,154178,1,2,0:0:0:0:
256,352,154350,2,0,L|360:344,1,85,2|0,0:0|0:0,0:0:0:0:
36,180,154693,1,8,0:0:0:0:
148,92,154864,2,0,P|191:83|231:79,1,85,2|0,0:0|0:0,0:0:0:0:
408,108,155207,1,2,0:0:0:0:
408,108,155378,5,2,0:0:0:0:
196,232,155550,2,0,P|160:224|88:220,1,85,8|0,0:0|0:0,0:0:0:0:
272,348,155893,1,2,0:0:0:0:
244,136,156064,2,0,L|248:32,1,85,8|2,0:0|0:0,0:0:0:0:
368,192,156407,1,8,0:0:0:0:
368,236,156493,1,8,0:0:0:0:
368,280,156578,1,8,0:0:0:0:
368,324,156664,1,8,0:0:0:0:
368,368,156750,5,2,0:0:0:0:
452,324,156921,1,2,0:0:0:0:
264,308,157093,2,0,L|172:304,1,85,2|0,0:0|0:0,0:0:0:0:
464,224,157435,1,8,0:0:0:0:
376,136,157607,2,0,P|336:128|260:128,1,85,2|0,0:0|0:0,0:0:0:0:
120,184,157950,1,2,0:0:0:0:
120,184,158121,5,2,0:0:0:0:
320,40,158293,2,0,L|416:36,1,85,8|0,0:0|0:0,0:0:0:0:
512,100,158635,1,0,0:0:0:0:
288,208,158807,2,0,L|176:196,1,85,8|0,0:0|0:0,0:0:0:0:
12,44,159150,2,0,B|48:36|48:36|108:40,1,85,8|0,0:0|0:0,0:0:0:0:
292,152,159493,5,2,0:0:0:0:
292,152,159664,1,2,0:0:0:0:
176,124,159836,2,0,P|135:124|68:136,1,85,2|0,0:0|0:0,0:0:0:0:
332,56,160179,1,8,0:0:0:0:
292,152,160350,2,0,L|299:253,1,85,2|0,0:0|0:0,0:0:0:0:
312,364,160693,1,2,0:0:0:0:
312,364,160864,5,2,0:0:0:0:
84,264,161036,2,0,P|36:256|-20:256,1,85,8|2,0:0|0:0,0:0:0:0:
232,268,161379,1,2,0:0:0:0:
84,112,161550,2,0,L|-30:117,1,85,8|2,0:0|0:0,0:0:0:0:
164,64,161893,2,0,P|200:49|245:40,1,85,4|2,0:0|0:0,0:0:0:0:
388,168,162236,5,2,0:0:0:0:
388,168,162407,1,2,0:0:0:0:
316,244,162579,2,0,L|192:240,1,85,2|0,0:0|0:0,0:0:0:0:
40,180,162922,1,8,0:0:0:0:
162,115,163093,2,0,P|196:106|251:104,1,85,2|0,0:0|0:0,0:0:0:0:
24,76,163436,1,2,0:0:0:0:
112,272,163607,2,0,L|104:368,2,85,8|2|2,0:0|0:0|0:0,0:0:0:0:
120,180,164121,5,4,0:0:0:0:
120,180,164978,5,6,0:0:0:0:
376,316,165150,1,8,0:0:0:0:
228,352,165321,1,2,0:0:0:0:
228,352,165493,1,2,0:0:0:0:
392,176,165664,2,0,P|436:164|512:160,1,101.999996887207,8|2,0:0|0:0,0:0:0:0:
240,136,166007,1,0,0:0:0:0:
296,240,166178,1,2,0:0:0:0:
296,240,166350,6,0,L|304:356,1,101.999996887207,2|0,0:0|0:0,0:0:0:0:
240,136,166693,1,0,0:0:0:0:
352,124,166864,1,2,0:0:0:0:
144,272,167036,2,0,P|94:285|18:292,1,101.999996887207,8|2,0:0|0:0,0:0:0:0:
224,352,167378,1,0,0:0:0:0:
296,240,167550,2,0,P|372:243|456:251,1,152.999995330811,2|0,0:0|0:0,0:0:0:0:
448,250,167893,5,8,0:0:0:0:
336,348,168064,1,2,0:0:0:0:
336,348,168236,1,2,0:0:0:0:
288,140,168407,2,0,L|292:24,1,101.999996887207,8|2,0:0|0:0,0:0:0:0:
348,216,168750,1,0,0:0:0:0:
212,184,168921,1,2,0:0:0:0:
212,184,169093,6,0,P|160:172|80:172,1,101.999996887207,2|0,0:0|0:0,0:0:0:0:
348,216,169436,2,0,L|452:208,1,101.999996887207,0|2,0:0|0:0,0:0:0:0:
264,116,169778,5,8,0:0:0:0:
384,328,169950,1,8,0:0:0:0:
396,88,170121,1,8,0:0:0:0:
264,232,170293,2,0,P|224:244|170:247,1,85,4|2,0:0|0:0,0:0:0:0:
56,240,170636,5,0,0:0:0:0:
112,132,170807,1,0,0:0:0:0:
112,132,170978,1,2,0:0:0:0:
184,336,171150,2,0,L|288:324,1,85,8|0,0:0|0:0,0:0:0:0:
424,276,171493,2,0,P|380:268|332:268,1,85,2|0,0:0|0:0,0:0:0:0:
192,204,171836,6,0,L|200:92,1,85
236,32,172178,1,2,0:0:0:0:
236,32,172350,1,0,0:0:0:0:
412,228,172521,5,8,0:0:0:0:
340,160,172693,2,0,P|340:117|348:75,1,85,2|0,0:0|0:0,0:0:0:0:
496,152,173036,1,2,0:0:0:0:
496,152,173207,2,0,L|500:248,1,85,2|0,0:0|0:0,0:0:0:0:
476,368,173550,5,0,0:0:0:0:
476,368,173721,1,2,0:0:0:0:
260,264,173893,2,0,B|164:272,1,85,8|0,0:0|0:0,0:0:0:0:
64,344,174236,1,2,0:0:0:0:
64,344,174407,1,0,0:0:0:0:
100,188,174578,6,0,L|92:80,1,85
152,16,174921,1,2,0:0:0:0:
152,16,175093,1,0,0:0:0:0:
348,200,175264,5,8,0:0:0:0:
93,103,175436,1,8,0:0:0:0:
216,264,175607,1,8,0:0:0:0:
324,48,175778,2,0,L|436:28,1,85,8|2,0:0|0:0,0:0:0:0:
216,56,176121,5,12,0:0:0:0:
340,148,176293,1,2,0:0:0:0:
340,148,176464,1,2,0:0:0:0:
120,84,176636,2,0,P|68:88|-4:100,1,101.999996887207,8|2,0:0|0:0,0:0:0:0:
200,156,176978,1,0,0:0:0:0:
276,40,177150,1,2,0:0:0:0:
276,40,177321,6,0,P|332:40|388:48,1,101.999996887207,2|0,0:0|0:0,0:0:0:0:
464,136,177664,1,0,0:0:0:0:
484,28,177836,1,2,0:0:0:0:
312,168,178007,2,0,L|320:292,1,101.999996887207,8|2,0:0|0:0,0:0:0:0:
436,356,178350,1,0,0:0:0:0:
256,316,178521,2,0,P|188:312|104:312,1,152.999995330811,2|0,0:0|0:0,0:0:0:0:
103,312,178864,5,8,0:0:0:0:
52,196,179036,1,2,0:0:0:0:
52,196,179207,1,2,0:0:0:0:
232,124,179378,2,0,P|276:112|348:104,1,101.999996887207,8|0,0:0|0:0,0:0:0:0:
456,144,179721,1,0,0:0:0:0:
312,16,179893,1,2,0:0:0:0:
312,16,180064,6,0,P|264:16|180:24,1,101.999996887207,2|0,0:0|0:0,0:0:0:0:
88,88,180407,1,0,0:0:0:0:
88,88,180578,1,2,0:0:0:0:
192,296,180750,5,8,0:0:0:0:
224,96,180921,1,8,0:0:0:0:
88,304,181093,1,8,0:0:0:0:
252,220,181264,2,0,L|368:232,1,85,4|2,0:0|0:0,0:0:0:0:
472,224,181607,5,0,0:0:0:0:
376,320,181778,1,0,0:0:0:0:
376,320,181950,1,2,0:0:0:0:
412,100,182121,2,0,L|408:12,1,85,8|0,0:0|0:0,0:0:0:0:
280,152,182464,1,0,0:0:0:0:
376,188,182636,1,0,0:0:0:0:
240,28,182807,6,0,L|136:20,1,85
52,48,183150,1,2,0:0:0:0:
52,48,183321,1,0,0:0:0:0:
324,56,183493,2,0,P|366:59|407:67,1,85,8|2,0:0|0:0,0:0:0:0:
480,196,183836,1,0,0:0:0:0:
332,144,184007,1,2,0:0:0:0:
332,144,184178,2,0,L|236:148,1,85,2|0,0:0|0:0,0:0:0:0:
112,160,184521,5,0,0:0:0:0:
112,160,184693,1,2,0:0:0:0:
312,36,184864,2,0,L|428:28,1,85,8|0,0:0|0:0,0:0:0:0:
464,152,185207,1,2,0:0:0:0:
512,52,185378,1,0,0:0:0:0:
360,132,185550,6,0,L|352:248,1,85
352,364,185893,1,0,0:0:0:0:
352,364,186064,1,0,0:0:0:0:
156,148,186236,5,8,0:0:0:0:
248,368,186407,1,8,0:0:0:0:
64,236,186578,1,8,0:0:0:0:
324,168,186750,1,8,0:0:0:0:
348,279,186921,6,0,L|352:367,2,85,2|0|0,0:0|0:0|0:0,0:0:0:0:
324,168,187435,1,2,0:0:0:0:
128,316,187607,1,8,0:0:0:0:
192,184,187778,1,2,0:0:0:0:
192,184,187950,1,0,0:0:0:0:
244,292,188121,1,0,0:0:0:0:
104,220,188293,6,0,P|68:212|8:212,1,85
192,184,188635,2,0,L|304:180,1,85,0|2,0:0|0:0,0:0:0:0:
472,364,188978,1,8,0:0:0:0:
332,332,189150,1,2,0:0:0:0:
332,332,189321,1,0,0:0:0:0:
472,216,189493,1,0,0:0:0:0:
336,116,189664,6,0,P|304:108|236:100,2,85
380,232,190178,1,2,0:0:0:0:
136,128,190350,1,8,0:0:0:0:
208,36,190521,1,2,0:0:0:0:
208,36,190693,1,0,0:0:0:0:
228,192,190864,1,2,0:0:0:0:
332,112,191035,6,0,P|376:100|444:96,1,85,2|0,0:0|0:0,0:0:0:0:
496,224,191378,2,0,L|392:212,1,85,0|2,0:0|0:0,0:0:0:0:
120,128,191721,1,8,0:0:0:0:
208,52,191893,2,0,P|252:40|308:36,1,85,2|0,0:0|0:0,0:0:0:0:
248,200,192235,6,0,L|240:308,2,85,2|2|0,0:0|0:0|0:0,0:0:0:0:
292,88,192750,1,0,0:0:0:0:
292,88,192921,1,2,0:0:0:0:
112,212,193093,2,0,L|8:200,1,85,8|0,0:0|0:0,0:0:0:0:
192,176,193436,2,0,P|236:168|284:168,1,85,2|0,0:0|0:0,0:0:0:0:
488,292,193779,6,0,L|496:180,1,85
472,88,194121,1,2,0:0:0:0:
472,88,194293,1,0,0:0:0:0:
268,44,194464,5,8,0:0:0:0:
184,88,194636,2,0,P|176:132|176:180,1,85,2|0,0:0|0:0,0:0:0:0:
268,292,194979,1,2,0:0:0:0:
124,264,195150,2,0,L|28:268,1,85,2|0,0:0|0:0,0:0:0:0:
208,344,195493,5,0,0:0:0:0:
208,344,195664,1,2,0:0:0:0:
256,216,195836,2,0,B|244:120,1,85,8|0,0:0|0:0,0:0:0:0:
372,256,196179,1,2,0:0:0:0:
268,292,196350,1,0,0:0:0:0:
320,104,196521,6,0,L|428:96,1,85
512,136,196864,1,2,0:0:0:0:
512,136,197036,1,0,0:0:0:0:
272,216,197207,6,0,L|172:220,2,85,8|0|0,0:0|0:0|0:0,0:0:0:0:
432,308,197721,1,2,0:0:0:0:
432,308,197893,6,0,P|388:296|312:288,2,85,2|0|0,0:0|0:0|0:0,0:0:0:0:
504,376,198407,1,2,0:0:0:0:
376,152,198579,1,8,0:0:0:0:
512,220,198750,1,2,0:0:0:0:
512,220,198922,1,0,0:0:0:0:
432,308,199093,1,0,0:0:0:0:
300,216,199265,6,0,P|264:208|204:208,1,85
40,172,199607,2,0,L|152:168,1,85,0|2,0:0|0:0,0:0:0:0:
320,348,199950,1,8,0:0:0:0:
156,348,200122,1,2,0:0:0:0:
156,348,200293,1,0,0:0:0:0:
216,212,200465,1,0,0:0:0:0:
320,348,200636,6,0,L|328:248,2,85
404,212,201150,1,2,0:0:0:0:
108,280,201322,1,8,0:0:0:0:
224,364,201493,1,2,0:0:0:0:
224,364,201665,1,0,0:0:0:0:
156,188,201836,1,2,0:0:0:0:
326,263,202007,6,0,P|368:284|432:288,1,85,2|0,0:0|0:0,0:0:0:0:
320,176,202350,2,0,L|216:164,1,85,0|2,0:0|0:0,0:0:0:0:
36,308,202693,1,8,0:0:0:0:
152,276,202865,2,0,L|260:272,1,85,2|0,0:0|0:0,0:0:0:0:
372,220,203207,6,0,L|480:228,2,85,2|2|0,0:0|0:0|0:0,0:0:0:0:
284,352,203722,1,0,0:0:0:0:
284,352,203893,1,2,0:0:0:0:
216,196,204065,2,0,L|224:92,1,85,8|0,0:0|0:0,0:0:0:0:
312,24,204408,2,0,P|356:24|412:40,1,85,2|0,0:0|0:0,0:0:0:0:
300,202,204751,6,0,L|188:194,1,85
112,152,205093,1,2,0:0:0:0:
112,152,205265,1,0,0:0:0:0:
311,41,205436,5,8,0:0:0:0:
311,41,205608,2,0,P|355:33|423:37,1,85,2|0,0:0|0:0,0:0:0:0:
240,144,205951,1,2,0:0:0:0:
344,204,206122,2,0,L|348:300,1,85,2|0,0:0|0:0,0:0:0:0:
208,360,206465,5,0,0:0:0:0:
208,360,206636,1,2,0:0:0:0:
428,288,206808,2,0,P|472:280|524:280,1,85,8|0,0:0|0:0,0:0:0:0:
332,256,207151,1,2,0:0:0:0:
384,356,207322,1,0,0:0:0:0:
412,176,207493,6,0,L|404:68,1,85
396,0,207836,1,2,0:0:0:0:
396,0,208008,1,0,0:0:0:0:
116,156,208178,5,8,0:0:0:0:
400,180,208350,1,8,0:0:0:0:
192,87,208521,2,0,L|196:195,1,85,8|0,0:0|0:0,0:0:0:0:
312,252,208864,5,2,0:0:0:0:
312,252,209036,1,2,0:0:0:0:
196,172,209207,2,0,P|146:161|83:167,1,85,2|0,0:0|0:0,0:0:0:0:
20,328,209550,1,8,0:0:0:0:
108,276,209721,2,0,P|148:264|191:261,1,85,2|0,0:0|0:0,0:0:0:0:
312,328,210064,1,2,0:0:0:0:
312,328,210236,5,2,0:0:0:0:
196,140,210407,2,0,P|153:133|111:132,1,85,8|2,0:0|0:0,0:0:0:0:
276,40,210750,1,2,0:0:0:0:
316,243,210921,2,0,L|311:337,1,85,8|2,0:0|0:0,0:0:0:0:
360,172,211264,2,0,P|392:156|452:140,1,85,4|2,0:0|0:0,0:0:0:0:
240,96,211607,5,2,0:0:0:0:
240,96,211779,1,2,0:0:0:0:
316,243,211950,2,0,L|428:240,1,85,2|0,0:0|0:0,0:0:0:0:
133,167,212293,1,8,0:0:0:0:
133,167,212464,2,0,P|90:158|30:160,1,85,2|0,0:0|0:0,0:0:0:0:
260,272,212807,1,2,0:0:0:0:
260,272,212979,5,2,0:0:0:0:
196,52,213150,1,8,0:0:0:0:
133,167,213321,1,2,0:0:0:0:
133,167,213493,1,2,0:0:0:0:
404,152,213664,5,8,0:0:0:0:
16,128,213835,1,8,0:0:0:0:
352,264,214007,5,8,0:0:0:0:
48,4,214178,1,8,0:0:0:0:
256,192,214350,12,0,217778,0:0:0:0:
428,160,408795,5,0,0:0:0:0:
