osu file format v14

[General]
AudioFilename: Billy Fogarty - Jumpin' Jack Flash.mp3
AudioLeadIn: 0
PreviewTime: 140289
Countdown: 0
SampleSet: Normal
StackLeniency: 0.7
Mode: 0
LetterboxInBreaks: 0
StoryFireInFront: 0
SkinPreference:EliteBeatOsu
WidescreenStoryboard: 0

[Editor]
Bookmarks: 299537,300342
DistanceSpacing: 0.8
BeatDivisor: 8
GridSize: 8
TimelineZoom: 1.6

[Metadata]
Title:Jumpin' Jack Flash
TitleUnicode:Jumpin' Jack Flash
Artist:Billy Fogarty
ArtistUnicode:Billy Fogarty
Creator:m980
Version:HARD ROCK!
Source:Elite Beat Agents
Tags:ouendan EBA rolling stones nintendo authentic mm201 metalmario201
BeatmapID:379106
BeatmapSetID:4422

[Difficulty]
HPDrainRate:10
CircleSize:4
OverallDifficulty:8
ApproachRate:8.8
SliderMultiplier:2.42
SliderTickRate:2

[Events]
//Background and Video events
0,0,"bg.png",0,0
//Break Periods
2,157001,168082
2,198830,205733
2,251984,260498
//Storyboard Layer 0 (Background)
//Storyboard Layer 1 (Fail)
Sprite,Fail,Centre,"bg\scn2_bg2_b.png",320,240 F,0,198867,202087,1
Animation,Fail,TopLeft,"spr\scn2_spr1_2b_.png",0,60,2,100,LoopForever L,198867,16 M,0,0,,168,60 M,0,50,,168,55 M,0,100,,168,60 F,0,198867,200477,1
Sprite,Fail,TopLeft,"spr\scn2_spr1hr_b.png",0,60 M,0,198867,199067,-375,54,0,54 F,0,198867,200477,1
Animation,Fail,TopLeft,"spr\scn2_spr2_2b_.png",0,60,2,100,LoopForever L,200477,16 M,0,0,,0,45 M,0,50,,0,50 M,0,100,,0,45 F,0,200477,202087,1
Sprite,Fail,TopLeft,"spr\scn2_spr2hr_b.png",0,60 M,0,200477,200678,640,60,373,60 F,0,200477,202087,1
Sprite,Fail,TopLeft,"spr\scn2_spr3hr.png",320,240 L,202490,12 M,0,0,50,0,60,-5,60 M,0,50,100,-5,60,0,60 M,2,202088,202490,-640,60,0,60 F,0,202088,203294,1
//Storyboard Layer 2 (Pass)
Sprite,Pass,Centre,"bg\scn2_bg1_g.png",320,240 F,0,198867,200477,1
Sprite,Pass,TopLeft,"spr\scn2_spr1_2_g.png",320,258 F,0,198867,200477,1
Sprite,Pass,TopLeft,"spr\scn2_spr1hr_g.png",320,240 M,0,198867,199067,-375,60,0,60 F,0,198867,200477,1
Sprite,Pass,Centre,"bg\scn2_bg2_g.png",320,240 F,0,200477,202087,1
Sprite,Pass,TopLeft,"spr\scn2_spr2_2g.png",0,255 F,0,200477,202087,1
Sprite,Pass,TopRight,"spr\scn2_spr2hr_g.png",320,240 M,0,200477,200678,1015,60,640,60 F,0,200477,202087,1
Sprite,Pass,TopLeft,"spr\scn2_txt2_1hrg.png",0,60 F,0,200678,202087,1
Sprite,Pass,TopLeft,"spr\scn2_spr3hr.png",320,240 L,202490,12 M,0,0,50,0,60,-5,60 M,0,50,100,-5,60,0,60 M,2,202088,202490,-640,60,0,60 F,0,202088,203294,1
//Storyboard Layer 3 (Foreground)
Sprite,Foreground,Centre,"spr\scn0_3spr_hr.png",320,240 F,0,16450,22490,1
Sprite,Foreground,Centre,"spr\hr_ready.png",320,240 M,0,124585,124772,-320,240,320,240 F,0,124585,125577,1 F,0,125577,,1,0 F,0,126383,127188,1
Sprite,Foreground,BottomCentre,"spr\scn0_spr_statuehr.png",349,420 F,0,84202,86883,1 F,0,86883,,1,0 F,0,96584,97792,1 F,0,97792,,1,0 F,0,103027,104638,1 F,0,104638,,1,0 F,0,106248,110491,1
Sprite,Foreground,BottomCentre,"spr\scn0_spr_statuehr_b1.png",349,420 F,0,109585,109685,1 F,0,109685,109987,0 F,0,109987,110088,1 F,0,110088,110289,0 F,0,110289,110491,1 F,0,110491,113913,1
Sprite,Foreground,BottomCentre,"spr\scn0_spr_statuehr_b2.png",349,420 F,0,112907,113007,1 F,0,113007,113209,0 F,0,113209,113309,1 F,0,113309,113511,0 F,0,113511,113611,1 F,0,113611,113712,0 F,0,113712,113913,1 F,0,113913,120759,1
Sprite,Foreground,BottomCentre,"spr\scn0_spr_statuehr_b3.png",349,420 L,119048,17 F,0,0,50,1 F,0,50,100,0 F,0,116732,116832,1 F,0,116832,117236,0 F,0,117236,117336,1 F,0,117336,117739,0 F,0,117739,117839,1 F,0,117839,118142,0 F,0,118142,118242,1 F,0,118242,118343,0 F,0,118343,118443,1 F,0,118443,118544,0 F,0,118544,118644,1 F,0,118644,118846,0 F,0,118846,118946,1 F,0,118946,119048,0
Sprite,Foreground,Centre,"spr\scn0_16spr_hr2.png",320,240 M,1,120745,121248,320,640,320,200 F,0,120745,121550,1
Sprite,Foreground,Centre,"spr\scn0_16spr_hr.png",320,240 M,1,120745,121248,360,640,360,200 F,0,120745,121550,1
Sprite,Foreground,BottomCentre,"spr\scn0_17spr_f.png",320,420 F,0,122773,124585,1
Sprite,Foreground,BottomCentre,"spr\scn0_17spr_hr.png",280,420 F,0,122773,124585,1
Sprite,Foreground,TopLeft,"spr\countdown\cd_3hr.png",0,0 F,0,126383,127591,1
Sprite,Foreground,TopLeft,"spr\countdown\cd_2hr.png",420,0 F,0,126785,127591,1
Sprite,Foreground,Centre,"spr\countdown\cd_1hr.png",320,240 F,0,127188,127591,1
Sprite,Foreground,TopLeft,"spr\scn5_spr3_hr.png",77,150 L,370007,2 M,0,0,1800,147,110,179,140 M,0,1800,2600,179,140,147,110 F,0,370007,375242,1
Sprite,Foreground,TopLeft,"spr\scn5_spr8_hr_3.png",0,60 L,391349,2 M,0,0,800,247,60,247,80 M,0,800,1600,247,80,247,60 M,1,390544,391349,247,360,247,60 F,0,390544,394571,1
Sprite,Foreground,TopLeft,"spr\scn5_spr8_hr_4.png",0,60 M,0,394571,395376,247,60,247,80
Sprite,Foreground,TopLeft,"spr\scn5_spr8_hr_1.png",0,60 L,391349,2 M,0,0,800,24,90,24,110 M,0,800,1600,24,110,24,90 M,1,390544,391349,24,360,24,90 F,0,390544,394571,1
Sprite,Foreground,TopLeft,"spr\scn5_spr8_hr_2.png",0,60 M,0,394571,395376,24,90,24,110
Sprite,Foreground,TopLeft,"spr\scn5_spr9_hr.png",0,108 L,395376,2 M,0,0,600,0,113,0,123 M,0,600,1200,0,123,0,113 F,0,395376,397792,1
//Storyboard Sound Samples
Sample,123578,3,"sfx/strongFHey.wav",80
Sample,124773,3,"sfx/areyoureadyf.wav",80
Sample,126384,3,"sfx/mov_3f.wav",80
Sample,126786,3,"sfx/mov_2f.wav",80
Sample,127189,3,"sfx/mov_1f.wav",80
Sample,127592,3,"sfx/mov_gof.wav",80

[TimingPoints]
121565,402.684563758389,4,1,1,70,1,0
128511,-100,4,2,1,70,0,0
128712,-100,4,1,1,70,0,0
129115,-100,4,2,1,70,0,0
129316,-100,4,1,1,70,0,0
129618,-100,4,2,1,70,0,0
130424,-100,4,2,1,70,0,0
130726,-100,4,1,1,70,0,0
131028,-100,4,2,2,70,0,0
131430,-100,4,1,2,70,0,0
131833,-100,4,1,1,70,0,0
132336,-100,4,2,1,70,0,0
132538,-100,4,1,1,70,0,0
133142,-100,4,2,1,70,0,0
133343,-100,4,2,3,100,0,0
133645,-100,4,1,1,70,0,0
134954,-100,4,2,1,70,0,0
135155,-100,4,1,1,70,0,0
135558,-100,4,2,1,70,0,0
135759,-100,4,1,1,70,0,0
136262,-100,4,2,1,70,0,0
136564,-100,4,1,1,70,0,0
136867,-100,4,2,1,70,0,0
137571,-100,4,2,2,70,0,0
137873,-100,4,1,2,70,0,0
138276,-100,4,1,1,70,0,0
138779,-100,4,2,1,70,0,0
138981,-100,4,1,1,70,0,0
139585,-100,4,2,1,70,0,0
139786,-100,4,1,1,70,0,0
141900,-100,4,2,3,100,0,0
142202,-100,4,1,1,70,0,0
143511,-100,4,1,3,100,0,0
143813,-100,4,1,1,70,0,0
144518,-100,4,2,1,70,0,0
144820,-100,4,1,1,70,0,0
145927,-100,4,1,3,100,0,0
146330,-100,4,1,1,70,0,0
148343,-100,4,2,3,100,0,0
148645,-100,4,1,1,70,0,0
149954,-100,4,1,3,100,0,0
150356,-100,4,1,1,70,0,0
150860,-100,4,2,1,70,0,0
151665,-100,4,1,1,70,0,0
152672,-114.942528735632,4,1,3,100,0,0
152974,-100,4,1,1,70,0,0
153477,-100,4,2,1,70,0,0
153679,-100,4,1,1,70,0,0
154786,-100,4,1,3,100,0,0
155088,-100,4,2,1,70,0,0
155289,-100,4,1,1,70,0,0
156397,-100,4,2,3,100,0,0
157001,-100,4,1,1,70,0,0
170390,-100,4,2,1,70,0,0
170591,-100,4,1,1,70,0,0
170994,-100,4,2,1,70,0,0
171195,-100,4,1,1,70,0,0
171497,-100,4,2,1,70,0,0
172001,-100,4,1,1,70,0,0
172303,-100,4,2,1,70,0,0
172705,-100,4,1,1,70,0,0
173007,-100,4,2,2,70,0,0
173309,-100,4,1,2,70,0,0
173712,-100,4,1,1,70,0,0
174216,-100,4,2,1,70,0,0
174417,-100,4,1,1,70,0,0
175021,-100,4,2,1,70,0,0
175222,-100,4,1,3,100,0,0
175524,-100,4,1,1,70,0,0
176833,-100,4,2,1,70,0,0
177034,-100,4,1,1,70,0,0
177437,-100,4,2,1,70,0,0
177638,-100,4,1,1,70,0,0
177940,-100,4,1,1,70,0,0
178343,-100,4,1,1,70,0,0
178746,-100,4,2,1,70,0,0
179450,-100,4,2,2,70,0,0
179752,-100,4,1,2,70,0,0
180155,-100,4,1,1,70,0,0
180658,-100,4,2,1,70,0,0
180860,-100,4,1,1,70,0,0
181464,-100,4,2,1,70,0,0
181665,-100,4,1,1,70,0,0
183779,-100,4,2,3,100,0,0
184081,-100,4,1,1,70,0,0
185390,-100,4,1,3,100,0,0
185692,-100,4,2,1,70,0,0
185893,-100,4,1,1,70,0,0
186397,-100,4,2,1,70,0,0
186799,-100,4,1,1,70,0,0
187303,-100,4,1,3,100,0,0
187705,-100,4,2,1,70,0,0
188309,-100,4,1,1,70,0,0
188913,-100,4,2,1,70,0,0
189115,-100,4,1,1,70,0,0
190222,-100,4,2,3,100,0,0
190524,-100,4,1,1,70,0,0
191833,-100,4,1,3,100,0,0
192236,-100,4,1,1,70,0,0
192739,-100,4,2,1,70,0,0
193544,-100,4,1,1,70,0,0
193746,-100,4,2,1,70,0,0
193947,-100,4,1,1,70,0,0
194199,-100,4,2,1,70,0,0
194501,-120.481927710843,4,2,3,100,0,0
194954,-100,4,2,1,70,0,0
195457,-100,4,1,1,70,0,0
195759,-100,4,2,1,70,0,0
195960,-100,4,2,1,40,0,0
196162,-100,4,2,1,70,0,0
197169,-100,4,1,1,70,0,0
197370,-100,4,2,1,70,0,0
197571,-100,4,2,1,40,0,0
197773,-100,4,1,1,70,0,0
198175,-100,4,2,1,70,0,0
198377,-100,4,1,3,100,0,0
203712,-100,4,2,2,70,0,0
207135,-100,4,1,2,70,0,0
207638,-100,4,1,1,70,0,0
208041,-100,4,2,1,70,0,0
208242,-100,4,1,1,70,0,0
208846,-100,4,2,1,70,0,0
209350,-100,4,1,1,70,0,0
209853,-100,4,2,1,70,0,0
210054,-100,4,2,2,70,0,0
210356,-100,4,1,2,70,0,0
210860,-100,4,1,1,70,0,0
211262,-100,4,2,1,70,0,0
211464,-100,4,1,1,70,0,0
212068,-100,4,2,1,70,0,0
212571,-100,4,1,1,70,0,0
212873,-100,4,2,3,100,0,0
213075,-100,4,2,1,70,0,0
213276,-100,4,2,2,70,0,0
213578,-100,4,1,2,70,0,0
214081,-100,4,1,1,70,0,0
214887,-100,4,2,1,70,0,0
215088,-100,4,1,1,70,0,0
215289,-100,4,2,1,70,0,0
215893,-100,4,1,1,70,0,0
216296,-100,4,2,1,70,0,0
218209,-100,4,1,3,100,0,0
219618,-100,4,2,2,70,0,0
220021,-100,4,1,2,70,0,0
220524,-100,4,1,1,70,0,0
221330,-100,4,2,1,70,0,0
221531,-100,4,1,1,70,0,0
221732,-100,4,2,1,70,0,0
222336,-100,4,1,1,70,0,0
222739,-100,4,2,1,70,0,0
224652,-100,4,1,3,100,0,0
226061,-100,4,2,2,70,0,0
226464,-100,4,1,2,70,0,0
226967,-100,4,1,1,70,0,0
227773,-100,4,2,1,70,0,0
227974,-100,4,1,1,70,0,0
228175,-100,4,2,1,70,0,0
228779,-100,4,1,1,70,0,0
229182,-100,4,2,1,70,0,0
232504,-100,4,2,2,70,0,0
232907,-100,4,1,2,70,0,0
233410,-100,4,1,1,70,0,0
234216,-100,4,2,1,70,0,0
234417,-100,4,1,1,70,0,0
234618,-100,4,2,1,70,0,0
235222,-100,4,1,1,70,0,0
235625,-100,4,2,1,70,0,0
238947,-100,4,1,1,70,0,0
239752,-100,4,2,1,70,0,0
240658,-100,4,1,1,70,0,0
241363,-100,4,2,1,70,0,0
242269,-100,4,1,1,70,0,0
242672,-100,4,2,1,70,0,0
243075,-100,4,1,1,70,0,0
244081,-100,4,1,3,100,0,0
244685,-100,4,1,1,70,0,0
246195,-100,4,2,1,70,0,0
247101,-100,4,1,1,70,0,0
247806,-100,4,2,1,70,0,0
248611,-100,4,1,1,70,0,0
249417,-100,4,2,3,100,0,0
249719,-100,4,2,1,70,0,0
250323,-100,4,1,1,70,0,0
250575,-100,4,2,1,70,0,0
250877,-114.942528735632,4,2,3,100,0,0
251330,-100,4,1,1,70,0,0
262202,-100,4,2,1,70,0,0
262403,-100,4,1,1,70,0,0
262806,-100,4,2,1,70,0,0
264216,-100,4,1,3,100,0,0
264719,-100,4,1,1,70,0,0
265424,-100,4,2,1,70,0,0
265625,-100,4,1,1,70,0,0
266028,-100,4,2,1,70,0,0
267437,-100,4,2,3,100,0,0
267940,-100,4,1,1,70,0,0
268444,-100,4,2,1,70,0,0
269249,-100,4,1,3,100,0,0
269450,-100,4,2,1,70,0,0
270155,-100,4,1,3,100,0,0
270658,-100,4,1,1,70,0,0
271464,-100,4,2,1,70,0,0
272471,-100,4,1,3,100,0,0
272672,-100,4,2,1,70,0,0
273377,-100,4,1,3,100,0,0
273880,-100,4,1,1,70,0,0
274685,-100,4,2,1,70,0,0
275692,-100,4,1,3,100,0,0
275893,-100,4,2,1,70,0,0
276699,-100,4,1,1,70,0,0
276900,-100,4,2,1,70,0,0
277303,-100,4,1,1,70,0,0
277907,-100,4,2,1,70,0,0
278913,-100,4,1,1,70,0,0
279115,-100,4,2,1,70,0,0
279316,-100,4,1,1,70,0,0
279518,-100,4,2,1,70,0,0
279719,-100,4,1,1,70,0,0
280122,-100,4,2,1,70,0,0
280524,-100,4,1,1,70,0,0
284249,-100,4,2,1,70,0,0

[Colours]
Combo1 : 248,40,0
Combo2 : 255,173,0
Combo3 : 0,248,37
Combo4 : 51,93,255

[HitObjects]
256,368,127806,6,0,B|462:365|539:161,1,363,6|0,0:0|0:0,0:0:0:0:
456,160,128611,1,0,0:0:0:0:
376,160,128812,1,4,0:0:0:0:
296,160,129014,1,4,0:0:0:0:
216,160,129215,1,0,0:0:0:0:
136,160,129416,1,6,0:0:0:0:
96,24,129819,1,2,0:0:0:0:
256,24,130222,1,2,0:0:0:0:
416,24,130625,1,0,0:0:0:0:
416,24,130826,1,6,0:0:0:0:
360,280,131229,5,4,0:0:0:0:
152,280,131632,1,4,0:0:0:0:
112,96,132235,1,4,0:0:0:0:
68,20,132436,1,0,0:0:0:0:
156,20,132638,1,6,0:0:0:0:
405,19,133040,1,4,0:0:0:0:
448,96,133242,1,0,0:0:0:0:
360,96,133443,1,6,0:0:0:0:
256,200,133847,5,4,0:0:0:0:
256,280,134048,1,4,0:0:0:0:
256,360,134249,2,0,B|47:365|-25:167,1,363,6|0,0:0|0:0,0:0:0:0:
56,160,135055,1,0,0:0:0:0:
136,160,135256,1,4,0:0:0:0:
216,160,135458,1,4,0:0:0:0:
216,80,135659,1,0,0:0:0:0:
216,0,135860,2,0,B|408:-8|512:192,1,363,6|0,0:0|0:0,0:0:0:0:
496,264,136666,1,2,0:0:0:0:
368,184,137068,1,2,0:0:0:0:
256,264,137471,1,0,0:0:0:0:
152,280,137672,5,4,0:0:0:0:
352,280,138075,1,4,0:0:0:0:
400,96,138678,1,4,0:0:0:0:
444,20,138879,1,0,0:0:0:0:
356,20,139081,1,6,0:0:0:0:
107,19,139483,1,4,0:0:0:0:
64,96,139685,1,0,0:0:0:0:
152,96,139886,1,6,0:0:0:0:
328,176,140289,5,8,0:0:0:0:
360,264,140490,1,4,0:0:0:0:
416,192,140692,1,0,0:0:0:0:
504,200,140893,2,0,B|464:328|336:368,3,242,6|12|12|6,0:0|0:0|0:0|0:0,0:0:0:0:
256,368,142302,1,0,0:0:0:0:
171,367,142504,2,0,B|48:328|8:200,3,242,6|12|12|6,0:0|0:0|0:0|0:0,0:0:0:0:
0,112,143913,1,4,0:0:0:0:
88,136,144115,2,0,B|192:280|320:8|424:152,1,363,6|2,0:0|0:0,0:0:0:0:
344,200,144920,5,6,0:0:0:0:
256,240,145121,1,8,0:0:0:0:
168,272,145323,1,4,0:0:0:0:
88,320,145524,2,0,B|248:456|424:320,1,363,6|12,0:0|0:0,0:0:0:0:
184,192,146732,5,8,0:0:0:0:
152,104,146933,1,4,0:0:0:0:
96,176,147135,1,0,0:0:0:0:
8,168,147336,2,0,B|48:40|176:0,3,242,6|12|12|6,0:0|0:0|0:0|0:0,0:0:0:0:
256,0,148745,1,0,0:0:0:0:
341,1,148947,2,0,B|464:40|504:168,3,242,6|12|12|6,0:0|0:0|0:0|0:0,0:0:0:0:
296,112,150558,5,4,0:0:0:0:
256,184,150759,1,4,0:0:0:0:
216,112,150960,1,2,0:0:0:0:
96,232,151363,1,4,0:0:0:0:
144,304,151564,1,0,0:0:0:0:
216,344,151766,1,4,0:0:0:0:
296,344,151967,1,4,0:0:0:0:
368,304,152168,1,6,0:0:0:0:
440,200,152470,1,6,0:0:0:0:
399,83,152773,2,0,B|251:-42|110:88,1,315.810005270648,12|2,0:0|0:0,0:0:0:0:
0,328,153578,21,0,0:0:0:0:
0,328,153779,2,0,C|88:236|200:338|312:236|418:336|508:237,1,726,6|6,0:0|0:0,0:0:0:0:
512,112,155188,1,0,0:0:0:0:
512,112,155390,2,0,C|424:20|312:122|200:20|94:120|4:21,1,726,6|12,0:0|0:0,0:0:0:0:
216,280,169282,37,4,0:0:0:0:
296,280,169484,1,4,0:0:0:0:
256,360,169685,2,0,B|40:368|-24:168,1,363,6|0,0:0|0:0,0:0:0:0:
56,160,170490,1,0,0:0:0:0:
101,232,170692,1,4,0:0:0:0:
144,160,170893,1,4,0:0:0:0:
190,232,171094,1,0,0:0:0:0:
256,179,171296,1,6,0:0:0:0:
192,59,171698,1,2,0:0:0:0:
256,0,171900,1,0,0:0:0:0:
320,59,172101,1,6,0:0:0:0:
400,179,172504,1,4,0:0:0:0:
256,304,172907,1,4,0:0:0:0:
134,303,173108,5,4,0:0:0:0:
378,303,173511,1,4,0:0:0:0:
400,96,174115,1,4,0:0:0:0:
444,20,174316,1,0,0:0:0:0:
356,20,174518,1,8,0:0:0:0:
107,19,174920,1,4,0:0:0:0:
152,96,175122,1,0,0:0:0:0:
64,96,175323,1,12,0:0:0:0:
296,272,175725,5,4,0:0:0:0:
214,272,175927,1,4,0:0:0:0:
256,352,176128,2,0,B|464:368|538:168,1,363,6|0,0:0|0:0,0:0:0:0:
499,100,176933,1,0,0:0:0:0:
436,36,177135,1,4,0:0:0:0:
376,100,177336,1,4,0:0:0:0:
314,36,177537,1,0,0:0:0:0:
257,97,177739,1,6,0:0:0:0:
120,99,178141,1,0,0:0:0:0:
186,191,178544,1,6,0:0:0:0:
326,191,178947,1,4,0:0:0:0:
256,304,179349,1,2,0:0:0:0:
378,303,179550,5,4,0:0:0:0:
134,303,179953,1,4,0:0:0:0:
112,96,180558,1,4,0:0:0:0:
68,20,180759,1,0,0:0:0:0:
156,20,180961,1,8,0:0:0:0:
405,19,181363,1,4,0:0:0:0:
360,96,181565,1,0,0:0:0:0:
448,96,181766,1,6,0:0:0:0:
184,176,182168,5,8,0:0:0:0:
152,264,182369,1,4,0:0:0:0:
96,192,182571,1,0,0:0:0:0:
8,200,182772,2,0,B|48:328|176:368,3,242,6|12|12|6,0:0|0:0|0:0|0:0,0:0:0:0:
256,368,184181,1,0,0:0:0:0:
341,367,184383,2,0,B|464:328|504:200,3,242,6|12|12|6,0:0|0:0|0:0|0:0,0:0:0:0:
512,112,185792,1,0,0:0:0:0:
424,144,185994,2,0,B|320:288|192:16|88:160,2,363,6|4|4,0:0|0:0|0:0,0:0:0:0:
424,64,187403,6,0,B|255:-61|78:63,1,363,12|4,0:0|0:0,0:0:0:0:
328,176,188611,5,4,0:0:0:0:
360,264,188812,1,0,0:0:0:0:
416,192,189014,1,0,0:0:0:0:
504,200,189215,2,0,B|464:328|336:368,3,242,6|12|12|6,0:0|0:0|0:0|0:0,0:0:0:0:
256,368,190624,1,0,0:0:0:0:
171,367,190826,2,0,B|48:328|8:200,3,242,6|12|12|12,0:0|0:0|0:0|0:0,0:0:0:0:
216,288,192437,5,4,0:0:0:0:
296,288,192638,1,12,0:0:0:0:
257,361,192839,1,2,0:0:0:0:
376,224,193242,1,4,0:0:0:0:
296,200,193443,1,0,0:0:0:0:
216,200,193645,1,4,0:0:0:0:
136,224,193846,1,0,0:0:0:0:
152,144,194047,1,6,0:0:0:0:
264,104,194349,1,2,0:0:0:0:
391,65,194651,2,0,B|247:-47|107:72,1,301.289988865865,12|4,0:0|0:0,0:0:0:0:
56,344,195658,5,6,0:0:0:0:
120,280,195860,1,0,0:0:0:0:
184,216,196061,1,0,0:0:0:0:
184,344,196262,1,2,0:0:0:0:
248,280,196464,1,0,0:0:0:0:
312,216,196665,1,0,0:0:0:0:
376,280,196866,1,4,0:0:0:0:
440,216,197068,1,0,0:0:0:0:
512,144,197269,5,6,0:0:0:0:
448,80,197470,1,0,0:0:0:0:
384,16,197672,1,0,0:0:0:0:
384,144,197873,1,4,0:0:0:0:
320,80,198074,1,4,0:0:0:0:
256,144,198276,21,0,0:0:0:0:
256,304,198477,1,12,0:0:0:0:
142,223,206933,37,4,0:0:0:0:
370,223,207336,1,4,0:0:0:0:
398,81,207940,1,4,0:0:0:0:
440,10,208141,1,0,0:0:0:0:
358,10,208343,1,6,0:0:0:0:
108,9,208745,1,4,0:0:0:0:
69,84,208947,1,0,0:0:0:0:
151,82,209148,1,4,0:0:0:0:
256,167,209551,1,4,0:0:0:0:
216,234,209752,1,6,0:0:0:0:
296,235,209953,1,0,0:0:0:0:
382,295,210155,5,4,0:0:0:0:
130,295,210558,1,4,0:0:0:0:
114,179,211162,1,4,0:0:0:0:
76,106,211363,1,0,0:0:0:0:
156,106,211564,1,6,0:0:0:0:
396,106,211967,1,4,0:0:0:0:
437,176,212168,1,0,0:0:0:0:
356,176,212370,1,4,0:0:0:0:
214,368,212772,1,4,0:0:0:0:
297,368,212974,1,6,0:0:0:0:
257,298,213175,1,0,0:0:0:0:
137,301,213376,5,4,0:0:0:0:
375,301,213779,1,4,0:0:0:0:
91,81,214383,1,4,0:0:0:0:
48,161,214584,1,4,0:0:0:0:
132,161,214786,1,2,0:0:0:0:
175,80,214987,1,0,0:0:0:0:
256,81,215188,1,0,0:0:0:0:
217,162,215390,1,2,0:0:0:0:
301,161,215591,1,4,0:0:0:0:
340,80,215792,1,0,0:0:0:0:
388,160,215994,1,4,0:0:0:0:
339,242,216195,1,6,0:0:0:0:
257,241,216396,1,0,0:0:0:0:
256,192,216598,8,12,219417,0:0:0:0:
375,301,219819,5,4,0:0:0:0:
137,301,220222,1,4,0:0:0:0:
421,81,220826,1,4,0:0:0:0:
464,161,221027,1,4,0:0:0:0:
380,161,221229,1,2,0:0:0:0:
337,80,221430,1,0,0:0:0:0:
256,81,221631,1,0,0:0:0:0:
295,162,221833,1,2,0:0:0:0:
211,161,222034,1,4,0:0:0:0:
172,80,222235,1,0,0:0:0:0:
124,160,222437,1,4,0:0:0:0:
173,242,222638,1,6,0:0:0:0:
255,241,222839,1,0,0:0:0:0:
256,192,223041,8,6,225860,0:0:0:0:
143,305,226262,5,4,0:0:0:0:
369,305,226665,1,4,0:0:0:0:
256,40,227269,1,4,0:0:0:0:
336,40,227470,1,4,0:0:0:0:
417,40,227672,1,2,0:0:0:0:
375,119,227873,1,0,0:0:0:0:
295,118,228074,1,4,0:0:0:0:
335,195,228276,1,2,0:0:0:0:
256,196,228477,1,4,0:0:0:0:
217,118,228678,1,0,0:0:0:0:
178,196,228880,1,4,0:0:0:0:
137,119,229081,1,6,0:0:0:0:
95,40,229282,1,0,0:0:0:0:
256,192,229484,8,4,232303,0:0:0:0:
369,305,232705,5,4,0:0:0:0:
143,305,233108,1,4,0:0:0:0:
256,40,233712,1,4,0:0:0:0:
217,118,233913,1,4,0:0:0:0:
176,40,234115,1,2,0:0:0:0:
95,40,234316,1,0,0:0:0:0:
137,119,234517,1,0,0:0:0:0:
177,195,234719,1,2,0:0:0:0:
256,196,234920,1,4,0:0:0:0:
334,196,235121,1,0,0:0:0:0:
295,118,235323,1,4,0:0:0:0:
375,119,235524,1,6,0:0:0:0:
417,40,235725,1,0,0:0:0:0:
256,192,235927,8,4,238746,0:0:0:0:
170,367,239148,6,0,B|48:328|8:200,2,242,6|8|0,0:0|0:0|0:0,0:0:0:0:
168,280,240155,1,8,0:0:0:0:
256,280,240356,1,8,0:0:0:0:
256,368,240558,1,2,0:0:0:0:
341,367,240759,2,0,B|464:328|504:200,2,242,6|8|0,0:0|0:0|0:0,0:0:0:0:
344,280,241766,1,8,0:0:0:0:
256,280,241967,1,8,0:0:0:0:
300,206,242168,1,0,0:0:0:0:
382,163,242370,2,0,B|212:39|192:290|40:160,1,363,2|2,0:0|0:0,0:0:0:0:
139,103,243175,5,6,0:0:0:0:
56,88,243376,1,8,0:0:0:0:
112,24,243578,1,4,0:0:0:0:
196,22,243779,2,0,B|417:-12|503:180,1,363,4|12,0:0|0:0,0:0:0:0:
256,192,244987,5,12,0:0:0:0:
256,280,245188,1,4,0:0:0:0:
256,368,245390,1,0,0:0:0:0:
342,367,245591,2,0,B|464:328|504:200,2,242,6|8|0,0:0|0:0|0:0,0:0:0:0:
344,280,246598,1,8,0:0:0:0:
256,280,246799,1,8,0:0:0:0:
256,368,247001,1,2,0:0:0:0:
171,367,247202,2,0,B|48:328|8:200,2,242,6|8|0,0:0|0:0|0:0,0:0:0:0:
168,280,248209,1,8,0:0:0:0:
256,280,248410,1,8,0:0:0:0:
216,112,248813,5,4,0:0:0:0:
256,184,249014,1,4,0:0:0:0:
296,112,249215,1,2,0:0:0:0:
416,232,249618,1,6,0:0:0:0:
368,304,249819,1,0,0:0:0:0:
296,344,250021,1,4,0:0:0:0:
216,344,250222,1,0,0:0:0:0:
144,304,250423,1,6,0:0:0:0:
72,200,250725,1,4,0:0:0:0:
113,83,251028,2,0,B|261:-42|402:88,1,315.810005270648,12|2,0:0|0:0,0:0:0:0:
256,288,261698,5,6,0:0:0:0:
296,216,261900,1,4,0:0:0:0:
216,216,262101,1,8,0:0:0:0:
176,288,262302,1,0,0:0:0:0:
256,368,262504,2,0,B|480:376|448:168|376:136,1,363,6|2,0:0|0:0,0:0:0:0:
296,120,263309,1,8,0:0:0:0:
216,120,263511,1,8,0:0:0:0:
256,48,263712,1,0,0:0:0:0:
176,48,263913,2,0,B|-40:96|8:320,1,363,4|12,0:0|0:0,0:0:0:0:
256,288,264920,5,6,0:0:0:0:
216,216,265122,1,4,0:0:0:0:
296,216,265323,1,8,0:0:0:0:
336,288,265524,1,0,0:0:0:0:
256,368,265726,2,0,B|32:376|64:160|136:136,1,363,4|2,0:0|0:0,0:0:0:0:
216,120,266531,1,8,0:0:0:0:
296,120,266733,1,8,0:0:0:0:
256,48,266934,1,0,0:0:0:0:
336,48,267135,2,0,B|552:96|504:320,1,363,4|6,0:0|0:0,0:0:0:0:
256,184,268141,21,6,0:0:0:0:
168,216,268343,1,4,0:0:0:0:
80,248,268544,1,8,0:0:0:0:
80,336,268745,1,0,0:0:0:0:
168,304,268947,1,0,0:0:0:0:
256,272,269148,1,8,0:0:0:0:
344,304,269349,1,12,0:0:0:0:
344,216,269551,1,0,0:0:0:0:
432,248,269752,1,2,0:0:0:0:
432,336,269953,1,4,0:0:0:0:
424,104,270356,2,0,B|256:8|64:112,1,363,6|6,0:0|0:0,0:0:0:0:
256,184,271363,5,6,0:0:0:0:
344,216,271565,1,8,0:0:0:0:
432,248,271766,1,8,0:0:0:0:
432,336,271967,1,0,0:0:0:0:
344,304,272169,1,0,0:0:0:0:
256,272,272370,1,8,0:0:0:0:
168,304,272571,1,12,0:0:0:0:
168,216,272773,1,0,0:0:0:0:
80,248,272974,1,2,0:0:0:0:
80,336,273175,1,4,0:0:0:0:
88,104,273578,2,0,B|256:8|448:112,1,363,6|6,0:0|0:0,0:0:0:0:
256,344,274584,5,6,0:0:0:0:
296,270,274786,1,2,0:0:0:0:
215,270,274987,1,8,0:0:0:0:
176,344,275188,1,0,0:0:0:0:
96,344,275390,1,0,0:0:0:0:
135,270,275591,1,8,0:0:0:0:
96,193,275792,1,12,0:0:0:0:
176,193,275994,1,0,0:0:0:0:
256,193,276195,1,2,0:0:0:0:
336,193,276396,1,4,0:0:0:0:
416,193,276598,1,0,0:0:0:0:
375,270,276799,1,4,0:0:0:0:
417,344,277000,1,0,0:0:0:0:
336,344,277202,1,8,0:0:0:0:
295,270,277403,1,6,0:0:0:0:
297,82,277806,5,6,0:0:0:0:
216,81,278008,1,8,0:0:0:0:
137,80,278209,1,8,0:0:0:0:
96,159,278410,1,0,0:0:0:0:
176,159,278612,1,0,0:0:0:0:
256,159,278813,1,8,0:0:0:0:
336,159,279014,1,4,0:0:0:0:
416,159,279216,1,0,0:0:0:0:
377,82,279417,1,2,0:0:0:0:
416,8,279618,1,4,0:0:0:0:
336,8,279820,1,4,0:0:0:0:
256,8,280021,1,4,0:0:0:0:
176,8,280222,1,0,0:0:0:0:
95,8,280424,1,8,0:0:0:0:
135,82,280625,1,6,0:0:0:0:
256,192,281027,12,4,287470,0:0:0:0:
