osu file format v14

[General]
AudioFilename: Billy Fogarty - Jumpin' Jack Flash.mp3
AudioLeadIn: 0
PreviewTime: 140289
Countdown: 0
SampleSet: Soft
StackLeniency: 0.7
Mode: 0
LetterboxInBreaks: 0
StoryFireInFront: 0
SkinPreference:EliteBeatOsu
WidescreenStoryboard: 0

[Editor]
DistanceSpacing: 0.8
BeatDivisor: 4
GridSize: 8
TimelineZoom: 1

[Metadata]
Title:Jumpin' Jack Flash
TitleUnicode:Jumpin' Jack Flash
Artist:Billy Fogarty
ArtistUnicode:Billy Fogarty
Creator:m980
Version:Breezin'
Source:Elite Beat Agents
Tags:ouendan EBA rolling stones nintendo authentic mm201 metalmario201
BeatmapID:24112
BeatmapSetID:4422

[Difficulty]
HPDrainRate:1
CircleSize:3
OverallDifficulty:0
ApproachRate:0
SliderMultiplier:1.96
SliderTickRate:2

[Events]
//Background and Video events
0,0,"bg.png",0,0
//Break Periods
2,157200,167482
2,198830,205133
2,251984,259898
//Storyboard Layer 0 (Background)
//Storyboard Layer 1 (Fail)
Sprite,Fail,Centre,"bg\scn2_bg2_b.png",320,240 F,0,198867,202087,1
Animation,Fail,TopLeft,"spr\scn2_spr1_2b_.png",0,60,2,100,LoopForever L,198867,16 M,0,0,,168,60 M,0,50,,168,55 M,0,100,,168,60 F,0,198867,200477,1
Sprite,Fail,TopLeft,"spr\scn2_spr1ag_b.png",0,60 M,0,198867,199067,-375,60,0,60 F,0,198867,200477,1
Animation,Fail,TopLeft,"spr\scn2_spr2_2b_.png",0,60,2,100,LoopForever L,200477,16 M,0,0,,0,45 M,0,50,,0,50 M,0,100,,0,45 F,0,200477,202087,1
Sprite,Fail,TopLeft,"spr\scn2_spr2ag_b.png",0,60 M,0,200477,200678,640,60,293,60 F,0,200477,202087,1
Sprite,Fail,TopLeft,"spr\scn2_spr3br.png",320,240 L,202490,12 M,0,0,50,0,60,-5,60 M,0,50,100,-5,60,0,60 M,2,202088,202490,-640,60,0,60 F,0,202088,203294,1
//Storyboard Layer 2 (Pass)
Sprite,Pass,Centre,"bg\scn2_bg1_g.png",320,240 F,0,198867,200477,1
Sprite,Pass,TopLeft,"spr\scn2_spr1_2_g.png",320,258 F,0,198867,200477,1
Sprite,Pass,TopLeft,"spr\scn2_spr1ag_g.png",320,240 M,0,198867,199067,-375,60,0,60 F,0,198867,200477,1
Sprite,Pass,Centre,"bg\scn2_bg2_g.png",320,240 F,0,200477,202087,1
Sprite,Pass,TopLeft,"spr\scn2_spr2_2g.png",0,255 F,0,200477,202087,1
Sprite,Pass,TopLeft,"spr\scn2_spr2ag_g.png",320,240 M,0,200477,200678,640,60,293,60 F,0,200477,202087,1
Sprite,Pass,TopLeft,"spr\scn2_txt2_1agg.png",0,60 F,0,200678,202087,1
Sprite,Pass,TopLeft,"spr\scn2_spr3br.png",320,240 L,202490,12 M,0,0,50,0,60,-5,60 M,0,50,100,-5,60,0,60 M,2,202088,202490,-640,60,0,60 F,0,202088,203294,1
//Storyboard Layer 3 (Foreground)
Sprite,Foreground,Centre,"spr\scn0_3spr_br.png",320,240 F,0,16450,22490,1
Sprite,Foreground,Centre,"spr\bre_ready.png",320,240 M,0,124585,124772,-320,240,320,240 F,0,124585,125577,1 F,0,125577,,1,0 F,0,126383,127188,1
Sprite,Foreground,Centre,"spr\scn0_spr_statuebr.png",320,240 F,0,84202,86883,1 F,0,86883,,1,0 F,0,96584,97792,1 F,0,97792,,1,0 F,0,103027,104638,1 F,0,104638,,1,0 F,0,106248,110491,1
Sprite,Foreground,Centre,"spr\scn0_spr_statuebr_1.png",320,240 F,0,109585,109685,1 F,0,109685,109987,0 F,0,109987,110088,1 F,0,110088,110289,0 F,0,110289,110491,1 F,0,110491,113913,1
Sprite,Foreground,Centre,"spr\scn0_spr_statuebr_2.png",320,240 F,0,112907,113007,1 F,0,113007,113209,0 F,0,113209,113309,1 F,0,113309,113511,0 F,0,113511,113611,1 F,0,113611,113712,0 F,0,113712,113913,1 F,0,113913,120759,1
Sprite,Foreground,Centre,"spr\scn0_spr_statuebr_3.png",320,240 L,119048,17 F,0,0,50,1 F,0,50,100,0 F,0,116732,116832,1 F,0,116832,117236,0 F,0,117236,117336,1 F,0,117336,117739,0 F,0,117739,117839,1 F,0,117839,118142,0 F,0,118142,118242,1 F,0,118242,118343,0 F,0,118343,118443,1 F,0,118443,118544,0 F,0,118544,118644,1 F,0,118644,118846,0 F,0,118846,118946,1 F,0,118946,119048,0
Sprite,Foreground,Centre,"spr\scn0_16spr_agents.png",320,240 M,1,120745,121248,320,640,320,240 F,0,120745,121550,1
Sprite,Foreground,Centre,"spr\scn0_16spr_br.png",320,240 M,1,120745,121248,320,640,320,200 F,0,120745,121550,1
Sprite,Foreground,Centre,"spr\scn0_17spr_m.png",320,269 F,0,122773,124585,1
Sprite,Foreground,BottomCentre,"spr\scn0_17spr_br.png",335,420 F,0,122773,124585,1
Sprite,Foreground,TopLeft,"spr\countdown\cd_3.png",0,0 F,0,126383,127591,1
Sprite,Foreground,TopLeft,"spr\countdown\cd_2.png",420,0 F,0,126785,127591,1
Sprite,Foreground,Centre,"spr\countdown\cd_1bre.png",315,240 F,0,127188,127591,1
Sprite,Foreground,TopLeft,"spr\scn5_spr3_br.png",77,150 L,370007,2 M,0,0,1800,247,120,279,150 M,0,1800,2600,279,150,247,120 F,0,370007,375242,1
Sprite,Foreground,TopLeft,"spr\scn5_spr3_3ag.png",77,150 L,370007,2 M,0,0,1800,147,90,179,120 M,0,1800,2600,179,120,147,90 F,0,370007,375242,1
Sprite,Foreground,TopLeft,"spr\scn5_spr8_br_1.png",0,60 L,391349,2 M,0,0,800,257,90,257,110 M,0,800,1600,257,110,257,90 M,1,390544,391349,257,390,257,90 F,0,390544,394571,1
Sprite,Foreground,TopLeft,"spr\scn5_spr8_br_2.png",0,60 M,0,394571,395376,257,90,257,110
Sprite,Foreground,TopLeft,"spr\scn5_spr8_ag_1.png",0,60 L,391349,2 M,0,0,800,34,90,34,110 M,0,800,1600,34,110,34,90 M,1,390544,391349,34,360,34,90 F,0,390544,394571,1
Sprite,Foreground,TopLeft,"spr\scn5_spr8_ag_2.png",0,60 M,0,394571,395376,34,90,34,110
Sprite,Foreground,TopLeft,"spr\scn5_spr9_br.png",134,108 L,395376,2 M,0,0,600,240,108,240,118 M,0,600,1200,240,118,240,108 F,0,395376,397792,1
Sprite,Foreground,TopLeft,"spr\scn5_spr9_der.png",0,108 L,395376,2 M,0,0,600,0,15,0,25 M,0,600,1200,0,25,0,15 F,0,395376,397792,1
Sprite,Foreground,TopLeft,"spr\scn5_spr9_mor.png",0,108 L,395376,2 M,0,0,600,497,177,497,187 M,0,600,1200,497,187,497,177 F,0,395376,397792,1
//Storyboard Sound Samples
Sample,123578,3,"sfx/strongMHey.wav",80
Sample,124773,3,"sfx/areyoureadym.wav",80
Sample,126384,3,"sfx/mov_3m.wav",80
Sample,126786,3,"sfx/mov_2m.wav",80
Sample,127189,3,"sfx/mov_1m.wav",80
Sample,127592,3,"sfx/mov_gom.wav",80

[TimingPoints]
121565,402.684563758389,4,1,1,70,1,0
128394,-100,4,2,1,70,0,0
129200,-100,4,1,1,70,0,0
129602,-100,4,2,1,70,0,0
130408,-100,4,1,2,70,0,0
130911,-100,4,2,2,70,0,0
131414,-100,4,1,2,70,0,0
131918,-100,4,2,1,70,0,0
133226,-100,4,1,1,70,0,0
134837,-100,4,2,1,70,0,0
135642,-100,4,1,1,70,0,0
136045,-100,4,2,1,70,0,0
136851,-100,4,1,1,70,0,0
137354,-100,4,2,2,70,0,0
137857,-100,4,1,2,70,0,0
138361,-100,4,2,1,70,0,0
139669,-100,4,1,1,70,0,0
140072,-100,4,2,1,70,0,0
140475,-100,4,1,1,70,0,0
141179,-100,4,2,1,70,0,0
141783,-100,4,2,2,70,0,0
142287,-100,4,1,1,70,0,0
142790,-100,4,2,1,70,0,0
143394,-100,4,1,2,70,0,0
143897,-100,4,1,1,70,0,0
145005,-100,4,2,1,70,0,0
145206,-100,4,1,1,70,0,0
145408,-100,4,1,2,70,0,0
146112,-100,4,2,1,70,0,0
147220,-100,4,1,1,70,0,0
148226,-100,4,2,2,70,0,0
148730,-100,4,1,1,70,0,0
149837,-100,4,1,2,70,0,0
150340,-100,4,1,1,70,0,0
150642,-100,4,2,1,70,0,0
150844,-100,4,1,1,70,0,0
151146,-100,4,2,1,70,0,0
151548,-100,4,1,1,70,0,0
152455,-100,4,1,2,70,0,0
153059,-100,4,2,1,70,0,0
153562,-100,4,1,1,70,0,0
154569,-100,4,1,2,70,0,0
156179,-100,4,2,2,70,0,0
163428,-100,4,1,1,70,0,0
170273,-100,4,2,1,70,0,0
171079,-100,4,1,1,70,0,0
171481,-100,4,2,1,70,0,0
172287,-100,4,1,2,70,0,0
172790,-100,4,2,2,70,0,0
173293,-100,4,1,2,70,0,0
173797,-100,4,2,1,70,0,0
175106,-100,4,1,1,70,0,0
176716,-100,4,2,1,70,0,0
177522,-100,4,1,1,70,0,0
177924,-100,4,2,1,70,0,0
178730,-100,4,1,1,70,0,0
179233,-100,4,2,2,70,0,0
179736,-100,4,1,2,70,0,0
180240,-100,4,2,1,70,0,0
181548,-100,4,1,1,70,0,0
181951,-100,4,2,1,70,0,0
182354,-100,4,1,1,70,0,0
183059,-100,4,2,1,70,0,0
183663,-100,4,2,2,70,0,0
184166,-100,4,1,1,70,0,0
184669,-100,4,2,1,70,0,0
185273,-100,4,1,2,70,0,0
185777,-100,4,1,1,70,0,0
186884,-100,4,2,1,70,0,0
187085,-100,4,1,1,70,0,0
187287,-100,4,1,2,70,0,0
187991,-100,4,1,1,70,0,0
190106,-100,4,2,2,70,0,0
190609,-100,4,1,1,70,0,0
191716,-100,4,1,2,70,0,0
192220,-100,4,1,1,70,0,0
192522,-100,4,2,1,70,0,0
192723,-100,4,1,1,70,0,0
193025,-100,4,2,1,70,0,0
193428,-100,4,1,1,70,0,0
194334,-100,4,1,2,70,0,0
194938,-100,4,2,1,70,0,0
195441,-100,4,1,1,70,0,0
196246,-100,4,1,2,70,0,0
197052,-100,4,2,1,70,0,0
197857,-100,4,2,2,70,0,0
207119,-100,4,1,2,70,0,0
207622,-100,4,2,1,70,0,0
208126,-100,4,1,1,70,0,0
208528,-100,4,2,1,70,0,0
209636,-100,4,1,1,70,0,0
209938,-100,4,2,2,70,0,0
210340,-100,4,1,2,70,0,0
210844,-100,4,2,1,70,0,0
211347,-100,4,1,1,70,0,0
211750,-100,4,2,1,70,0,0
212857,-100,4,1,1,70,0,0
213159,-100,4,2,2,70,0,0
213562,-100,4,1,2,70,0,0
214065,-100,4,1,1,70,0,0
214569,-100,4,2,1,70,0,0
215374,-100,4,1,1,70,0,0
216179,-100,4,2,1,70,0,0
216783,-100,4,1,2,70,0,0
219401,-100,4,2,2,70,0,0
220005,-100,4,1,2,70,0,0
220508,-100,4,1,1,70,0,0
221012,-100,4,2,1,70,0,0
221817,-100,4,1,1,70,0,0
222622,-100,4,2,1,70,0,0
223226,-100,4,1,2,70,0,0
225844,-100,4,2,2,70,0,0
226448,-100,4,1,2,70,0,0
226951,-100,4,2,1,70,0,0
227455,-100,4,1,1,70,0,0
229065,-100,4,2,1,70,0,0
229669,-100,4,2,2,70,0,0
232891,-100,4,1,2,70,0,0
233394,-100,4,2,1,70,0,0
233998,-100,4,1,1,70,0,0
234300,-100,4,2,1,70,0,0
235408,-100,4,2,2,70,0,0
235911,-100,4,2,1,70,0,0
238730,-100,4,1,1,70,0,0
239434,-100,4,2,1,70,0,0
240542,-100,4,1,1,70,0,0
241045,-100,4,2,1,70,0,0
241851,-100,4,1,2,70,0,0
242153,-100,4,1,1,70,0,0
242555,-100,4,2,1,70,0,0
242958,-100,4,1,1,70,0,0
243461,-100,4,2,1,70,0,0
243663,-100,4,1,2,70,0,0
244367,-100,4,2,1,70,0,0
245173,-100,4,1,1,70,0,0
245877,-100,4,2,1,70,0,0
246985,-100,4,1,1,70,0,0
247488,-100,4,2,1,70,0,0
248293,-100,4,1,2,70,0,0
248595,-100,4,1,1,70,0,0
248897,-100,4,2,1,70,0,0
249401,-100,4,1,1,70,0,0
249804,-100,4,2,1,70,0,0
250206,-100,4,1,1,70,0,0
250710,-100,4,1,2,70,0,0
251314,-100,4,2,1,70,0,0
255240,-100,4,1,1,70,0,0
262689,-100,4,2,1,70,0,0
263092,-100,4,1,1,70,0,0
264200,-100,4,2,1,70,0,0
264703,-100,4,1,1,70,0,0
265911,-100,4,2,1,70,0,0
266314,-100,4,1,1,70,0,0
267421,-100,4,2,1,70,0,0
267924,-100,4,1,1,70,0,0
269132,-100,4,2,1,70,0,0
269535,-100,4,1,1,70,0,0
270642,-100,4,2,1,70,0,0
271146,-100,4,1,1,70,0,0
272354,-100,4,2,1,70,0,0
272757,-100,4,1,1,70,0,0
273864,-100,4,2,2,70,0,0
274367,-100,4,2,1,70,0,0
274669,-100,4,1,1,70,0,0
274871,-100,4,2,1,70,0,0
275173,-100,4,1,2,70,0,0
275676,-100,4,2,1,70,0,0
276079,-100,4,1,1,70,0,0
276280,-100,4,2,1,70,0,0
276582,-100,4,1,1,70,0,0
277085,-100,4,1,2,70,0,0
277589,-100,4,2,1,70,0,0
277891,-100,4,1,1,70,0,0
278092,-100,4,2,1,70,0,0
278394,-100,4,1,2,70,0,0
278897,-100,4,2,1,70,0,0
279300,-100,4,1,1,70,0,0
279502,-100,4,2,1,70,0,0
279804,-100,4,1,1,70,0,0
280307,-100,4,1,2,70,0,0
281012,-100,4,2,2,70,0,0

[Colours]
Combo1 : 248,40,0
Combo2 : 255,173,0
Combo3 : 0,248,37
Combo4 : 51,93,255

[HitObjects]
176,16,127806,6,0,B|-88:16|-88:360|176:360,1,588,6|4,0:0|0:0,0:0:0:0:
336,360,129417,1,6,0:0:0:0:
336,224,129819,1,2,0:0:0:0:
176,224,130222,1,2,0:0:0:0:
256,80,130625,1,8,0:0:0:0:
149,16,131229,5,4,0:0:0:0:
363,16,131631,1,4,0:0:0:0:
256,160,132235,2,0,B|256:366,1,196,2|4,0:0|0:0,0:0:0:0:
115,321,133041,2,0,B|17:260|-2:157,1,196,2|6,0:0|0:0,0:0:0:0:
260,20,133846,5,4,0:0:0:0:
260,20,134047,1,4,0:0:0:0:
336,16,134249,2,0,B|600:16|600:360|336:360,1,588,6|4,0:0|0:0,0:0:0:0:
176,360,135860,1,6,0:0:0:0:
176,224,136262,1,2,0:0:0:0:
336,224,136665,1,2,0:0:0:0:
256,80,137068,1,6,0:0:0:0:
363,16,137672,5,4,0:0:0:0:
149,16,138074,1,4,0:0:0:0:
50,224,138678,2,0,B|72:335|176:361,1,196,2|4,0:0|0:0,0:0:0:0:
336,361,139484,2,0,B|440:335|467:202,1,196,2|6,0:0|0:0,0:0:0:0:
257,180,140289,5,2,0:0:0:0:
256,16,140692,1,4,0:0:0:0:
176,16,140893,2,0,B|16:48|-8:224,2,294,6|8|2,0:0|0:0|0:0,0:0:0:0:
336,16,142504,2,0,B|496:48|520:224,2,294,6|8|8,0:0|0:0|0:0,0:0:0:0:
256,80,144115,2,0,B|256:288,1,196,4|6,0:0|0:0,0:0:0:0:
133,364,144920,5,4,0:0:0:0:
215,365,145121,1,0,0:0:0:0:
298,365,145323,1,4,0:0:0:0:
379,364,145524,1,2,0:0:0:0:
255,182,146732,5,2,0:0:0:0:
256,16,147135,1,2,0:0:0:0:
336,16,147336,2,0,B|496:48|520:224,2,294,6|8|2,0:0|0:0|0:0,0:0:0:0:
176,16,148947,2,0,B|16:48|-8:224,2,294,6|8|8,0:0|0:0|0:0,0:0:0:0:
264,104,150558,5,4,0:0:0:0:
264,104,150759,1,0,0:0:0:0:
264,104,150960,1,6,0:0:0:0:
176,202,151363,1,4,0:0:0:0:
336,202,151766,1,12,0:0:0:0:
385,321,152168,2,0,B|257:445|124:318,2,294,6|8|4,0:0|0:0|0:0,0:0:0:0:
512,129,153779,22,0,C|410:16|308:129|206:16|104:129|0:16,2,784,6|2|8,0:0|0:0|0:0,0:0:0:0:
260,20,169282,37,4,0:0:0:0:
260,20,169484,1,12,0:0:0:0:
336,16,169685,2,0,B|600:16|600:360|336:360,1,588,6|4,0:0|0:0,0:0:0:0:
176,360,171296,1,6,0:0:0:0:
176,224,171698,1,2,0:0:0:0:
336,224,172101,1,2,0:0:0:0:
256,82,172504,1,8,0:0:0:0:
363,18,173108,5,4,0:0:0:0:
149,18,173510,1,4,0:0:0:0:
256,160,174115,2,0,B|256:358,1,196,2|4,0:0|0:0,0:0:0:0:
397,323,174920,2,0,B|495:262|514:159,1,196,2|6,0:0|0:0,0:0:0:0:
260,20,175725,5,4,0:0:0:0:
260,20,175926,1,4,0:0:0:0:
176,16,176128,2,0,B|-88:16|-88:360|176:360,1,588,6|4,0:0|0:0,0:0:0:0:
336,360,177739,1,6,0:0:0:0:
336,224,178141,1,2,0:0:0:0:
176,224,178544,1,2,0:0:0:0:
256,82,178947,1,6,0:0:0:0:
149,18,179551,5,4,0:0:0:0:
363,18,179953,1,4,0:0:0:0:
462,226,180557,2,0,B|440:337|336:363,1,196,2|4,0:0|0:0,0:0:0:0:
176,363,181363,2,0,B|72:337|45:204,1,196,2|6,0:0|0:0,0:0:0:0:
255,182,182168,5,2,0:0:0:0:
256,16,182571,1,4,0:0:0:0:
336,16,182772,2,0,B|496:48|520:224,2,294,6|8|2,0:0|0:0|0:0,0:0:0:0:
176,16,184383,2,0,B|16:48|-8:224,2,294,6|8|8,0:0|0:0|0:0,0:0:0:0:
256,80,185994,2,0,B|256:288,1,196,4|6,0:0|0:0,0:0:0:0:
379,364,186799,5,4,0:0:0:0:
297,365,187000,1,0,0:0:0:0:
214,365,187202,1,4,0:0:0:0:
133,364,187403,1,2,0:0:0:0:
257,182,188611,5,4,0:0:0:0:
256,16,189014,1,4,0:0:0:0:
176,16,189215,2,0,B|16:48|-8:224,2,294,6|8|2,0:0|0:0|0:0,0:0:0:0:
336,16,190826,2,0,B|496:48|520:224,2,294,6|8|8,0:0|0:0|0:0,0:0:0:0:
264,104,192437,5,4,0:0:0:0:
264,104,192638,1,0,0:0:0:0:
264,104,192839,1,6,0:0:0:0:
336,202,193242,1,4,0:0:0:0:
176,202,193645,1,8,0:0:0:0:
127,321,194047,2,0,B|255:445|388:318,2,294,6|8|4,0:0|0:0|0:0,0:0:0:0:
480,48,195658,22,0,C|408:112|320:32|208:104|112:40|24:112,1,588,6|2,0:0|0:0,0:0:0:0:
40,240,197269,2,0,C|112:296|200:224|312:296|408:224|504:304,1,588,4|8,0:0|0:0,0:0:0:0:
152,280,206933,5,4,0:0:0:0:
360,280,207336,1,4,0:0:0:0:
480,162,207940,2,0,B|462:52|356:19,1,196,2|6,0:0|0:0,0:0:0:0:
151,20,208745,2,0,B|50:52|32:162,1,196,2|4,0:0|0:0,0:0:0:0:
260,204,209551,1,0,0:0:0:0:
260,204,209752,1,6,0:0:0:0:
360,122,210155,5,4,0:0:0:0:
152,122,210558,1,4,0:0:0:0:
32,240,211162,2,0,B|50:350|156:383,1,196,2|6,0:0|0:0,0:0:0:0:
361,382,211967,2,0,B|462:350|480:240,1,196,2|4,0:0|0:0,0:0:0:0:
260,204,212773,1,0,0:0:0:0:
260,204,212974,1,6,0:0:0:0:
345,40,213376,5,4,0:0:0:0:
167,40,213779,1,4,0:0:0:0:
76,240,214383,1,6,0:0:0:0:
174,340,214786,1,2,0:0:0:0:
338,340,215188,1,2,0:0:0:0:
436,240,215591,1,6,0:0:0:0:
256,200,215994,1,8,0:0:0:0:
256,32,216396,1,4,0:0:0:0:
256,192,216799,8,8,219014,0:0:0:0:
167,40,219819,5,4,0:0:0:0:
345,40,220222,1,4,0:0:0:0:
436,240,220826,1,6,0:0:0:0:
338,340,221229,1,2,0:0:0:0:
174,340,221631,1,2,0:0:0:0:
76,240,222034,1,6,0:0:0:0:
256,200,222437,1,8,0:0:0:0:
256,32,222839,1,4,0:0:0:0:
256,192,223242,8,2,225457,0:0:0:0:
345,40,226262,5,4,0:0:0:0:
167,40,226665,1,4,0:0:0:0:
354,318,227269,2,4,B|147:318,5,196,2|6|6|6|6|4,0:0|0:0|0:0|0:0|0:0|0:0,0:0:0:0:
256,192,229685,8,8,231900,0:0:0:0:
170,84,232705,5,4,0:0:0:0:
342,84,233108,1,4,0:0:0:0:
397,202,233712,1,2,0:0:0:0:
438,280,233913,1,0,0:0:0:0:
354,279,234115,1,6,0:0:0:0:
115,282,234517,1,2,0:0:0:0:
74,204,234718,1,0,0:0:0:0:
158,205,234920,1,4,0:0:0:0:
256,280,235323,1,0,0:0:0:0:
256,364,235524,1,2,0:0:0:0:
256,192,236128,8,4,238343,0:0:0:0:
176,16,239148,6,0,B|16:48|-8:224,1,294,6|4,0:0|0:0,0:0:0:0:
164,188,240155,1,8,0:0:0:0:
164,188,240356,1,8,0:0:0:0:
336,16,240759,2,0,B|496:48|520:224,1,294,6|4,0:0|0:0,0:0:0:0:
356,188,241766,1,8,0:0:0:0:
356,188,241967,1,2,0:0:0:0:
256,80,242370,2,0,B|256:288,1,196,6|2,0:0|0:0,0:0:0:0:
133,364,243175,5,6,0:0:0:0:
215,365,243376,1,12,0:0:0:0:
298,365,243578,1,2,0:0:0:0:
379,364,243779,1,8,0:0:0:0:
256,184,244987,5,2,0:0:0:0:
256,16,245390,1,4,0:0:0:0:
336,16,245591,2,0,B|496:48|520:224,1,294,6|4,0:0|0:0,0:0:0:0:
356,188,246598,1,8,0:0:0:0:
356,188,246799,1,8,0:0:0:0:
176,16,247202,2,0,B|16:48|-8:224,1,294,6|4,0:0|0:0,0:0:0:0:
164,196,248209,1,8,0:0:0:0:
164,196,248410,1,2,0:0:0:0:
264,48,248813,5,4,0:0:0:0:
264,48,249014,1,0,0:0:0:0:
264,48,249215,1,2,0:0:0:0:
257,155,249618,1,6,0:0:0:0:
256,288,250021,1,4,0:0:0:0:
386,323,250423,2,0,B|258:447|125:320,2,294,6|8|4,0:0|0:0|0:0,0:0:0:0:
169,166,261698,5,6,0:0:0:0:
343,166,262101,1,4,0:0:0:0:
256,16,262504,2,0,B|144:16|80:112,1,196,4|2,0:0|0:0,0:0:0:0:
260,252,263309,1,6,0:0:0:0:
260,252,263511,1,4,0:0:0:0:
256,384,263913,2,0,B|448:392|480:232,1,294,4|8,0:0|0:0,0:0:0:0:
343,166,264920,5,6,0:0:0:0:
169,166,265323,1,4,0:0:0:0:
256,16,265726,2,0,B|368:16|432:112,1,196,4|2,0:0|0:0,0:0:0:0:
260,252,266531,1,6,0:0:0:0:
260,252,266732,1,4,0:0:0:0:
256,384,267135,2,0,B|64:392|32:232,1,294,4|8,0:0|0:0,0:0:0:0:
169,166,268141,5,6,0:0:0:0:
256,168,268343,1,6,0:0:0:0:
343,166,268544,1,4,0:0:0:0:
256,16,268947,2,0,B|144:16|80:112,1,196,4|2,0:0|0:0,0:0:0:0:
260,252,269752,1,6,0:0:0:0:
260,252,269954,1,4,0:0:0:0:
256,384,270356,2,0,B|448:392|480:232,1,294,4|8,0:0|0:0,0:0:0:0:
344,168,271363,1,6,0:0:0:0:
256,168,271565,1,6,0:0:0:0:
169,166,271766,1,4,0:0:0:0:
256,16,272169,2,0,B|368:16|432:112,1,196,4|2,0:0|0:0,0:0:0:0:
260,252,272974,1,6,0:0:0:0:
260,252,273176,1,4,0:0:0:0:
256,384,273578,2,0,B|64:392|32:232,1,294,4|2,0:0|0:0,0:0:0:0:
256,104,274584,5,8,0:0:0:0:
213,179,274786,1,8,0:0:0:0:
299,179,274987,1,8,0:0:0:0:
256,16,275390,2,0,B|440:8|496:152,1,294,8|0,0:0|0:0,0:0:0:0:
509,233,276195,1,12,0:0:0:0:
425,233,276396,1,4,0:0:0:0:
394,345,276799,2,0,B|258:429|113:340,1,294,6|2,0:0|0:0,0:0:0:0:
256,104,277806,1,8,0:0:0:0:
299,179,278008,1,8,0:0:0:0:
213,179,278209,1,8,0:0:0:0:
256,16,278612,2,0,B|72:8|16:152,1,294,8|0,0:0|0:0,0:0:0:0:
3,233,279417,1,12,0:0:0:0:
87,233,279618,1,4,0:0:0:0:
118,345,280021,2,0,B|254:429|399:340,1,294,6|2,0:0|0:0,0:0:0:0:
256,192,281027,8,8,287470,0:0:0:0:
