osu file format v14

[General]
AudioFilename: audio.mp3
AudioLeadIn: 0
PreviewTime: -1
Countdown: 1
SampleSet: None
StackLeniency: 0.7
Mode: 0
LetterboxInBreaks: 0
WidescreenStoryboard: 0

[Editor]
DistanceSpacing: 1.8
BeatDivisor: 4
GridSize: 32
TimelineZoom: 1

[Metadata]
Title:My boy
TitleUnicode:My boy
Artist:Billy Elish
ArtistUnicode:Billy Elish
Creator:matisp
Version:Easy
Source:
Tags:
BeatmapID:1586889
BeatmapSetID:753744

[Difficulty]
HPDrainRate:5
CircleSize:5
OverallDifficulty:5
ApproachRate:5
SliderMultiplier:1.4
SliderTickRate:1

[Events]
//Background and Video events
//Break Periods
//Storyboard Layer 0 (Background)
//Storyboard Layer 1 (Fail)
//Storyboard Layer 2 (Pass)
//Storyboard Layer 3 (Foreground)
//Storyboard Sound Samples

[TimingPoints]
4458.09437289489,884.955752212389,4,1,0,100,1,0

[HitObjects]
64,192,1139,5,0,0:0:0:0:
64,192,2245,1,0,0:0:0:0:
64,192,3130,1,0,0:0:0:0:
64,192,4015,1,0,0:0:0:0:
64,192,5121,1,0,0:0:0:0:
64,192,6006,1,0,0:0:0:0:
352,192,7112,1,0,0:0:0:0:
96,192,7997,1,0,0:0:0:0:
320,192,8882,1,0,0:0:0:0:
96,192,9767,1,0,0:0:0:0:
320,128,10652,1,0,0:0:0:0:
96,128,11537,1,0,0:0:0:0:
320,224,12422,1,0,0:0:0:0:
96,192,13307,1,0,0:0:0:0:
288,96,14192,1,0,0:0:0:0:
128,256,15077,1,0,0:0:0:0:
320,160,15962,1,0,0:0:0:0:
96,160,16847,1,0,0:0:0:0:
352,160,17732,1,0,0:0:0:0:
96,96,18617,1,0,0:0:0:0:
352,96,19502,1,0,0:0:0:0:
96,160,20387,1,0,0:0:0:0:
352,160,21272,1,0,0:0:0:0:
96,224,22157,1,0,0:0:0:0:
352,192,23042,1,0,0:0:0:0:
128,128,23927,1,0,0:0:0:0:
384,128,24812,1,0,0:0:0:0:
128,192,25697,1,0,0:0:0:0:
384,96,26581,1,0,0:0:0:0:
128,224,27466,1,0,0:0:0:0:
416,128,28573,1,0,0:0:0:0:
192,192,29458,1,0,0:0:0:0:
384,224,30121,1,0,0:0:0:0:
128,192,31006,1,0,0:0:0:0:
352,96,31891,1,0,0:0:0:0:
160,224,32776,1,0,0:0:0:0:
416,160,33661,1,0,0:0:0:0:
160,192,34546,1,0,0:0:0:0:
416,192,35431,1,0,0:0:0:0:
160,192,36316,1,0,0:0:0:0:
416,192,37201,1,0,0:0:0:0:
160,192,38086,1,0,0:0:0:0:
448,160,39192,1,0,0:0:0:0:
224,192,39856,1,0,0:0:0:0:
288,192,40962,1,0,0:0:0:0:
96,224,41626,1,0,0:0:0:0:
416,160,42732,1,0,0:0:0:0:
224,192,43396,1,0,0:0:0:0:
384,256,44059,1,0,0:0:0:0:
256,192,44723,1,0,0:0:0:0:
256,192,44944,1,0,0:0:0:0:
96,160,45608,1,0,0:0:0:0:
192,192,46051,1,0,0:0:0:0:
352,128,46714,1,0,0:0:0:0:
288,160,46935,1,0,0:0:0:0:
96,256,47599,1,0,0:0:0:0:
224,192,48042,1,0,0:0:0:0:
448,96,48927,1,0,0:0:0:0:
288,160,49590,1,0,0:0:0:0:
160,256,50254,1,0,0:0:0:0:
320,128,50918,1,0,0:0:0:0:
192,224,51581,1,0,0:0:0:0:
320,128,52245,1,0,0:0:0:0:
192,256,52909,1,0,0:0:0:0:
320,128,53573,1,0,0:0:0:0:
192,224,54236,1,0,0:0:0:0:
288,96,54679,1,0,0:0:0:0:
192,320,55564,1,0,0:0:0:0:
256,160,56228,1,0,0:0:0:0:
160,288,56891,1,0,0:0:0:0:
288,192,57555,1,0,0:0:0:0:
128,192,57997,1,0,0:0:0:0:
384,192,58882,1,0,0:0:0:0:
192,192,59546,1,0,0:0:0:0:
384,192,60210,1,0,0:0:0:0:
224,192,60874,1,0,0:0:0:0:
384,192,61537,1,0,0:0:0:0:
224,192,62201,1,0,0:0:0:0:
384,160,62865,1,0,0:0:0:0:
192,192,63528,1,0,0:0:0:0:
384,192,64192,1,0,0:0:0:0:
224,192,64856,1,0,0:0:0:0:
416,160,65520,1,0,0:0:0:0:
224,192,66183,1,0,0:0:0:0:
416,160,66847,1,0,0:0:0:0:
224,192,67511,1,0,0:0:0:0:
416,192,68174,1,0,0:0:0:0:
224,192,68838,1,0,0:0:0:0:
416,192,69502,1,0,0:0:0:0:
224,192,70166,1,0,0:0:0:0:
448,160,71051,1,0,0:0:0:0:
320,192,71493,1,0,0:0:0:0:
