osu file format v14

[General]
AudioFilename: audio.mp3
AudioLeadIn: 0
PreviewTime: 90980
Countdown: 0
SampleSet: Normal
StackLeniency: 0.7
Mode: 3
LetterboxInBreaks: 0
SpecialStyle: 0
WidescreenStoryboard: 0

[Editor]
Bookmarks: 10138,50559,121296,131401,141506,151611,171822,192033,202138,222348,232454,252664
DistanceSpacing: 0.8
BeatDivisor: 4
GridSize: 16
TimelineZoom: 1.6

[Metadata]
Title:Punishment (Dustvoxx Remix)
TitleUnicode:Punishment (Dustvoxx Remix)
Artist:Billx
ArtistUnicode:Billx
Creator:_underjoy
Version:4K Equalizer
Source:
Tags:haunt frenchcore trance techno hardtek blocko Electronic Instrumental
BeatmapID:2092272
BeatmapSetID:1000065

[Difficulty]
HPDrainRate:8
CircleSize:4
OverallDifficulty:8
ApproachRate:5
SliderMultiplier:1.4
SliderTickRate:1

[Events]
//Background and Video events
0,0,"void_system_by_elreviae_d8wihvy.jpg",0,0
//Break Periods
//Storyboard Layer 0 (Background)
//Storyboard Layer 1 (Fail)
//Storyboard Layer 2 (Pass)
//Storyboard Layer 3 (Foreground)
//Storyboard Layer 4 (Overlay)
//Storyboard Sound Samples

[TimingPoints]
33,315.789473684211,4,1,1,50,1,0

[HitObjects]
64,192,33,5,0,0:0:0:0:
320,192,33,1,0,0:0:0:0:
448,192,33,1,0,0:0:0:0:
192,192,348,1,0,0:0:0:0:
192,192,585,1,0,0:0:0:0:
192,192,822,1,0,0:0:0:0:
192,192,1059,1,0,0:0:0:0:
448,192,1296,1,0,0:0:0:0:
64,192,1296,1,0,0:0:0:0:
192,192,1454,1,0,0:0:0:0:
448,192,1611,1,0,0:0:0:0:
320,192,1769,1,0,0:0:0:0:
192,192,1927,128,0,2559:0:0:0:0:
448,192,1927,1,0,0:0:0:0:
448,192,2243,1,0,0:0:0:0:
448,192,2401,1,0,0:0:0:0:
448,192,2559,1,0,0:0:0:0:
64,192,2717,1,0,0:0:0:0:
320,192,2875,1,0,0:0:0:0:
192,192,3033,1,0,0:0:0:0:
448,192,3190,128,0,3822:0:0:0:0:
320,192,3506,128,0,3822:0:0:0:0:
64,192,3822,1,0,0:0:0:0:
192,192,3927,1,0,0:0:0:0:
64,192,4033,1,0,0:0:0:0:
192,192,4138,1,0,0:0:0:0:
64,192,4243,1,0,0:0:0:0:
192,192,4348,1,0,0:0:0:0:
64,192,4454,1,0,0:0:0:0:
448,192,4454,128,0,4769:0:0:0:0:
64,192,4769,1,0,0:0:0:0:
64,192,4927,1,0,0:0:0:0:
448,192,5085,1,0,0:0:0:0:
64,192,5085,1,0,0:0:0:0:
192,192,5401,1,0,0:0:0:0:
192,192,5638,1,0,0:0:0:0:
192,192,5875,1,0,0:0:0:0:
192,192,6111,1,0,0:0:0:0:
448,192,6348,1,0,0:0:0:0:
64,192,6348,1,0,0:0:0:0:
192,192,6506,1,0,0:0:0:0:
448,192,6664,1,0,0:0:0:0:
320,192,6822,1,0,0:0:0:0:
192,192,6980,128,0,7611:0:0:0:0:
448,192,7296,1,0,0:0:0:0:
448,192,7454,1,0,0:0:0:0:
448,192,7611,1,0,0:0:0:0:
320,192,7611,1,0,0:0:0:0:
192,192,7690,1,0,0:0:0:0:
448,192,7769,1,0,0:0:0:0:
192,192,7848,1,0,0:0:0:0:
320,192,7927,1,0,0:0:0:0:
64,192,8006,1,0,0:0:0:0:
320,192,8085,1,0,0:0:0:0:
64,192,8164,1,0,0:0:0:0:
448,192,8243,1,0,0:0:0:0:
320,192,8243,1,0,0:0:0:0:
192,192,8322,1,0,0:0:0:0:
64,192,8322,1,0,0:0:0:0:
320,192,8401,1,0,0:0:0:0:
448,192,8401,1,0,0:0:0:0:
192,192,8480,1,0,0:0:0:0:
64,192,8480,1,0,0:0:0:0:
320,192,8559,1,0,0:0:0:0:
448,192,8559,1,0,0:0:0:0:
192,192,8638,1,0,0:0:0:0:
64,192,8638,1,0,0:0:0:0:
448,192,8717,1,0,0:0:0:0:
320,192,8756,1,0,0:0:0:0:
192,192,8796,1,0,0:0:0:0:
64,192,8835,1,0,0:0:0:0:
448,192,8875,1,0,0:0:0:0:
448,192,9033,1,0,0:0:0:0:
64,192,9190,1,0,0:0:0:0:
64,192,9348,1,0,0:0:0:0:
320,192,9506,1,0,0:0:0:0:
64,192,9822,1,0,0:0:0:0:
192,192,9822,1,0,0:0:0:0:
320,192,9822,1,0,0:0:0:0:
448,192,9822,1,0,0:0:0:0:
64,192,10138,1,0,0:0:0:0:
320,192,10138,1,0,0:0:0:0:
448,192,10138,1,0,0:0:0:0:
192,192,10217,1,0,0:0:0:0:
320,192,10296,1,0,0:0:0:0:
192,192,10375,1,0,0:0:0:0:
448,192,10454,1,0,0:0:0:0:
64,192,10454,1,0,0:0:0:0:
320,192,10533,1,0,0:0:0:0:
448,192,10611,1,0,0:0:0:0:
192,192,10690,1,0,0:0:0:0:
320,192,10769,1,0,0:0:0:0:
64,192,10769,1,0,0:0:0:0:
192,192,10848,1,0,0:0:0:0:
448,192,10927,1,0,0:0:0:0:
320,192,11006,1,0,0:0:0:0:
448,192,11085,1,0,0:0:0:0:
64,192,11085,1,0,0:0:0:0:
192,192,11164,1,0,0:0:0:0:
320,192,11243,1,0,0:0:0:0:
192,192,11322,1,0,0:0:0:0:
448,192,11401,1,0,0:0:0:0:
64,192,11401,1,0,0:0:0:0:
320,192,11480,1,0,0:0:0:0:
192,192,11559,1,0,0:0:0:0:
448,192,11638,1,0,0:0:0:0:
320,192,11717,1,0,0:0:0:0:
64,192,11717,1,0,0:0:0:0:
192,192,11796,1,0,0:0:0:0:
320,192,11875,1,0,0:0:0:0:
448,192,11954,1,0,0:0:0:0:
192,192,12033,1,0,0:0:0:0:
64,192,12033,1,0,0:0:0:0:
448,192,12111,1,0,0:0:0:0:
320,192,12190,1,0,0:0:0:0:
192,192,12269,1,0,0:0:0:0:
320,192,12348,1,0,0:0:0:0:
64,192,12348,1,0,0:0:0:0:
448,192,12427,1,0,0:0:0:0:
192,192,12506,1,0,0:0:0:0:
320,192,12585,1,0,0:0:0:0:
448,192,12664,1,0,0:0:0:0:
64,192,12664,1,0,0:0:0:0:
192,192,12743,1,0,0:0:0:0:
64,192,12822,1,0,0:0:0:0:
192,192,12901,1,0,0:0:0:0:
320,192,12980,1,0,0:0:0:0:
448,192,12980,1,0,0:0:0:0:
64,192,13059,1,0,0:0:0:0:
192,192,13138,1,0,0:0:0:0:
448,192,13217,1,0,0:0:0:0:
64,192,13296,1,0,0:0:0:0:
320,192,13296,1,0,0:0:0:0:
192,192,13375,1,0,0:0:0:0:
320,192,13454,1,0,0:0:0:0:
64,192,13533,1,0,0:0:0:0:
192,192,13611,1,0,0:0:0:0:
448,192,13611,1,0,0:0:0:0:
320,192,13690,1,0,0:0:0:0:
192,192,13769,1,0,0:0:0:0:
320,192,13848,1,0,0:0:0:0:
448,192,13927,1,0,0:0:0:0:
64,192,13927,1,0,0:0:0:0:
320,192,14085,1,0,0:0:0:0:
448,192,14085,1,0,0:0:0:0:
64,192,14243,1,0,0:0:0:0:
448,192,14243,1,0,0:0:0:0:
192,192,14401,1,0,0:0:0:0:
64,192,14401,1,0,0:0:0:0:
64,192,14559,1,0,0:0:0:0:
192,192,14611,1,0,0:0:0:0:
320,192,14664,1,0,0:0:0:0:
64,192,14717,1,0,0:0:0:0:
192,192,14769,1,0,0:0:0:0:
448,192,14822,1,0,0:0:0:0:
320,192,14875,1,0,0:0:0:0:
192,192,14927,1,0,0:0:0:0:
448,192,14980,1,0,0:0:0:0:
320,192,15033,1,0,0:0:0:0:
448,192,15190,1,0,0:0:0:0:
192,192,15190,1,0,0:0:0:0:
64,192,15190,1,0,0:0:0:0:
320,192,15269,1,0,0:0:0:0:
192,192,15348,1,0,0:0:0:0:
320,192,15427,1,0,0:0:0:0:
448,192,15506,1,0,0:0:0:0:
64,192,15506,1,0,0:0:0:0:
192,192,15585,1,0,0:0:0:0:
64,192,15664,1,0,0:0:0:0:
320,192,15743,1,0,0:0:0:0:
192,192,15822,1,0,0:0:0:0:
448,192,15822,1,0,0:0:0:0:
320,192,15901,1,0,0:0:0:0:
64,192,15980,1,0,0:0:0:0:
192,192,16059,1,0,0:0:0:0:
448,192,16138,1,0,0:0:0:0:
64,192,16138,1,0,0:0:0:0:
320,192,16217,1,0,0:0:0:0:
192,192,16296,1,0,0:0:0:0:
320,192,16375,1,0,0:0:0:0:
64,192,16454,1,0,0:0:0:0:
448,192,16454,1,0,0:0:0:0:
192,192,16533,1,0,0:0:0:0:
320,192,16611,1,0,0:0:0:0:
64,192,16690,1,0,0:0:0:0:
192,192,16769,1,0,0:0:0:0:
448,192,16769,1,0,0:0:0:0:
320,192,16848,1,0,0:0:0:0:
192,192,16927,1,0,0:0:0:0:
64,192,17006,1,0,0:0:0:0:
320,192,17085,1,0,0:0:0:0:
448,192,17085,1,0,0:0:0:0:
192,192,17164,1,0,0:0:0:0:
320,192,17243,1,0,0:0:0:0:
448,192,17322,1,0,0:0:0:0:
192,192,17401,1,0,0:0:0:0:
64,192,17401,1,0,0:0:0:0:
320,192,17480,1,0,0:0:0:0:
64,192,17559,1,0,0:0:0:0:
192,192,17559,1,0,0:0:0:0:
320,192,17638,1,0,0:0:0:0:
448,192,17717,1,0,0:0:0:0:
64,192,17717,1,0,0:0:0:0:
192,192,17796,1,0,0:0:0:0:
64,192,17875,1,0,0:0:0:0:
192,192,17954,1,0,0:0:0:0:
320,192,18033,1,0,0:0:0:0:
448,192,18033,1,0,0:0:0:0:
64,192,18111,1,0,0:0:0:0:
192,192,18190,1,0,0:0:0:0:
448,192,18269,1,0,0:0:0:0:
64,192,18348,1,0,0:0:0:0:
320,192,18348,1,0,0:0:0:0:
192,192,18427,1,0,0:0:0:0:
448,192,18506,1,0,0:0:0:0:
320,192,18585,1,0,0:0:0:0:
192,192,18664,1,0,0:0:0:0:
448,192,18664,1,0,0:0:0:0:
64,192,18743,1,0,0:0:0:0:
320,192,18822,1,0,0:0:0:0:
192,192,18901,1,0,0:0:0:0:
448,192,18980,1,0,0:0:0:0:
64,192,18980,1,0,0:0:0:0:
448,192,19138,1,0,0:0:0:0:
64,192,19138,1,0,0:0:0:0:
320,192,19217,1,0,0:0:0:0:
192,192,19217,1,0,0:0:0:0:
64,192,19296,1,0,0:0:0:0:
320,192,19375,1,0,0:0:0:0:
64,192,19454,1,0,0:0:0:0:
320,192,19533,1,0,0:0:0:0:
192,192,19611,1,0,0:0:0:0:
64,192,19611,1,0,0:0:0:0:
448,192,19611,1,0,0:0:0:0:
320,192,19769,1,0,0:0:0:0:
192,192,19769,1,0,0:0:0:0:
448,192,19927,1,0,0:0:0:0:
320,192,19927,1,0,0:0:0:0:
64,192,19927,1,0,0:0:0:0:
192,192,20085,1,0,0:0:0:0:
320,192,20085,1,0,0:0:0:0:
448,192,20243,1,0,0:0:0:0:
192,192,20243,1,0,0:0:0:0:
64,192,20243,1,0,0:0:0:0:
320,192,20322,1,0,0:0:0:0:
192,192,20401,1,0,0:0:0:0:
320,192,20480,1,0,0:0:0:0:
64,192,20559,1,0,0:0:0:0:
448,192,20559,1,0,0:0:0:0:
192,192,20638,1,0,0:0:0:0:
64,192,20717,1,0,0:0:0:0:
320,192,20796,1,0,0:0:0:0:
192,192,20875,1,0,0:0:0:0:
448,192,20875,1,0,0:0:0:0:
320,192,20954,1,0,0:0:0:0:
64,192,21033,1,0,0:0:0:0:
192,192,21111,1,0,0:0:0:0:
448,192,21190,1,0,0:0:0:0:
64,192,21190,1,0,0:0:0:0:
320,192,21269,1,0,0:0:0:0:
192,192,21348,1,0,0:0:0:0:
320,192,21427,1,0,0:0:0:0:
448,192,21506,1,0,0:0:0:0:
64,192,21506,1,0,0:0:0:0:
192,192,21585,1,0,0:0:0:0:
320,192,21664,1,0,0:0:0:0:
64,192,21743,1,0,0:0:0:0:
192,192,21822,1,0,0:0:0:0:
448,192,21822,1,0,0:0:0:0:
320,192,21901,1,0,0:0:0:0:
192,192,21980,1,0,0:0:0:0:
64,192,22059,1,0,0:0:0:0:
320,192,22138,1,0,0:0:0:0:
448,192,22138,1,0,0:0:0:0:
64,192,22217,1,0,0:0:0:0:
192,192,22296,1,0,0:0:0:0:
320,192,22375,1,0,0:0:0:0:
192,192,22454,1,0,0:0:0:0:
448,192,22454,1,0,0:0:0:0:
64,192,22533,1,0,0:0:0:0:
320,192,22611,1,0,0:0:0:0:
192,192,22690,1,0,0:0:0:0:
64,192,22769,1,0,0:0:0:0:
448,192,22769,1,0,0:0:0:0:
320,192,22848,1,0,0:0:0:0:
448,192,22927,1,0,0:0:0:0:
320,192,23006,1,0,0:0:0:0:
192,192,23085,1,0,0:0:0:0:
64,192,23085,1,0,0:0:0:0:
448,192,23164,1,0,0:0:0:0:
320,192,23243,1,0,0:0:0:0:
64,192,23322,1,0,0:0:0:0:
448,192,23401,1,0,0:0:0:0:
192,192,23401,1,0,0:0:0:0:
320,192,23480,1,0,0:0:0:0:
192,192,23559,1,0,0:0:0:0:
448,192,23638,1,0,0:0:0:0:
320,192,23717,1,0,0:0:0:0:
64,192,23717,1,0,0:0:0:0:
192,192,23796,1,0,0:0:0:0:
320,192,23875,1,0,0:0:0:0:
192,192,23954,1,0,0:0:0:0:
64,192,24033,1,0,0:0:0:0:
448,192,24033,1,0,0:0:0:0:
320,192,24190,1,0,0:0:0:0:
448,192,24190,1,0,0:0:0:0:
64,192,24348,1,0,0:0:0:0:
448,192,24348,1,0,0:0:0:0:
192,192,24506,1,0,0:0:0:0:
64,192,24506,1,0,0:0:0:0:
448,192,24664,1,0,0:0:0:0:
320,192,24717,1,0,0:0:0:0:
192,192,24769,1,0,0:0:0:0:
64,192,24822,1,0,0:0:0:0:
320,192,24875,1,0,0:0:0:0:
192,192,24927,1,0,0:0:0:0:
448,192,24980,1,0,0:0:0:0:
192,192,25059,1,0,0:0:0:0:
320,192,25138,1,0,0:0:0:0:
64,192,25296,1,0,0:0:0:0:
192,192,25296,1,0,0:0:0:0:
448,192,25296,1,0,0:0:0:0:
320,192,25375,1,0,0:0:0:0:
64,192,25454,1,0,0:0:0:0:
192,192,25454,1,0,0:0:0:0:
320,192,25533,1,0,0:0:0:0:
192,192,25611,1,0,0:0:0:0:
64,192,25611,1,0,0:0:0:0:
448,192,25690,1,0,0:0:0:0:
320,192,25769,1,0,0:0:0:0:
192,192,25848,1,0,0:0:0:0:
320,192,25927,1,0,0:0:0:0:
64,192,25927,1,0,0:0:0:0:
192,192,26006,1,0,0:0:0:0:
448,192,26085,1,0,0:0:0:0:
320,192,26164,1,0,0:0:0:0:
64,192,26243,1,0,0:0:0:0:
448,192,26243,1,0,0:0:0:0:
192,192,26322,1,0,0:0:0:0:
320,192,26401,1,0,0:0:0:0:
192,192,26480,1,0,0:0:0:0:
64,192,26559,1,0,0:0:0:0:
448,192,26559,1,0,0:0:0:0:
320,192,26638,1,0,0:0:0:0:
192,192,26717,1,0,0:0:0:0:
448,192,26796,1,0,0:0:0:0:
320,192,26875,1,0,0:0:0:0:
64,192,26875,1,0,0:0:0:0:
192,192,26954,1,0,0:0:0:0:
320,192,27033,1,0,0:0:0:0:
448,192,27111,1,0,0:0:0:0:
192,192,27190,1,0,0:0:0:0:
64,192,27190,1,0,0:0:0:0:
448,192,27269,1,0,0:0:0:0:
320,192,27348,1,0,0:0:0:0:
192,192,27427,1,0,0:0:0:0:
448,192,27506,1,0,0:0:0:0:
320,192,27506,1,0,0:0:0:0:
192,192,27585,1,0,0:0:0:0:
320,192,27664,1,0,0:0:0:0:
448,192,27664,1,0,0:0:0:0:
192,192,27743,1,0,0:0:0:0:
64,192,27822,1,0,0:0:0:0:
448,192,27822,1,0,0:0:0:0:
320,192,27901,1,0,0:0:0:0:
448,192,27980,1,0,0:0:0:0:
320,192,28059,1,0,0:0:0:0:
192,192,28138,1,0,0:0:0:0:
64,192,28138,128,0,28296:0:0:0:0:
320,192,28296,1,0,0:0:0:0:
448,192,28296,1,0,0:0:0:0:
192,192,28454,1,0,0:0:0:0:
64,192,28454,1,0,0:0:0:0:
448,192,28454,1,0,0:0:0:0:
448,192,28611,1,0,0:0:0:0:
320,192,28611,1,0,0:0:0:0:
320,192,28690,1,0,0:0:0:0:
448,192,28690,1,0,0:0:0:0:
192,192,28769,1,0,0:0:0:0:
64,192,28769,1,0,0:0:0:0:
320,192,28848,1,0,0:0:0:0:
448,192,28848,1,0,0:0:0:0:
192,192,28927,1,0,0:0:0:0:
64,192,29006,1,0,0:0:0:0:
448,192,29085,1,0,0:0:0:0:
320,192,29243,1,0,0:0:0:0:
448,192,29401,1,0,0:0:0:0:
320,192,29559,1,0,0:0:0:0:
192,192,29717,1,0,0:0:0:0:
448,192,30348,1,0,0:0:0:0:
192,192,30348,1,0,0:0:0:0:
64,192,30348,1,0,0:0:0:0:
320,192,30427,1,0,0:0:0:0:
192,192,30506,1,0,0:0:0:0:
448,192,30585,1,0,0:0:0:0:
64,192,30664,1,0,0:0:0:0:
320,192,30664,1,0,0:0:0:0:
192,192,30743,1,0,0:0:0:0:
64,192,30822,1,0,0:0:0:0:
320,192,30901,1,0,0:0:0:0:
448,192,30980,1,0,0:0:0:0:
192,192,30980,1,0,0:0:0:0:
320,192,31059,1,0,0:0:0:0:
64,192,31138,1,0,0:0:0:0:
192,192,31217,1,0,0:0:0:0:
64,192,31296,1,0,0:0:0:0:
320,192,31296,1,0,0:0:0:0:
448,192,31375,1,0,0:0:0:0:
192,192,31454,1,0,0:0:0:0:
64,192,31533,1,0,0:0:0:0:
448,192,31611,1,0,0:0:0:0:
320,192,31611,1,0,0:0:0:0:
192,192,31690,1,0,0:0:0:0:
448,192,31769,1,0,0:0:0:0:
320,192,31848,1,0,0:0:0:0:
64,192,31927,1,0,0:0:0:0:
192,192,31927,1,0,0:0:0:0:
320,192,32006,1,0,0:0:0:0:
64,192,32085,1,0,0:0:0:0:
192,192,32164,1,0,0:0:0:0:
320,192,32243,1,0,0:0:0:0:
448,192,32243,1,0,0:0:0:0:
64,192,32322,1,0,0:0:0:0:
192,192,32401,1,0,0:0:0:0:
320,192,32480,1,0,0:0:0:0:
192,192,32559,1,0,0:0:0:0:
448,192,32559,1,0,0:0:0:0:
64,192,32638,1,0,0:0:0:0:
320,192,32717,1,0,0:0:0:0:
192,192,32796,1,0,0:0:0:0:
64,192,32875,1,0,0:0:0:0:
448,192,32875,1,0,0:0:0:0:
320,192,32954,1,0,0:0:0:0:
448,192,33033,1,0,0:0:0:0:
320,192,33111,1,0,0:0:0:0:
192,192,33190,1,0,0:0:0:0:
64,192,33190,1,0,0:0:0:0:
448,192,33269,1,0,0:0:0:0:
192,192,33348,1,0,0:0:0:0:
320,192,33427,1,0,0:0:0:0:
448,192,33506,1,0,0:0:0:0:
64,192,33506,1,0,0:0:0:0:
192,192,33585,1,0,0:0:0:0:
320,192,33664,1,0,0:0:0:0:
192,192,33743,1,0,0:0:0:0:
448,192,33822,1,0,0:0:0:0:
64,192,33822,1,0,0:0:0:0:
320,192,33901,1,0,0:0:0:0:
192,192,33980,1,0,0:0:0:0:
320,192,34059,1,0,0:0:0:0:
448,192,34138,1,0,0:0:0:0:
64,192,34138,1,0,0:0:0:0:
192,192,34296,1,0,0:0:0:0:
64,192,34296,1,0,0:0:0:0:
448,192,34454,1,0,0:0:0:0:
64,192,34454,1,0,0:0:0:0:
320,192,34611,1,0,0:0:0:0:
448,192,34611,1,0,0:0:0:0:
448,192,34769,1,0,0:0:0:0:
320,192,34822,1,0,0:0:0:0:
192,192,34875,1,0,0:0:0:0:
448,192,34927,1,0,0:0:0:0:
320,192,34980,1,0,0:0:0:0:
64,192,35033,1,0,0:0:0:0:
192,192,35085,1,0,0:0:0:0:
320,192,35138,1,0,0:0:0:0:
64,192,35190,1,0,0:0:0:0:
192,192,35243,1,0,0:0:0:0:
64,192,35401,1,0,0:0:0:0:
320,192,35401,1,0,0:0:0:0:
448,192,35401,1,0,0:0:0:0:
192,192,35480,1,0,0:0:0:0:
320,192,35559,1,0,0:0:0:0:
64,192,35638,1,0,0:0:0:0:
448,192,35717,1,0,0:0:0:0:
192,192,35717,1,0,0:0:0:0:
320,192,35796,1,0,0:0:0:0:
448,192,35875,1,0,0:0:0:0:
192,192,35954,1,0,0:0:0:0:
64,192,36033,1,0,0:0:0:0:
320,192,36033,1,0,0:0:0:0:
192,192,36111,1,0,0:0:0:0:
448,192,36190,1,0,0:0:0:0:
320,192,36269,1,0,0:0:0:0:
448,192,36348,1,0,0:0:0:0:
192,192,36348,1,0,0:0:0:0:
64,192,36427,1,0,0:0:0:0:
320,192,36506,1,0,0:0:0:0:
448,192,36585,1,0,0:0:0:0:
64,192,36664,1,0,0:0:0:0:
192,192,36664,1,0,0:0:0:0:
320,192,36743,1,0,0:0:0:0:
64,192,36822,1,0,0:0:0:0:
192,192,36901,1,0,0:0:0:0:
448,192,36980,1,0,0:0:0:0:
320,192,36980,1,0,0:0:0:0:
192,192,37059,1,0,0:0:0:0:
448,192,37138,1,0,0:0:0:0:
320,192,37217,1,0,0:0:0:0:
192,192,37296,1,0,0:0:0:0:
64,192,37296,1,0,0:0:0:0:
448,192,37375,1,0,0:0:0:0:
320,192,37454,1,0,0:0:0:0:
192,192,37533,1,0,0:0:0:0:
320,192,37611,1,0,0:0:0:0:
64,192,37611,1,0,0:0:0:0:
448,192,37690,1,0,0:0:0:0:
192,192,37769,1,0,0:0:0:0:
64,192,37769,1,0,0:0:0:0:
320,192,37848,1,0,0:0:0:0:
448,192,37927,1,0,0:0:0:0:
64,192,37927,1,0,0:0:0:0:
192,192,38006,1,0,0:0:0:0:
64,192,38085,1,0,0:0:0:0:
192,192,38164,1,0,0:0:0:0:
320,192,38243,1,0,0:0:0:0:
448,192,38243,1,0,0:0:0:0:
64,192,38322,1,0,0:0:0:0:
192,192,38401,1,0,0:0:0:0:
320,192,38480,1,0,0:0:0:0:
64,192,38559,1,0,0:0:0:0:
448,192,38559,1,0,0:0:0:0:
192,192,38638,1,0,0:0:0:0:
320,192,38717,128,0,39190:0:0:0:0:
192,192,38875,1,0,0:0:0:0:
64,192,38875,1,0,0:0:0:0:
192,192,39033,1,0,0:0:0:0:
64,192,39190,1,0,0:0:0:0:
448,192,39190,1,0,0:0:0:0:
192,192,39348,1,0,0:0:0:0:
64,192,39348,1,0,0:0:0:0:
320,192,39427,1,0,0:0:0:0:
448,192,39427,1,0,0:0:0:0:
192,192,39506,1,0,0:0:0:0:
64,192,39506,1,0,0:0:0:0:
320,192,39585,1,0,0:0:0:0:
192,192,39664,1,0,0:0:0:0:
320,192,39743,1,0,0:0:0:0:
64,192,39822,1,0,0:0:0:0:
192,192,39822,1,0,0:0:0:0:
448,192,39822,1,0,0:0:0:0:
320,192,39980,1,0,0:0:0:0:
192,192,39980,1,0,0:0:0:0:
448,192,40138,1,0,0:0:0:0:
320,192,40138,1,0,0:0:0:0:
64,192,40138,1,0,0:0:0:0:
192,192,40296,1,0,0:0:0:0:
320,192,40296,1,0,0:0:0:0:
448,192,40454,1,0,0:0:0:0:
192,192,40454,1,0,0:0:0:0:
64,192,40454,1,0,0:0:0:0:
320,192,40533,1,0,0:0:0:0:
192,192,40611,1,0,0:0:0:0:
448,192,40690,1,0,0:0:0:0:
64,192,40769,1,0,0:0:0:0:
320,192,40769,1,0,0:0:0:0:
192,192,40848,1,0,0:0:0:0:
64,192,40927,1,0,0:0:0:0:
320,192,41006,1,0,0:0:0:0:
448,192,41085,1,0,0:0:0:0:
192,192,41085,1,0,0:0:0:0:
320,192,41164,1,0,0:0:0:0:
64,192,41243,1,0,0:0:0:0:
192,192,41322,1,0,0:0:0:0:
64,192,41401,1,0,0:0:0:0:
320,192,41401,1,0,0:0:0:0:
448,192,41480,1,0,0:0:0:0:
192,192,41559,1,0,0:0:0:0:
64,192,41638,1,0,0:0:0:0:
448,192,41717,1,0,0:0:0:0:
320,192,41717,1,0,0:0:0:0:
192,192,41796,1,0,0:0:0:0:
448,192,41875,1,0,0:0:0:0:
320,192,41954,1,0,0:0:0:0:
64,192,42033,1,0,0:0:0:0:
192,192,42033,1,0,0:0:0:0:
320,192,42111,1,0,0:0:0:0:
64,192,42190,1,0,0:0:0:0:
192,192,42269,1,0,0:0:0:0:
320,192,42348,1,0,0:0:0:0:
448,192,42348,1,0,0:0:0:0:
64,192,42427,1,0,0:0:0:0:
192,192,42506,1,0,0:0:0:0:
320,192,42585,1,0,0:0:0:0:
192,192,42664,1,0,0:0:0:0:
448,192,42664,1,0,0:0:0:0:
64,192,42743,1,0,0:0:0:0:
320,192,42822,1,0,0:0:0:0:
192,192,42901,1,0,0:0:0:0:
64,192,42980,1,0,0:0:0:0:
448,192,42980,128,0,43217:0:0:0:0:
64,192,43296,1,0,0:0:0:0:
448,192,43296,128,0,43375:0:0:0:0:
448,192,43454,128,0,43533:0:0:0:0:
64,192,43454,1,0,0:0:0:0:
192,192,43611,1,0,0:0:0:0:
448,192,43611,128,0,43690:0:0:0:0:
64,192,43611,1,0,0:0:0:0:
448,192,43769,128,0,43848:0:0:0:0:
192,192,43769,1,0,0:0:0:0:
64,192,43927,1,0,0:0:0:0:
192,192,43980,1,0,0:0:0:0:
320,192,44033,1,0,0:0:0:0:
448,192,44085,1,0,0:0:0:0:
64,192,44138,1,0,0:0:0:0:
192,192,44190,1,0,0:0:0:0:
320,192,44243,1,0,0:0:0:0:
448,192,44243,1,0,0:0:0:0:
192,192,44401,1,0,0:0:0:0:
64,192,44401,1,0,0:0:0:0:
448,192,44559,1,0,0:0:0:0:
64,192,44559,1,0,0:0:0:0:
320,192,44717,1,0,0:0:0:0:
448,192,44717,1,0,0:0:0:0:
448,192,44875,1,0,0:0:0:0:
320,192,44927,1,0,0:0:0:0:
192,192,44980,1,0,0:0:0:0:
64,192,45033,1,0,0:0:0:0:
448,192,45085,1,0,0:0:0:0:
320,192,45138,1,0,0:0:0:0:
64,192,45190,1,0,0:0:0:0:
320,192,45269,1,0,0:0:0:0:
192,192,45348,1,0,0:0:0:0:
448,192,45506,1,0,0:0:0:0:
320,192,45506,1,0,0:0:0:0:
64,192,45506,1,0,0:0:0:0:
192,192,45585,1,0,0:0:0:0:
448,192,45664,1,0,0:0:0:0:
320,192,45664,1,0,0:0:0:0:
192,192,45743,1,0,0:0:0:0:
320,192,45822,1,0,0:0:0:0:
448,192,45822,1,0,0:0:0:0:
64,192,45901,1,0,0:0:0:0:
192,192,45980,1,0,0:0:0:0:
320,192,46059,1,0,0:0:0:0:
192,192,46138,1,0,0:0:0:0:
448,192,46138,1,0,0:0:0:0:
320,192,46217,1,0,0:0:0:0:
64,192,46296,1,0,0:0:0:0:
192,192,46375,1,0,0:0:0:0:
448,192,46454,1,0,0:0:0:0:
64,192,46454,1,0,0:0:0:0:
320,192,46533,1,0,0:0:0:0:
192,192,46611,1,0,0:0:0:0:
320,192,46690,1,0,0:0:0:0:
448,192,46769,1,0,0:0:0:0:
64,192,46769,1,0,0:0:0:0:
192,192,46848,1,0,0:0:0:0:
320,192,46927,1,0,0:0:0:0:
64,192,47006,1,0,0:0:0:0:
192,192,47085,1,0,0:0:0:0:
448,192,47085,1,0,0:0:0:0:
320,192,47164,1,0,0:0:0:0:
192,192,47243,1,0,0:0:0:0:
64,192,47322,1,0,0:0:0:0:
320,192,47401,1,0,0:0:0:0:
448,192,47401,1,0,0:0:0:0:
64,192,47480,1,0,0:0:0:0:
192,192,47559,1,0,0:0:0:0:
320,192,47638,1,0,0:0:0:0:
64,192,47717,1,0,0:0:0:0:
192,192,47717,1,0,0:0:0:0:
320,192,47796,1,0,0:0:0:0:
192,192,47875,1,0,0:0:0:0:
64,192,47875,1,0,0:0:0:0:
320,192,47954,1,0,0:0:0:0:
448,192,48033,1,0,0:0:0:0:
64,192,48033,1,0,0:0:0:0:
192,192,48111,1,0,0:0:0:0:
320,192,48190,1,0,0:0:0:0:
64,192,48269,1,0,0:0:0:0:
448,192,48348,1,0,0:0:0:0:
192,192,48348,1,0,0:0:0:0:
64,192,48506,1,0,0:0:0:0:
320,192,48506,1,0,0:0:0:0:
192,192,48664,1,0,0:0:0:0:
64,192,48664,1,0,0:0:0:0:
448,192,48664,1,0,0:0:0:0:
320,192,48822,1,0,0:0:0:0:
448,192,48822,1,0,0:0:0:0:
320,192,48901,1,0,0:0:0:0:
448,192,48901,1,0,0:0:0:0:
192,192,48980,1,0,0:0:0:0:
64,192,48980,1,0,0:0:0:0:
320,192,49059,1,0,0:0:0:0:
448,192,49059,1,0,0:0:0:0:
192,192,49138,1,0,0:0:0:0:
64,192,49217,1,0,0:0:0:0:
320,192,49296,1,0,0:0:0:0:
320,192,49401,1,0,0:0:0:0:
320,192,49506,1,0,0:0:0:0:
192,192,49611,1,0,0:0:0:0:
192,192,49717,1,0,0:0:0:0:
192,192,49822,1,0,0:0:0:0:
448,192,49927,128,0,50559:0:0:0:0:
64,192,50559,1,0,0:0:0:0:
192,192,50559,1,0,0:0:0:0:
320,192,50559,1,0,0:0:0:0:
448,192,51190,1,0,0:0:0:0:
320,192,51506,1,0,0:0:0:0:
64,192,51822,1,0,0:0:0:0:
320,192,51980,1,0,0:0:0:0:
64,192,52138,1,0,0:0:0:0:
320,192,52296,1,0,0:0:0:0:
448,192,52454,1,0,0:0:0:0:
192,192,52454,1,0,0:0:0:0:
64,192,52769,1,0,0:0:0:0:
320,192,52769,1,0,0:0:0:0:
192,192,52927,1,0,0:0:0:0:
64,192,53085,1,0,0:0:0:0:
448,192,53085,1,0,0:0:0:0:
320,192,53401,1,0,0:0:0:0:
64,192,53559,1,0,0:0:0:0:
448,192,53559,1,0,0:0:0:0:
192,192,53717,1,0,0:0:0:0:
320,192,53875,1,0,0:0:0:0:
64,192,54033,1,0,0:0:0:0:
448,192,54033,1,0,0:0:0:0:
192,192,54190,1,0,0:0:0:0:
64,192,54348,1,0,0:0:0:0:
320,192,54506,1,0,0:0:0:0:
64,192,54664,1,0,0:0:0:0:
320,192,54822,1,0,0:0:0:0:
192,192,54980,1,0,0:0:0:0:
448,192,54980,1,0,0:0:0:0:
192,192,55138,1,0,0:0:0:0:
320,192,55296,1,0,0:0:0:0:
64,192,55296,1,0,0:0:0:0:
320,192,55454,1,0,0:0:0:0:
64,192,55611,1,0,0:0:0:0:
448,192,55611,1,0,0:0:0:0:
320,192,55927,1,0,0:0:0:0:
192,192,56085,1,0,0:0:0:0:
64,192,56243,1,0,0:0:0:0:
448,192,56559,1,0,0:0:0:0:
320,192,56717,1,0,0:0:0:0:
64,192,56875,1,0,0:0:0:0:
192,192,57033,1,0,0:0:0:0:
64,192,57190,1,0,0:0:0:0:
64,192,57348,1,0,0:0:0:0:
448,192,57506,1,0,0:0:0:0:
448,192,57664,1,0,0:0:0:0:
320,192,57664,1,0,0:0:0:0:
192,192,57822,1,0,0:0:0:0:
320,192,57822,1,0,0:0:0:0:
448,192,57822,1,0,0:0:0:0:
192,192,57980,1,0,0:0:0:0:
320,192,57980,1,0,0:0:0:0:
64,192,57980,1,0,0:0:0:0:
64,192,58138,1,0,0:0:0:0:
192,192,58138,1,0,0:0:0:0:
448,192,58138,1,0,0:0:0:0:
320,192,58454,1,0,0:0:0:0:
64,192,58611,1,0,0:0:0:0:
448,192,58611,1,0,0:0:0:0:
192,192,58769,1,0,0:0:0:0:
64,192,59085,1,0,0:0:0:0:
448,192,59085,1,0,0:0:0:0:
192,192,59243,1,0,0:0:0:0:
320,192,59401,1,0,0:0:0:0:
448,192,59401,1,0,0:0:0:0:
64,192,59559,1,0,0:0:0:0:
320,192,59717,1,0,0:0:0:0:
448,192,59717,1,0,0:0:0:0:
64,192,59875,1,0,0:0:0:0:
320,192,60033,1,0,0:0:0:0:
192,192,60138,1,0,0:0:0:0:
320,192,60243,1,0,0:0:0:0:
64,192,60348,1,0,0:0:0:0:
64,192,60506,1,0,0:0:0:0:
192,192,60664,1,0,0:0:0:0:
320,192,60664,1,0,0:0:0:0:
448,192,60664,1,0,0:0:0:0:
64,192,60980,1,0,0:0:0:0:
320,192,61138,1,0,0:0:0:0:
192,192,61296,1,0,0:0:0:0:
64,192,61611,1,0,0:0:0:0:
448,192,61611,1,0,0:0:0:0:
320,192,61769,1,0,0:0:0:0:
64,192,61927,1,0,0:0:0:0:
192,192,62085,1,0,0:0:0:0:
64,192,62243,1,0,0:0:0:0:
192,192,62401,1,0,0:0:0:0:
320,192,62480,1,0,0:0:0:0:
448,192,62559,1,0,0:0:0:0:
64,192,62559,1,0,0:0:0:0:
320,192,62875,1,0,0:0:0:0:
192,192,62875,1,0,0:0:0:0:
192,192,63033,1,0,0:0:0:0:
64,192,63190,1,0,0:0:0:0:
448,192,63190,1,0,0:0:0:0:
320,192,63506,1,0,0:0:0:0:
64,192,63664,1,0,0:0:0:0:
448,192,63664,1,0,0:0:0:0:
192,192,63822,1,0,0:0:0:0:
64,192,64138,1,0,0:0:0:0:
320,192,64138,1,0,0:0:0:0:
448,192,64296,1,0,0:0:0:0:
64,192,64454,1,0,0:0:0:0:
192,192,64611,1,0,0:0:0:0:
64,192,64769,1,0,0:0:0:0:
192,192,64927,1,0,0:0:0:0:
320,192,65006,1,0,0:0:0:0:
448,192,65085,1,0,0:0:0:0:
64,192,65085,1,0,0:0:0:0:
192,192,65401,1,0,0:0:0:0:
320,192,65401,1,0,0:0:0:0:
192,192,65559,1,0,0:0:0:0:
64,192,65717,1,0,0:0:0:0:
448,192,65717,1,0,0:0:0:0:
320,192,66033,1,0,0:0:0:0:
192,192,66190,1,0,0:0:0:0:
64,192,66348,1,0,0:0:0:0:
192,192,66664,1,0,0:0:0:0:
448,192,66664,1,0,0:0:0:0:
320,192,66822,1,0,0:0:0:0:
64,192,66980,1,0,0:0:0:0:
192,192,67138,1,0,0:0:0:0:
64,192,67296,1,0,0:0:0:0:
192,192,67454,1,0,0:0:0:0:
320,192,67533,1,0,0:0:0:0:
448,192,67611,1,0,0:0:0:0:
448,192,67769,1,0,0:0:0:0:
320,192,67927,1,0,0:0:0:0:
448,192,67927,1,0,0:0:0:0:
448,192,68085,1,0,0:0:0:0:
320,192,68085,1,0,0:0:0:0:
192,192,68085,1,0,0:0:0:0:
64,192,68243,1,0,0:0:0:0:
192,192,68243,1,0,0:0:0:0:
448,192,68243,1,0,0:0:0:0:
64,192,68401,1,0,0:0:0:0:
192,192,68401,1,0,0:0:0:0:
320,192,68559,1,0,0:0:0:0:
448,192,68559,1,0,0:0:0:0:
64,192,68559,1,0,0:0:0:0:
320,192,68717,1,0,0:0:0:0:
448,192,68717,1,0,0:0:0:0:
192,192,68875,1,0,0:0:0:0:
320,192,69033,1,0,0:0:0:0:
192,192,69111,1,0,0:0:0:0:
448,192,69190,1,0,0:0:0:0:
64,192,69190,1,0,0:0:0:0:
320,192,69348,1,0,0:0:0:0:
64,192,69506,1,0,0:0:0:0:
448,192,69506,1,0,0:0:0:0:
192,192,69664,1,0,0:0:0:0:
320,192,69664,1,0,0:0:0:0:
448,192,69822,1,0,0:0:0:0:
64,192,69822,1,0,0:0:0:0:
320,192,69980,1,0,0:0:0:0:
192,192,69980,1,0,0:0:0:0:
448,192,70138,1,0,0:0:0:0:
64,192,70138,1,0,0:0:0:0:
448,192,70296,1,0,0:0:0:0:
320,192,70454,1,0,0:0:0:0:
192,192,70611,1,0,0:0:0:0:
64,192,70769,1,0,0:0:0:0:
448,192,70769,1,0,0:0:0:0:
192,192,70822,1,0,0:0:0:0:
320,192,70875,1,0,0:0:0:0:
64,192,70927,1,0,0:0:0:0:
192,192,70980,1,0,0:0:0:0:
320,192,71033,1,0,0:0:0:0:
448,192,71085,1,0,0:0:0:0:
192,192,71138,1,0,0:0:0:0:
320,192,71190,1,0,0:0:0:0:
64,192,71243,1,0,0:0:0:0:
448,192,71401,128,0,71559:0:0:0:0:
64,192,71401,128,0,71875:0:0:0:0:
192,192,71401,1,0,0:0:0:0:
320,192,71559,128,0,71717:0:0:0:0:
192,192,71717,128,0,71875:0:0:0:0:
448,192,72033,1,0,0:0:0:0:
64,192,72033,1,0,0:0:0:0:
192,192,72085,1,0,0:0:0:0:
320,192,72138,1,0,0:0:0:0:
64,192,72190,1,0,0:0:0:0:
192,192,72243,1,0,0:0:0:0:
320,192,72296,1,0,0:0:0:0:
448,192,72348,1,0,0:0:0:0:
192,192,72401,1,0,0:0:0:0:
320,192,72454,1,0,0:0:0:0:
192,192,72506,1,0,0:0:0:0:
64,192,72506,1,0,0:0:0:0:
320,192,72664,128,0,72822:0:0:0:0:
448,192,72664,1,0,0:0:0:0:
64,192,72664,1,0,0:0:0:0:
192,192,72822,128,0,72980:0:0:0:0:
320,192,72980,1,0,0:0:0:0:
64,192,72980,1,0,0:0:0:0:
192,192,73059,1,0,0:0:0:0:
448,192,73059,1,0,0:0:0:0:
320,192,73138,1,0,0:0:0:0:
192,192,73217,1,0,0:0:0:0:
448,192,73296,1,0,0:0:0:0:
320,192,73296,1,0,0:0:0:0:
64,192,73296,1,0,0:0:0:0:
192,192,73454,1,0,0:0:0:0:
448,192,73454,1,0,0:0:0:0:
320,192,73611,1,0,0:0:0:0:
64,192,73611,1,0,0:0:0:0:
192,192,73769,1,0,0:0:0:0:
448,192,73769,1,0,0:0:0:0:
192,192,73927,1,0,0:0:0:0:
320,192,73927,1,0,0:0:0:0:
64,192,73927,1,0,0:0:0:0:
192,192,74085,1,0,0:0:0:0:
448,192,74085,1,0,0:0:0:0:
448,192,74243,1,0,0:0:0:0:
320,192,74243,1,0,0:0:0:0:
192,192,74401,1,0,0:0:0:0:
64,192,74401,1,0,0:0:0:0:
64,192,74559,1,0,0:0:0:0:
320,192,74559,1,0,0:0:0:0:
192,192,74717,1,0,0:0:0:0:
448,192,74717,1,0,0:0:0:0:
64,192,74875,1,0,0:0:0:0:
320,192,74875,1,0,0:0:0:0:
64,192,75033,1,0,0:0:0:0:
448,192,75033,1,0,0:0:0:0:
192,192,75033,1,0,0:0:0:0:
320,192,75190,1,0,0:0:0:0:
448,192,75190,1,0,0:0:0:0:
64,192,75190,1,0,0:0:0:0:
448,192,75506,1,0,0:0:0:0:
320,192,75506,1,0,0:0:0:0:
192,192,75585,1,0,0:0:0:0:
64,192,75585,1,0,0:0:0:0:
320,192,75664,1,0,0:0:0:0:
192,192,75743,1,0,0:0:0:0:
448,192,75822,1,0,0:0:0:0:
64,192,75822,1,0,0:0:0:0:
320,192,75875,1,0,0:0:0:0:
192,192,75927,1,0,0:0:0:0:
448,192,75980,1,0,0:0:0:0:
320,192,76033,1,0,0:0:0:0:
192,192,76085,1,0,0:0:0:0:
64,192,76138,1,0,0:0:0:0:
320,192,76190,1,0,0:0:0:0:
192,192,76243,1,0,0:0:0:0:
448,192,76296,1,0,0:0:0:0:
64,192,76454,128,0,76611:0:0:0:0:
448,192,76454,128,0,76927:0:0:0:0:
320,192,76454,1,0,0:0:0:0:
192,192,76611,128,0,76769:0:0:0:0:
320,192,76769,128,0,76927:0:0:0:0:
64,192,77085,1,0,0:0:0:0:
448,192,77085,1,0,0:0:0:0:
320,192,77138,1,0,0:0:0:0:
192,192,77190,1,0,0:0:0:0:
448,192,77243,1,0,0:0:0:0:
320,192,77296,1,0,0:0:0:0:
192,192,77348,1,0,0:0:0:0:
64,192,77401,1,0,0:0:0:0:
320,192,77454,1,0,0:0:0:0:
192,192,77506,1,0,0:0:0:0:
320,192,77559,1,0,0:0:0:0:
448,192,77559,1,0,0:0:0:0:
192,192,77717,128,0,77875:0:0:0:0:
64,192,77717,1,0,0:0:0:0:
448,192,77717,1,0,0:0:0:0:
320,192,77875,128,0,78033:0:0:0:0:
192,192,78033,1,0,0:0:0:0:
448,192,78033,1,0,0:0:0:0:
320,192,78111,1,0,0:0:0:0:
64,192,78111,1,0,0:0:0:0:
192,192,78190,1,0,0:0:0:0:
320,192,78269,1,0,0:0:0:0:
64,192,78348,1,0,0:0:0:0:
448,192,78348,1,0,0:0:0:0:
192,192,78348,1,0,0:0:0:0:
320,192,78506,1,0,0:0:0:0:
448,192,78664,1,0,0:0:0:0:
192,192,78664,1,0,0:0:0:0:
320,192,78822,1,0,0:0:0:0:
192,192,78822,1,0,0:0:0:0:
320,192,78980,1,0,0:0:0:0:
448,192,78980,1,0,0:0:0:0:
64,192,78980,128,0,79611:0:0:0:0:
448,192,79296,1,0,0:0:0:0:
192,192,79296,128,0,79611:0:0:0:0:
448,192,79454,1,0,0:0:0:0:
320,192,79611,1,0,0:0:0:0:
192,192,79769,1,0,0:0:0:0:
320,192,79927,1,0,0:0:0:0:
192,192,80006,1,0,0:0:0:0:
320,192,80085,1,0,0:0:0:0:
192,192,80243,1,0,0:0:0:0:
192,192,80401,1,0,0:0:0:0:
64,192,80559,1,0,0:0:0:0:
320,192,80638,1,0,0:0:0:0:
192,192,80717,1,0,0:0:0:0:
64,192,80875,1,0,0:0:0:0:
448,192,80875,1,0,0:0:0:0:
320,192,81033,1,0,0:0:0:0:
192,192,81111,1,0,0:0:0:0:
64,192,81190,1,0,0:0:0:0:
320,192,81348,1,0,0:0:0:0:
64,192,81506,1,0,0:0:0:0:
448,192,81506,1,0,0:0:0:0:
192,192,81664,1,0,0:0:0:0:
320,192,81743,1,0,0:0:0:0:
448,192,81822,1,0,0:0:0:0:
192,192,81980,1,0,0:0:0:0:
64,192,82138,1,0,0:0:0:0:
448,192,82138,1,0,0:0:0:0:
320,192,82296,1,0,0:0:0:0:
192,192,82375,1,0,0:0:0:0:
64,192,82454,1,0,0:0:0:0:
320,192,82611,1,0,0:0:0:0:
64,192,82769,1,0,0:0:0:0:
448,192,82769,1,0,0:0:0:0:
192,192,82927,1,0,0:0:0:0:
320,192,83006,1,0,0:0:0:0:
448,192,83085,1,0,0:0:0:0:
192,192,83243,1,0,0:0:0:0:
64,192,83401,1,0,0:0:0:0:
448,192,83401,1,0,0:0:0:0:
320,192,83559,1,0,0:0:0:0:
192,192,83638,1,0,0:0:0:0:
64,192,83717,1,0,0:0:0:0:
320,192,83875,1,0,0:0:0:0:
64,192,84033,1,0,0:0:0:0:
448,192,84033,1,0,0:0:0:0:
192,192,84190,1,0,0:0:0:0:
320,192,84269,1,0,0:0:0:0:
448,192,84348,1,0,0:0:0:0:
192,192,84506,1,0,0:0:0:0:
64,192,84664,1,0,0:0:0:0:
448,192,84664,1,0,0:0:0:0:
320,192,84822,1,0,0:0:0:0:
192,192,84901,1,0,0:0:0:0:
64,192,84980,1,0,0:0:0:0:
320,192,85138,1,0,0:0:0:0:
64,192,85296,1,0,0:0:0:0:
448,192,85296,1,0,0:0:0:0:
192,192,85454,1,0,0:0:0:0:
320,192,85533,1,0,0:0:0:0:
448,192,85611,1,0,0:0:0:0:
192,192,85769,1,0,0:0:0:0:
64,192,85927,1,0,0:0:0:0:
320,192,85927,1,0,0:0:0:0:
192,192,86006,1,0,0:0:0:0:
320,192,86085,1,0,0:0:0:0:
64,192,86164,1,0,0:0:0:0:
448,192,86243,1,0,0:0:0:0:
192,192,86243,1,0,0:0:0:0:
320,192,86322,1,0,0:0:0:0:
192,192,86401,1,0,0:0:0:0:
448,192,86480,1,0,0:0:0:0:
64,192,86559,1,0,0:0:0:0:
320,192,86559,1,0,0:0:0:0:
192,192,86638,1,0,0:0:0:0:
320,192,86717,1,0,0:0:0:0:
64,192,86796,1,0,0:0:0:0:
448,192,86875,1,0,0:0:0:0:
192,192,86875,1,0,0:0:0:0:
320,192,86954,1,0,0:0:0:0:
192,192,87033,1,0,0:0:0:0:
64,192,87111,1,0,0:0:0:0:
320,192,87190,1,0,0:0:0:0:
448,192,87190,1,0,0:0:0:0:
192,192,87269,1,0,0:0:0:0:
448,192,87348,1,0,0:0:0:0:
320,192,87427,1,0,0:0:0:0:
64,192,87506,1,0,0:0:0:0:
192,192,87506,1,0,0:0:0:0:
320,192,87585,1,0,0:0:0:0:
64,192,87664,1,0,0:0:0:0:
192,192,87743,1,0,0:0:0:0:
320,192,87822,1,0,0:0:0:0:
448,192,87822,1,0,0:0:0:0:
192,192,87901,1,0,0:0:0:0:
448,192,87980,1,0,0:0:0:0:
320,192,88059,1,0,0:0:0:0:
64,192,88138,1,0,0:0:0:0:
192,192,88138,1,0,0:0:0:0:
320,192,88217,1,0,0:0:0:0:
64,192,88296,1,0,0:0:0:0:
192,192,88375,1,0,0:0:0:0:
320,192,88454,1,0,0:0:0:0:
448,192,88454,1,0,0:0:0:0:
64,192,88454,1,0,0:0:0:0:
320,192,88611,1,0,0:0:0:0:
448,192,88611,1,0,0:0:0:0:
64,192,88611,1,0,0:0:0:0:
320,192,88769,1,0,0:0:0:0:
448,192,88769,1,0,0:0:0:0:
64,192,88769,1,0,0:0:0:0:
320,192,88927,1,0,0:0:0:0:
448,192,88927,1,0,0:0:0:0:
64,192,88927,1,0,0:0:0:0:
64,192,89085,1,0,0:0:0:0:
320,192,89085,1,0,0:0:0:0:
448,192,89085,1,0,0:0:0:0:
448,192,89243,1,0,0:0:0:0:
320,192,89243,1,0,0:0:0:0:
64,192,89243,1,0,0:0:0:0:
64,192,89401,1,0,0:0:0:0:
320,192,89401,1,0,0:0:0:0:
448,192,89401,1,0,0:0:0:0:
64,192,89559,1,0,0:0:0:0:
320,192,89559,1,0,0:0:0:0:
448,192,89559,1,0,0:0:0:0:
448,192,89717,1,0,0:0:0:0:
64,192,89717,1,0,0:0:0:0:
448,192,89875,1,0,0:0:0:0:
64,192,89875,1,0,0:0:0:0:
64,192,90033,1,0,0:0:0:0:
448,192,90033,1,0,0:0:0:0:
448,192,90190,1,0,0:0:0:0:
64,192,90190,1,0,0:0:0:0:
320,192,90348,1,0,0:0:0:0:
64,192,90506,1,0,0:0:0:0:
192,192,90664,1,0,0:0:0:0:
64,192,90980,1,0,0:0:0:0:
192,192,90980,1,0,0:0:0:0:
320,192,90980,1,0,0:0:0:0:
448,192,90980,1,0,0:0:0:0:
320,192,91138,1,0,0:0:0:0:
192,192,91296,1,0,0:0:0:0:
448,192,91296,1,0,0:0:0:0:
64,192,91296,1,0,0:0:0:0:
64,192,91454,1,0,0:0:0:0:
320,192,91454,1,0,0:0:0:0:
448,192,91454,1,0,0:0:0:0:
192,192,91611,1,0,0:0:0:0:
320,192,91611,1,0,0:0:0:0:
448,192,91611,1,0,0:0:0:0:
192,192,91769,1,0,0:0:0:0:
448,192,91927,1,0,0:0:0:0:
320,192,91927,1,0,0:0:0:0:
64,192,92085,1,0,0:0:0:0:
192,192,92085,1,0,0:0:0:0:
448,192,92085,1,0,0:0:0:0:
320,192,92243,1,0,0:0:0:0:
192,192,92243,1,0,0:0:0:0:
64,192,92243,1,0,0:0:0:0:
64,192,92401,1,0,0:0:0:0:
192,192,92401,1,0,0:0:0:0:
448,192,92401,1,0,0:0:0:0:
64,192,92559,1,0,0:0:0:0:
192,192,92559,1,0,0:0:0:0:
320,192,92559,1,0,0:0:0:0:
192,192,92717,1,0,0:0:0:0:
320,192,92717,1,0,0:0:0:0:
448,192,92717,1,0,0:0:0:0:
320,192,92875,1,0,0:0:0:0:
448,192,92875,1,0,0:0:0:0:
64,192,92875,1,0,0:0:0:0:
320,192,93033,1,0,0:0:0:0:
64,192,93190,1,0,0:0:0:0:
448,192,93190,1,0,0:0:0:0:
192,192,93190,1,0,0:0:0:0:
192,192,93348,1,0,0:0:0:0:
64,192,93348,1,0,0:0:0:0:
64,192,93506,1,0,0:0:0:0:
320,192,93506,1,0,0:0:0:0:
448,192,93506,1,0,0:0:0:0:
192,192,93506,1,0,0:0:0:0:
320,192,93664,1,0,0:0:0:0:
448,192,93822,1,0,0:0:0:0:
64,192,93822,1,0,0:0:0:0:
192,192,93822,1,0,0:0:0:0:
320,192,93980,1,0,0:0:0:0:
448,192,93980,1,0,0:0:0:0:
64,192,93980,1,0,0:0:0:0:
192,192,94138,1,0,0:0:0:0:
320,192,94138,1,0,0:0:0:0:
448,192,94138,1,0,0:0:0:0:
192,192,94296,1,0,0:0:0:0:
320,192,94454,1,0,0:0:0:0:
448,192,94454,1,0,0:0:0:0:
192,192,94611,1,0,0:0:0:0:
64,192,94611,1,0,0:0:0:0:
448,192,94611,1,0,0:0:0:0:
64,192,94769,1,0,0:0:0:0:
192,192,94769,1,0,0:0:0:0:
320,192,94769,1,0,0:0:0:0:
64,192,94927,1,0,0:0:0:0:
192,192,94927,1,0,0:0:0:0:
448,192,94927,1,0,0:0:0:0:
320,192,95085,1,0,0:0:0:0:
448,192,95085,1,0,0:0:0:0:
64,192,95085,1,0,0:0:0:0:
192,192,95164,1,0,0:0:0:0:
64,192,95243,1,0,0:0:0:0:
320,192,95243,1,0,0:0:0:0:
448,192,95243,1,0,0:0:0:0:
192,192,95401,1,0,0:0:0:0:
320,192,95401,1,0,0:0:0:0:
448,192,95401,1,0,0:0:0:0:
320,192,95559,1,0,0:0:0:0:
448,192,95559,1,0,0:0:0:0:
192,192,95717,1,0,0:0:0:0:
64,192,95717,1,0,0:0:0:0:
448,192,95717,1,0,0:0:0:0:
320,192,95717,1,0,0:0:0:0:
64,192,96033,1,0,0:0:0:0:
192,192,96033,1,0,0:0:0:0:
320,192,96033,1,0,0:0:0:0:
448,192,96033,1,0,0:0:0:0:
192,192,96190,1,0,0:0:0:0:
64,192,96348,1,0,0:0:0:0:
320,192,96348,1,0,0:0:0:0:
448,192,96348,1,0,0:0:0:0:
192,192,96506,1,0,0:0:0:0:
64,192,96506,1,0,0:0:0:0:
448,192,96506,1,0,0:0:0:0:
320,192,96664,1,0,0:0:0:0:
192,192,96664,1,0,0:0:0:0:
64,192,96664,1,0,0:0:0:0:
320,192,96822,1,0,0:0:0:0:
192,192,96980,1,0,0:0:0:0:
64,192,96980,1,0,0:0:0:0:
448,192,96980,1,0,0:0:0:0:
320,192,97138,1,0,0:0:0:0:
448,192,97138,1,0,0:0:0:0:
64,192,97138,1,0,0:0:0:0:
192,192,97296,1,0,0:0:0:0:
320,192,97296,1,0,0:0:0:0:
448,192,97296,1,0,0:0:0:0:
448,192,97454,1,0,0:0:0:0:
320,192,97454,1,0,0:0:0:0:
64,192,97454,1,0,0:0:0:0:
192,192,97611,1,0,0:0:0:0:
320,192,97611,1,0,0:0:0:0:
448,192,97611,1,0,0:0:0:0:
320,192,97769,1,0,0:0:0:0:
192,192,97769,1,0,0:0:0:0:
64,192,97769,1,0,0:0:0:0:
64,192,97927,1,0,0:0:0:0:
192,192,97927,1,0,0:0:0:0:
448,192,97927,1,0,0:0:0:0:
192,192,98085,1,0,0:0:0:0:
64,192,98243,1,0,0:0:0:0:
320,192,98243,1,0,0:0:0:0:
448,192,98243,1,0,0:0:0:0:
320,192,98401,1,0,0:0:0:0:
448,192,98401,1,0,0:0:0:0:
64,192,98559,1,0,0:0:0:0:
192,192,98559,1,0,0:0:0:0:
320,192,98559,1,0,0:0:0:0:
448,192,98559,1,0,0:0:0:0:
64,192,98717,1,0,0:0:0:0:
192,192,98717,1,0,0:0:0:0:
320,192,98796,1,0,0:0:0:0:
448,192,98796,1,0,0:0:0:0:
192,192,98875,1,0,0:0:0:0:
64,192,98875,1,0,0:0:0:0:
64,192,99033,1,0,0:0:0:0:
448,192,99033,1,0,0:0:0:0:
320,192,99190,1,0,0:0:0:0:
448,192,99190,1,0,0:0:0:0:
192,192,99269,1,0,0:0:0:0:
64,192,99269,1,0,0:0:0:0:
320,192,99348,1,0,0:0:0:0:
448,192,99348,1,0,0:0:0:0:
192,192,99506,1,0,0:0:0:0:
320,192,99506,1,0,0:0:0:0:
192,192,99664,1,0,0:0:0:0:
64,192,99822,1,0,0:0:0:0:
320,192,99822,1,0,0:0:0:0:
448,192,99822,1,0,0:0:0:0:
64,192,99980,1,0,0:0:0:0:
192,192,99980,1,0,0:0:0:0:
448,192,99980,1,0,0:0:0:0:
320,192,100138,1,0,0:0:0:0:
64,192,100138,1,0,0:0:0:0:
448,192,100138,1,0,0:0:0:0:
192,192,100296,1,0,0:0:0:0:
448,192,100296,1,0,0:0:0:0:
320,192,100296,1,0,0:0:0:0:
64,192,100454,1,0,0:0:0:0:
192,192,100454,1,0,0:0:0:0:
320,192,100454,1,0,0:0:0:0:
192,192,100611,1,0,0:0:0:0:
64,192,100611,1,0,0:0:0:0:
448,192,100611,1,0,0:0:0:0:
320,192,100769,128,0,101085:0:0:0:0:
64,192,101085,1,0,0:0:0:0:
192,192,101085,1,0,0:0:0:0:
448,192,101085,1,0,0:0:0:0:
320,192,101164,1,0,0:0:0:0:
192,192,101243,1,0,0:0:0:0:
448,192,101322,1,0,0:0:0:0:
64,192,101401,1,0,0:0:0:0:
320,192,101401,1,0,0:0:0:0:
448,192,101480,1,0,0:0:0:0:
192,192,101559,1,0,0:0:0:0:
64,192,101559,1,0,0:0:0:0:
320,192,101638,1,0,0:0:0:0:
448,192,101717,1,0,0:0:0:0:
192,192,101717,1,0,0:0:0:0:
64,192,101796,1,0,0:0:0:0:
320,192,101875,1,0,0:0:0:0:
192,192,101954,1,0,0:0:0:0:
448,192,102033,1,0,0:0:0:0:
320,192,102033,1,0,0:0:0:0:
64,192,102111,1,0,0:0:0:0:
192,192,102190,1,0,0:0:0:0:
448,192,102190,1,0,0:0:0:0:
320,192,102269,1,0,0:0:0:0:
64,192,102348,1,0,0:0:0:0:
448,192,102348,1,0,0:0:0:0:
192,192,102427,1,0,0:0:0:0:
320,192,102506,1,0,0:0:0:0:
64,192,102506,1,0,0:0:0:0:
192,192,102585,1,0,0:0:0:0:
64,192,102664,1,0,0:0:0:0:
448,192,102664,1,0,0:0:0:0:
320,192,102743,1,0,0:0:0:0:
192,192,102822,1,0,0:0:0:0:
448,192,102822,1,0,0:0:0:0:
320,192,102901,1,0,0:0:0:0:
448,192,102980,1,0,0:0:0:0:
64,192,102980,1,0,0:0:0:0:
192,192,103059,1,0,0:0:0:0:
320,192,103138,1,0,0:0:0:0:
192,192,103217,1,0,0:0:0:0:
64,192,103296,1,0,0:0:0:0:
448,192,103296,1,0,0:0:0:0:
320,192,103375,1,0,0:0:0:0:
192,192,103454,1,0,0:0:0:0:
64,192,103454,1,0,0:0:0:0:
320,192,103533,1,0,0:0:0:0:
64,192,103611,1,0,0:0:0:0:
448,192,103611,1,0,0:0:0:0:
192,192,103611,1,0,0:0:0:0:
320,192,103690,1,0,0:0:0:0:
192,192,103769,1,0,0:0:0:0:
448,192,103848,1,0,0:0:0:0:
320,192,103927,1,0,0:0:0:0:
64,192,103927,1,0,0:0:0:0:
448,192,104006,1,0,0:0:0:0:
192,192,104085,1,0,0:0:0:0:
64,192,104085,1,0,0:0:0:0:
320,192,104164,1,0,0:0:0:0:
192,192,104243,1,0,0:0:0:0:
448,192,104243,1,0,0:0:0:0:
64,192,104322,1,0,0:0:0:0:
320,192,104401,1,0,0:0:0:0:
192,192,104480,1,0,0:0:0:0:
320,192,104559,1,0,0:0:0:0:
448,192,104559,1,0,0:0:0:0:
64,192,104638,1,0,0:0:0:0:
192,192,104717,1,0,0:0:0:0:
448,192,104717,1,0,0:0:0:0:
320,192,104796,1,0,0:0:0:0:
64,192,104875,1,0,0:0:0:0:
448,192,104875,1,0,0:0:0:0:
192,192,104954,1,0,0:0:0:0:
320,192,105033,1,0,0:0:0:0:
64,192,105033,1,0,0:0:0:0:
192,192,105111,1,0,0:0:0:0:
448,192,105190,1,0,0:0:0:0:
64,192,105190,1,0,0:0:0:0:
192,192,105269,1,0,0:0:0:0:
320,192,105269,1,0,0:0:0:0:
448,192,105348,1,0,0:0:0:0:
64,192,105348,1,0,0:0:0:0:
320,192,105427,1,0,0:0:0:0:
64,192,105506,1,0,0:0:0:0:
192,192,105506,1,0,0:0:0:0:
320,192,105585,1,0,0:0:0:0:
192,192,105664,1,0,0:0:0:0:
64,192,105664,1,0,0:0:0:0:
320,192,105743,1,0,0:0:0:0:
64,192,105822,1,0,0:0:0:0:
448,192,105822,1,0,0:0:0:0:
192,192,105822,1,0,0:0:0:0:
320,192,105901,1,0,0:0:0:0:
448,192,105980,1,0,0:0:0:0:
192,192,106059,1,0,0:0:0:0:
64,192,106138,1,0,0:0:0:0:
448,192,106138,1,0,0:0:0:0:
320,192,106138,1,0,0:0:0:0:
192,192,106217,1,0,0:0:0:0:
320,192,106296,1,0,0:0:0:0:
64,192,106375,1,0,0:0:0:0:
192,192,106454,1,0,0:0:0:0:
448,192,106454,1,0,0:0:0:0:
64,192,106533,1,0,0:0:0:0:
320,192,106611,1,0,0:0:0:0:
448,192,106611,1,0,0:0:0:0:
192,192,106690,1,0,0:0:0:0:
64,192,106769,1,0,0:0:0:0:
320,192,106769,1,0,0:0:0:0:
448,192,106848,1,0,0:0:0:0:
192,192,106927,1,0,0:0:0:0:
320,192,107006,1,0,0:0:0:0:
192,192,107085,1,0,0:0:0:0:
64,192,107085,1,0,0:0:0:0:
448,192,107164,1,0,0:0:0:0:
320,192,107243,1,0,0:0:0:0:
64,192,107243,1,0,0:0:0:0:
192,192,107322,1,0,0:0:0:0:
64,192,107401,1,0,0:0:0:0:
448,192,107401,1,0,0:0:0:0:
320,192,107480,1,0,0:0:0:0:
192,192,107559,1,0,0:0:0:0:
448,192,107559,1,0,0:0:0:0:
320,192,107638,1,0,0:0:0:0:
64,192,107717,1,0,0:0:0:0:
448,192,107717,1,0,0:0:0:0:
192,192,107796,1,0,0:0:0:0:
320,192,107875,1,0,0:0:0:0:
64,192,107875,1,0,0:0:0:0:
192,192,107954,1,0,0:0:0:0:
64,192,108033,1,0,0:0:0:0:
448,192,108033,1,0,0:0:0:0:
320,192,108111,1,0,0:0:0:0:
192,192,108190,1,0,0:0:0:0:
320,192,108269,1,0,0:0:0:0:
64,192,108348,1,0,0:0:0:0:
448,192,108348,1,0,0:0:0:0:
192,192,108427,1,0,0:0:0:0:
320,192,108506,1,0,0:0:0:0:
448,192,108506,1,0,0:0:0:0:
64,192,108585,1,0,0:0:0:0:
192,192,108664,1,0,0:0:0:0:
320,192,108664,1,0,0:0:0:0:
448,192,108664,1,0,0:0:0:0:
320,192,108822,1,0,0:0:0:0:
448,192,108822,1,0,0:0:0:0:
192,192,108980,1,0,0:0:0:0:
64,192,108980,1,0,0:0:0:0:
320,192,108980,1,0,0:0:0:0:
192,192,109138,1,0,0:0:0:0:
64,192,109138,1,0,0:0:0:0:
64,192,109296,1,0,0:0:0:0:
320,192,109296,1,0,0:0:0:0:
448,192,109296,1,0,0:0:0:0:
320,192,109454,1,0,0:0:0:0:
192,192,109454,1,0,0:0:0:0:
64,192,109611,1,0,0:0:0:0:
192,192,109611,1,0,0:0:0:0:
448,192,109611,1,0,0:0:0:0:
320,192,109769,1,0,0:0:0:0:
192,192,109769,1,0,0:0:0:0:
320,192,109927,1,0,0:0:0:0:
448,192,109927,1,0,0:0:0:0:
192,192,110006,1,0,0:0:0:0:
64,192,110006,1,0,0:0:0:0:
320,192,110085,1,0,0:0:0:0:
448,192,110085,1,0,0:0:0:0:
192,192,110243,1,0,0:0:0:0:
448,192,110243,1,0,0:0:0:0:
64,192,110243,1,0,0:0:0:0:
320,192,110401,1,0,0:0:0:0:
64,192,110401,1,0,0:0:0:0:
448,192,110401,1,0,0:0:0:0:
320,192,110559,1,0,0:0:0:0:
64,192,110559,1,0,0:0:0:0:
192,192,110559,1,0,0:0:0:0:
192,192,110717,1,0,0:0:0:0:
320,192,110717,1,0,0:0:0:0:
448,192,110717,1,0,0:0:0:0:
64,192,110875,1,0,0:0:0:0:
320,192,110875,1,0,0:0:0:0:
448,192,110875,1,0,0:0:0:0:
192,192,110875,1,0,0:0:0:0:
64,192,111190,1,0,0:0:0:0:
192,192,111190,1,0,0:0:0:0:
448,192,111190,1,0,0:0:0:0:
320,192,111269,1,0,0:0:0:0:
192,192,111348,1,0,0:0:0:0:
448,192,111348,1,0,0:0:0:0:
64,192,111427,1,0,0:0:0:0:
320,192,111506,1,0,0:0:0:0:
448,192,111506,1,0,0:0:0:0:
64,192,111585,1,0,0:0:0:0:
192,192,111664,1,0,0:0:0:0:
448,192,111664,1,0,0:0:0:0:
320,192,111743,1,0,0:0:0:0:
64,192,111822,1,0,0:0:0:0:
448,192,111822,1,0,0:0:0:0:
192,192,111901,1,0,0:0:0:0:
64,192,111980,1,0,0:0:0:0:
320,192,111980,1,0,0:0:0:0:
448,192,112059,1,0,0:0:0:0:
192,192,112138,1,0,0:0:0:0:
64,192,112138,1,0,0:0:0:0:
448,192,112217,1,0,0:0:0:0:
320,192,112296,1,0,0:0:0:0:
64,192,112296,1,0,0:0:0:0:
192,192,112375,1,0,0:0:0:0:
64,192,112454,1,0,0:0:0:0:
448,192,112454,1,0,0:0:0:0:
320,192,112533,1,0,0:0:0:0:
192,192,112611,1,0,0:0:0:0:
448,192,112611,1,0,0:0:0:0:
64,192,112690,1,0,0:0:0:0:
320,192,112769,1,0,0:0:0:0:
448,192,112769,1,0,0:0:0:0:
64,192,112848,1,0,0:0:0:0:
448,192,112927,1,0,0:0:0:0:
192,192,112927,1,0,0:0:0:0:
320,192,113006,1,0,0:0:0:0:
448,192,113085,1,0,0:0:0:0:
64,192,113085,1,0,0:0:0:0:
192,192,113164,1,0,0:0:0:0:
320,192,113243,1,0,0:0:0:0:
192,192,113322,1,0,0:0:0:0:
64,192,113401,1,0,0:0:0:0:
448,192,113401,1,0,0:0:0:0:
320,192,113480,1,0,0:0:0:0:
192,192,113559,1,0,0:0:0:0:
64,192,113559,1,0,0:0:0:0:
320,192,113638,1,0,0:0:0:0:
448,192,113717,1,0,0:0:0:0:
64,192,113717,1,0,0:0:0:0:
192,192,113717,1,0,0:0:0:0:
320,192,113796,1,0,0:0:0:0:
192,192,113875,1,0,0:0:0:0:
448,192,113954,1,0,0:0:0:0:
320,192,114033,1,0,0:0:0:0:
64,192,114033,1,0,0:0:0:0:
192,192,114111,1,0,0:0:0:0:
64,192,114190,1,0,0:0:0:0:
448,192,114190,1,0,0:0:0:0:
320,192,114269,1,0,0:0:0:0:
192,192,114348,1,0,0:0:0:0:
448,192,114348,1,0,0:0:0:0:
64,192,114427,1,0,0:0:0:0:
320,192,114506,1,0,0:0:0:0:
192,192,114585,1,0,0:0:0:0:
320,192,114664,1,0,0:0:0:0:
448,192,114664,1,0,0:0:0:0:
64,192,114743,1,0,0:0:0:0:
192,192,114822,1,0,0:0:0:0:
448,192,114822,1,0,0:0:0:0:
320,192,114901,1,0,0:0:0:0:
64,192,114980,1,0,0:0:0:0:
448,192,114980,1,0,0:0:0:0:
192,192,115059,1,0,0:0:0:0:
320,192,115138,1,0,0:0:0:0:
64,192,115138,1,0,0:0:0:0:
192,192,115217,1,0,0:0:0:0:
64,192,115296,1,0,0:0:0:0:
448,192,115296,1,0,0:0:0:0:
320,192,115375,1,0,0:0:0:0:
192,192,115375,1,0,0:0:0:0:
64,192,115454,1,0,0:0:0:0:
448,192,115454,1,0,0:0:0:0:
320,192,115533,1,0,0:0:0:0:
192,192,115611,1,0,0:0:0:0:
64,192,115611,1,0,0:0:0:0:
320,192,115690,1,0,0:0:0:0:
192,192,115769,1,0,0:0:0:0:
64,192,115769,1,0,0:0:0:0:
320,192,115848,1,0,0:0:0:0:
64,192,115927,1,0,0:0:0:0:
192,192,115927,1,0,0:0:0:0:
448,192,115927,1,0,0:0:0:0:
320,192,116006,1,0,0:0:0:0:
448,192,116085,1,0,0:0:0:0:
192,192,116164,1,0,0:0:0:0:
320,192,116243,1,0,0:0:0:0:
448,192,116243,1,0,0:0:0:0:
64,192,116243,1,0,0:0:0:0:
192,192,116322,1,0,0:0:0:0:
320,192,116401,1,0,0:0:0:0:
64,192,116480,1,0,0:0:0:0:
192,192,116559,1,0,0:0:0:0:
448,192,116559,1,0,0:0:0:0:
64,192,116638,1,0,0:0:0:0:
320,192,116717,1,0,0:0:0:0:
448,192,116717,1,0,0:0:0:0:
192,192,116796,1,0,0:0:0:0:
320,192,116875,1,0,0:0:0:0:
64,192,116875,1,0,0:0:0:0:
448,192,116954,1,0,0:0:0:0:
192,192,117033,1,0,0:0:0:0:
320,192,117111,1,0,0:0:0:0:
192,192,117190,1,0,0:0:0:0:
64,192,117190,1,0,0:0:0:0:
448,192,117269,1,0,0:0:0:0:
320,192,117348,1,0,0:0:0:0:
64,192,117348,1,0,0:0:0:0:
192,192,117427,1,0,0:0:0:0:
64,192,117506,1,0,0:0:0:0:
448,192,117506,1,0,0:0:0:0:
320,192,117585,1,0,0:0:0:0:
192,192,117664,1,0,0:0:0:0:
448,192,117664,1,0,0:0:0:0:
320,192,117743,1,0,0:0:0:0:
64,192,117822,1,0,0:0:0:0:
448,192,117822,1,0,0:0:0:0:
192,192,117901,1,0,0:0:0:0:
320,192,117980,1,0,0:0:0:0:
64,192,117980,1,0,0:0:0:0:
192,192,118059,1,0,0:0:0:0:
64,192,118138,1,0,0:0:0:0:
448,192,118138,1,0,0:0:0:0:
320,192,118217,1,0,0:0:0:0:
192,192,118296,1,0,0:0:0:0:
320,192,118375,1,0,0:0:0:0:
64,192,118454,1,0,0:0:0:0:
448,192,118454,1,0,0:0:0:0:
192,192,118533,1,0,0:0:0:0:
320,192,118611,1,0,0:0:0:0:
448,192,118611,1,0,0:0:0:0:
64,192,118690,1,0,0:0:0:0:
192,192,118769,1,0,0:0:0:0:
320,192,118769,1,0,0:0:0:0:
448,192,118769,1,0,0:0:0:0:
320,192,118927,1,0,0:0:0:0:
448,192,118927,1,0,0:0:0:0:
192,192,119085,1,0,0:0:0:0:
64,192,119085,1,0,0:0:0:0:
320,192,119085,1,0,0:0:0:0:
192,192,119243,1,0,0:0:0:0:
64,192,119243,1,0,0:0:0:0:
320,192,119401,1,0,0:0:0:0:
448,192,119401,1,0,0:0:0:0:
64,192,119401,1,0,0:0:0:0:
192,192,119559,1,0,0:0:0:0:
320,192,119559,1,0,0:0:0:0:
64,192,119717,1,0,0:0:0:0:
192,192,119717,1,0,0:0:0:0:
448,192,119717,1,0,0:0:0:0:
192,192,119875,1,0,0:0:0:0:
320,192,119875,1,0,0:0:0:0:
320,192,120033,1,0,0:0:0:0:
448,192,120033,1,0,0:0:0:0:
192,192,120111,1,0,0:0:0:0:
64,192,120111,1,0,0:0:0:0:
320,192,120190,1,0,0:0:0:0:
448,192,120190,1,0,0:0:0:0:
64,192,120348,1,0,0:0:0:0:
448,192,120348,1,0,0:0:0:0:
192,192,120348,1,0,0:0:0:0:
448,192,120506,1,0,0:0:0:0:
64,192,120506,1,0,0:0:0:0:
320,192,120506,1,0,0:0:0:0:
192,192,120664,1,0,0:0:0:0:
64,192,120664,1,0,0:0:0:0:
320,192,120664,1,0,0:0:0:0:
320,192,120822,1,0,0:0:0:0:
448,192,120822,1,0,0:0:0:0:
192,192,120822,1,0,0:0:0:0:
64,192,120980,1,0,0:0:0:0:
448,192,120980,1,0,0:0:0:0:
192,192,120980,1,0,0:0:0:0:
320,192,120980,1,0,0:0:0:0:
192,192,121296,1,0,0:0:0:0:
64,192,121296,1,0,0:0:0:0:
448,192,121296,1,0,0:0:0:0:
320,192,121375,1,0,0:0:0:0:
192,192,121454,1,0,0:0:0:0:
64,192,121454,1,0,0:0:0:0:
448,192,121533,1,0,0:0:0:0:
320,192,121611,1,0,0:0:0:0:
64,192,121611,1,0,0:0:0:0:
192,192,121690,1,0,0:0:0:0:
448,192,121769,1,0,0:0:0:0:
64,192,121769,1,0,0:0:0:0:
192,192,121848,1,0,0:0:0:0:
320,192,121927,1,0,0:0:0:0:
64,192,121927,1,0,0:0:0:0:
448,192,122006,1,0,0:0:0:0:
320,192,122085,1,0,0:0:0:0:
192,192,122085,1,0,0:0:0:0:
64,192,122164,1,0,0:0:0:0:
192,192,122243,1,0,0:0:0:0:
448,192,122243,1,0,0:0:0:0:
320,192,122322,1,0,0:0:0:0:
64,192,122401,1,0,0:0:0:0:
448,192,122401,1,0,0:0:0:0:
320,192,122480,1,0,0:0:0:0:
192,192,122559,1,0,0:0:0:0:
448,192,122559,1,0,0:0:0:0:
64,192,122638,1,0,0:0:0:0:
192,192,122717,1,0,0:0:0:0:
320,192,122717,1,0,0:0:0:0:
448,192,122796,1,0,0:0:0:0:
320,192,122875,1,0,0:0:0:0:
64,192,122875,1,0,0:0:0:0:
192,192,122954,1,0,0:0:0:0:
448,192,123033,1,0,0:0:0:0:
64,192,123033,1,0,0:0:0:0:
192,192,123111,1,0,0:0:0:0:
320,192,123190,1,0,0:0:0:0:
64,192,123190,1,0,0:0:0:0:
448,192,123269,1,0,0:0:0:0:
320,192,123348,1,0,0:0:0:0:
192,192,123348,1,0,0:0:0:0:
64,192,123427,1,0,0:0:0:0:
192,192,123506,1,0,0:0:0:0:
448,192,123506,1,0,0:0:0:0:
320,192,123585,1,0,0:0:0:0:
64,192,123664,1,0,0:0:0:0:
448,192,123664,1,0,0:0:0:0:
320,192,123743,1,0,0:0:0:0:
192,192,123822,1,0,0:0:0:0:
448,192,123822,1,0,0:0:0:0:
64,192,123901,1,0,0:0:0:0:
192,192,123980,1,0,0:0:0:0:
320,192,123980,1,0,0:0:0:0:
448,192,124059,1,0,0:0:0:0:
320,192,124138,1,0,0:0:0:0:
64,192,124138,1,0,0:0:0:0:
192,192,124217,1,0,0:0:0:0:
448,192,124296,1,0,0:0:0:0:
64,192,124296,1,0,0:0:0:0:
192,192,124375,1,0,0:0:0:0:
320,192,124454,1,0,0:0:0:0:
64,192,124454,1,0,0:0:0:0:
448,192,124533,1,0,0:0:0:0:
320,192,124611,1,0,0:0:0:0:
192,192,124611,1,0,0:0:0:0:
64,192,124690,1,0,0:0:0:0:
192,192,124769,1,0,0:0:0:0:
448,192,124769,1,0,0:0:0:0:
320,192,124848,1,0,0:0:0:0:
64,192,124927,1,0,0:0:0:0:
448,192,124927,1,0,0:0:0:0:
320,192,125006,1,0,0:0:0:0:
192,192,125085,1,0,0:0:0:0:
64,192,125085,1,0,0:0:0:0:
448,192,125164,1,0,0:0:0:0:
192,192,125243,1,0,0:0:0:0:
320,192,125243,1,0,0:0:0:0:
64,192,125322,1,0,0:0:0:0:
320,192,125401,1,0,0:0:0:0:
448,192,125401,1,0,0:0:0:0:
64,192,125480,1,0,0:0:0:0:
320,192,125559,1,0,0:0:0:0:
192,192,125559,1,0,0:0:0:0:
448,192,125638,1,0,0:0:0:0:
192,192,125717,1,0,0:0:0:0:
64,192,125717,1,0,0:0:0:0:
448,192,125796,1,0,0:0:0:0:
320,192,125875,1,0,0:0:0:0:
192,192,125875,1,0,0:0:0:0:
64,192,125954,1,0,0:0:0:0:
448,192,126033,1,0,0:0:0:0:
320,192,126033,1,0,0:0:0:0:
192,192,126190,1,0,0:0:0:0:
320,192,126348,1,0,0:0:0:0:
448,192,126348,1,0,0:0:0:0:
64,192,126348,1,0,0:0:0:0:
192,192,126427,1,0,0:0:0:0:
320,192,126506,1,0,0:0:0:0:
448,192,126506,1,0,0:0:0:0:
64,192,126585,1,0,0:0:0:0:
192,192,126664,1,0,0:0:0:0:
448,192,126664,1,0,0:0:0:0:
320,192,126743,1,0,0:0:0:0:
64,192,126822,1,0,0:0:0:0:
448,192,126822,1,0,0:0:0:0:
320,192,126901,1,0,0:0:0:0:
192,192,126980,1,0,0:0:0:0:
448,192,126980,1,0,0:0:0:0:
64,192,127059,1,0,0:0:0:0:
192,192,127138,1,0,0:0:0:0:
320,192,127138,1,0,0:0:0:0:
448,192,127217,1,0,0:0:0:0:
320,192,127296,1,0,0:0:0:0:
64,192,127296,1,0,0:0:0:0:
192,192,127375,1,0,0:0:0:0:
448,192,127454,1,0,0:0:0:0:
64,192,127454,1,0,0:0:0:0:
192,192,127533,1,0,0:0:0:0:
320,192,127611,1,0,0:0:0:0:
64,192,127611,1,0,0:0:0:0:
448,192,127690,1,0,0:0:0:0:
320,192,127769,1,0,0:0:0:0:
192,192,127769,1,0,0:0:0:0:
64,192,127848,1,0,0:0:0:0:
192,192,127927,1,0,0:0:0:0:
448,192,127927,1,0,0:0:0:0:
320,192,128006,1,0,0:0:0:0:
64,192,128085,1,0,0:0:0:0:
448,192,128085,1,0,0:0:0:0:
320,192,128164,1,0,0:0:0:0:
192,192,128243,1,0,0:0:0:0:
448,192,128243,1,0,0:0:0:0:
64,192,128322,1,0,0:0:0:0:
192,192,128401,1,0,0:0:0:0:
320,192,128401,1,0,0:0:0:0:
448,192,128480,1,0,0:0:0:0:
320,192,128559,1,0,0:0:0:0:
64,192,128559,1,0,0:0:0:0:
192,192,128638,1,0,0:0:0:0:
448,192,128717,1,0,0:0:0:0:
64,192,128717,1,0,0:0:0:0:
192,192,128796,1,0,0:0:0:0:
320,192,128875,1,0,0:0:0:0:
64,192,128875,1,0,0:0:0:0:
448,192,129190,1,0,0:0:0:0:
64,192,129190,1,0,0:0:0:0:
320,192,129348,1,0,0:0:0:0:
320,192,129506,1,0,0:0:0:0:
192,192,129664,1,0,0:0:0:0:
320,192,129743,1,0,0:0:0:0:
448,192,129743,1,0,0:0:0:0:
192,192,129822,1,0,0:0:0:0:
64,192,129822,1,0,0:0:0:0:
320,192,129980,1,0,0:0:0:0:
448,192,130138,1,0,0:0:0:0:
64,192,130138,1,0,0:0:0:0:
320,192,130296,1,0,0:0:0:0:
192,192,130375,1,0,0:0:0:0:
64,192,130375,1,0,0:0:0:0:
320,192,130454,1,0,0:0:0:0:
448,192,130454,1,0,0:0:0:0:
192,192,130611,1,0,0:0:0:0:
448,192,130769,1,0,0:0:0:0:
64,192,130769,1,0,0:0:0:0:
320,192,130927,1,0,0:0:0:0:
192,192,131085,1,0,0:0:0:0:
64,192,131085,1,0,0:0:0:0:
320,192,131164,1,0,0:0:0:0:
448,192,131164,1,0,0:0:0:0:
64,192,131243,1,0,0:0:0:0:
320,192,131322,1,0,0:0:0:0:
448,192,131322,1,0,0:0:0:0:
192,192,131401,1,0,0:0:0:0:
320,192,131559,1,0,0:0:0:0:
192,192,131717,1,0,0:0:0:0:
64,192,131875,1,0,0:0:0:0:
448,192,132033,1,0,0:0:0:0:
320,192,132190,1,0,0:0:0:0:
448,192,132348,1,0,0:0:0:0:
64,192,132664,1,0,0:0:0:0:
192,192,132980,1,0,0:0:0:0:
192,192,133296,1,0,0:0:0:0:
320,192,133454,1,0,0:0:0:0:
448,192,133611,1,0,0:0:0:0:
320,192,133927,1,0,0:0:0:0:
448,192,134085,1,0,0:0:0:0:
320,192,134243,1,0,0:0:0:0:
448,192,134401,1,0,0:0:0:0:
320,192,134559,1,0,0:0:0:0:
192,192,134717,1,0,0:0:0:0:
64,192,134875,1,0,0:0:0:0:
64,192,135190,1,0,0:0:0:0:
192,192,135348,1,0,0:0:0:0:
320,192,135506,1,0,0:0:0:0:
192,192,135664,1,0,0:0:0:0:
448,192,135822,1,0,0:0:0:0:
320,192,135980,1,0,0:0:0:0:
64,192,136138,1,0,0:0:0:0:
192,192,136454,1,0,0:0:0:0:
320,192,136611,1,0,0:0:0:0:
192,192,136769,1,0,0:0:0:0:
64,192,136927,1,0,0:0:0:0:
448,192,137085,1,0,0:0:0:0:
320,192,137243,1,0,0:0:0:0:
448,192,137401,1,0,0:0:0:0:
192,192,137717,1,0,0:0:0:0:
320,192,137875,1,0,0:0:0:0:
192,192,138033,1,0,0:0:0:0:
64,192,138190,1,0,0:0:0:0:
448,192,138348,1,0,0:0:0:0:
320,192,138506,1,0,0:0:0:0:
448,192,138664,1,0,0:0:0:0:
64,192,138980,1,0,0:0:0:0:
192,192,139296,128,0,139927:0:0:0:0:
320,192,139927,1,0,0:0:0:0:
64,192,140243,1,0,0:0:0:0:
448,192,140559,1,0,0:0:0:0:
320,192,140875,1,0,0:0:0:0:
192,192,141190,1,0,0:0:0:0:
64,192,141506,1,0,0:0:0:0:
448,192,141506,1,0,0:0:0:0:
320,192,141559,1,0,0:0:0:0:
192,192,141611,1,0,0:0:0:0:
448,192,141664,1,0,0:0:0:0:
320,192,141717,1,0,0:0:0:0:
192,192,141769,1,0,0:0:0:0:
64,192,141822,1,0,0:0:0:0:
320,192,141875,1,0,0:0:0:0:
448,192,141927,1,0,0:0:0:0:
192,192,141980,1,0,0:0:0:0:
320,192,142033,1,0,0:0:0:0:
448,192,142085,1,0,0:0:0:0:
64,192,142138,128,0,142375:0:0:0:0:
192,192,142177,128,0,142375:0:0:0:0:
64,192,142454,128,0,142690:0:0:0:0:
192,192,142493,128,0,142690:0:0:0:0:
192,192,142769,128,0,143006:0:0:0:0:
320,192,142809,128,0,143006:0:0:0:0:
192,192,143085,128,0,143322:0:0:0:0:
320,192,143125,128,0,143322:0:0:0:0:
320,192,143401,128,0,143480:0:0:0:0:
448,192,143401,128,0,143480:0:0:0:0:
192,192,143480,1,0,0:0:0:0:
320,192,143559,128,0,143638:0:0:0:0:
448,192,143559,128,0,143638:0:0:0:0:
192,192,143638,1,0,0:0:0:0:
320,192,143717,128,0,143796:0:0:0:0:
448,192,143717,128,0,143796:0:0:0:0:
192,192,143796,1,0,0:0:0:0:
320,192,143875,128,0,143954:0:0:0:0:
448,192,143875,128,0,143954:0:0:0:0:
192,192,143954,1,0,0:0:0:0:
64,192,144033,1,0,0:0:0:0:
192,192,144072,1,0,0:0:0:0:
320,192,144111,1,0,0:0:0:0:
448,192,144348,1,0,0:0:0:0:
320,192,144388,1,0,0:0:0:0:
192,192,144427,1,0,0:0:0:0:
448,192,144506,1,0,0:0:0:0:
320,192,144546,1,0,0:0:0:0:
192,192,144585,1,0,0:0:0:0:
64,192,144664,1,0,0:0:0:0:
448,192,144664,1,0,0:0:0:0:
192,192,144704,1,0,0:0:0:0:
320,192,144743,1,0,0:0:0:0:
64,192,144980,1,0,0:0:0:0:
192,192,145019,1,0,0:0:0:0:
448,192,145059,1,0,0:0:0:0:
64,192,145296,1,0,0:0:0:0:
192,192,145335,1,0,0:0:0:0:
320,192,145375,1,0,0:0:0:0:
448,192,145454,1,0,0:0:0:0:
320,192,145493,1,0,0:0:0:0:
192,192,145533,1,0,0:0:0:0:
64,192,145611,1,0,0:0:0:0:
192,192,145651,1,0,0:0:0:0:
320,192,145690,1,0,0:0:0:0:
448,192,145769,1,0,0:0:0:0:
320,192,145809,1,0,0:0:0:0:
192,192,145848,1,0,0:0:0:0:
64,192,145927,1,0,0:0:0:0:
320,192,145927,1,0,0:0:0:0:
448,192,145980,1,0,0:0:0:0:
192,192,146033,1,0,0:0:0:0:
320,192,146085,1,0,0:0:0:0:
64,192,146138,1,0,0:0:0:0:
192,192,146190,1,0,0:0:0:0:
448,192,146243,1,0,0:0:0:0:
320,192,146296,1,0,0:0:0:0:
192,192,146348,1,0,0:0:0:0:
64,192,146401,1,0,0:0:0:0:
320,192,146454,1,0,0:0:0:0:
192,192,146506,1,0,0:0:0:0:
448,192,146559,128,0,146796:0:0:0:0:
64,192,146559,128,0,146796:0:0:0:0:
448,192,146875,1,0,0:0:0:0:
320,192,146914,1,0,0:0:0:0:
64,192,147033,1,0,0:0:0:0:
192,192,147072,1,0,0:0:0:0:
320,192,147190,1,0,0:0:0:0:
448,192,147190,1,0,0:0:0:0:
64,192,147230,1,0,0:0:0:0:
448,192,147348,1,0,0:0:0:0:
192,192,147388,1,0,0:0:0:0:
448,192,147506,1,0,0:0:0:0:
320,192,147559,1,0,0:0:0:0:
192,192,147611,1,0,0:0:0:0:
64,192,147664,1,0,0:0:0:0:
320,192,147717,1,0,0:0:0:0:
448,192,147769,1,0,0:0:0:0:
64,192,147822,1,0,0:0:0:0:
192,192,147861,1,0,0:0:0:0:
320,192,147901,1,0,0:0:0:0:
448,192,147940,1,0,0:0:0:0:
64,192,147980,1,0,0:0:0:0:
192,192,148019,1,0,0:0:0:0:
320,192,148059,1,0,0:0:0:0:
448,192,148098,1,0,0:0:0:0:
64,192,148138,1,0,0:0:0:0:
192,192,148190,1,0,0:0:0:0:
320,192,148243,1,0,0:0:0:0:
448,192,148296,1,0,0:0:0:0:
320,192,148348,1,0,0:0:0:0:
192,192,148401,1,0,0:0:0:0:
448,192,148454,1,0,0:0:0:0:
64,192,148454,1,0,0:0:0:0:
320,192,148506,1,0,0:0:0:0:
192,192,148559,1,0,0:0:0:0:
64,192,148611,1,0,0:0:0:0:
64,192,148769,1,0,0:0:0:0:
192,192,148822,1,0,0:0:0:0:
320,192,148875,1,0,0:0:0:0:
448,192,148927,1,0,0:0:0:0:
64,192,149085,128,0,149401:0:0:0:0:
192,192,149125,128,0,149401:0:0:0:0:
448,192,149401,128,0,149717:0:0:0:0:
320,192,149440,128,0,149717:0:0:0:0:
64,192,149717,128,0,149796:0:0:0:0:
192,192,149717,128,0,149796:0:0:0:0:
320,192,149796,1,0,0:0:0:0:
192,192,149875,128,0,149954:0:0:0:0:
64,192,149875,128,0,149954:0:0:0:0:
320,192,149954,1,0,0:0:0:0:
192,192,150033,128,0,150111:0:0:0:0:
64,192,150033,128,0,150111:0:0:0:0:
320,192,150111,1,0,0:0:0:0:
192,192,150190,128,0,150269:0:0:0:0:
64,192,150190,128,0,150269:0:0:0:0:
320,192,150269,1,0,0:0:0:0:
192,192,150348,1,0,0:0:0:0:
448,192,150348,1,0,0:0:0:0:
192,192,150506,1,0,0:0:0:0:
448,192,150506,1,0,0:0:0:0:
320,192,150664,1,0,0:0:0:0:
64,192,150664,1,0,0:0:0:0:
320,192,150822,1,0,0:0:0:0:
64,192,150822,1,0,0:0:0:0:
192,192,150980,1,0,0:0:0:0:
448,192,150980,1,0,0:0:0:0:
448,192,151138,1,0,0:0:0:0:
192,192,151138,1,0,0:0:0:0:
64,192,151296,1,0,0:0:0:0:
320,192,151296,128,0,151611:0:0:0:0:
192,192,151611,1,0,0:0:0:0:
64,192,151611,1,0,0:0:0:0:
448,192,151611,1,0,0:0:0:0:
192,192,151769,1,0,0:0:0:0:
448,192,151769,1,0,0:0:0:0:
64,192,151927,1,0,0:0:0:0:
320,192,151927,1,0,0:0:0:0:
448,192,151927,1,0,0:0:0:0:
320,192,152085,1,0,0:0:0:0:
192,192,152085,1,0,0:0:0:0:
192,192,152243,1,0,0:0:0:0:
448,192,152243,1,0,0:0:0:0:
320,192,152401,1,0,0:0:0:0:
64,192,152401,1,0,0:0:0:0:
64,192,152559,1,0,0:0:0:0:
192,192,152559,1,0,0:0:0:0:
448,192,152559,1,0,0:0:0:0:
320,192,152717,1,0,0:0:0:0:
448,192,152875,1,0,0:0:0:0:
64,192,152875,1,0,0:0:0:0:
192,192,153033,1,0,0:0:0:0:
320,192,153190,1,0,0:0:0:0:
448,192,153190,1,0,0:0:0:0:
64,192,153190,1,0,0:0:0:0:
320,192,153348,1,0,0:0:0:0:
64,192,153506,1,0,0:0:0:0:
448,192,153506,1,0,0:0:0:0:
320,192,153664,1,0,0:0:0:0:
64,192,153822,1,0,0:0:0:0:
448,192,153822,1,0,0:0:0:0:
192,192,153822,1,0,0:0:0:0:
192,192,153980,1,0,0:0:0:0:
64,192,154138,1,0,0:0:0:0:
192,192,154138,1,0,0:0:0:0:
320,192,154138,1,0,0:0:0:0:
448,192,154138,1,0,0:0:0:0:
320,192,154296,1,0,0:0:0:0:
448,192,154454,1,0,0:0:0:0:
64,192,154454,1,0,0:0:0:0:
192,192,154454,1,0,0:0:0:0:
320,192,154611,1,0,0:0:0:0:
64,192,154769,1,0,0:0:0:0:
448,192,154769,1,0,0:0:0:0:
192,192,154927,1,0,0:0:0:0:
320,192,155085,1,0,0:0:0:0:
64,192,155085,1,0,0:0:0:0:
448,192,155085,1,0,0:0:0:0:
192,192,155243,1,0,0:0:0:0:
64,192,155401,128,0,155480:0:0:0:0:
320,192,155401,128,0,155480:0:0:0:0:
64,192,155559,128,0,155638:0:0:0:0:
448,192,155559,128,0,155638:0:0:0:0:
64,192,155717,128,0,155796:0:0:0:0:
320,192,155717,128,0,155796:0:0:0:0:
192,192,155875,128,0,155954:0:0:0:0:
448,192,155875,128,0,155954:0:0:0:0:
64,192,156033,128,0,156111:0:0:0:0:
448,192,156033,128,0,156111:0:0:0:0:
320,192,156033,1,0,0:0:0:0:
192,192,156190,128,0,156269:0:0:0:0:
448,192,156190,128,0,156269:0:0:0:0:
320,192,156348,128,0,156506:0:0:0:0:
64,192,156348,128,0,156506:0:0:0:0:
448,192,156506,1,0,0:0:0:0:
192,192,156664,1,0,0:0:0:0:
448,192,156664,1,0,0:0:0:0:
64,192,156664,1,0,0:0:0:0:
320,192,156822,1,0,0:0:0:0:
64,192,156822,1,0,0:0:0:0:
448,192,156980,1,0,0:0:0:0:
192,192,156980,1,0,0:0:0:0:
64,192,156980,1,0,0:0:0:0:
320,192,157059,1,0,0:0:0:0:
448,192,157138,1,0,0:0:0:0:
64,192,157138,1,0,0:0:0:0:
320,192,157217,1,0,0:0:0:0:
448,192,157296,1,0,0:0:0:0:
192,192,157296,1,0,0:0:0:0:
320,192,157454,1,0,0:0:0:0:
64,192,157454,1,0,0:0:0:0:
64,192,157611,1,0,0:0:0:0:
192,192,157611,1,0,0:0:0:0:
448,192,157611,1,0,0:0:0:0:
192,192,157769,1,0,0:0:0:0:
64,192,157927,1,0,0:0:0:0:
448,192,157927,1,0,0:0:0:0:
320,192,158085,1,0,0:0:0:0:
64,192,158243,1,0,0:0:0:0:
448,192,158243,1,0,0:0:0:0:
192,192,158243,1,0,0:0:0:0:
192,192,158401,1,0,0:0:0:0:
64,192,158559,1,0,0:0:0:0:
448,192,158559,1,0,0:0:0:0:
320,192,158717,1,0,0:0:0:0:
192,192,158875,1,0,0:0:0:0:
448,192,158875,1,0,0:0:0:0:
64,192,158875,1,0,0:0:0:0:
192,192,159033,1,0,0:0:0:0:
64,192,159033,1,0,0:0:0:0:
64,192,159190,1,0,0:0:0:0:
320,192,159190,1,0,0:0:0:0:
192,192,159348,1,0,0:0:0:0:
320,192,159506,1,0,0:0:0:0:
448,192,159506,1,0,0:0:0:0:
64,192,159506,1,0,0:0:0:0:
320,192,159664,1,0,0:0:0:0:
64,192,159822,1,0,0:0:0:0:
192,192,159822,1,0,0:0:0:0:
448,192,159822,1,0,0:0:0:0:
192,192,159980,1,0,0:0:0:0:
448,192,159980,1,0,0:0:0:0:
320,192,160138,1,0,0:0:0:0:
64,192,160138,1,0,0:0:0:0:
448,192,160138,1,0,0:0:0:0:
320,192,160296,1,0,0:0:0:0:
64,192,160296,1,0,0:0:0:0:
64,192,160454,1,0,0:0:0:0:
448,192,160454,1,0,0:0:0:0:
320,192,160611,1,0,0:0:0:0:
448,192,160611,1,0,0:0:0:0:
192,192,160690,1,0,0:0:0:0:
64,192,160690,1,0,0:0:0:0:
320,192,160769,1,0,0:0:0:0:
320,192,160927,1,0,0:0:0:0:
64,192,161085,1,0,0:0:0:0:
448,192,161085,1,0,0:0:0:0:
192,192,161085,1,0,0:0:0:0:
320,192,161243,1,0,0:0:0:0:
192,192,161401,1,0,0:0:0:0:
64,192,161401,1,0,0:0:0:0:
448,192,161401,1,0,0:0:0:0:
320,192,161559,1,0,0:0:0:0:
64,192,161717,1,0,0:0:0:0:
448,192,161717,1,0,0:0:0:0:
192,192,161717,1,0,0:0:0:0:
320,192,161796,1,0,0:0:0:0:
192,192,161875,1,0,0:0:0:0:
64,192,161875,1,0,0:0:0:0:
448,192,161954,1,0,0:0:0:0:
320,192,162033,1,0,0:0:0:0:
64,192,162033,1,0,0:0:0:0:
192,192,162111,1,0,0:0:0:0:
320,192,162190,1,0,0:0:0:0:
448,192,162190,1,0,0:0:0:0:
64,192,162269,1,0,0:0:0:0:
192,192,162348,1,0,0:0:0:0:
448,192,162348,1,0,0:0:0:0:
320,192,162427,1,0,0:0:0:0:
64,192,162506,1,0,0:0:0:0:
448,192,162506,1,0,0:0:0:0:
320,192,162585,1,0,0:0:0:0:
192,192,162664,1,0,0:0:0:0:
448,192,162664,1,0,0:0:0:0:
64,192,162743,1,0,0:0:0:0:
320,192,162822,1,0,0:0:0:0:
448,192,162822,1,0,0:0:0:0:
192,192,162901,1,0,0:0:0:0:
64,192,162980,1,0,0:0:0:0:
320,192,162980,1,0,0:0:0:0:
448,192,163059,1,0,0:0:0:0:
192,192,163138,1,0,0:0:0:0:
320,192,163217,1,0,0:0:0:0:
192,192,163296,1,0,0:0:0:0:
448,192,163296,1,0,0:0:0:0:
64,192,163375,1,0,0:0:0:0:
320,192,163454,1,0,0:0:0:0:
192,192,163533,1,0,0:0:0:0:
320,192,163611,1,0,0:0:0:0:
64,192,163611,1,0,0:0:0:0:
448,192,163690,1,0,0:0:0:0:
192,192,163769,1,0,0:0:0:0:
320,192,163848,1,0,0:0:0:0:
192,192,163927,1,0,0:0:0:0:
448,192,163927,1,0,0:0:0:0:
64,192,164006,1,0,0:0:0:0:
320,192,164085,1,0,0:0:0:0:
192,192,164164,1,0,0:0:0:0:
448,192,164243,1,0,0:0:0:0:
64,192,164243,1,0,0:0:0:0:
320,192,164243,1,0,0:0:0:0:
192,192,164322,1,0,0:0:0:0:
448,192,164401,1,0,0:0:0:0:
64,192,164480,1,0,0:0:0:0:
192,192,164559,1,0,0:0:0:0:
448,192,164559,1,0,0:0:0:0:
320,192,164638,1,0,0:0:0:0:
64,192,164717,1,0,0:0:0:0:
448,192,164796,1,0,0:0:0:0:
320,192,164875,1,0,0:0:0:0:
64,192,164875,1,0,0:0:0:0:
192,192,164954,1,0,0:0:0:0:
448,192,165033,1,0,0:0:0:0:
64,192,165111,1,0,0:0:0:0:
192,192,165190,1,0,0:0:0:0:
448,192,165190,1,0,0:0:0:0:
320,192,165269,1,0,0:0:0:0:
64,192,165348,1,0,0:0:0:0:
192,192,165427,1,0,0:0:0:0:
448,192,165506,128,0,165585:0:0:0:0:
64,192,165506,128,0,165585:0:0:0:0:
192,192,165664,128,0,165743:0:0:0:0:
448,192,165664,128,0,165743:0:0:0:0:
448,192,165822,128,0,165901:0:0:0:0:
64,192,165822,128,0,165901:0:0:0:0:
64,192,165980,128,0,166059:0:0:0:0:
320,192,165980,128,0,166059:0:0:0:0:
192,192,166138,1,0,0:0:0:0:
64,192,166138,128,0,166217:0:0:0:0:
448,192,166138,128,0,166217:0:0:0:0:
320,192,166296,128,0,166375:0:0:0:0:
192,192,166296,128,0,166375:0:0:0:0:
320,192,166454,1,0,0:0:0:0:
448,192,166454,1,0,0:0:0:0:
192,192,166533,1,0,0:0:0:0:
64,192,166533,1,0,0:0:0:0:
320,192,166611,1,0,0:0:0:0:
448,192,166611,1,0,0:0:0:0:
64,192,166769,1,0,0:0:0:0:
192,192,166769,1,0,0:0:0:0:
448,192,166769,1,0,0:0:0:0:
320,192,166848,1,0,0:0:0:0:
192,192,166927,1,0,0:0:0:0:
64,192,166927,1,0,0:0:0:0:
448,192,166927,1,0,0:0:0:0:
320,192,167006,1,0,0:0:0:0:
64,192,167085,1,0,0:0:0:0:
448,192,167085,1,0,0:0:0:0:
192,192,167164,1,0,0:0:0:0:
320,192,167164,1,0,0:0:0:0:
64,192,167243,1,0,0:0:0:0:
448,192,167243,1,0,0:0:0:0:
192,192,167322,1,0,0:0:0:0:
320,192,167322,1,0,0:0:0:0:
64,192,167401,1,0,0:0:0:0:
448,192,167401,1,0,0:0:0:0:
192,192,167480,1,0,0:0:0:0:
320,192,167559,1,0,0:0:0:0:
448,192,167559,1,0,0:0:0:0:
64,192,167638,1,0,0:0:0:0:
192,192,167717,1,0,0:0:0:0:
320,192,167717,1,0,0:0:0:0:
448,192,167796,1,0,0:0:0:0:
192,192,167875,1,0,0:0:0:0:
64,192,167875,1,0,0:0:0:0:
320,192,167954,1,0,0:0:0:0:
448,192,168033,1,0,0:0:0:0:
192,192,168033,1,0,0:0:0:0:
64,192,168111,1,0,0:0:0:0:
320,192,168190,1,0,0:0:0:0:
192,192,168269,1,0,0:0:0:0:
320,192,168348,1,0,0:0:0:0:
64,192,168348,1,0,0:0:0:0:
448,192,168427,1,0,0:0:0:0:
192,192,168506,1,0,0:0:0:0:
320,192,168585,1,0,0:0:0:0:
192,192,168664,1,0,0:0:0:0:
448,192,168664,1,0,0:0:0:0:
64,192,168743,1,0,0:0:0:0:
320,192,168822,1,0,0:0:0:0:
192,192,168901,1,0,0:0:0:0:
320,192,168980,1,0,0:0:0:0:
64,192,168980,1,0,0:0:0:0:
448,192,169059,1,0,0:0:0:0:
192,192,169138,1,0,0:0:0:0:
320,192,169217,1,0,0:0:0:0:
64,192,169296,1,0,0:0:0:0:
448,192,169296,1,0,0:0:0:0:
192,192,169296,1,0,0:0:0:0:
320,192,169454,1,0,0:0:0:0:
64,192,169454,1,0,0:0:0:0:
192,192,169611,1,0,0:0:0:0:
448,192,169611,1,0,0:0:0:0:
320,192,169769,1,0,0:0:0:0:
64,192,169769,1,0,0:0:0:0:
448,192,169769,1,0,0:0:0:0:
192,192,169927,1,0,0:0:0:0:
320,192,169927,1,0,0:0:0:0:
448,192,169927,1,0,0:0:0:0:
64,192,170085,1,0,0:0:0:0:
192,192,170085,1,0,0:0:0:0:
320,192,170164,1,0,0:0:0:0:
448,192,170164,1,0,0:0:0:0:
192,192,170243,1,0,0:0:0:0:
64,192,170243,1,0,0:0:0:0:
192,192,170401,1,0,0:0:0:0:
64,192,170559,1,0,0:0:0:0:
320,192,170559,1,0,0:0:0:0:
448,192,170559,1,0,0:0:0:0:
320,192,170717,1,0,0:0:0:0:
192,192,170717,1,0,0:0:0:0:
192,192,170875,1,0,0:0:0:0:
64,192,170875,1,0,0:0:0:0:
448,192,170875,1,0,0:0:0:0:
192,192,171033,1,0,0:0:0:0:
320,192,171033,1,0,0:0:0:0:
320,192,171190,1,0,0:0:0:0:
448,192,171190,1,0,0:0:0:0:
192,192,171269,1,0,0:0:0:0:
64,192,171269,1,0,0:0:0:0:
320,192,171348,1,0,0:0:0:0:
448,192,171348,1,0,0:0:0:0:
192,192,171506,1,0,0:0:0:0:
320,192,171585,1,0,0:0:0:0:
192,192,171664,1,0,0:0:0:0:
320,192,171743,1,0,0:0:0:0:
192,192,171822,1,0,0:0:0:0:
448,192,171822,1,0,0:0:0:0:
64,192,171822,1,0,0:0:0:0:
320,192,171901,1,0,0:0:0:0:
64,192,171980,1,0,0:0:0:0:
448,192,171980,1,0,0:0:0:0:
192,192,172059,1,0,0:0:0:0:
320,192,172138,1,0,0:0:0:0:
64,192,172138,1,0,0:0:0:0:
192,192,172217,1,0,0:0:0:0:
320,192,172296,1,0,0:0:0:0:
448,192,172296,1,0,0:0:0:0:
192,192,172375,1,0,0:0:0:0:
64,192,172454,1,0,0:0:0:0:
448,192,172454,1,0,0:0:0:0:
320,192,172533,1,0,0:0:0:0:
192,192,172611,1,0,0:0:0:0:
448,192,172611,1,0,0:0:0:0:
320,192,172690,1,0,0:0:0:0:
64,192,172769,1,0,0:0:0:0:
192,192,172769,1,0,0:0:0:0:
448,192,172848,1,0,0:0:0:0:
320,192,172927,1,0,0:0:0:0:
192,192,173006,1,0,0:0:0:0:
64,192,173085,1,0,0:0:0:0:
320,192,173085,1,0,0:0:0:0:
192,192,173164,1,0,0:0:0:0:
64,192,173243,1,0,0:0:0:0:
320,192,173322,1,0,0:0:0:0:
192,192,173401,1,0,0:0:0:0:
448,192,173401,1,0,0:0:0:0:
320,192,173480,1,0,0:0:0:0:
448,192,173559,1,0,0:0:0:0:
192,192,173638,1,0,0:0:0:0:
64,192,173717,1,0,0:0:0:0:
320,192,173717,1,0,0:0:0:0:
192,192,173796,1,0,0:0:0:0:
64,192,173875,1,0,0:0:0:0:
448,192,173875,1,0,0:0:0:0:
320,192,173954,1,0,0:0:0:0:
192,192,174033,1,0,0:0:0:0:
448,192,174033,1,0,0:0:0:0:
320,192,174111,1,0,0:0:0:0:
192,192,174190,1,0,0:0:0:0:
64,192,174190,1,0,0:0:0:0:
320,192,174269,1,0,0:0:0:0:
448,192,174348,1,0,0:0:0:0:
64,192,174348,1,0,0:0:0:0:
192,192,174427,1,0,0:0:0:0:
64,192,174506,1,0,0:0:0:0:
320,192,174506,1,0,0:0:0:0:
192,192,174585,1,0,0:0:0:0:
448,192,174664,1,0,0:0:0:0:
320,192,174664,1,0,0:0:0:0:
192,192,174743,1,0,0:0:0:0:
64,192,174822,1,0,0:0:0:0:
448,192,174822,1,0,0:0:0:0:
320,192,174901,1,0,0:0:0:0:
192,192,174980,1,0,0:0:0:0:
448,192,174980,1,0,0:0:0:0:
320,192,175059,1,0,0:0:0:0:
192,192,175138,1,0,0:0:0:0:
64,192,175138,1,0,0:0:0:0:
320,192,175217,1,0,0:0:0:0:
64,192,175296,1,0,0:0:0:0:
448,192,175296,1,0,0:0:0:0:
192,192,175375,1,0,0:0:0:0:
320,192,175454,1,0,0:0:0:0:
64,192,175533,1,0,0:0:0:0:
448,192,175611,1,0,0:0:0:0:
192,192,175611,1,0,0:0:0:0:
64,192,175690,1,0,0:0:0:0:
192,192,175769,1,0,0:0:0:0:
320,192,175769,1,0,0:0:0:0:
448,192,175848,1,0,0:0:0:0:
64,192,175927,1,0,0:0:0:0:
320,192,175927,1,0,0:0:0:0:
192,192,176006,1,0,0:0:0:0:
448,192,176085,1,0,0:0:0:0:
64,192,176085,1,0,0:0:0:0:
320,192,176164,1,0,0:0:0:0:
192,192,176243,1,0,0:0:0:0:
448,192,176243,1,0,0:0:0:0:
64,192,176322,1,0,0:0:0:0:
320,192,176401,1,0,0:0:0:0:
448,192,176401,1,0,0:0:0:0:
192,192,176480,1,0,0:0:0:0:
64,192,176480,1,0,0:0:0:0:
320,192,176559,1,0,0:0:0:0:
448,192,176559,1,0,0:0:0:0:
192,192,176717,1,0,0:0:0:0:
64,192,176875,1,0,0:0:0:0:
448,192,176875,1,0,0:0:0:0:
320,192,176875,1,0,0:0:0:0:
192,192,176954,1,0,0:0:0:0:
448,192,177033,1,0,0:0:0:0:
64,192,177033,1,0,0:0:0:0:
320,192,177111,1,0,0:0:0:0:
192,192,177190,1,0,0:0:0:0:
448,192,177190,1,0,0:0:0:0:
320,192,177269,1,0,0:0:0:0:
192,192,177348,1,0,0:0:0:0:
64,192,177348,1,0,0:0:0:0:
320,192,177427,1,0,0:0:0:0:
448,192,177506,1,0,0:0:0:0:
64,192,177506,1,0,0:0:0:0:
192,192,177585,1,0,0:0:0:0:
320,192,177664,1,0,0:0:0:0:
64,192,177664,1,0,0:0:0:0:
192,192,177743,1,0,0:0:0:0:
448,192,177822,1,0,0:0:0:0:
320,192,177822,1,0,0:0:0:0:
64,192,177901,1,0,0:0:0:0:
192,192,177980,1,0,0:0:0:0:
320,192,178059,1,0,0:0:0:0:
192,192,178138,1,0,0:0:0:0:
64,192,178138,1,0,0:0:0:0:
448,192,178138,1,0,0:0:0:0:
320,192,178217,1,0,0:0:0:0:
448,192,178296,1,0,0:0:0:0:
64,192,178296,1,0,0:0:0:0:
192,192,178375,1,0,0:0:0:0:
64,192,178454,1,0,0:0:0:0:
320,192,178454,1,0,0:0:0:0:
192,192,178533,1,0,0:0:0:0:
448,192,178611,1,0,0:0:0:0:
320,192,178611,1,0,0:0:0:0:
192,192,178690,1,0,0:0:0:0:
448,192,178769,1,0,0:0:0:0:
64,192,178769,1,0,0:0:0:0:
320,192,178848,1,0,0:0:0:0:
448,192,178927,1,0,0:0:0:0:
192,192,178927,1,0,0:0:0:0:
320,192,179006,1,0,0:0:0:0:
192,192,179085,1,0,0:0:0:0:
64,192,179085,1,0,0:0:0:0:
448,192,179164,1,0,0:0:0:0:
320,192,179243,1,0,0:0:0:0:
64,192,179243,1,0,0:0:0:0:
192,192,179322,1,0,0:0:0:0:
64,192,179401,1,0,0:0:0:0:
448,192,179401,1,0,0:0:0:0:
320,192,179559,1,0,0:0:0:0:
64,192,179717,1,0,0:0:0:0:
192,192,179717,1,0,0:0:0:0:
448,192,179717,1,0,0:0:0:0:
192,192,179875,1,0,0:0:0:0:
64,192,180033,1,0,0:0:0:0:
448,192,180033,1,0,0:0:0:0:
320,192,180033,1,0,0:0:0:0:
320,192,180190,1,0,0:0:0:0:
64,192,180348,1,0,0:0:0:0:
192,192,180348,1,0,0:0:0:0:
448,192,180348,1,0,0:0:0:0:
320,192,180506,1,0,0:0:0:0:
192,192,180585,1,0,0:0:0:0:
320,192,180664,1,0,0:0:0:0:
64,192,180664,1,0,0:0:0:0:
448,192,180664,1,0,0:0:0:0:
192,192,180822,1,0,0:0:0:0:
64,192,180980,1,0,0:0:0:0:
448,192,180980,1,0,0:0:0:0:
320,192,180980,1,0,0:0:0:0:
192,192,181138,1,0,0:0:0:0:
64,192,181296,1,0,0:0:0:0:
448,192,181296,1,0,0:0:0:0:
320,192,181296,1,0,0:0:0:0:
64,192,181454,1,0,0:0:0:0:
448,192,181454,1,0,0:0:0:0:
320,192,181533,1,0,0:0:0:0:
192,192,181533,1,0,0:0:0:0:
448,192,181611,1,0,0:0:0:0:
64,192,181611,1,0,0:0:0:0:
192,192,181769,1,0,0:0:0:0:
448,192,181927,1,0,0:0:0:0:
320,192,181927,1,0,0:0:0:0:
192,192,181927,1,0,0:0:0:0:
64,192,182006,1,0,0:0:0:0:
320,192,182085,1,0,0:0:0:0:
192,192,182085,1,0,0:0:0:0:
448,192,182164,1,0,0:0:0:0:
320,192,182243,1,0,0:0:0:0:
64,192,182243,1,0,0:0:0:0:
448,192,182322,1,0,0:0:0:0:
192,192,182401,1,0,0:0:0:0:
64,192,182401,1,0,0:0:0:0:
448,192,182480,1,0,0:0:0:0:
320,192,182559,1,0,0:0:0:0:
192,192,182559,1,0,0:0:0:0:
64,192,182638,1,0,0:0:0:0:
448,192,182717,1,0,0:0:0:0:
192,192,182717,1,0,0:0:0:0:
64,192,182796,1,0,0:0:0:0:
320,192,182875,1,0,0:0:0:0:
448,192,182875,1,0,0:0:0:0:
192,192,182954,1,0,0:0:0:0:
64,192,183033,1,0,0:0:0:0:
448,192,183111,1,0,0:0:0:0:
320,192,183190,1,0,0:0:0:0:
64,192,183190,1,0,0:0:0:0:
448,192,183269,1,0,0:0:0:0:
320,192,183348,1,0,0:0:0:0:
64,192,183427,1,0,0:0:0:0:
448,192,183506,1,0,0:0:0:0:
192,192,183506,1,0,0:0:0:0:
64,192,183585,1,0,0:0:0:0:
192,192,183664,1,0,0:0:0:0:
448,192,183743,1,0,0:0:0:0:
320,192,183822,1,0,0:0:0:0:
64,192,183822,1,0,0:0:0:0:
448,192,183901,1,0,0:0:0:0:
320,192,183980,1,0,0:0:0:0:
192,192,183980,1,0,0:0:0:0:
64,192,184059,1,0,0:0:0:0:
448,192,184138,1,0,0:0:0:0:
192,192,184138,1,0,0:0:0:0:
64,192,184217,1,0,0:0:0:0:
448,192,184296,1,0,0:0:0:0:
320,192,184296,1,0,0:0:0:0:
64,192,184375,1,0,0:0:0:0:
320,192,184454,1,0,0:0:0:0:
192,192,184454,1,0,0:0:0:0:
448,192,184533,1,0,0:0:0:0:
320,192,184611,1,0,0:0:0:0:
64,192,184611,1,0,0:0:0:0:
448,192,184690,1,0,0:0:0:0:
64,192,184769,1,0,0:0:0:0:
192,192,184769,1,0,0:0:0:0:
448,192,184848,1,0,0:0:0:0:
320,192,184927,1,0,0:0:0:0:
192,192,184927,1,0,0:0:0:0:
64,192,185006,1,0,0:0:0:0:
448,192,185085,1,0,0:0:0:0:
192,192,185085,1,0,0:0:0:0:
64,192,185164,1,0,0:0:0:0:
448,192,185243,1,0,0:0:0:0:
320,192,185243,1,0,0:0:0:0:
64,192,185322,1,0,0:0:0:0:
320,192,185401,1,0,0:0:0:0:
192,192,185401,1,0,0:0:0:0:
448,192,185480,1,0,0:0:0:0:
64,192,185559,1,0,0:0:0:0:
320,192,185638,1,0,0:0:0:0:
448,192,185717,1,0,0:0:0:0:
192,192,185717,1,0,0:0:0:0:
320,192,185796,1,0,0:0:0:0:
448,192,185875,1,0,0:0:0:0:
64,192,185875,1,0,0:0:0:0:
192,192,185954,1,0,0:0:0:0:
320,192,186033,1,0,0:0:0:0:
64,192,186033,1,0,0:0:0:0:
448,192,186111,1,0,0:0:0:0:
320,192,186190,1,0,0:0:0:0:
192,192,186190,1,0,0:0:0:0:
64,192,186269,1,0,0:0:0:0:
448,192,186348,1,0,0:0:0:0:
192,192,186348,1,0,0:0:0:0:
320,192,186427,1,0,0:0:0:0:
192,192,186506,1,0,0:0:0:0:
64,192,186506,1,0,0:0:0:0:
448,192,186585,1,0,0:0:0:0:
320,192,186585,1,0,0:0:0:0:
192,192,186664,1,0,0:0:0:0:
64,192,186664,1,0,0:0:0:0:
448,192,186822,1,0,0:0:0:0:
320,192,186980,1,0,0:0:0:0:
64,192,186980,1,0,0:0:0:0:
192,192,186980,1,0,0:0:0:0:
448,192,187059,1,0,0:0:0:0:
320,192,187138,1,0,0:0:0:0:
192,192,187138,1,0,0:0:0:0:
64,192,187217,1,0,0:0:0:0:
448,192,187296,1,0,0:0:0:0:
192,192,187296,1,0,0:0:0:0:
64,192,187375,1,0,0:0:0:0:
448,192,187454,1,0,0:0:0:0:
320,192,187454,1,0,0:0:0:0:
64,192,187533,1,0,0:0:0:0:
320,192,187611,1,0,0:0:0:0:
192,192,187611,1,0,0:0:0:0:
448,192,187690,1,0,0:0:0:0:
320,192,187769,1,0,0:0:0:0:
64,192,187769,1,0,0:0:0:0:
448,192,187848,1,0,0:0:0:0:
64,192,187927,1,0,0:0:0:0:
192,192,187927,1,0,0:0:0:0:
320,192,188006,1,0,0:0:0:0:
448,192,188085,1,0,0:0:0:0:
64,192,188164,1,0,0:0:0:0:
448,192,188243,1,0,0:0:0:0:
320,192,188243,1,0,0:0:0:0:
192,192,188243,1,0,0:0:0:0:
64,192,188322,1,0,0:0:0:0:
320,192,188401,1,0,0:0:0:0:
192,192,188401,1,0,0:0:0:0:
448,192,188480,1,0,0:0:0:0:
320,192,188559,1,0,0:0:0:0:
64,192,188559,1,0,0:0:0:0:
448,192,188638,1,0,0:0:0:0:
64,192,188717,1,0,0:0:0:0:
192,192,188717,1,0,0:0:0:0:
448,192,188796,1,0,0:0:0:0:
320,192,188875,1,0,0:0:0:0:
192,192,188875,1,0,0:0:0:0:
64,192,188954,1,0,0:0:0:0:
448,192,189033,1,0,0:0:0:0:
192,192,189033,1,0,0:0:0:0:
64,192,189111,1,0,0:0:0:0:
448,192,189190,1,0,0:0:0:0:
320,192,189190,1,0,0:0:0:0:
192,192,189269,1,0,0:0:0:0:
320,192,189348,1,0,0:0:0:0:
64,192,189348,1,0,0:0:0:0:
448,192,189427,1,0,0:0:0:0:
320,192,189506,1,0,0:0:0:0:
192,192,189506,1,0,0:0:0:0:
64,192,189664,1,0,0:0:0:0:
320,192,189822,1,0,0:0:0:0:
448,192,189822,1,0,0:0:0:0:
192,192,189822,1,0,0:0:0:0:
448,192,189980,1,0,0:0:0:0:
320,192,190138,1,0,0:0:0:0:
64,192,190138,1,0,0:0:0:0:
192,192,190138,1,0,0:0:0:0:
64,192,190296,1,0,0:0:0:0:
448,192,190296,1,0,0:0:0:0:
320,192,190454,1,0,0:0:0:0:
448,192,190454,1,0,0:0:0:0:
192,192,190454,1,0,0:0:0:0:
64,192,190611,1,0,0:0:0:0:
448,192,190690,1,0,0:0:0:0:
320,192,190769,1,0,0:0:0:0:
192,192,190769,1,0,0:0:0:0:
64,192,190769,1,0,0:0:0:0:
64,192,190927,1,0,0:0:0:0:
320,192,191085,1,0,0:0:0:0:
448,192,191085,1,0,0:0:0:0:
192,192,191085,1,0,0:0:0:0:
448,192,191243,1,0,0:0:0:0:
320,192,191401,1,0,0:0:0:0:
64,192,191401,1,0,0:0:0:0:
192,192,191401,1,0,0:0:0:0:
448,192,191559,1,0,0:0:0:0:
64,192,191559,1,0,0:0:0:0:
320,192,191638,1,0,0:0:0:0:
192,192,191638,1,0,0:0:0:0:
448,192,191717,1,0,0:0:0:0:
64,192,191717,1,0,0:0:0:0:
320,192,191875,1,0,0:0:0:0:
64,192,192033,1,0,0:0:0:0:
192,192,192033,1,0,0:0:0:0:
448,192,192033,1,0,0:0:0:0:
320,192,192190,1,0,0:0:0:0:
64,192,192348,1,0,0:0:0:0:
448,192,192348,1,0,0:0:0:0:
192,192,192506,1,0,0:0:0:0:
320,192,192664,1,0,0:0:0:0:
64,192,192822,1,0,0:0:0:0:
192,192,192822,1,0,0:0:0:0:
448,192,192980,1,0,0:0:0:0:
320,192,193138,1,0,0:0:0:0:
192,192,193296,1,0,0:0:0:0:
448,192,193296,1,0,0:0:0:0:
320,192,193454,1,0,0:0:0:0:
192,192,193611,1,0,0:0:0:0:
64,192,193769,1,0,0:0:0:0:
448,192,193769,1,0,0:0:0:0:
320,192,193927,1,0,0:0:0:0:
192,192,194085,1,0,0:0:0:0:
64,192,194243,1,0,0:0:0:0:
320,192,194243,1,0,0:0:0:0:
320,192,194401,1,0,0:0:0:0:
448,192,194559,1,0,0:0:0:0:
192,192,194559,1,0,0:0:0:0:
64,192,194559,1,0,0:0:0:0:
320,192,194717,1,0,0:0:0:0:
448,192,194875,1,0,0:0:0:0:
64,192,194875,1,0,0:0:0:0:
192,192,195033,1,0,0:0:0:0:
320,192,195190,1,0,0:0:0:0:
192,192,195348,1,0,0:0:0:0:
64,192,195348,1,0,0:0:0:0:
448,192,195506,1,0,0:0:0:0:
320,192,195664,1,0,0:0:0:0:
448,192,195822,1,0,0:0:0:0:
64,192,195822,1,0,0:0:0:0:
192,192,195980,1,0,0:0:0:0:
64,192,195980,1,0,0:0:0:0:
192,192,196138,1,0,0:0:0:0:
64,192,196138,1,0,0:0:0:0:
64,192,196296,1,0,0:0:0:0:
192,192,196296,1,0,0:0:0:0:
448,192,196454,1,0,0:0:0:0:
320,192,196506,1,0,0:0:0:0:
192,192,196559,1,0,0:0:0:0:
64,192,196611,1,0,0:0:0:0:
448,192,196664,1,0,0:0:0:0:
320,192,196717,1,0,0:0:0:0:
192,192,196769,1,0,0:0:0:0:
448,192,196848,1,0,0:0:0:0:
320,192,196927,1,0,0:0:0:0:
448,192,197085,1,0,0:0:0:0:
64,192,197085,1,0,0:0:0:0:
192,192,197085,1,0,0:0:0:0:
320,192,197164,1,0,0:0:0:0:
192,192,197243,1,0,0:0:0:0:
320,192,197322,1,0,0:0:0:0:
64,192,197401,1,0,0:0:0:0:
448,192,197401,1,0,0:0:0:0:
192,192,197480,1,0,0:0:0:0:
320,192,197559,1,0,0:0:0:0:
192,192,197638,1,0,0:0:0:0:
448,192,197717,1,0,0:0:0:0:
320,192,197796,1,0,0:0:0:0:
192,192,197875,1,0,0:0:0:0:
64,192,197875,1,0,0:0:0:0:
320,192,197954,1,0,0:0:0:0:
448,192,198033,1,0,0:0:0:0:
192,192,198111,1,0,0:0:0:0:
320,192,198190,1,0,0:0:0:0:
64,192,198269,1,0,0:0:0:0:
448,192,198348,1,0,0:0:0:0:
192,192,198348,1,0,0:0:0:0:
320,192,198427,1,0,0:0:0:0:
192,192,198506,1,0,0:0:0:0:
64,192,198585,1,0,0:0:0:0:
320,192,198664,1,0,0:0:0:0:
192,192,198743,1,0,0:0:0:0:
64,192,198822,1,0,0:0:0:0:
448,192,198822,1,0,0:0:0:0:
320,192,198901,1,0,0:0:0:0:
192,192,198980,1,0,0:0:0:0:
320,192,199059,1,0,0:0:0:0:
64,192,199138,1,0,0:0:0:0:
448,192,199138,1,0,0:0:0:0:
192,192,199217,1,0,0:0:0:0:
320,192,199217,1,0,0:0:0:0:
64,192,199296,1,0,0:0:0:0:
448,192,199296,1,0,0:0:0:0:
64,192,199454,1,0,0:0:0:0:
448,192,199454,1,0,0:0:0:0:
192,192,199611,1,0,0:0:0:0:
64,192,199611,1,0,0:0:0:0:
320,192,199690,1,0,0:0:0:0:
192,192,199769,1,0,0:0:0:0:
64,192,199769,1,0,0:0:0:0:
320,192,199848,1,0,0:0:0:0:
448,192,199848,1,0,0:0:0:0:
192,192,199927,1,0,0:0:0:0:
448,192,200006,1,0,0:0:0:0:
64,192,200006,1,0,0:0:0:0:
192,192,200085,1,0,0:0:0:0:
320,192,200085,1,0,0:0:0:0:
64,192,200164,1,0,0:0:0:0:
320,192,200243,1,0,0:0:0:0:
192,192,200243,1,0,0:0:0:0:
448,192,200243,1,0,0:0:0:0:
64,192,200401,1,0,0:0:0:0:
64,192,200480,1,0,0:0:0:0:
320,192,200559,1,0,0:0:0:0:
448,192,200559,1,0,0:0:0:0:
192,192,200638,1,0,0:0:0:0:
64,192,200638,1,0,0:0:0:0:
320,192,200717,1,0,0:0:0:0:
448,192,200717,1,0,0:0:0:0:
320,192,200796,1,0,0:0:0:0:
64,192,200875,1,0,0:0:0:0:
192,192,200875,1,0,0:0:0:0:
320,192,200954,1,0,0:0:0:0:
448,192,200954,1,0,0:0:0:0:
64,192,201033,1,0,0:0:0:0:
320,192,201111,1,0,0:0:0:0:
192,192,201190,1,0,0:0:0:0:
64,192,201190,1,0,0:0:0:0:
320,192,201269,1,0,0:0:0:0:
448,192,201269,1,0,0:0:0:0:
192,192,201348,1,0,0:0:0:0:
448,192,201427,1,0,0:0:0:0:
64,192,201506,1,0,0:0:0:0:
320,192,201506,1,0,0:0:0:0:
448,192,201585,1,0,0:0:0:0:
192,192,201585,1,0,0:0:0:0:
320,192,201664,1,0,0:0:0:0:
64,192,201664,1,0,0:0:0:0:
192,192,201743,1,0,0:0:0:0:
64,192,201822,1,0,0:0:0:0:
448,192,201822,1,0,0:0:0:0:
320,192,202138,1,0,0:0:0:0:
192,192,202138,1,0,0:0:0:0:
64,192,202138,1,0,0:0:0:0:
448,192,202217,1,0,0:0:0:0:
192,192,202296,1,0,0:0:0:0:
64,192,202296,1,0,0:0:0:0:
320,192,202375,1,0,0:0:0:0:
64,192,202454,1,0,0:0:0:0:
448,192,202454,1,0,0:0:0:0:
192,192,202533,1,0,0:0:0:0:
64,192,202611,1,0,0:0:0:0:
320,192,202611,1,0,0:0:0:0:
448,192,202690,1,0,0:0:0:0:
64,192,202769,1,0,0:0:0:0:
192,192,202769,1,0,0:0:0:0:
320,192,202848,1,0,0:0:0:0:
448,192,202927,1,0,0:0:0:0:
192,192,202927,1,0,0:0:0:0:
320,192,203006,1,0,0:0:0:0:
448,192,203085,1,0,0:0:0:0:
64,192,203085,1,0,0:0:0:0:
192,192,203164,1,0,0:0:0:0:
320,192,203243,1,0,0:0:0:0:
448,192,203243,1,0,0:0:0:0:
192,192,203322,1,0,0:0:0:0:
64,192,203401,1,0,0:0:0:0:
320,192,203401,1,0,0:0:0:0:
448,192,203480,1,0,0:0:0:0:
192,192,203559,1,0,0:0:0:0:
64,192,203559,1,0,0:0:0:0:
320,192,203638,1,0,0:0:0:0:
448,192,203717,1,0,0:0:0:0:
64,192,203717,1,0,0:0:0:0:
192,192,203796,1,0,0:0:0:0:
320,192,203875,1,0,0:0:0:0:
64,192,203875,1,0,0:0:0:0:
192,192,203954,1,0,0:0:0:0:
448,192,204033,1,0,0:0:0:0:
320,192,204033,1,0,0:0:0:0:
64,192,204111,1,0,0:0:0:0:
192,192,204190,1,0,0:0:0:0:
448,192,204190,1,0,0:0:0:0:
320,192,204269,1,0,0:0:0:0:
448,192,204348,1,0,0:0:0:0:
64,192,204348,1,0,0:0:0:0:
192,192,204427,1,0,0:0:0:0:
320,192,204506,1,0,0:0:0:0:
448,192,204506,1,0,0:0:0:0:
64,192,204585,1,0,0:0:0:0:
192,192,204664,1,0,0:0:0:0:
320,192,204664,1,0,0:0:0:0:
448,192,204664,1,0,0:0:0:0:
64,192,204743,1,0,0:0:0:0:
320,192,204822,1,0,0:0:0:0:
448,192,204822,1,0,0:0:0:0:
192,192,204901,1,0,0:0:0:0:
448,192,204980,1,0,0:0:0:0:
64,192,204980,1,0,0:0:0:0:
320,192,205059,1,0,0:0:0:0:
448,192,205138,1,0,0:0:0:0:
192,192,205138,1,0,0:0:0:0:
64,192,205217,1,0,0:0:0:0:
448,192,205296,1,0,0:0:0:0:
320,192,205296,1,0,0:0:0:0:
192,192,205375,1,0,0:0:0:0:
64,192,205454,1,0,0:0:0:0:
320,192,205454,1,0,0:0:0:0:
192,192,205533,1,0,0:0:0:0:
64,192,205611,1,0,0:0:0:0:
448,192,205611,1,0,0:0:0:0:
320,192,205690,1,0,0:0:0:0:
192,192,205769,1,0,0:0:0:0:
64,192,205769,1,0,0:0:0:0:
320,192,205848,1,0,0:0:0:0:
448,192,205927,1,0,0:0:0:0:
64,192,205927,1,0,0:0:0:0:
192,192,206006,1,0,0:0:0:0:
448,192,206085,1,0,0:0:0:0:
320,192,206085,1,0,0:0:0:0:
192,192,206164,1,0,0:0:0:0:
448,192,206243,1,0,0:0:0:0:
320,192,206243,1,0,0:0:0:0:
64,192,206322,1,0,0:0:0:0:
448,192,206401,1,0,0:0:0:0:
192,192,206401,1,0,0:0:0:0:
320,192,206480,1,0,0:0:0:0:
448,192,206559,1,0,0:0:0:0:
64,192,206559,1,0,0:0:0:0:
192,192,206611,1,0,0:0:0:0:
320,192,206664,1,0,0:0:0:0:
448,192,206717,1,0,0:0:0:0:
64,192,206769,1,0,0:0:0:0:
192,192,206822,1,0,0:0:0:0:
320,192,206875,1,0,0:0:0:0:
64,192,206954,1,0,0:0:0:0:
448,192,207033,1,0,0:0:0:0:
320,192,207190,1,0,0:0:0:0:
192,192,207190,1,0,0:0:0:0:
64,192,207190,1,0,0:0:0:0:
448,192,207269,1,0,0:0:0:0:
192,192,207348,1,0,0:0:0:0:
64,192,207348,1,0,0:0:0:0:
320,192,207427,1,0,0:0:0:0:
64,192,207506,1,0,0:0:0:0:
448,192,207506,1,0,0:0:0:0:
192,192,207585,1,0,0:0:0:0:
64,192,207664,1,0,0:0:0:0:
320,192,207664,1,0,0:0:0:0:
448,192,207743,1,0,0:0:0:0:
64,192,207822,1,0,0:0:0:0:
192,192,207822,1,0,0:0:0:0:
320,192,207901,1,0,0:0:0:0:
448,192,207980,1,0,0:0:0:0:
192,192,207980,1,0,0:0:0:0:
320,192,208059,1,0,0:0:0:0:
448,192,208138,1,0,0:0:0:0:
64,192,208138,1,0,0:0:0:0:
192,192,208217,1,0,0:0:0:0:
320,192,208296,1,0,0:0:0:0:
448,192,208296,1,0,0:0:0:0:
192,192,208375,1,0,0:0:0:0:
64,192,208454,1,0,0:0:0:0:
320,192,208454,1,0,0:0:0:0:
448,192,208533,1,0,0:0:0:0:
192,192,208611,1,0,0:0:0:0:
64,192,208611,1,0,0:0:0:0:
320,192,208690,1,0,0:0:0:0:
448,192,208769,1,0,0:0:0:0:
64,192,208769,1,0,0:0:0:0:
192,192,208848,1,0,0:0:0:0:
320,192,208927,1,0,0:0:0:0:
64,192,208927,1,0,0:0:0:0:
192,192,209006,1,0,0:0:0:0:
448,192,209085,1,0,0:0:0:0:
320,192,209085,1,0,0:0:0:0:
64,192,209164,1,0,0:0:0:0:
192,192,209243,1,0,0:0:0:0:
448,192,209243,1,0,0:0:0:0:
320,192,209322,1,0,0:0:0:0:
448,192,209401,1,0,0:0:0:0:
64,192,209401,1,0,0:0:0:0:
192,192,209480,1,0,0:0:0:0:
320,192,209559,1,0,0:0:0:0:
448,192,209559,1,0,0:0:0:0:
192,192,209638,1,0,0:0:0:0:
320,192,209717,1,0,0:0:0:0:
448,192,209717,1,0,0:0:0:0:
64,192,209717,1,0,0:0:0:0:
192,192,209875,1,0,0:0:0:0:
320,192,210033,1,0,0:0:0:0:
64,192,210190,1,0,0:0:0:0:
192,192,210190,1,0,0:0:0:0:
64,192,210348,1,0,0:0:0:0:
320,192,210348,1,0,0:0:0:0:
192,192,210348,1,0,0:0:0:0:
448,192,210506,1,0,0:0:0:0:
320,192,210506,1,0,0:0:0:0:
192,192,210585,1,0,0:0:0:0:
64,192,210585,1,0,0:0:0:0:
320,192,210664,1,0,0:0:0:0:
448,192,210664,1,0,0:0:0:0:
320,192,210822,1,0,0:0:0:0:
448,192,210822,1,0,0:0:0:0:
64,192,210980,1,0,0:0:0:0:
320,192,211059,1,0,0:0:0:0:
64,192,211138,1,0,0:0:0:0:
320,192,211217,1,0,0:0:0:0:
192,192,211296,1,0,0:0:0:0:
448,192,211375,1,0,0:0:0:0:
192,192,211454,1,0,0:0:0:0:
64,192,211454,1,0,0:0:0:0:
320,192,211454,1,0,0:0:0:0:
448,192,211533,1,0,0:0:0:0:
64,192,211611,1,0,0:0:0:0:
320,192,211690,1,0,0:0:0:0:
192,192,211769,1,0,0:0:0:0:
64,192,211769,1,0,0:0:0:0:
448,192,211769,1,0,0:0:0:0:
320,192,211848,1,0,0:0:0:0:
192,192,211927,1,0,0:0:0:0:
448,192,212006,1,0,0:0:0:0:
192,192,212085,1,0,0:0:0:0:
448,192,212164,1,0,0:0:0:0:
64,192,212243,1,0,0:0:0:0:
192,192,212243,1,0,0:0:0:0:
320,192,212243,1,0,0:0:0:0:
448,192,212322,1,0,0:0:0:0:
64,192,212401,1,0,0:0:0:0:
192,192,212401,1,0,0:0:0:0:
448,192,212480,1,0,0:0:0:0:
320,192,212559,1,0,0:0:0:0:
192,192,212559,1,0,0:0:0:0:
448,192,212638,1,0,0:0:0:0:
64,192,212717,1,0,0:0:0:0:
192,192,212717,1,0,0:0:0:0:
320,192,212796,1,0,0:0:0:0:
448,192,212875,1,0,0:0:0:0:
64,192,212875,1,0,0:0:0:0:
192,192,212954,1,0,0:0:0:0:
448,192,213033,1,0,0:0:0:0:
320,192,213033,1,0,0:0:0:0:
64,192,213111,1,0,0:0:0:0:
192,192,213190,1,0,0:0:0:0:
320,192,213190,1,0,0:0:0:0:
64,192,213269,1,0,0:0:0:0:
448,192,213348,1,0,0:0:0:0:
320,192,213348,1,0,0:0:0:0:
192,192,213427,1,0,0:0:0:0:
448,192,213506,1,0,0:0:0:0:
64,192,213506,1,0,0:0:0:0:
320,192,213585,1,0,0:0:0:0:
192,192,213664,1,0,0:0:0:0:
448,192,213664,1,0,0:0:0:0:
64,192,213743,1,0,0:0:0:0:
192,192,213822,1,0,0:0:0:0:
320,192,213822,1,0,0:0:0:0:
448,192,213901,1,0,0:0:0:0:
64,192,213980,1,0,0:0:0:0:
320,192,213980,1,0,0:0:0:0:
192,192,214059,1,0,0:0:0:0:
64,192,214138,1,0,0:0:0:0:
448,192,214138,1,0,0:0:0:0:
320,192,214217,1,0,0:0:0:0:
192,192,214296,1,0,0:0:0:0:
64,192,214296,1,0,0:0:0:0:
448,192,214375,1,0,0:0:0:0:
192,192,214454,1,0,0:0:0:0:
320,192,214454,1,0,0:0:0:0:
64,192,214533,1,0,0:0:0:0:
320,192,214611,1,0,0:0:0:0:
448,192,214611,1,0,0:0:0:0:
64,192,214690,1,0,0:0:0:0:
192,192,214769,1,0,0:0:0:0:
320,192,214769,1,0,0:0:0:0:
448,192,214769,1,0,0:0:0:0:
64,192,214848,1,0,0:0:0:0:
320,192,214927,1,0,0:0:0:0:
448,192,214927,1,0,0:0:0:0:
64,192,215006,1,0,0:0:0:0:
320,192,215085,1,0,0:0:0:0:
192,192,215085,1,0,0:0:0:0:
64,192,215164,1,0,0:0:0:0:
320,192,215243,1,0,0:0:0:0:
448,192,215243,1,0,0:0:0:0:
192,192,215322,1,0,0:0:0:0:
448,192,215401,1,0,0:0:0:0:
64,192,215401,1,0,0:0:0:0:
320,192,215480,1,0,0:0:0:0:
192,192,215559,1,0,0:0:0:0:
64,192,215559,1,0,0:0:0:0:
448,192,215638,1,0,0:0:0:0:
192,192,215717,1,0,0:0:0:0:
320,192,215717,1,0,0:0:0:0:
448,192,215796,1,0,0:0:0:0:
192,192,215875,1,0,0:0:0:0:
64,192,215875,1,0,0:0:0:0:
320,192,215954,1,0,0:0:0:0:
448,192,216033,1,0,0:0:0:0:
64,192,216033,1,0,0:0:0:0:
192,192,216111,1,0,0:0:0:0:
448,192,216190,1,0,0:0:0:0:
320,192,216190,1,0,0:0:0:0:
64,192,216269,1,0,0:0:0:0:
320,192,216348,1,0,0:0:0:0:
448,192,216348,1,0,0:0:0:0:
64,192,216427,1,0,0:0:0:0:
448,192,216506,1,0,0:0:0:0:
320,192,216506,1,0,0:0:0:0:
192,192,216585,1,0,0:0:0:0:
64,192,216664,1,0,0:0:0:0:
448,192,216664,1,0,0:0:0:0:
320,192,216717,1,0,0:0:0:0:
192,192,216769,1,0,0:0:0:0:
64,192,216822,1,0,0:0:0:0:
448,192,216875,1,0,0:0:0:0:
320,192,216927,1,0,0:0:0:0:
192,192,216980,1,0,0:0:0:0:
448,192,217059,1,0,0:0:0:0:
320,192,217138,1,0,0:0:0:0:
64,192,217296,1,0,0:0:0:0:
192,192,217296,1,0,0:0:0:0:
320,192,217296,1,0,0:0:0:0:
448,192,217375,1,0,0:0:0:0:
64,192,217454,1,0,0:0:0:0:
192,192,217454,1,0,0:0:0:0:
448,192,217533,1,0,0:0:0:0:
320,192,217611,1,0,0:0:0:0:
192,192,217611,1,0,0:0:0:0:
448,192,217690,1,0,0:0:0:0:
64,192,217769,1,0,0:0:0:0:
192,192,217769,1,0,0:0:0:0:
320,192,217848,1,0,0:0:0:0:
448,192,217927,1,0,0:0:0:0:
64,192,217927,1,0,0:0:0:0:
192,192,218006,1,0,0:0:0:0:
448,192,218085,1,0,0:0:0:0:
320,192,218085,1,0,0:0:0:0:
64,192,218164,1,0,0:0:0:0:
192,192,218243,1,0,0:0:0:0:
320,192,218243,1,0,0:0:0:0:
64,192,218322,1,0,0:0:0:0:
448,192,218401,1,0,0:0:0:0:
320,192,218401,1,0,0:0:0:0:
192,192,218480,1,0,0:0:0:0:
448,192,218559,1,0,0:0:0:0:
64,192,218559,1,0,0:0:0:0:
320,192,218638,1,0,0:0:0:0:
192,192,218717,1,0,0:0:0:0:
448,192,218717,1,0,0:0:0:0:
64,192,218796,1,0,0:0:0:0:
192,192,218875,1,0,0:0:0:0:
320,192,218875,1,0,0:0:0:0:
448,192,218954,1,0,0:0:0:0:
64,192,219033,1,0,0:0:0:0:
320,192,219033,1,0,0:0:0:0:
192,192,219111,1,0,0:0:0:0:
64,192,219190,1,0,0:0:0:0:
448,192,219190,1,0,0:0:0:0:
320,192,219269,1,0,0:0:0:0:
192,192,219348,1,0,0:0:0:0:
64,192,219348,1,0,0:0:0:0:
448,192,219427,1,0,0:0:0:0:
192,192,219506,1,0,0:0:0:0:
320,192,219506,1,0,0:0:0:0:
64,192,219585,1,0,0:0:0:0:
320,192,219664,1,0,0:0:0:0:
448,192,219664,1,0,0:0:0:0:
64,192,219743,1,0,0:0:0:0:
192,192,219822,1,0,0:0:0:0:
320,192,219822,1,0,0:0:0:0:
448,192,219822,1,0,0:0:0:0:
64,192,219980,1,0,0:0:0:0:
320,192,220138,1,0,0:0:0:0:
192,192,220296,1,0,0:0:0:0:
448,192,220454,1,0,0:0:0:0:
320,192,220454,1,0,0:0:0:0:
64,192,220454,1,0,0:0:0:0:
192,192,220611,1,0,0:0:0:0:
64,192,220611,1,0,0:0:0:0:
320,192,220690,1,0,0:0:0:0:
448,192,220690,1,0,0:0:0:0:
192,192,220769,1,0,0:0:0:0:
64,192,220769,1,0,0:0:0:0:
192,192,220927,1,0,0:0:0:0:
64,192,220927,1,0,0:0:0:0:
448,192,221085,1,0,0:0:0:0:
192,192,221164,1,0,0:0:0:0:
448,192,221243,1,0,0:0:0:0:
192,192,221322,1,0,0:0:0:0:
320,192,221401,1,0,0:0:0:0:
64,192,221480,1,0,0:0:0:0:
320,192,221559,1,0,0:0:0:0:
448,192,221559,1,0,0:0:0:0:
192,192,221559,1,0,0:0:0:0:
64,192,221638,1,0,0:0:0:0:
448,192,221717,1,0,0:0:0:0:
192,192,221796,1,0,0:0:0:0:
448,192,221875,1,0,0:0:0:0:
320,192,221875,1,0,0:0:0:0:
64,192,221875,1,0,0:0:0:0:
192,192,221954,1,0,0:0:0:0:
320,192,222033,1,0,0:0:0:0:
64,192,222111,1,0,0:0:0:0:
320,192,222190,1,0,0:0:0:0:
64,192,222269,1,0,0:0:0:0:
192,192,222348,1,0,0:0:0:0:
320,192,222348,1,0,0:0:0:0:
448,192,222348,1,0,0:0:0:0:
64,192,222427,1,0,0:0:0:0:
320,192,222506,1,0,0:0:0:0:
448,192,222506,1,0,0:0:0:0:
192,192,222585,1,0,0:0:0:0:
448,192,222664,1,0,0:0:0:0:
64,192,222664,1,0,0:0:0:0:
320,192,222743,1,0,0:0:0:0:
448,192,222822,1,0,0:0:0:0:
192,192,222822,1,0,0:0:0:0:
320,192,222901,1,0,0:0:0:0:
448,192,222980,1,0,0:0:0:0:
64,192,222980,1,0,0:0:0:0:
192,192,223059,1,0,0:0:0:0:
320,192,223138,1,0,0:0:0:0:
64,192,223138,1,0,0:0:0:0:
448,192,223217,1,0,0:0:0:0:
192,192,223296,1,0,0:0:0:0:
64,192,223296,1,0,0:0:0:0:
320,192,223375,1,0,0:0:0:0:
64,192,223454,1,0,0:0:0:0:
448,192,223454,1,0,0:0:0:0:
192,192,223533,1,0,0:0:0:0:
448,192,223611,1,0,0:0:0:0:
64,192,223611,1,0,0:0:0:0:
320,192,223690,1,0,0:0:0:0:
192,192,223769,1,0,0:0:0:0:
64,192,223769,1,0,0:0:0:0:
448,192,223848,1,0,0:0:0:0:
320,192,223927,1,0,0:0:0:0:
64,192,223927,1,0,0:0:0:0:
192,192,224006,1,0,0:0:0:0:
320,192,224085,1,0,0:0:0:0:
448,192,224085,1,0,0:0:0:0:
192,192,224164,1,0,0:0:0:0:
448,192,224243,1,0,0:0:0:0:
64,192,224243,1,0,0:0:0:0:
320,192,224322,1,0,0:0:0:0:
448,192,224401,1,0,0:0:0:0:
192,192,224401,1,0,0:0:0:0:
64,192,224480,1,0,0:0:0:0:
320,192,224559,1,0,0:0:0:0:
448,192,224559,1,0,0:0:0:0:
192,192,224638,1,0,0:0:0:0:
448,192,224717,1,0,0:0:0:0:
64,192,224717,1,0,0:0:0:0:
320,192,224796,1,0,0:0:0:0:
448,192,224875,1,0,0:0:0:0:
64,192,224875,1,0,0:0:0:0:
192,192,224954,1,0,0:0:0:0:
64,192,225033,1,0,0:0:0:0:
320,192,225033,1,0,0:0:0:0:
192,192,225111,1,0,0:0:0:0:
320,192,225190,1,0,0:0:0:0:
448,192,225190,1,0,0:0:0:0:
64,192,225269,1,0,0:0:0:0:
192,192,225348,1,0,0:0:0:0:
448,192,225348,1,0,0:0:0:0:
320,192,225427,1,0,0:0:0:0:
64,192,225506,1,0,0:0:0:0:
192,192,225506,1,0,0:0:0:0:
448,192,225585,1,0,0:0:0:0:
320,192,225664,1,0,0:0:0:0:
64,192,225664,1,0,0:0:0:0:
192,192,225743,1,0,0:0:0:0:
320,192,225822,1,0,0:0:0:0:
448,192,225822,1,0,0:0:0:0:
64,192,225901,1,0,0:0:0:0:
448,192,225980,1,0,0:0:0:0:
192,192,225980,1,0,0:0:0:0:
320,192,226059,1,0,0:0:0:0:
448,192,226138,1,0,0:0:0:0:
64,192,226138,1,0,0:0:0:0:
192,192,226217,1,0,0:0:0:0:
320,192,226296,1,0,0:0:0:0:
448,192,226296,1,0,0:0:0:0:
192,192,226375,1,0,0:0:0:0:
64,192,226454,1,0,0:0:0:0:
448,192,226454,1,0,0:0:0:0:
320,192,226533,1,0,0:0:0:0:
192,192,226611,1,0,0:0:0:0:
64,192,226611,1,0,0:0:0:0:
320,192,226690,1,0,0:0:0:0:
64,192,226769,1,0,0:0:0:0:
192,192,226822,1,0,0:0:0:0:
320,192,226875,1,0,0:0:0:0:
64,192,226927,1,0,0:0:0:0:
192,192,226980,1,0,0:0:0:0:
448,192,227033,1,0,0:0:0:0:
320,192,227085,1,0,0:0:0:0:
192,192,227138,1,0,0:0:0:0:
448,192,227190,1,0,0:0:0:0:
320,192,227243,1,0,0:0:0:0:
64,192,227401,1,0,0:0:0:0:
192,192,227401,1,0,0:0:0:0:
320,192,227401,1,0,0:0:0:0:
448,192,227480,1,0,0:0:0:0:
64,192,227559,1,0,0:0:0:0:
192,192,227559,1,0,0:0:0:0:
320,192,227638,1,0,0:0:0:0:
448,192,227717,1,0,0:0:0:0:
64,192,227717,1,0,0:0:0:0:
192,192,227796,1,0,0:0:0:0:
320,192,227875,1,0,0:0:0:0:
64,192,227875,1,0,0:0:0:0:
192,192,227954,1,0,0:0:0:0:
448,192,228033,1,0,0:0:0:0:
64,192,228033,1,0,0:0:0:0:
320,192,228111,1,0,0:0:0:0:
448,192,228190,1,0,0:0:0:0:
192,192,228190,1,0,0:0:0:0:
64,192,228269,1,0,0:0:0:0:
448,192,228348,1,0,0:0:0:0:
320,192,228348,1,0,0:0:0:0:
192,192,228427,1,0,0:0:0:0:
64,192,228506,1,0,0:0:0:0:
448,192,228506,1,0,0:0:0:0:
320,192,228585,1,0,0:0:0:0:
64,192,228664,1,0,0:0:0:0:
448,192,228664,1,0,0:0:0:0:
192,192,228743,1,0,0:0:0:0:
320,192,228822,1,0,0:0:0:0:
448,192,228822,1,0,0:0:0:0:
64,192,228901,1,0,0:0:0:0:
192,192,228980,1,0,0:0:0:0:
448,192,228980,1,0,0:0:0:0:
320,192,229059,1,0,0:0:0:0:
192,192,229138,1,0,0:0:0:0:
64,192,229138,1,0,0:0:0:0:
320,192,229217,1,0,0:0:0:0:
64,192,229296,1,0,0:0:0:0:
448,192,229296,1,0,0:0:0:0:
192,192,229375,1,0,0:0:0:0:
64,192,229454,1,0,0:0:0:0:
320,192,229454,1,0,0:0:0:0:
448,192,229533,1,0,0:0:0:0:
192,192,229611,1,0,0:0:0:0:
64,192,229611,1,0,0:0:0:0:
320,192,229690,1,0,0:0:0:0:
64,192,229769,1,0,0:0:0:0:
448,192,229769,1,0,0:0:0:0:
192,192,229848,1,0,0:0:0:0:
64,192,229927,1,0,0:0:0:0:
448,192,229927,1,0,0:0:0:0:
320,192,230006,1,0,0:0:0:0:
448,192,230085,1,0,0:0:0:0:
192,192,230085,1,0,0:0:0:0:
320,192,230164,1,0,0:0:0:0:
192,192,230243,1,0,0:0:0:0:
64,192,230243,1,0,0:0:0:0:
448,192,230322,1,0,0:0:0:0:
320,192,230401,1,0,0:0:0:0:
64,192,230401,1,0,0:0:0:0:
192,192,230480,1,0,0:0:0:0:
448,192,230559,1,0,0:0:0:0:
320,192,230559,1,0,0:0:0:0:
64,192,230638,1,0,0:0:0:0:
192,192,230717,1,0,0:0:0:0:
448,192,230717,1,0,0:0:0:0:
320,192,230796,1,0,0:0:0:0:
192,192,230875,1,0,0:0:0:0:
64,192,230875,1,0,0:0:0:0:
448,192,230954,1,0,0:0:0:0:
64,192,231033,1,0,0:0:0:0:
320,192,231033,1,0,0:0:0:0:
192,192,231111,1,0,0:0:0:0:
448,192,231190,1,0,0:0:0:0:
64,192,231190,1,0,0:0:0:0:
448,192,231348,1,0,0:0:0:0:
64,192,231348,1,0,0:0:0:0:
320,192,231427,1,0,0:0:0:0:
192,192,231427,1,0,0:0:0:0:
64,192,231506,1,0,0:0:0:0:
320,192,231585,1,0,0:0:0:0:
64,192,231664,1,0,0:0:0:0:
320,192,231743,1,0,0:0:0:0:
192,192,231822,1,0,0:0:0:0:
64,192,231822,1,0,0:0:0:0:
448,192,231822,1,0,0:0:0:0:
320,192,231980,1,0,0:0:0:0:
192,192,231980,1,0,0:0:0:0:
448,192,232138,1,0,0:0:0:0:
320,192,232138,1,0,0:0:0:0:
64,192,232138,1,0,0:0:0:0:
192,192,232296,1,0,0:0:0:0:
320,192,232296,1,0,0:0:0:0:
448,192,232454,1,0,0:0:0:0:
192,192,232454,1,0,0:0:0:0:
64,192,232454,1,0,0:0:0:0:
320,192,232533,1,0,0:0:0:0:
64,192,232611,1,0,0:0:0:0:
448,192,232690,1,0,0:0:0:0:
320,192,232769,1,0,0:0:0:0:
64,192,232769,1,0,0:0:0:0:
192,192,232769,1,0,0:0:0:0:
448,192,232848,1,0,0:0:0:0:
64,192,232927,1,0,0:0:0:0:
192,192,232927,1,0,0:0:0:0:
320,192,233006,1,0,0:0:0:0:
192,192,233085,1,0,0:0:0:0:
448,192,233085,1,0,0:0:0:0:
64,192,233085,1,0,0:0:0:0:
320,192,233164,1,0,0:0:0:0:
448,192,233243,1,0,0:0:0:0:
192,192,233322,1,0,0:0:0:0:
320,192,233401,1,0,0:0:0:0:
448,192,233401,1,0,0:0:0:0:
64,192,233480,1,0,0:0:0:0:
448,192,233559,1,0,0:0:0:0:
192,192,233559,1,0,0:0:0:0:
320,192,233638,1,0,0:0:0:0:
448,192,233717,1,0,0:0:0:0:
64,192,233717,1,0,0:0:0:0:
192,192,233717,1,0,0:0:0:0:
320,192,233796,1,0,0:0:0:0:
64,192,233875,1,0,0:0:0:0:
448,192,233875,1,0,0:0:0:0:
192,192,233954,1,0,0:0:0:0:
448,192,234033,1,0,0:0:0:0:
64,192,234033,1,0,0:0:0:0:
320,192,234033,1,0,0:0:0:0:
192,192,234111,1,0,0:0:0:0:
448,192,234190,1,0,0:0:0:0:
64,192,234190,1,0,0:0:0:0:
320,192,234269,1,0,0:0:0:0:
64,192,234348,1,0,0:0:0:0:
448,192,234348,1,0,0:0:0:0:
192,192,234348,1,0,0:0:0:0:
320,192,234427,1,0,0:0:0:0:
192,192,234506,1,0,0:0:0:0:
320,192,234585,1,0,0:0:0:0:
448,192,234664,1,0,0:0:0:0:
64,192,234664,1,0,0:0:0:0:
192,192,234743,1,0,0:0:0:0:
320,192,234822,1,0,0:0:0:0:
192,192,234901,1,0,0:0:0:0:
448,192,234980,1,0,0:0:0:0:
64,192,234980,1,0,0:0:0:0:
320,192,234980,1,0,0:0:0:0:
192,192,235059,1,0,0:0:0:0:
448,192,235138,1,0,0:0:0:0:
64,192,235217,1,0,0:0:0:0:
448,192,235296,1,0,0:0:0:0:
320,192,235296,1,0,0:0:0:0:
192,192,235296,1,0,0:0:0:0:
64,192,235375,1,0,0:0:0:0:
448,192,235454,1,0,0:0:0:0:
320,192,235454,1,0,0:0:0:0:
192,192,235533,1,0,0:0:0:0:
448,192,235611,1,0,0:0:0:0:
64,192,235611,1,0,0:0:0:0:
320,192,235611,1,0,0:0:0:0:
192,192,235690,1,0,0:0:0:0:
64,192,235769,1,0,0:0:0:0:
320,192,235848,1,0,0:0:0:0:
192,192,235927,1,0,0:0:0:0:
64,192,235927,1,0,0:0:0:0:
320,192,236006,1,0,0:0:0:0:
448,192,236085,1,0,0:0:0:0:
192,192,236085,1,0,0:0:0:0:
320,192,236164,1,0,0:0:0:0:
448,192,236243,1,0,0:0:0:0:
64,192,236243,1,0,0:0:0:0:
192,192,236243,1,0,0:0:0:0:
192,192,236401,1,0,0:0:0:0:
64,192,236401,1,0,0:0:0:0:
64,192,236559,1,0,0:0:0:0:
448,192,236559,1,0,0:0:0:0:
320,192,236559,1,0,0:0:0:0:
320,192,236717,1,0,0:0:0:0:
448,192,236717,1,0,0:0:0:0:
64,192,236875,1,0,0:0:0:0:
192,192,236927,1,0,0:0:0:0:
320,192,236980,1,0,0:0:0:0:
448,192,237033,1,0,0:0:0:0:
64,192,237085,1,0,0:0:0:0:
192,192,237138,1,0,0:0:0:0:
320,192,237190,1,0,0:0:0:0:
64,192,237269,1,0,0:0:0:0:
192,192,237348,1,0,0:0:0:0:
320,192,237506,1,0,0:0:0:0:
448,192,237506,1,0,0:0:0:0:
64,192,237506,1,0,0:0:0:0:
192,192,237585,1,0,0:0:0:0:
320,192,237664,1,0,0:0:0:0:
448,192,237664,1,0,0:0:0:0:
64,192,237743,1,0,0:0:0:0:
448,192,237822,1,0,0:0:0:0:
192,192,237822,1,0,0:0:0:0:
320,192,237822,1,0,0:0:0:0:
64,192,237901,1,0,0:0:0:0:
448,192,237980,1,0,0:0:0:0:
320,192,237980,1,0,0:0:0:0:
192,192,238059,1,0,0:0:0:0:
320,192,238138,1,0,0:0:0:0:
64,192,238138,1,0,0:0:0:0:
448,192,238138,1,0,0:0:0:0:
192,192,238217,1,0,0:0:0:0:
64,192,238296,1,0,0:0:0:0:
320,192,238375,1,0,0:0:0:0:
64,192,238454,1,0,0:0:0:0:
192,192,238454,1,0,0:0:0:0:
448,192,238533,1,0,0:0:0:0:
64,192,238611,1,0,0:0:0:0:
320,192,238611,1,0,0:0:0:0:
192,192,238690,1,0,0:0:0:0:
448,192,238769,1,0,0:0:0:0:
64,192,238769,1,0,0:0:0:0:
320,192,238769,1,0,0:0:0:0:
192,192,238848,1,0,0:0:0:0:
448,192,238927,1,0,0:0:0:0:
64,192,238927,1,0,0:0:0:0:
320,192,239006,1,0,0:0:0:0:
448,192,239085,1,0,0:0:0:0:
64,192,239085,1,0,0:0:0:0:
192,192,239085,1,0,0:0:0:0:
320,192,239164,1,0,0:0:0:0:
64,192,239243,1,0,0:0:0:0:
448,192,239243,1,0,0:0:0:0:
192,192,239322,1,0,0:0:0:0:
448,192,239401,1,0,0:0:0:0:
64,192,239401,1,0,0:0:0:0:
320,192,239401,1,0,0:0:0:0:
192,192,239480,1,0,0:0:0:0:
320,192,239559,1,0,0:0:0:0:
192,192,239638,1,0,0:0:0:0:
448,192,239717,1,0,0:0:0:0:
64,192,239717,1,0,0:0:0:0:
320,192,239796,1,0,0:0:0:0:
64,192,239875,1,0,0:0:0:0:
192,192,239875,1,0,0:0:0:0:
320,192,239954,1,0,0:0:0:0:
64,192,240033,1,0,0:0:0:0:
192,192,240033,1,0,0:0:0:0:
448,192,240033,1,0,0:0:0:0:
320,192,240111,1,0,0:0:0:0:
448,192,240190,1,0,0:0:0:0:
192,192,240269,1,0,0:0:0:0:
320,192,240348,1,0,0:0:0:0:
448,192,240348,128,0,240506:0:0:0:0:
192,192,240506,1,0,0:0:0:0:
64,192,240506,1,0,0:0:0:0:
320,192,240664,1,0,0:0:0:0:
192,192,240664,1,0,0:0:0:0:
64,192,240664,1,0,0:0:0:0:
448,192,240743,1,0,0:0:0:0:
192,192,240822,1,0,0:0:0:0:
64,192,240822,1,0,0:0:0:0:
320,192,240901,1,0,0:0:0:0:
448,192,240901,1,0,0:0:0:0:
192,192,240980,1,0,0:0:0:0:
64,192,240980,1,0,0:0:0:0:
320,192,241059,1,0,0:0:0:0:
448,192,241059,1,0,0:0:0:0:
192,192,241138,1,0,0:0:0:0:
64,192,241217,1,0,0:0:0:0:
320,192,241296,1,0,0:0:0:0:
192,192,241454,1,0,0:0:0:0:
320,192,241611,1,0,0:0:0:0:
192,192,241769,1,0,0:0:0:0:
64,192,241927,1,0,0:0:0:0:
64,192,242243,1,0,0:0:0:0:
448,192,242243,1,0,0:0:0:0:
448,192,242559,1,0,0:0:0:0:
320,192,242559,1,0,0:0:0:0:
64,192,242559,1,0,0:0:0:0:
192,192,242638,1,0,0:0:0:0:
64,192,242717,1,0,0:0:0:0:
320,192,242796,1,0,0:0:0:0:
192,192,242875,1,0,0:0:0:0:
64,192,242875,1,0,0:0:0:0:
448,192,242875,1,0,0:0:0:0:
320,192,242954,1,0,0:0:0:0:
64,192,243033,1,0,0:0:0:0:
448,192,243033,1,0,0:0:0:0:
192,192,243111,1,0,0:0:0:0:
320,192,243190,1,0,0:0:0:0:
448,192,243190,1,0,0:0:0:0:
64,192,243190,1,0,0:0:0:0:
192,192,243269,1,0,0:0:0:0:
448,192,243348,1,0,0:0:0:0:
320,192,243427,1,0,0:0:0:0:
192,192,243506,1,0,0:0:0:0:
448,192,243506,1,0,0:0:0:0:
320,192,243585,1,0,0:0:0:0:
64,192,243664,1,0,0:0:0:0:
192,192,243664,1,0,0:0:0:0:
320,192,243743,1,0,0:0:0:0:
64,192,243822,1,0,0:0:0:0:
448,192,243822,1,0,0:0:0:0:
192,192,243822,1,0,0:0:0:0:
320,192,243901,1,0,0:0:0:0:
448,192,243980,1,0,0:0:0:0:
64,192,243980,1,0,0:0:0:0:
192,192,244059,1,0,0:0:0:0:
64,192,244138,1,0,0:0:0:0:
448,192,244138,1,0,0:0:0:0:
320,192,244138,1,0,0:0:0:0:
192,192,244217,1,0,0:0:0:0:
64,192,244296,1,0,0:0:0:0:
448,192,244296,1,0,0:0:0:0:
320,192,244375,1,0,0:0:0:0:
448,192,244454,1,0,0:0:0:0:
64,192,244454,1,0,0:0:0:0:
192,192,244454,1,0,0:0:0:0:
320,192,244533,1,0,0:0:0:0:
192,192,244611,1,0,0:0:0:0:
320,192,244690,1,0,0:0:0:0:
64,192,244769,1,0,0:0:0:0:
448,192,244769,1,0,0:0:0:0:
192,192,244848,1,0,0:0:0:0:
320,192,244927,1,0,0:0:0:0:
192,192,245006,1,0,0:0:0:0:
64,192,245085,1,0,0:0:0:0:
448,192,245085,1,0,0:0:0:0:
320,192,245085,1,0,0:0:0:0:
192,192,245164,1,0,0:0:0:0:
64,192,245243,1,0,0:0:0:0:
320,192,245322,1,0,0:0:0:0:
64,192,245401,1,0,0:0:0:0:
448,192,245401,1,0,0:0:0:0:
192,192,245401,1,0,0:0:0:0:
320,192,245480,1,0,0:0:0:0:
64,192,245559,1,0,0:0:0:0:
448,192,245559,1,0,0:0:0:0:
192,192,245638,1,0,0:0:0:0:
64,192,245717,1,0,0:0:0:0:
448,192,245717,1,0,0:0:0:0:
320,192,245717,1,0,0:0:0:0:
192,192,245796,1,0,0:0:0:0:
448,192,245875,1,0,0:0:0:0:
320,192,245954,1,0,0:0:0:0:
192,192,246033,1,0,0:0:0:0:
448,192,246033,1,0,0:0:0:0:
320,192,246111,1,0,0:0:0:0:
64,192,246190,1,0,0:0:0:0:
192,192,246190,1,0,0:0:0:0:
320,192,246269,1,0,0:0:0:0:
64,192,246348,1,0,0:0:0:0:
448,192,246348,1,0,0:0:0:0:
192,192,246348,1,0,0:0:0:0:
192,192,246506,1,0,0:0:0:0:
64,192,246506,1,0,0:0:0:0:
448,192,246664,1,0,0:0:0:0:
64,192,246664,1,0,0:0:0:0:
320,192,246664,1,0,0:0:0:0:
320,192,246822,1,0,0:0:0:0:
448,192,246822,1,0,0:0:0:0:
64,192,246980,1,0,0:0:0:0:
192,192,247033,1,0,0:0:0:0:
320,192,247085,1,0,0:0:0:0:
448,192,247138,1,0,0:0:0:0:
64,192,247190,1,0,0:0:0:0:
192,192,247243,1,0,0:0:0:0:
320,192,247296,1,0,0:0:0:0:
64,192,247375,1,0,0:0:0:0:
192,192,247454,1,0,0:0:0:0:
320,192,247611,1,0,0:0:0:0:
64,192,247611,1,0,0:0:0:0:
448,192,247611,1,0,0:0:0:0:
192,192,247690,1,0,0:0:0:0:
64,192,247769,1,0,0:0:0:0:
448,192,247769,1,0,0:0:0:0:
320,192,247848,1,0,0:0:0:0:
64,192,247927,1,0,0:0:0:0:
192,192,247927,1,0,0:0:0:0:
448,192,247927,1,0,0:0:0:0:
320,192,248006,1,0,0:0:0:0:
64,192,248085,1,0,0:0:0:0:
448,192,248085,1,0,0:0:0:0:
192,192,248164,1,0,0:0:0:0:
320,192,248243,1,0,0:0:0:0:
448,192,248243,1,0,0:0:0:0:
64,192,248243,1,0,0:0:0:0:
192,192,248322,1,0,0:0:0:0:
448,192,248401,1,0,0:0:0:0:
320,192,248480,1,0,0:0:0:0:
448,192,248559,1,0,0:0:0:0:
192,192,248559,1,0,0:0:0:0:
320,192,248638,1,0,0:0:0:0:
64,192,248717,1,0,0:0:0:0:
192,192,248717,1,0,0:0:0:0:
320,192,248796,1,0,0:0:0:0:
448,192,248875,1,0,0:0:0:0:
64,192,248875,1,0,0:0:0:0:
192,192,248875,1,0,0:0:0:0:
320,192,248954,1,0,0:0:0:0:
448,192,249033,1,0,0:0:0:0:
64,192,249033,1,0,0:0:0:0:
192,192,249111,1,0,0:0:0:0:
448,192,249190,1,0,0:0:0:0:
64,192,249190,1,0,0:0:0:0:
320,192,249190,1,0,0:0:0:0:
192,192,249269,1,0,0:0:0:0:
64,192,249348,1,0,0:0:0:0:
448,192,249348,1,0,0:0:0:0:
320,192,249427,1,0,0:0:0:0:
448,192,249506,1,0,0:0:0:0:
64,192,249506,1,0,0:0:0:0:
192,192,249506,1,0,0:0:0:0:
320,192,249585,1,0,0:0:0:0:
192,192,249664,1,0,0:0:0:0:
320,192,249743,1,0,0:0:0:0:
448,192,249822,1,0,0:0:0:0:
64,192,249822,1,0,0:0:0:0:
192,192,249901,1,0,0:0:0:0:
448,192,249980,1,0,0:0:0:0:
320,192,249980,1,0,0:0:0:0:
192,192,250059,1,0,0:0:0:0:
64,192,250138,1,0,0:0:0:0:
320,192,250138,1,0,0:0:0:0:
448,192,250138,1,0,0:0:0:0:
192,192,250217,1,0,0:0:0:0:
64,192,250296,1,0,0:0:0:0:
320,192,250375,1,0,0:0:0:0:
192,192,250454,1,0,0:0:0:0:
448,192,250454,128,0,250611:0:0:0:0:
320,192,250611,1,0,0:0:0:0:
64,192,250611,1,0,0:0:0:0:
192,192,250769,1,0,0:0:0:0:
448,192,250769,1,0,0:0:0:0:
64,192,250769,1,0,0:0:0:0:
320,192,250848,1,0,0:0:0:0:
192,192,250927,1,0,0:0:0:0:
64,192,250927,1,0,0:0:0:0:
320,192,251006,1,0,0:0:0:0:
448,192,251006,1,0,0:0:0:0:
192,192,251085,1,0,0:0:0:0:
64,192,251085,1,0,0:0:0:0:
320,192,251164,1,0,0:0:0:0:
448,192,251164,1,0,0:0:0:0:
64,192,251243,1,0,0:0:0:0:
192,192,251322,1,0,0:0:0:0:
448,192,251401,1,0,0:0:0:0:
320,192,251401,1,0,0:0:0:0:
64,192,251401,1,0,0:0:0:0:
192,192,251559,1,0,0:0:0:0:
448,192,251717,1,0,0:0:0:0:
64,192,251717,1,0,0:0:0:0:
320,192,251717,1,0,0:0:0:0:
192,192,251875,1,0,0:0:0:0:
320,192,252033,1,0,0:0:0:0:
192,192,252138,1,0,0:0:0:0:
320,192,252243,1,0,0:0:0:0:
64,192,252348,1,0,0:0:0:0:
64,192,252506,1,0,0:0:0:0:
448,192,252664,1,0,0:0:0:0:
320,192,252664,1,0,0:0:0:0:
64,192,252717,1,0,0:0:0:0:
192,192,252769,1,0,0:0:0:0:
320,192,252822,1,0,0:0:0:0:
192,192,252875,1,0,0:0:0:0:
448,192,252927,1,0,0:0:0:0:
320,192,252980,1,0,0:0:0:0:
192,192,253033,1,0,0:0:0:0:
64,192,253085,1,0,0:0:0:0:
64,192,253296,1,0,0:0:0:0:
192,192,253296,1,0,0:0:0:0:
448,192,253348,1,0,0:0:0:0:
320,192,253401,1,0,0:0:0:0:
192,192,253454,1,0,0:0:0:0:
320,192,253506,1,0,0:0:0:0:
64,192,253559,1,0,0:0:0:0:
192,192,253611,1,0,0:0:0:0:
320,192,253664,1,0,0:0:0:0:
448,192,253717,1,0,0:0:0:0:
448,192,253927,1,0,0:0:0:0:
320,192,253927,1,0,0:0:0:0:
64,192,253980,1,0,0:0:0:0:
192,192,254033,1,0,0:0:0:0:
320,192,254085,1,0,0:0:0:0:
192,192,254138,1,0,0:0:0:0:
448,192,254190,1,0,0:0:0:0:
320,192,254243,1,0,0:0:0:0:
192,192,254296,1,0,0:0:0:0:
64,192,254348,1,0,0:0:0:0:
320,192,254401,1,0,0:0:0:0:
448,192,254401,1,0,0:0:0:0:
64,192,254559,1,0,0:0:0:0:
192,192,254559,1,0,0:0:0:0:
448,192,254611,1,0,0:0:0:0:
320,192,254664,1,0,0:0:0:0:
192,192,254717,1,0,0:0:0:0:
448,192,254769,1,0,0:0:0:0:
320,192,254822,1,0,0:0:0:0:
192,192,254875,1,0,0:0:0:0:
64,192,254875,1,0,0:0:0:0:
448,192,254954,1,0,0:0:0:0:
320,192,254954,1,0,0:0:0:0:
192,192,255033,1,0,0:0:0:0:
448,192,255111,1,0,0:0:0:0:
320,192,255111,1,0,0:0:0:0:
64,192,255190,1,0,0:0:0:0:
192,192,255190,1,0,0:0:0:0:
448,192,255243,1,0,0:0:0:0:
320,192,255296,1,0,0:0:0:0:
192,192,255348,1,0,0:0:0:0:
320,192,255401,1,0,0:0:0:0:
64,192,255454,1,0,0:0:0:0:
192,192,255506,1,0,0:0:0:0:
320,192,255559,1,0,0:0:0:0:
448,192,255611,1,0,0:0:0:0:
448,192,255822,1,0,0:0:0:0:
320,192,255822,1,0,0:0:0:0:
64,192,255875,1,0,0:0:0:0:
192,192,255927,1,0,0:0:0:0:
320,192,255980,1,0,0:0:0:0:
192,192,256033,1,0,0:0:0:0:
448,192,256085,1,0,0:0:0:0:
320,192,256138,1,0,0:0:0:0:
192,192,256190,1,0,0:0:0:0:
64,192,256243,1,0,0:0:0:0:
192,192,256454,1,0,0:0:0:0:
64,192,256454,1,0,0:0:0:0:
448,192,256506,1,0,0:0:0:0:
320,192,256559,1,0,0:0:0:0:
192,192,256611,1,0,0:0:0:0:
320,192,256664,1,0,0:0:0:0:
64,192,256717,1,0,0:0:0:0:
192,192,256769,1,0,0:0:0:0:
320,192,256822,1,0,0:0:0:0:
448,192,256875,1,0,0:0:0:0:
192,192,256927,1,0,0:0:0:0:
64,192,256927,1,0,0:0:0:0:
448,192,257085,1,0,0:0:0:0:
320,192,257085,1,0,0:0:0:0:
64,192,257138,1,0,0:0:0:0:
192,192,257190,1,0,0:0:0:0:
320,192,257243,1,0,0:0:0:0:
64,192,257296,1,0,0:0:0:0:
192,192,257348,1,0,0:0:0:0:
320,192,257401,1,0,0:0:0:0:
448,192,257401,1,0,0:0:0:0:
192,192,257480,1,0,0:0:0:0:
64,192,257480,1,0,0:0:0:0:
320,192,257559,1,0,0:0:0:0:
192,192,257638,1,0,0:0:0:0:
64,192,257638,1,0,0:0:0:0:
320,192,257717,1,0,0:0:0:0:
448,192,257717,1,0,0:0:0:0:
64,192,257769,1,0,0:0:0:0:
192,192,257822,1,0,0:0:0:0:
320,192,257875,1,0,0:0:0:0:
192,192,257927,1,0,0:0:0:0:
448,192,257980,1,0,0:0:0:0:
320,192,258033,1,0,0:0:0:0:
192,192,258085,1,0,0:0:0:0:
64,192,258138,1,0,0:0:0:0:
192,192,258348,1,0,0:0:0:0:
64,192,258348,1,0,0:0:0:0:
192,192,258506,1,0,0:0:0:0:
192,192,258664,1,0,0:0:0:0:
192,192,258822,1,0,0:0:0:0:
320,192,258980,1,0,0:0:0:0:
448,192,258980,1,0,0:0:0:0:
64,192,259033,1,0,0:0:0:0:
192,192,259085,1,0,0:0:0:0:
320,192,259138,1,0,0:0:0:0:
192,192,259190,1,0,0:0:0:0:
448,192,259243,1,0,0:0:0:0:
320,192,259296,1,0,0:0:0:0:
192,192,259348,1,0,0:0:0:0:
64,192,259401,1,0,0:0:0:0:
320,192,259454,1,0,0:0:0:0:
448,192,259454,1,0,0:0:0:0:
64,192,259611,128,0,260243:0:0:0:0:
192,192,259611,128,0,259927:0:0:0:0:
448,192,259927,1,0,0:0:0:0:
320,192,260006,1,0,0:0:0:0:
192,192,260085,1,0,0:0:0:0:
320,192,260164,1,0,0:0:0:0:
448,192,260243,128,0,260717:0:0:0:0:
192,192,260243,1,0,0:0:0:0:
192,192,260875,1,0,0:0:0:0:
64,192,260875,128,0,261190:0:0:0:0:
64,192,261506,1,0,0:0:0:0:
320,192,261664,1,0,0:0:0:0:
192,192,261743,1,0,0:0:0:0:
320,192,261822,1,0,0:0:0:0:
192,192,261901,1,0,0:0:0:0:
320,192,261980,1,0,0:0:0:0:
192,192,262059,1,0,0:0:0:0:
320,192,262138,1,0,0:0:0:0:
448,192,262138,1,0,0:0:0:0:
192,192,262217,1,0,0:0:0:0:
64,192,262217,1,0,0:0:0:0:
320,192,262296,1,0,0:0:0:0:
448,192,262296,1,0,0:0:0:0:
192,192,262375,1,0,0:0:0:0:
64,192,262375,1,0,0:0:0:0:
320,192,262454,1,0,0:0:0:0:
448,192,262454,1,0,0:0:0:0:
192,192,262533,1,0,0:0:0:0:
64,192,262533,1,0,0:0:0:0:
448,192,262611,1,0,0:0:0:0:
320,192,262651,1,0,0:0:0:0:
192,192,262690,1,0,0:0:0:0:
64,192,262730,1,0,0:0:0:0:
320,192,262769,1,0,0:0:0:0:
448,192,262769,1,0,0:0:0:0:
192,192,263006,1,0,0:0:0:0:
448,192,263401,1,0,0:0:0:0:
192,192,263638,1,0,0:0:0:0:
448,192,264033,1,0,0:0:0:0:
192,192,264269,1,0,0:0:0:0:
448,192,264664,1,0,0:0:0:0:
192,192,264901,1,0,0:0:0:0:
320,192,265296,1,0,0:0:0:0:
64,192,265533,1,0,0:0:0:0:
320,192,265927,1,0,0:0:0:0:
64,192,266164,1,0,0:0:0:0:
320,192,266559,1,0,0:0:0:0:
64,192,266796,1,0,0:0:0:0:
320,192,267190,1,0,0:0:0:0:
64,192,267427,1,0,0:0:0:0:
448,192,267822,1,0,0:0:0:0:
448,192,268138,1,0,0:0:0:0:
448,192,268454,1,0,0:0:0:0:
448,192,268769,1,0,0:0:0:0:
64,192,269085,1,0,0:0:0:0:
64,192,269401,1,0,0:0:0:0:
64,192,269717,1,0,0:0:0:0:
64,192,270033,1,0,0:0:0:0:
448,192,270348,1,0,0:0:0:0:
64,192,270506,1,0,0:0:0:0:
448,192,270664,1,0,0:0:0:0:
64,192,270822,1,0,0:0:0:0:
448,192,270980,1,0,0:0:0:0:
64,192,271138,1,0,0:0:0:0:
448,192,271296,1,0,0:0:0:0:
320,192,271454,1,0,0:0:0:0:
64,192,271611,128,0,271769:0:0:0:0:
320,192,271769,128,0,271927:0:0:0:0:
64,192,271927,128,0,272085:0:0:0:0:
320,192,272085,128,0,272243:0:0:0:0:
448,192,272296,128,0,272796:0:0:0:0:
320,192,272480,128,0,272796:0:0:0:0:
64,192,272638,128,0,272796:0:0:0:0:
192,192,272638,128,0,272796:0:0:0:0:
320,192,272875,1,0,0:0:0:0:
64,192,272875,1,0,0:0:0:0:
192,192,272875,1,0,0:0:0:0:
448,192,272875,1,0,0:0:0:0:
