osu file format v14

[General]
AudioFilename: audio.mp3
AudioLeadIn: 0
PreviewTime: -1
Countdown: 1
SampleSet: Soft
StackLeniency: 0.7
Mode: 3
LetterboxInBreaks: 0
SpecialStyle: 0
WidescreenStoryboard: 0

[Editor]
DistanceSpacing: 1.4
BeatDivisor: 3
GridSize: 32
TimelineZoom: 2.1

[Metadata]
Title:Pagan Totem (Psy to Hard)
TitleUnicode:Pagan Totem (Psy to Hard)
Artist:Billx
ArtistUnicode:Billx
Creator:Combistein
Version:Ritual
Source:
Tags:
BeatmapID:1818926
BeatmapSetID:870391

[Difficulty]
HPDrainRate:8
CircleSize:4
OverallDifficulty:7
ApproachRate:5
SliderMultiplier:1.4
SliderTickRate:1

[Events]
//Background and Video events
0,0,"wallhaven-635742.jpg",0,0
//Break Periods
//Storyboard Layer 0 (Background)
//Storyboard Layer 1 (Fail)
//Storyboard Layer 2 (Pass)
//Storyboard Layer 3 (Foreground)
//Storyboard Sound Samples

[TimingPoints]
0,375,4,2,0,10,1,0

[HitObjects]
448,192,0,128,0,3000:0:0:0:0:
64,192,0,128,0,1500:0:0:0:0:
320,192,0,1,0,0:0:0:0:
192,192,1500,128,0,3000:0:0:0:0:
320,192,3000,128,0,6000:0:0:0:0:
192,192,6000,1,0,0:0:0:0:
448,192,6000,128,0,9000:0:0:0:0:
64,192,6000,128,0,7500:0:0:0:0:
192,192,7500,128,0,9000:0:0:0:0:
64,192,9000,128,0,10500:0:0:0:0:
320,192,9000,128,0,12000:0:0:0:0:
192,192,10500,128,0,12000:0:0:0:0:
64,192,12000,1,0,0:0:0:0:
448,192,12000,1,0,0:0:0:0:
192,192,12375,128,0,12562:0:0:0:0:
320,192,12750,128,0,12937:0:0:0:0:
64,192,13125,128,0,13500:0:0:0:0:
448,192,13500,128,0,14250:0:0:0:0:
192,192,14250,128,0,14437:0:0:0:0:
448,192,14625,128,0,14812:0:0:0:0:
64,192,15000,128,0,15750:0:0:0:0:
320,192,15000,1,0,0:0:0:0:
448,192,15750,1,0,0:0:0:0:
192,192,15750,128,0,16250:0:0:0:0:
448,192,16500,128,0,18000:0:0:0:0:
64,192,18000,128,0,18250:0:0:0:0:
64,192,18375,128,0,18625:0:0:0:0:
320,192,18375,128,0,18625:0:0:0:0:
448,192,18750,128,0,19000:0:0:0:0:
64,192,19000,128,0,19500:0:0:0:0:
448,192,19500,1,0,0:0:0:0:
320,192,19500,128,0,19750:0:0:0:0:
192,192,19875,128,0,20125:0:0:0:0:
64,192,20125,1,0,0:0:0:0:
448,192,20250,128,0,20437:0:0:0:0:
320,192,20250,128,0,20437:0:0:0:0:
64,192,20500,128,0,20625:0:0:0:0:
448,192,20625,128,0,20812:0:0:0:0:
320,192,21000,128,0,21250:0:0:0:0:
64,192,21000,1,0,0:0:0:0:
192,192,21250,1,0,0:0:0:0:
448,192,21375,128,0,21500:0:0:0:0:
64,192,21625,128,0,21750:0:0:0:0:
448,192,21750,128,0,21875:0:0:0:0:
320,192,22000,128,0,22125:0:0:0:0:
64,192,22125,128,0,22500:0:0:0:0:
448,192,22500,1,0,0:0:0:0:
192,192,22500,1,0,0:0:0:0:
320,192,22750,1,0,0:0:0:0:
64,192,22875,128,0,23125:0:0:0:0:
192,192,23125,1,0,0:0:0:0:
448,192,23250,128,0,24000:0:0:0:0:
64,192,23625,128,0,24000:0:0:0:0:
192,192,24000,1,0,0:0:0:0:
320,192,24000,1,0,0:0:0:0:
448,192,24250,1,0,0:0:0:0:
320,192,24250,1,0,0:0:0:0:
64,192,24375,1,0,0:0:0:0:
192,192,24375,1,0,0:0:0:0:
320,192,24375,1,0,0:0:0:0:
448,192,24500,1,0,0:0:0:0:
448,192,24750,1,0,0:0:0:0:
192,192,24750,1,0,0:0:0:0:
64,192,24750,128,0,25000:0:0:0:0:
448,192,25000,1,0,0:0:0:0:
320,192,25125,1,0,0:0:0:0:
192,192,25125,1,0,0:0:0:0:
64,192,25125,1,0,0:0:0:0:
448,192,25250,1,0,0:0:0:0:
320,192,25250,1,0,0:0:0:0:
64,192,25375,1,0,0:0:0:0:
192,192,25375,1,0,0:0:0:0:
448,192,25375,1,0,0:0:0:0:
64,192,25500,1,0,0:0:0:0:
320,192,25500,1,0,0:0:0:0:
64,192,25750,1,0,0:0:0:0:
192,192,25750,1,0,0:0:0:0:
192,192,25875,1,0,0:0:0:0:
448,192,25875,1,0,0:0:0:0:
64,192,26000,1,0,0:0:0:0:
64,192,26250,1,0,0:0:0:0:
320,192,26250,1,0,0:0:0:0:
448,192,26250,128,0,26500:0:0:0:0:
192,192,26500,1,0,0:0:0:0:
192,192,26625,1,0,0:0:0:0:
320,192,26625,1,0,0:0:0:0:
64,192,26750,1,0,0:0:0:0:
192,192,26875,1,0,0:0:0:0:
448,192,26875,1,0,0:0:0:0:
320,192,26875,1,0,0:0:0:0:
320,192,27000,1,0,0:0:0:0:
192,192,27000,1,0,0:0:0:0:
64,192,27000,1,0,0:0:0:0:
320,192,27250,1,0,0:0:0:0:
64,192,27375,1,0,0:0:0:0:
448,192,27375,1,0,0:0:0:0:
320,192,27500,1,0,0:0:0:0:
448,192,27500,1,0,0:0:0:0:
64,192,27625,1,0,0:0:0:0:
320,192,27750,1,0,0:0:0:0:
64,192,27750,1,0,0:0:0:0:
448,192,27875,1,0,0:0:0:0:
320,192,28000,1,0,0:0:0:0:
192,192,28000,1,0,0:0:0:0:
64,192,28125,1,0,0:0:0:0:
192,192,28125,1,0,0:0:0:0:
448,192,28125,1,0,0:0:0:0:
320,192,28250,1,0,0:0:0:0:
192,192,28250,1,0,0:0:0:0:
448,192,28250,1,0,0:0:0:0:
64,192,28375,1,0,0:0:0:0:
192,192,28375,1,0,0:0:0:0:
320,192,28500,1,0,0:0:0:0:
448,192,28500,1,0,0:0:0:0:
64,192,28500,1,0,0:0:0:0:
64,192,28750,1,0,0:0:0:0:
192,192,28750,1,0,0:0:0:0:
448,192,28750,1,0,0:0:0:0:
320,192,28875,1,0,0:0:0:0:
192,192,29000,1,0,0:0:0:0:
64,192,29000,1,0,0:0:0:0:
448,192,29000,1,0,0:0:0:0:
320,192,29125,1,0,0:0:0:0:
64,192,29250,1,0,0:0:0:0:
192,192,29250,1,0,0:0:0:0:
448,192,29250,1,0,0:0:0:0:
192,192,29375,1,0,0:0:0:0:
320,192,29375,1,0,0:0:0:0:
320,192,29500,1,0,0:0:0:0:
448,192,29500,1,0,0:0:0:0:
64,192,29625,1,0,0:0:0:0:
192,192,29625,1,0,0:0:0:0:
448,192,29625,1,0,0:0:0:0:
64,192,29750,1,0,0:0:0:0:
448,192,29750,1,0,0:0:0:0:
448,192,29875,1,0,0:0:0:0:
64,192,29875,1,0,0:0:0:0:
64,192,30000,1,0,0:0:0:0:
448,192,30000,1,0,0:0:0:0:
192,192,30000,1,0,0:0:0:0:
320,192,30000,1,0,0:0:0:0:
192,192,30250,1,0,0:0:0:0:
320,192,30250,1,0,0:0:0:0:
448,192,30375,1,0,0:0:0:0:
320,192,30375,1,0,0:0:0:0:
192,192,30500,1,0,0:0:0:0:
192,192,30750,1,0,0:0:0:0:
448,192,30750,1,0,0:0:0:0:
64,192,30750,128,0,31000:0:0:0:0:
192,192,31000,1,0,0:0:0:0:
320,192,31125,1,0,0:0:0:0:
448,192,31125,1,0,0:0:0:0:
64,192,31125,1,0,0:0:0:0:
192,192,31250,1,0,0:0:0:0:
320,192,31250,1,0,0:0:0:0:
64,192,31375,1,0,0:0:0:0:
192,192,31375,1,0,0:0:0:0:
448,192,31375,1,0,0:0:0:0:
448,192,31500,1,0,0:0:0:0:
320,192,31500,1,0,0:0:0:0:
448,192,31750,1,0,0:0:0:0:
64,192,31750,1,0,0:0:0:0:
192,192,31875,1,0,0:0:0:0:
64,192,31875,1,0,0:0:0:0:
448,192,32000,1,0,0:0:0:0:
320,192,32000,1,0,0:0:0:0:
448,192,32250,1,0,0:0:0:0:
192,192,32250,1,0,0:0:0:0:
320,192,32250,128,0,32500:0:0:0:0:
448,192,32500,1,0,0:0:0:0:
64,192,32625,1,0,0:0:0:0:
320,192,32625,1,0,0:0:0:0:
448,192,32750,1,0,0:0:0:0:
320,192,32875,1,0,0:0:0:0:
192,192,32875,1,0,0:0:0:0:
64,192,32875,1,0,0:0:0:0:
64,192,33000,1,0,0:0:0:0:
192,192,33000,1,0,0:0:0:0:
448,192,33000,1,0,0:0:0:0:
64,192,33250,1,0,0:0:0:0:
448,192,33250,1,0,0:0:0:0:
192,192,33375,1,0,0:0:0:0:
448,192,33375,1,0,0:0:0:0:
64,192,33500,1,0,0:0:0:0:
320,192,33500,1,0,0:0:0:0:
64,192,33750,1,0,0:0:0:0:
192,192,33750,1,0,0:0:0:0:
448,192,33750,128,0,34000:0:0:0:0:
64,192,34000,1,0,0:0:0:0:
320,192,34000,1,0,0:0:0:0:
192,192,34125,1,0,0:0:0:0:
448,192,34125,1,0,0:0:0:0:
320,192,34125,1,0,0:0:0:0:
64,192,34250,1,0,0:0:0:0:
192,192,34250,1,0,0:0:0:0:
448,192,34250,1,0,0:0:0:0:
320,192,34375,1,0,0:0:0:0:
448,192,34375,1,0,0:0:0:0:
64,192,34375,1,0,0:0:0:0:
320,192,34500,1,0,0:0:0:0:
192,192,34500,1,0,0:0:0:0:
64,192,34500,1,0,0:0:0:0:
320,192,34750,1,0,0:0:0:0:
192,192,34750,1,0,0:0:0:0:
448,192,34750,1,0,0:0:0:0:
320,192,34875,1,0,0:0:0:0:
64,192,34875,1,0,0:0:0:0:
320,192,35000,1,0,0:0:0:0:
192,192,35000,1,0,0:0:0:0:
448,192,35000,1,0,0:0:0:0:
64,192,35125,1,0,0:0:0:0:
320,192,35250,1,0,0:0:0:0:
64,192,35250,1,0,0:0:0:0:
448,192,35250,1,0,0:0:0:0:
192,192,35375,1,0,0:0:0:0:
320,192,35375,1,0,0:0:0:0:
320,192,35500,1,0,0:0:0:0:
448,192,35500,1,0,0:0:0:0:
192,192,35625,1,0,0:0:0:0:
448,192,35625,1,0,0:0:0:0:
64,192,35625,1,0,0:0:0:0:
192,192,35750,1,0,0:0:0:0:
448,192,35750,1,0,0:0:0:0:
64,192,35750,1,0,0:0:0:0:
448,192,35875,1,0,0:0:0:0:
192,192,35875,1,0,0:0:0:0:
64,192,35875,1,0,0:0:0:0:
192,192,36000,1,0,0:0:0:0:
448,192,36000,1,0,0:0:0:0:
64,192,36000,1,0,0:0:0:0:
320,192,36000,128,0,37125:0:0:0:0:
448,192,37125,1,0,0:0:0:0:
64,192,37125,1,0,0:0:0:0:
192,192,37125,1,0,0:0:0:0:
192,192,37375,1,0,0:0:0:0:
320,192,37375,1,0,0:0:0:0:
448,192,37375,1,0,0:0:0:0:
64,192,38625,128,0,39000:0:0:0:0:
448,192,38625,128,0,38875:0:0:0:0:
192,192,39000,1,0,0:0:0:0:
320,192,39000,1,0,0:0:0:0:
448,192,39000,1,0,0:0:0:0:
64,192,39375,128,0,39406:0:0:0:0:
192,192,39375,128,0,39406:0:0:0:0:
320,192,39375,128,0,39406:0:0:0:0:
448,192,39375,128,0,39406:0:0:0:0:
64,192,39625,1,0,0:0:0:0:
192,192,39625,1,0,0:0:0:0:
320,192,39625,1,0,0:0:0:0:
448,192,39625,1,0,0:0:0:0:
448,192,39750,1,0,0:0:0:0:
320,192,39750,1,0,0:0:0:0:
192,192,39750,1,0,0:0:0:0:
64,192,39750,1,0,0:0:0:0:
64,192,40125,1,0,0:0:0:0:
192,192,40125,1,0,0:0:0:0:
320,192,40125,1,0,0:0:0:0:
448,192,40125,1,0,0:0:0:0:
320,192,40250,1,0,0:0:0:0:
448,192,40250,1,0,0:0:0:0:
320,192,40375,1,0,0:0:0:0:
448,192,40375,1,0,0:0:0:0:
64,192,40500,1,0,0:0:0:0:
192,192,40500,1,0,0:0:0:0:
448,192,40500,1,0,0:0:0:0:
320,192,40500,1,0,0:0:0:0:
64,192,40875,1,0,0:0:0:0:
192,192,40875,1,0,0:0:0:0:
320,192,40875,1,0,0:0:0:0:
448,192,40875,1,0,0:0:0:0:
64,192,41125,1,0,0:0:0:0:
192,192,41125,1,0,0:0:0:0:
320,192,41125,1,0,0:0:0:0:
448,192,41125,1,0,0:0:0:0:
64,192,41250,1,0,0:0:0:0:
192,192,41250,1,0,0:0:0:0:
320,192,41250,1,0,0:0:0:0:
448,192,41250,1,0,0:0:0:0:
64,192,41625,1,0,0:0:0:0:
192,192,41625,1,0,0:0:0:0:
320,192,41625,1,0,0:0:0:0:
448,192,41625,1,0,0:0:0:0:
192,192,41750,1,0,0:0:0:0:
64,192,41750,1,0,0:0:0:0:
64,192,41875,1,0,0:0:0:0:
192,192,41875,1,0,0:0:0:0:
192,192,42000,1,0,0:0:0:0:
64,192,42000,1,0,0:0:0:0:
320,192,42000,1,0,0:0:0:0:
448,192,42000,1,0,0:0:0:0:
64,192,42250,1,0,0:0:0:0:
192,192,42250,1,0,0:0:0:0:
320,192,42250,1,0,0:0:0:0:
192,192,42492,1,0,0:0:0:0:
320,192,42492,1,0,0:0:0:0:
448,192,42492,1,0,0:0:0:0:
64,192,42750,1,0,0:0:0:0:
192,192,42750,1,0,0:0:0:0:
320,192,42750,1,0,0:0:0:0:
448,192,42960,1,0,0:0:0:0:
320,192,42960,1,0,0:0:0:0:
192,192,43171,1,0,0:0:0:0:
320,192,43171,1,0,0:0:0:0:
192,192,43382,1,0,0:0:0:0:
64,192,43382,1,0,0:0:0:0:
192,192,43546,1,0,0:0:0:0:
320,192,43546,1,0,0:0:0:0:
320,192,43710,1,0,0:0:0:0:
448,192,43710,1,0,0:0:0:0:
64,192,43875,1,0,0:0:0:0:
192,192,44039,1,0,0:0:0:0:
320,192,44179,1,0,0:0:0:0:
448,192,44296,1,0,0:0:0:0:
320,192,44437,1,0,0:0:0:0:
192,192,44554,1,0,0:0:0:0:
64,192,44671,1,0,0:0:0:0:
448,192,44765,1,0,0:0:0:0:
320,192,44882,1,0,0:0:0:0:
192,192,44976,1,0,0:0:0:0:
64,192,45070,1,0,0:0:0:0:
448,192,45164,1,0,0:0:0:0:
320,192,45257,1,0,0:0:0:0:
192,192,45351,1,0,0:0:0:0:
64,192,45445,1,0,0:0:0:0:
448,192,45515,1,0,0:0:0:0:
320,192,45585,1,0,0:0:0:0:
192,192,45656,1,0,0:0:0:0:
64,192,45726,1,0,0:0:0:0:
448,192,45796,1,0,0:0:0:0:
320,192,45867,1,0,0:0:0:0:
192,192,45937,1,0,0:0:0:0:
64,192,46007,1,0,0:0:0:0:
448,192,46054,1,0,0:0:0:0:
320,192,46101,1,0,0:0:0:0:
192,192,46171,1,0,0:0:0:0:
64,192,46218,1,0,0:0:0:0:
448,192,46265,1,0,0:0:0:0:
320,192,46312,1,0,0:0:0:0:
192,192,46359,1,0,0:0:0:0:
64,192,46406,1,0,0:0:0:0:
448,192,46500,128,0,47906:0:0:0:0:
64,192,48000,1,0,0:0:0:0:
192,192,48000,1,0,0:0:0:0:
320,192,48000,1,0,0:0:0:0:
448,192,48000,1,0,0:0:0:0:
64,192,51000,128,0,51125:0:0:0:0:
448,192,51000,128,0,51125:0:0:0:0:
192,192,51250,128,0,51375:0:0:0:0:
320,192,51250,128,0,51375:0:0:0:0:
64,192,51375,128,0,51500:0:0:0:0:
448,192,51375,128,0,51500:0:0:0:0:
64,192,51625,128,0,51750:0:0:0:0:
192,192,51625,128,0,51750:0:0:0:0:
320,192,51750,128,0,51875:0:0:0:0:
448,192,51750,128,0,51875:0:0:0:0:
320,192,52000,128,0,52125:0:0:0:0:
448,192,52000,128,0,52125:0:0:0:0:
64,192,52125,1,0,0:0:0:0:
192,192,52125,1,0,0:0:0:0:
192,192,52250,1,0,0:0:0:0:
320,192,52250,1,0,0:0:0:0:
448,192,52250,1,0,0:0:0:0:
64,192,52375,1,0,0:0:0:0:
192,192,52375,1,0,0:0:0:0:
448,192,52375,1,0,0:0:0:0:
320,192,52500,1,0,0:0:0:0:
192,192,52500,1,0,0:0:0:0:
64,192,52500,128,0,52625:0:0:0:0:
448,192,52500,128,0,52625:0:0:0:0:
64,192,52750,1,0,0:0:0:0:
192,192,52750,1,0,0:0:0:0:
320,192,52750,1,0,0:0:0:0:
448,192,52750,1,0,0:0:0:0:
192,192,52875,128,0,53000:0:0:0:0:
320,192,52875,128,0,53000:0:0:0:0:
64,192,53000,1,0,0:0:0:0:
448,192,53000,1,0,0:0:0:0:
64,192,53125,128,0,53250:0:0:0:0:
448,192,53125,128,0,53250:0:0:0:0:
192,192,53250,1,0,0:0:0:0:
320,192,53250,128,0,53500:0:0:0:0:
64,192,53500,128,0,53625:0:0:0:0:
192,192,53625,1,0,0:0:0:0:
320,192,53625,1,0,0:0:0:0:
448,192,53625,1,0,0:0:0:0:
320,192,53750,1,0,0:0:0:0:
448,192,53750,1,0,0:0:0:0:
64,192,53875,1,0,0:0:0:0:
448,192,53875,1,0,0:0:0:0:
320,192,54000,1,0,0:0:0:0:
192,192,54000,1,0,0:0:0:0:
64,192,54000,1,0,0:0:0:0:
448,192,54000,1,0,0:0:0:0:
192,192,54375,1,0,0:0:0:0:
448,192,54750,1,0,0:0:0:0:
64,192,55000,128,0,55375:0:0:0:0:
192,192,55125,1,0,0:0:0:0:
320,192,55125,1,0,0:0:0:0:
448,192,55125,1,0,0:0:0:0:
192,192,55375,1,0,0:0:0:0:
320,192,55375,1,0,0:0:0:0:
448,192,55375,1,0,0:0:0:0:
192,192,55500,128,0,55875:0:0:0:0:
448,192,55875,128,0,56000:0:0:0:0:
64,192,56125,128,0,56250:0:0:0:0:
448,192,56250,128,0,56500:0:0:0:0:
64,192,56500,128,0,56625:0:0:0:0:
320,192,56625,128,0,56875:0:0:0:0:
64,192,56875,1,0,0:0:0:0:
192,192,56875,1,0,0:0:0:0:
448,192,56875,1,0,0:0:0:0:
192,192,57000,1,0,0:0:0:0:
448,192,57000,1,0,0:0:0:0:
448,192,57375,1,0,0:0:0:0:
448,192,57750,1,0,0:0:0:0:
448,192,58125,1,0,0:0:0:0:
64,192,58125,1,0,0:0:0:0:
320,192,58125,1,0,0:0:0:0:
320,192,58250,1,0,0:0:0:0:
448,192,58250,1,0,0:0:0:0:
192,192,58250,1,0,0:0:0:0:
64,192,58375,1,0,0:0:0:0:
192,192,58375,1,0,0:0:0:0:
448,192,58375,1,0,0:0:0:0:
192,192,58500,1,0,0:0:0:0:
320,192,58500,1,0,0:0:0:0:
448,192,58500,1,0,0:0:0:0:
448,192,58875,1,0,0:0:0:0:
448,192,59250,1,0,0:0:0:0:
64,192,59250,1,0,0:0:0:0:
448,192,59375,1,0,0:0:0:0:
192,192,59375,1,0,0:0:0:0:
448,192,59500,1,0,0:0:0:0:
64,192,59500,1,0,0:0:0:0:
320,192,59625,1,0,0:0:0:0:
192,192,59625,1,0,0:0:0:0:
64,192,59625,128,0,60000:0:0:0:0:
192,192,60000,1,0,0:0:0:0:
320,192,60000,1,0,0:0:0:0:
448,192,60000,1,0,0:0:0:0:
64,192,60093,1,0,0:0:0:0:
192,192,60187,1,0,0:0:0:0:
320,192,60281,1,0,0:0:0:0:
448,192,60375,1,0,0:0:0:0:
192,192,60375,1,0,0:0:0:0:
64,192,60375,1,0,0:0:0:0:
320,192,60468,1,0,0:0:0:0:
192,192,60562,1,0,0:0:0:0:
64,192,60656,1,0,0:0:0:0:
192,192,60750,1,0,0:0:0:0:
320,192,60750,1,0,0:0:0:0:
448,192,60750,1,0,0:0:0:0:
64,192,60843,1,0,0:0:0:0:
448,192,60937,1,0,0:0:0:0:
64,192,61031,1,0,0:0:0:0:
192,192,61031,1,0,0:0:0:0:
192,192,61125,1,0,0:0:0:0:
320,192,61125,1,0,0:0:0:0:
448,192,61125,128,0,61312:0:0:0:0:
64,192,61312,1,0,0:0:0:0:
320,192,61312,1,0,0:0:0:0:
192,192,61406,1,0,0:0:0:0:
320,192,61500,1,0,0:0:0:0:
448,192,61500,1,0,0:0:0:0:
64,192,61500,1,0,0:0:0:0:
192,192,61593,1,0,0:0:0:0:
448,192,61687,1,0,0:0:0:0:
192,192,61781,1,0,0:0:0:0:
320,192,61875,1,0,0:0:0:0:
64,192,61875,1,0,0:0:0:0:
448,192,61875,1,0,0:0:0:0:
192,192,61968,1,0,0:0:0:0:
64,192,62062,1,0,0:0:0:0:
448,192,62062,1,0,0:0:0:0:
192,192,62156,1,0,0:0:0:0:
320,192,62250,1,0,0:0:0:0:
448,192,62250,1,0,0:0:0:0:
64,192,62250,1,0,0:0:0:0:
192,192,62343,1,0,0:0:0:0:
448,192,62437,1,0,0:0:0:0:
320,192,62437,1,0,0:0:0:0:
64,192,62531,1,0,0:0:0:0:
192,192,62625,1,0,0:0:0:0:
320,192,62625,1,0,0:0:0:0:
64,192,62625,1,0,0:0:0:0:
448,192,62625,128,0,63000:0:0:0:0:
64,192,63000,1,0,0:0:0:0:
192,192,63000,1,0,0:0:0:0:
320,192,63000,1,0,0:0:0:0:
448,192,63093,1,0,0:0:0:0:
64,192,63187,1,0,0:0:0:0:
192,192,63281,1,0,0:0:0:0:
64,192,63375,1,0,0:0:0:0:
448,192,63375,1,0,0:0:0:0:
320,192,63375,1,0,0:0:0:0:
192,192,63468,1,0,0:0:0:0:
448,192,63562,1,0,0:0:0:0:
64,192,63656,1,0,0:0:0:0:
192,192,63750,1,0,0:0:0:0:
448,192,63750,1,0,0:0:0:0:
320,192,63750,1,0,0:0:0:0:
64,192,63843,1,0,0:0:0:0:
192,192,63937,1,0,0:0:0:0:
448,192,63937,1,0,0:0:0:0:
320,192,64031,1,0,0:0:0:0:
192,192,64125,1,0,0:0:0:0:
448,192,64125,1,0,0:0:0:0:
64,192,64125,128,0,64312:0:0:0:0:
192,192,64312,1,0,0:0:0:0:
320,192,64312,1,0,0:0:0:0:
448,192,64406,1,0,0:0:0:0:
320,192,64500,1,0,0:0:0:0:
192,192,64500,1,0,0:0:0:0:
64,192,64500,1,0,0:0:0:0:
448,192,64593,1,0,0:0:0:0:
320,192,64687,1,0,0:0:0:0:
448,192,64781,1,0,0:0:0:0:
192,192,64781,1,0,0:0:0:0:
64,192,64781,1,0,0:0:0:0:
64,192,64875,1,0,0:0:0:0:
192,192,64875,1,0,0:0:0:0:
320,192,64875,1,0,0:0:0:0:
448,192,64875,1,0,0:0:0:0:
320,192,64968,1,0,0:0:0:0:
192,192,65062,1,0,0:0:0:0:
448,192,65062,1,0,0:0:0:0:
64,192,65062,1,0,0:0:0:0:
320,192,65156,1,0,0:0:0:0:
448,192,65250,1,0,0:0:0:0:
192,192,65250,1,0,0:0:0:0:
64,192,65250,128,0,65625:0:0:0:0:
320,192,65250,1,0,0:0:0:0:
192,192,65531,1,0,0:0:0:0:
320,192,65625,1,0,0:0:0:0:
448,192,65625,128,0,66000:0:0:0:0:
192,192,65625,1,0,0:0:0:0:
64,192,66000,1,0,0:0:0:0:
192,192,66000,1,0,0:0:0:0:
320,192,66000,1,0,0:0:0:0:
192,192,66125,1,0,0:0:0:0:
320,192,66125,1,0,0:0:0:0:
192,192,66250,1,0,0:0:0:0:
448,192,66250,1,0,0:0:0:0:
64,192,66375,1,0,0:0:0:0:
192,192,66375,1,0,0:0:0:0:
320,192,66375,1,0,0:0:0:0:
448,192,66375,1,0,0:0:0:0:
320,192,66500,1,0,0:0:0:0:
64,192,66500,1,0,0:0:0:0:
320,192,66625,1,0,0:0:0:0:
192,192,66625,1,0,0:0:0:0:
64,192,66750,1,0,0:0:0:0:
192,192,66750,1,0,0:0:0:0:
320,192,66750,1,0,0:0:0:0:
448,192,66750,1,0,0:0:0:0:
320,192,66875,1,0,0:0:0:0:
448,192,66875,1,0,0:0:0:0:
192,192,67000,1,0,0:0:0:0:
320,192,67000,1,0,0:0:0:0:
192,192,67125,1,0,0:0:0:0:
320,192,67125,1,0,0:0:0:0:
448,192,67125,128,0,67500:0:0:0:0:
64,192,67125,128,0,67500:0:0:0:0:
192,192,67500,1,0,0:0:0:0:
320,192,67500,1,0,0:0:0:0:
64,192,67625,1,0,0:0:0:0:
192,192,67625,1,0,0:0:0:0:
448,192,67625,1,0,0:0:0:0:
448,192,67750,1,0,0:0:0:0:
64,192,67750,1,0,0:0:0:0:
192,192,67750,1,0,0:0:0:0:
192,192,67875,1,0,0:0:0:0:
320,192,67875,1,0,0:0:0:0:
64,192,68000,1,0,0:0:0:0:
320,192,68000,1,0,0:0:0:0:
448,192,68000,1,0,0:0:0:0:
64,192,68125,1,0,0:0:0:0:
320,192,68125,1,0,0:0:0:0:
448,192,68125,1,0,0:0:0:0:
64,192,68250,1,0,0:0:0:0:
320,192,68250,1,0,0:0:0:0:
448,192,68250,1,0,0:0:0:0:
192,192,68375,1,0,0:0:0:0:
320,192,68375,1,0,0:0:0:0:
192,192,68500,1,0,0:0:0:0:
448,192,68500,1,0,0:0:0:0:
320,192,68500,1,0,0:0:0:0:
64,192,68625,1,0,0:0:0:0:
192,192,68625,1,0,0:0:0:0:
448,192,68625,1,0,0:0:0:0:
320,192,68750,1,0,0:0:0:0:
64,192,68750,1,0,0:0:0:0:
192,192,69000,1,0,0:0:0:0:
320,192,69000,1,0,0:0:0:0:
448,192,69000,1,0,0:0:0:0:
64,192,69000,1,0,0:0:0:0:
64,192,69125,1,0,0:0:0:0:
448,192,69125,1,0,0:0:0:0:
448,192,69250,1,0,0:0:0:0:
64,192,69250,1,0,0:0:0:0:
64,192,69375,1,0,0:0:0:0:
192,192,69375,1,0,0:0:0:0:
448,192,69375,1,0,0:0:0:0:
320,192,69375,1,0,0:0:0:0:
192,192,69500,1,0,0:0:0:0:
320,192,69500,1,0,0:0:0:0:
320,192,69625,1,0,0:0:0:0:
192,192,69625,1,0,0:0:0:0:
64,192,69750,1,0,0:0:0:0:
192,192,69750,1,0,0:0:0:0:
320,192,69750,1,0,0:0:0:0:
448,192,69750,1,0,0:0:0:0:
64,192,69875,1,0,0:0:0:0:
448,192,69875,1,0,0:0:0:0:
192,192,70000,1,0,0:0:0:0:
448,192,70000,1,0,0:0:0:0:
320,192,70125,1,0,0:0:0:0:
448,192,70125,1,0,0:0:0:0:
192,192,70125,1,0,0:0:0:0:
64,192,70125,1,0,0:0:0:0:
64,192,70250,1,0,0:0:0:0:
320,192,70250,1,0,0:0:0:0:
64,192,70500,1,0,0:0:0:0:
192,192,70500,1,0,0:0:0:0:
320,192,70500,1,0,0:0:0:0:
448,192,70500,1,0,0:0:0:0:
192,192,70625,1,0,0:0:0:0:
192,192,70750,1,0,0:0:0:0:
448,192,70875,1,0,0:0:0:0:
320,192,70875,1,0,0:0:0:0:
192,192,70875,1,0,0:0:0:0:
64,192,70875,1,0,0:0:0:0:
320,192,71000,1,0,0:0:0:0:
320,192,71125,1,0,0:0:0:0:
448,192,71250,1,0,0:0:0:0:
320,192,71250,1,0,0:0:0:0:
192,192,71250,1,0,0:0:0:0:
64,192,71250,1,0,0:0:0:0:
64,192,71375,1,0,0:0:0:0:
64,192,71500,1,0,0:0:0:0:
64,192,71625,1,0,0:0:0:0:
192,192,71625,1,0,0:0:0:0:
320,192,71625,1,0,0:0:0:0:
448,192,71625,128,0,72000:0:0:0:0:
64,192,72000,1,0,0:0:0:0:
320,192,72000,1,0,0:0:0:0:
192,192,72093,1,0,0:0:0:0:
320,192,72187,1,0,0:0:0:0:
448,192,72187,1,0,0:0:0:0:
64,192,72281,1,0,0:0:0:0:
192,192,72375,1,0,0:0:0:0:
320,192,72375,1,0,0:0:0:0:
448,192,72375,1,0,0:0:0:0:
64,192,72468,1,0,0:0:0:0:
192,192,72562,1,0,0:0:0:0:
448,192,72562,1,0,0:0:0:0:
320,192,72656,1,0,0:0:0:0:
192,192,72750,1,0,0:0:0:0:
64,192,72750,1,0,0:0:0:0:
448,192,72843,1,0,0:0:0:0:
64,192,72937,1,0,0:0:0:0:
448,192,73031,1,0,0:0:0:0:
192,192,73125,1,0,0:0:0:0:
64,192,73125,1,0,0:0:0:0:
320,192,73125,128,0,73500:0:0:0:0:
64,192,73406,1,0,0:0:0:0:
192,192,73500,1,0,0:0:0:0:
448,192,73500,1,0,0:0:0:0:
64,192,73593,1,0,0:0:0:0:
320,192,73687,1,0,0:0:0:0:
448,192,73687,1,0,0:0:0:0:
64,192,73781,1,0,0:0:0:0:
192,192,73875,1,0,0:0:0:0:
320,192,73875,1,0,0:0:0:0:
448,192,73875,1,0,0:0:0:0:
64,192,73968,1,0,0:0:0:0:
320,192,74062,1,0,0:0:0:0:
448,192,74062,1,0,0:0:0:0:
192,192,74156,1,0,0:0:0:0:
64,192,74250,1,0,0:0:0:0:
448,192,74250,1,0,0:0:0:0:
192,192,74343,1,0,0:0:0:0:
320,192,74343,1,0,0:0:0:0:
448,192,74437,1,0,0:0:0:0:
64,192,74531,1,0,0:0:0:0:
192,192,74531,1,0,0:0:0:0:
192,192,74625,1,0,0:0:0:0:
320,192,74625,1,0,0:0:0:0:
64,192,74625,1,0,0:0:0:0:
448,192,74625,128,0,75000:0:0:0:0:
64,192,75000,1,0,0:0:0:0:
192,192,75000,1,0,0:0:0:0:
320,192,75093,1,0,0:0:0:0:
448,192,75187,1,0,0:0:0:0:
64,192,75187,1,0,0:0:0:0:
192,192,75281,1,0,0:0:0:0:
320,192,75375,1,0,0:0:0:0:
448,192,75375,1,0,0:0:0:0:
64,192,75375,1,0,0:0:0:0:
64,192,75562,1,0,0:0:0:0:
448,192,75562,1,0,0:0:0:0:
192,192,75562,1,0,0:0:0:0:
320,192,75656,1,0,0:0:0:0:
192,192,75750,1,0,0:0:0:0:
64,192,75750,1,0,0:0:0:0:
448,192,75750,1,0,0:0:0:0:
320,192,75937,1,0,0:0:0:0:
448,192,75937,1,0,0:0:0:0:
64,192,75937,1,0,0:0:0:0:
192,192,76031,1,0,0:0:0:0:
64,192,76125,1,0,0:0:0:0:
320,192,76125,1,0,0:0:0:0:
448,192,76125,128,0,76500:0:0:0:0:
64,192,76406,1,0,0:0:0:0:
192,192,76500,1,0,0:0:0:0:
320,192,76500,1,0,0:0:0:0:
64,192,76687,1,0,0:0:0:0:
320,192,76781,1,0,0:0:0:0:
448,192,76781,1,0,0:0:0:0:
64,192,76875,1,0,0:0:0:0:
192,192,76875,1,0,0:0:0:0:
448,192,76875,1,0,0:0:0:0:
64,192,77062,1,0,0:0:0:0:
192,192,77062,1,0,0:0:0:0:
320,192,77156,1,0,0:0:0:0:
448,192,77156,1,0,0:0:0:0:
64,192,77343,1,0,0:0:0:0:
192,192,77343,1,0,0:0:0:0:
448,192,77343,1,0,0:0:0:0:
320,192,77437,1,0,0:0:0:0:
192,192,77531,1,0,0:0:0:0:
64,192,77625,1,0,0:0:0:0:
320,192,77625,1,0,0:0:0:0:
448,192,77625,128,0,78000:0:0:0:0:
64,192,78000,128,0,78375:0:0:0:0:
192,192,78000,1,0,0:0:0:0:
192,192,78375,128,0,78750:0:0:0:0:
448,192,78375,1,0,0:0:0:0:
320,192,78750,128,0,79125:0:0:0:0:
64,192,78750,1,0,0:0:0:0:
64,192,78875,1,0,0:0:0:0:
64,192,79000,1,0,0:0:0:0:
64,192,79125,1,0,0:0:0:0:
448,192,79125,128,0,79500:0:0:0:0:
64,192,79500,1,0,0:0:0:0:
320,192,79500,1,0,0:0:0:0:
448,192,79750,1,0,0:0:0:0:
64,192,79750,1,0,0:0:0:0:
448,192,80000,1,0,0:0:0:0:
64,192,80000,1,0,0:0:0:0:
64,192,80125,1,0,0:0:0:0:
448,192,80125,1,0,0:0:0:0:
448,192,80250,1,0,0:0:0:0:
64,192,80250,1,0,0:0:0:0:
192,192,80250,1,0,0:0:0:0:
64,192,80500,1,0,0:0:0:0:
448,192,80500,1,0,0:0:0:0:
192,192,80625,128,0,80750:0:0:0:0:
64,192,80750,1,0,0:0:0:0:
448,192,80750,1,0,0:0:0:0:
64,192,81000,1,0,0:0:0:0:
320,192,81000,128,0,81375:0:0:0:0:
192,192,81375,1,0,0:0:0:0:
64,192,81375,1,0,0:0:0:0:
448,192,81375,1,0,0:0:0:0:
64,192,81750,1,0,0:0:0:0:
192,192,81875,1,0,0:0:0:0:
320,192,81875,1,0,0:0:0:0:
448,192,81875,1,0,0:0:0:0:
320,192,82000,1,0,0:0:0:0:
64,192,82125,1,0,0:0:0:0:
448,192,82125,1,0,0:0:0:0:
192,192,82125,1,0,0:0:0:0:
64,192,82250,1,0,0:0:0:0:
192,192,82250,1,0,0:0:0:0:
448,192,82250,1,0,0:0:0:0:
448,192,82375,1,0,0:0:0:0:
192,192,82375,1,0,0:0:0:0:
64,192,82375,1,0,0:0:0:0:
320,192,82500,128,0,82625:0:0:0:0:
320,192,82750,128,0,82875:0:0:0:0:
64,192,82875,1,0,0:0:0:0:
448,192,82875,1,0,0:0:0:0:
192,192,82875,128,0,83250:0:0:0:0:
64,192,83250,1,0,0:0:0:0:
448,192,83250,1,0,0:0:0:0:
320,192,83250,128,0,83625:0:0:0:0:
64,192,83625,1,0,0:0:0:0:
448,192,83625,1,0,0:0:0:0:
192,192,83625,1,0,0:0:0:0:
192,192,84000,1,0,0:0:0:0:
320,192,84000,128,0,84312:0:0:0:0:
448,192,84000,128,0,84312:0:0:0:0:
64,192,84000,128,0,84312:0:0:0:0:
64,192,84375,128,0,84687:0:0:0:0:
448,192,84375,128,0,84687:0:0:0:0:
192,192,84375,128,0,84687:0:0:0:0:
320,192,84375,1,0,0:0:0:0:
320,192,84750,128,0,85062:0:0:0:0:
192,192,84750,1,0,0:0:0:0:
448,192,84750,128,0,85062:0:0:0:0:
64,192,84750,128,0,85062:0:0:0:0:
448,192,85125,128,0,85437:0:0:0:0:
64,192,85125,1,0,0:0:0:0:
192,192,85125,1,0,0:0:0:0:
320,192,85125,128,0,85437:0:0:0:0:
192,192,85250,1,0,0:0:0:0:
64,192,85250,1,0,0:0:0:0:
64,192,85375,1,0,0:0:0:0:
192,192,85375,1,0,0:0:0:0:
320,192,85500,128,0,85812:0:0:0:0:
64,192,85500,1,0,0:0:0:0:
448,192,85500,128,0,85812:0:0:0:0:
192,192,85500,128,0,85812:0:0:0:0:
192,192,85875,128,0,86187:0:0:0:0:
64,192,85875,128,0,86187:0:0:0:0:
320,192,85875,128,0,86187:0:0:0:0:
448,192,85875,1,0,0:0:0:0:
192,192,86250,128,0,86562:0:0:0:0:
64,192,86250,1,0,0:0:0:0:
320,192,86250,128,0,86562:0:0:0:0:
448,192,86250,128,0,86562:0:0:0:0:
320,192,86625,128,0,86937:0:0:0:0:
192,192,86625,128,0,86937:0:0:0:0:
64,192,86625,1,0,0:0:0:0:
448,192,86625,1,0,0:0:0:0:
64,192,86875,1,0,0:0:0:0:
448,192,86875,1,0,0:0:0:0:
448,192,87000,128,0,87312:0:0:0:0:
192,192,87000,128,0,87312:0:0:0:0:
64,192,87000,128,0,87312:0:0:0:0:
320,192,87000,1,0,0:0:0:0:
448,192,87375,128,0,87687:0:0:0:0:
64,192,87375,128,0,87687:0:0:0:0:
320,192,87375,1,0,0:0:0:0:
192,192,87375,128,0,87687:0:0:0:0:
320,192,87750,1,0,0:0:0:0:
192,192,87750,128,0,88062:0:0:0:0:
448,192,87750,128,0,88062:0:0:0:0:
64,192,87750,128,0,88062:0:0:0:0:
64,192,88125,128,0,88437:0:0:0:0:
320,192,88125,1,0,0:0:0:0:
192,192,88125,128,0,88437:0:0:0:0:
448,192,88125,1,0,0:0:0:0:
320,192,88250,1,0,0:0:0:0:
320,192,88375,1,0,0:0:0:0:
448,192,88375,1,0,0:0:0:0:
192,192,88500,1,0,0:0:0:0:
320,192,88500,128,0,88812:0:0:0:0:
448,192,88500,128,0,88812:0:0:0:0:
192,192,88750,1,0,0:0:0:0:
64,192,88750,1,0,0:0:0:0:
320,192,88875,128,0,89187:0:0:0:0:
448,192,88875,128,0,89187:0:0:0:0:
64,192,89000,1,0,0:0:0:0:
192,192,89000,1,0,0:0:0:0:
192,192,89125,1,0,0:0:0:0:
448,192,89250,128,0,89562:0:0:0:0:
320,192,89250,128,0,89562:0:0:0:0:
64,192,89500,1,0,0:0:0:0:
192,192,89500,1,0,0:0:0:0:
192,192,89625,1,0,0:0:0:0:
320,192,89625,1,0,0:0:0:0:
448,192,89625,1,0,0:0:0:0:
64,192,89625,128,0,89937:0:0:0:0:
192,192,90000,1,0,0:0:0:0:
320,192,90000,128,0,90312:0:0:0:0:
448,192,90000,128,0,90312:0:0:0:0:
64,192,90000,128,0,90312:0:0:0:0:
64,192,90375,128,0,90687:0:0:0:0:
448,192,90375,128,0,90687:0:0:0:0:
192,192,90375,128,0,90687:0:0:0:0:
320,192,90375,1,0,0:0:0:0:
320,192,90750,128,0,91062:0:0:0:0:
192,192,90750,1,0,0:0:0:0:
448,192,90750,128,0,91062:0:0:0:0:
64,192,90750,128,0,91062:0:0:0:0:
192,192,91125,128,0,91437:0:0:0:0:
64,192,91125,128,0,91437:0:0:0:0:
448,192,91125,1,0,0:0:0:0:
320,192,91125,1,0,0:0:0:0:
320,192,91250,1,0,0:0:0:0:
448,192,91250,1,0,0:0:0:0:
448,192,91375,1,0,0:0:0:0:
320,192,91375,1,0,0:0:0:0:
320,192,91500,128,0,91812:0:0:0:0:
64,192,91500,1,0,0:0:0:0:
448,192,91500,128,0,91812:0:0:0:0:
192,192,91500,128,0,91812:0:0:0:0:
192,192,91875,128,0,92187:0:0:0:0:
64,192,91875,128,0,92187:0:0:0:0:
320,192,91875,128,0,92187:0:0:0:0:
448,192,91875,1,0,0:0:0:0:
192,192,92250,128,0,92562:0:0:0:0:
64,192,92250,1,0,0:0:0:0:
320,192,92250,128,0,92562:0:0:0:0:
448,192,92250,128,0,92562:0:0:0:0:
320,192,92625,128,0,92937:0:0:0:0:
192,192,92625,128,0,92937:0:0:0:0:
64,192,92625,1,0,0:0:0:0:
448,192,92625,1,0,0:0:0:0:
448,192,92875,1,0,0:0:0:0:
64,192,92875,1,0,0:0:0:0:
192,192,93000,1,0,0:0:0:0:
320,192,93000,1,0,0:0:0:0:
192,192,93250,1,0,0:0:0:0:
320,192,93250,1,0,0:0:0:0:
192,192,93500,1,0,0:0:0:0:
320,192,93500,1,0,0:0:0:0:
192,192,93625,1,0,0:0:0:0:
320,192,93625,1,0,0:0:0:0:
192,192,93750,1,0,0:0:0:0:
320,192,93750,1,0,0:0:0:0:
64,192,93750,1,0,0:0:0:0:
448,192,93750,1,0,0:0:0:0:
64,192,94000,1,0,0:0:0:0:
448,192,94000,1,0,0:0:0:0:
64,192,94250,1,0,0:0:0:0:
448,192,94250,1,0,0:0:0:0:
64,192,94375,1,0,0:0:0:0:
448,192,94375,1,0,0:0:0:0:
192,192,94500,1,0,0:0:0:0:
320,192,94500,1,0,0:0:0:0:
448,192,94500,1,0,0:0:0:0:
64,192,94500,1,0,0:0:0:0:
64,192,94750,1,0,0:0:0:0:
320,192,94750,1,0,0:0:0:0:
192,192,95000,1,0,0:0:0:0:
448,192,95000,1,0,0:0:0:0:
192,192,95125,1,0,0:0:0:0:
448,192,95125,1,0,0:0:0:0:
64,192,95250,1,0,0:0:0:0:
448,192,95250,1,0,0:0:0:0:
64,192,95500,1,0,0:0:0:0:
320,192,95500,1,0,0:0:0:0:
64,192,95625,1,0,0:0:0:0:
192,192,95625,1,0,0:0:0:0:
320,192,95625,1,0,0:0:0:0:
448,192,95625,128,0,95937:0:0:0:0:
192,192,96000,1,0,0:0:0:0:
320,192,96000,128,0,96312:0:0:0:0:
448,192,96000,128,0,96312:0:0:0:0:
64,192,96000,128,0,96312:0:0:0:0:
192,192,96375,128,0,96687:0:0:0:0:
64,192,96375,128,0,96687:0:0:0:0:
448,192,96375,1,0,0:0:0:0:
320,192,96500,1,0,0:0:0:0:
448,192,96500,1,0,0:0:0:0:
320,192,96625,1,0,0:0:0:0:
320,192,96750,128,0,97062:0:0:0:0:
192,192,96750,1,0,0:0:0:0:
448,192,96750,128,0,97062:0:0:0:0:
64,192,96750,128,0,97062:0:0:0:0:
64,192,97125,128,0,97437:0:0:0:0:
192,192,97125,1,0,0:0:0:0:
320,192,97125,1,0,0:0:0:0:
448,192,97125,1,0,0:0:0:0:
320,192,97250,1,0,0:0:0:0:
448,192,97250,1,0,0:0:0:0:
192,192,97375,1,0,0:0:0:0:
320,192,97375,1,0,0:0:0:0:
448,192,97375,1,0,0:0:0:0:
320,192,97500,128,0,97812:0:0:0:0:
64,192,97500,1,0,0:0:0:0:
192,192,97500,128,0,97812:0:0:0:0:
448,192,97750,1,0,0:0:0:0:
192,192,97875,128,0,98187:0:0:0:0:
320,192,97875,128,0,98187:0:0:0:0:
448,192,97875,1,0,0:0:0:0:
64,192,98000,1,0,0:0:0:0:
192,192,98250,128,0,98562:0:0:0:0:
64,192,98250,1,0,0:0:0:0:
320,192,98250,128,0,98562:0:0:0:0:
448,192,98250,128,0,98562:0:0:0:0:
64,192,98500,1,0,0:0:0:0:
192,192,98625,128,0,98937:0:0:0:0:
64,192,98625,1,0,0:0:0:0:
448,192,98625,1,0,0:0:0:0:
320,192,98625,1,0,0:0:0:0:
448,192,98750,1,0,0:0:0:0:
64,192,98875,1,0,0:0:0:0:
448,192,98875,1,0,0:0:0:0:
320,192,98875,1,0,0:0:0:0:
448,192,99000,128,0,99312:0:0:0:0:
192,192,99000,128,0,99312:0:0:0:0:
64,192,99000,128,0,99312:0:0:0:0:
320,192,99000,1,0,0:0:0:0:
320,192,99250,1,0,0:0:0:0:
448,192,99375,128,0,99687:0:0:0:0:
320,192,99375,1,0,0:0:0:0:
192,192,99375,128,0,99687:0:0:0:0:
64,192,99562,1,0,0:0:0:0:
320,192,99750,1,0,0:0:0:0:
192,192,99750,128,0,100062:0:0:0:0:
448,192,99750,128,0,100062:0:0:0:0:
64,192,99750,1,0,0:0:0:0:
64,192,99937,1,0,0:0:0:0:
64,192,100125,128,0,100437:0:0:0:0:
320,192,100125,1,0,0:0:0:0:
192,192,100125,128,0,100437:0:0:0:0:
448,192,100125,1,0,0:0:0:0:
320,192,100250,1,0,0:0:0:0:
320,192,100375,1,0,0:0:0:0:
448,192,100375,1,0,0:0:0:0:
192,192,100500,1,0,0:0:0:0:
320,192,100500,128,0,100812:0:0:0:0:
448,192,100500,128,0,100812:0:0:0:0:
192,192,100750,1,0,0:0:0:0:
64,192,100750,1,0,0:0:0:0:
320,192,100875,128,0,101187:0:0:0:0:
448,192,100875,128,0,101187:0:0:0:0:
64,192,101000,1,0,0:0:0:0:
192,192,101000,1,0,0:0:0:0:
192,192,101125,1,0,0:0:0:0:
448,192,101250,128,0,101562:0:0:0:0:
320,192,101250,128,0,101562:0:0:0:0:
64,192,101500,1,0,0:0:0:0:
192,192,101500,1,0,0:0:0:0:
192,192,101625,1,0,0:0:0:0:
320,192,101625,1,0,0:0:0:0:
448,192,101625,1,0,0:0:0:0:
64,192,101625,128,0,101750:0:0:0:0:
448,192,101750,128,0,101875:0:0:0:0:
192,192,101875,128,0,102000:0:0:0:0:
448,192,102000,128,0,102312:0:0:0:0:
64,192,102000,128,0,102312:0:0:0:0:
64,192,102375,128,0,102687:0:0:0:0:
192,192,102375,128,0,102687:0:0:0:0:
320,192,102375,1,0,0:0:0:0:
448,192,102500,1,0,0:0:0:0:
448,192,102625,1,0,0:0:0:0:
448,192,102750,128,0,103062:0:0:0:0:
64,192,102750,128,0,103062:0:0:0:0:
448,192,103125,128,0,103437:0:0:0:0:
192,192,103125,1,0,0:0:0:0:
320,192,103250,1,0,0:0:0:0:
64,192,103375,1,0,0:0:0:0:
320,192,103500,128,0,103812:0:0:0:0:
64,192,103500,1,0,0:0:0:0:
192,192,103500,128,0,103812:0:0:0:0:
448,192,103750,1,0,0:0:0:0:
192,192,103875,128,0,104187:0:0:0:0:
64,192,103875,128,0,104187:0:0:0:0:
320,192,104000,1,0,0:0:0:0:
192,192,104250,128,0,104562:0:0:0:0:
64,192,104250,1,0,0:0:0:0:
448,192,104250,128,0,104562:0:0:0:0:
192,192,104625,128,0,104937:0:0:0:0:
64,192,104625,1,0,0:0:0:0:
448,192,104625,1,0,0:0:0:0:
320,192,104750,1,0,0:0:0:0:
320,192,104875,1,0,0:0:0:0:
448,192,105000,128,0,105125:0:0:0:0:
64,192,105000,128,0,105125:0:0:0:0:
192,192,105000,1,0,0:0:0:0:
448,192,105250,128,0,105375:0:0:0:0:
64,192,105250,128,0,105375:0:0:0:0:
320,192,105250,1,0,0:0:0:0:
448,192,105500,128,0,105625:0:0:0:0:
64,192,105500,128,0,105625:0:0:0:0:
192,192,105500,128,0,105625:0:0:0:0:
192,192,105750,128,0,105875:0:0:0:0:
320,192,105750,128,0,105875:0:0:0:0:
192,192,106000,1,0,0:0:0:0:
448,192,106000,1,0,0:0:0:0:
448,192,106125,1,0,0:0:0:0:
320,192,106250,1,0,0:0:0:0:
64,192,106250,1,0,0:0:0:0:
320,192,106500,1,0,0:0:0:0:
64,192,106500,1,0,0:0:0:0:
192,192,106500,1,0,0:0:0:0:
448,192,106500,128,0,106687:0:0:0:0:
64,192,106687,128,0,106875:0:0:0:0:
320,192,106875,128,0,107062:0:0:0:0:
192,192,107062,128,0,107250:0:0:0:0:
448,192,107250,128,0,107625:0:0:0:0:
64,192,107625,1,0,0:0:0:0:
192,192,107625,1,0,0:0:0:0:
320,192,107625,1,0,0:0:0:0:
64,192,108000,128,0,114000:0:0:0:0:
448,192,108000,128,0,114000:0:0:0:0:
192,192,114000,128,0,119937:0:0:0:0:
320,192,114000,128,0,119937:0:0:0:0:
64,192,120000,128,0,120750:0:0:0:0:
192,192,120000,128,0,120750:0:0:0:0:
320,192,120000,128,0,120750:0:0:0:0:
448,192,120000,128,0,120750:0:0:0:0:
64,192,121125,128,0,121187:0:0:0:0:
192,192,121125,128,0,121187:0:0:0:0:
320,192,121125,128,0,121187:0:0:0:0:
448,192,121125,128,0,121187:0:0:0:0:
64,192,121250,128,0,121312:0:0:0:0:
192,192,121250,128,0,121312:0:0:0:0:
320,192,121250,128,0,121312:0:0:0:0:
448,192,121250,128,0,121312:0:0:0:0:
448,192,121375,128,0,121437:0:0:0:0:
320,192,121375,128,0,121437:0:0:0:0:
192,192,121375,128,0,121437:0:0:0:0:
64,192,121375,128,0,121437:0:0:0:0:
64,192,121500,128,0,121875:0:0:0:0:
192,192,121500,128,0,121875:0:0:0:0:
448,192,121500,128,0,121875:0:0:0:0:
320,192,121500,128,0,121875:0:0:0:0:
64,192,122125,128,0,122500:0:0:0:0:
448,192,122125,128,0,122500:0:0:0:0:
320,192,122125,128,0,122500:0:0:0:0:
192,192,122125,128,0,122500:0:0:0:0:
192,192,122656,128,0,122937:0:0:0:0:
64,192,122656,128,0,122937:0:0:0:0:
448,192,122656,128,0,122937:0:0:0:0:
64,192,123000,128,0,123750:0:0:0:0:
192,192,123000,128,0,123750:0:0:0:0:
320,192,123000,128,0,123750:0:0:0:0:
448,192,123000,128,0,123750:0:0:0:0:
64,192,124125,128,0,124187:0:0:0:0:
192,192,124125,128,0,124187:0:0:0:0:
320,192,124125,128,0,124187:0:0:0:0:
448,192,124125,128,0,124187:0:0:0:0:
64,192,124250,128,0,124312:0:0:0:0:
192,192,124250,128,0,124312:0:0:0:0:
320,192,124250,128,0,124312:0:0:0:0:
448,192,124250,128,0,124312:0:0:0:0:
448,192,124375,128,0,124437:0:0:0:0:
320,192,124375,128,0,124437:0:0:0:0:
192,192,124375,128,0,124437:0:0:0:0:
64,192,124375,128,0,124437:0:0:0:0:
192,192,124500,128,0,124875:0:0:0:0:
448,192,124500,128,0,124875:0:0:0:0:
320,192,124500,128,0,124875:0:0:0:0:
64,192,125125,128,0,125500:0:0:0:0:
448,192,125125,128,0,125500:0:0:0:0:
192,192,125125,128,0,125500:0:0:0:0:
320,192,125656,128,0,125937:0:0:0:0:
192,192,125656,128,0,125937:0:0:0:0:
64,192,125656,128,0,125937:0:0:0:0:
448,192,125656,128,0,125937:0:0:0:0:
320,192,126000,128,0,127062:0:0:0:0:
448,192,126000,128,0,127062:0:0:0:0:
64,192,126000,128,0,127062:0:0:0:0:
192,192,126000,128,0,127062:0:0:0:0:
192,192,127125,128,0,127187:0:0:0:0:
64,192,127125,128,0,127187:0:0:0:0:
448,192,127125,128,0,127187:0:0:0:0:
192,192,127250,128,0,127312:0:0:0:0:
64,192,127250,128,0,127312:0:0:0:0:
448,192,127250,128,0,127312:0:0:0:0:
192,192,127375,128,0,127437:0:0:0:0:
64,192,127375,128,0,127437:0:0:0:0:
448,192,127375,128,0,127437:0:0:0:0:
320,192,127500,128,0,128562:0:0:0:0:
448,192,127500,128,0,128562:0:0:0:0:
64,192,127500,128,0,128562:0:0:0:0:
192,192,127500,128,0,128562:0:0:0:0:
320,192,128625,128,0,128687:0:0:0:0:
64,192,128625,128,0,128687:0:0:0:0:
448,192,128625,128,0,128687:0:0:0:0:
320,192,128750,128,0,128812:0:0:0:0:
64,192,128750,128,0,128812:0:0:0:0:
448,192,128750,128,0,128812:0:0:0:0:
320,192,128875,128,0,128937:0:0:0:0:
64,192,128875,128,0,128937:0:0:0:0:
448,192,128875,128,0,128937:0:0:0:0:
64,192,129000,128,0,130062:0:0:0:0:
192,192,129000,128,0,130062:0:0:0:0:
320,192,129000,128,0,130062:0:0:0:0:
448,192,129000,128,0,130062:0:0:0:0:
64,192,130125,128,0,130187:0:0:0:0:
320,192,130125,128,0,130187:0:0:0:0:
192,192,130125,128,0,130187:0:0:0:0:
64,192,130250,128,0,130312:0:0:0:0:
320,192,130250,128,0,130312:0:0:0:0:
192,192,130250,128,0,130312:0:0:0:0:
64,192,130375,128,0,130437:0:0:0:0:
192,192,130375,128,0,130437:0:0:0:0:
320,192,130375,128,0,130437:0:0:0:0:
320,192,130500,128,0,131187:0:0:0:0:
448,192,130500,128,0,131187:0:0:0:0:
64,192,130500,128,0,131187:0:0:0:0:
192,192,130500,128,0,131187:0:0:0:0:
192,192,131250,128,0,131312:0:0:0:0:
320,192,131250,128,0,131312:0:0:0:0:
448,192,131250,128,0,131312:0:0:0:0:
192,192,131375,128,0,131437:0:0:0:0:
320,192,131375,128,0,131437:0:0:0:0:
448,192,131375,128,0,131437:0:0:0:0:
192,192,131500,128,0,131562:0:0:0:0:
320,192,131500,128,0,131562:0:0:0:0:
448,192,131500,128,0,131562:0:0:0:0:
320,192,131625,128,0,131687:0:0:0:0:
192,192,131625,128,0,131687:0:0:0:0:
64,192,131625,128,0,131687:0:0:0:0:
448,192,131625,128,0,131687:0:0:0:0:
320,192,131750,128,0,131812:0:0:0:0:
192,192,131750,128,0,131812:0:0:0:0:
64,192,131750,128,0,131812:0:0:0:0:
448,192,131750,128,0,131812:0:0:0:0:
192,192,131875,128,0,131937:0:0:0:0:
320,192,131875,128,0,131937:0:0:0:0:
64,192,131875,128,0,131937:0:0:0:0:
448,192,131875,128,0,131937:0:0:0:0:
64,192,132000,128,0,133437:0:0:0:0:
448,192,132000,128,0,133437:0:0:0:0:
192,192,132000,128,0,133437:0:0:0:0:
320,192,133500,128,0,134937:0:0:0:0:
64,192,133500,128,0,134937:0:0:0:0:
448,192,133500,128,0,134937:0:0:0:0:
64,192,135000,128,0,136437:0:0:0:0:
320,192,135000,128,0,136437:0:0:0:0:
192,192,135000,128,0,136437:0:0:0:0:
192,192,136500,128,0,137937:0:0:0:0:
448,192,136500,128,0,137937:0:0:0:0:
320,192,136500,128,0,137937:0:0:0:0:
64,192,138000,128,0,139437:0:0:0:0:
192,192,138000,128,0,139437:0:0:0:0:
448,192,138000,1,0,0:0:0:0:
320,192,138281,1,0,0:0:0:0:
320,192,138375,1,0,0:0:0:0:
448,192,138375,1,0,0:0:0:0:
448,192,138656,1,0,0:0:0:0:
448,192,138750,1,0,0:0:0:0:
320,192,138750,1,0,0:0:0:0:
320,192,138875,1,0,0:0:0:0:
448,192,139000,1,0,0:0:0:0:
320,192,139125,1,0,0:0:0:0:
448,192,139125,1,0,0:0:0:0:
320,192,139250,1,0,0:0:0:0:
448,192,139250,1,0,0:0:0:0:
448,192,139375,1,0,0:0:0:0:
320,192,139375,1,0,0:0:0:0:
448,192,139500,128,0,140937:0:0:0:0:
320,192,139500,128,0,140937:0:0:0:0:
64,192,139500,1,0,0:0:0:0:
64,192,139875,1,0,0:0:0:0:
192,192,139875,1,0,0:0:0:0:
64,192,140250,1,0,0:0:0:0:
192,192,140250,1,0,0:0:0:0:
192,192,140625,1,0,0:0:0:0:
64,192,140625,1,0,0:0:0:0:
64,192,140875,1,0,0:0:0:0:
192,192,140875,1,0,0:0:0:0:
192,192,141000,1,0,0:0:0:0:
64,192,141000,128,0,142437:0:0:0:0:
448,192,141000,128,0,142437:0:0:0:0:
320,192,141250,1,0,0:0:0:0:
192,192,141375,1,0,0:0:0:0:
320,192,141375,1,0,0:0:0:0:
192,192,141625,1,0,0:0:0:0:
192,192,141750,1,0,0:0:0:0:
320,192,141750,1,0,0:0:0:0:
192,192,142125,1,0,0:0:0:0:
320,192,142125,1,0,0:0:0:0:
320,192,142250,1,0,0:0:0:0:
192,192,142250,1,0,0:0:0:0:
192,192,142375,1,0,0:0:0:0:
320,192,142375,1,0,0:0:0:0:
320,192,142500,128,0,143937:0:0:0:0:
192,192,142500,128,0,143937:0:0:0:0:
64,192,142500,1,0,0:0:0:0:
448,192,142500,1,0,0:0:0:0:
64,192,142750,1,0,0:0:0:0:
448,192,142750,1,0,0:0:0:0:
64,192,142875,1,0,0:0:0:0:
448,192,143000,1,0,0:0:0:0:
64,192,143125,1,0,0:0:0:0:
448,192,143250,1,0,0:0:0:0:
64,192,143375,1,0,0:0:0:0:
448,192,143500,1,0,0:0:0:0:
448,192,143625,1,0,0:0:0:0:
64,192,143625,1,0,0:0:0:0:
448,192,143750,1,0,0:0:0:0:
64,192,143750,1,0,0:0:0:0:
448,192,143875,1,0,0:0:0:0:
64,192,143875,1,0,0:0:0:0:
448,192,144000,128,0,145437:0:0:0:0:
320,192,144000,128,0,145437:0:0:0:0:
64,192,144000,1,0,0:0:0:0:
192,192,144281,1,0,0:0:0:0:
192,192,144375,1,0,0:0:0:0:
64,192,144656,1,0,0:0:0:0:
64,192,144750,1,0,0:0:0:0:
192,192,144875,1,0,0:0:0:0:
64,192,145000,1,0,0:0:0:0:
192,192,145125,1,0,0:0:0:0:
192,192,145250,1,0,0:0:0:0:
192,192,145375,1,0,0:0:0:0:
64,192,145500,128,0,146937:0:0:0:0:
192,192,145500,128,0,146937:0:0:0:0:
448,192,145500,1,0,0:0:0:0:
320,192,145625,1,0,0:0:0:0:
448,192,145750,1,0,0:0:0:0:
320,192,145875,1,0,0:0:0:0:
320,192,146000,1,0,0:0:0:0:
448,192,146125,1,0,0:0:0:0:
448,192,146250,1,0,0:0:0:0:
320,192,146375,1,0,0:0:0:0:
448,192,146500,1,0,0:0:0:0:
448,192,146625,1,0,0:0:0:0:
320,192,146750,1,0,0:0:0:0:
448,192,146875,1,0,0:0:0:0:
320,192,147000,1,0,0:0:0:0:
448,192,147000,128,0,148437:0:0:0:0:
64,192,147000,128,0,148437:0:0:0:0:
192,192,147125,1,0,0:0:0:0:
320,192,147250,1,0,0:0:0:0:
320,192,147375,1,0,0:0:0:0:
320,192,147625,1,0,0:0:0:0:
192,192,147750,1,0,0:0:0:0:
192,192,147875,1,0,0:0:0:0:
320,192,148125,1,0,0:0:0:0:
192,192,148125,1,0,0:0:0:0:
192,192,148250,1,0,0:0:0:0:
320,192,148250,1,0,0:0:0:0:
320,192,148375,1,0,0:0:0:0:
192,192,148375,1,0,0:0:0:0:
448,192,148500,1,0,0:0:0:0:
64,192,148500,1,0,0:0:0:0:
192,192,148625,1,0,0:0:0:0:
448,192,148750,1,0,0:0:0:0:
64,192,148750,1,0,0:0:0:0:
192,192,148750,1,0,0:0:0:0:
448,192,148875,1,0,0:0:0:0:
64,192,149000,1,0,0:0:0:0:
320,192,149000,1,0,0:0:0:0:
192,192,149000,1,0,0:0:0:0:
448,192,149125,1,0,0:0:0:0:
64,192,149250,1,0,0:0:0:0:
320,192,149250,1,0,0:0:0:0:
448,192,149375,1,0,0:0:0:0:
320,192,149375,1,0,0:0:0:0:
64,192,149500,1,0,0:0:0:0:
192,192,149500,1,0,0:0:0:0:
64,192,149625,1,0,0:0:0:0:
448,192,149625,1,0,0:0:0:0:
320,192,149625,1,0,0:0:0:0:
64,192,149750,1,0,0:0:0:0:
448,192,149750,1,0,0:0:0:0:
192,192,149750,1,0,0:0:0:0:
64,192,149875,1,0,0:0:0:0:
448,192,149875,1,0,0:0:0:0:
320,192,149875,1,0,0:0:0:0:
64,192,150000,1,0,0:0:0:0:
192,192,150000,1,0,0:0:0:0:
320,192,150000,1,0,0:0:0:0:
448,192,150000,1,0,0:0:0:0:
64,192,151125,1,0,0:0:0:0:
448,192,151125,1,0,0:0:0:0:
320,192,151125,1,0,0:0:0:0:
64,192,151375,1,0,0:0:0:0:
192,192,151375,1,0,0:0:0:0:
448,192,151375,1,0,0:0:0:0:
448,192,153000,128,0,153187:0:0:0:0:
64,192,153000,128,0,153187:0:0:0:0:
192,192,153281,1,0,0:0:0:0:
192,192,153375,128,0,153562:0:0:0:0:
448,192,153656,1,0,0:0:0:0:
448,192,153750,128,0,153937:0:0:0:0:
64,192,154031,1,0,0:0:0:0:
64,192,154125,128,0,154312:0:0:0:0:
320,192,154406,1,0,0:0:0:0:
320,192,154500,1,0,0:0:0:0:
64,192,154500,1,0,0:0:0:0:
64,192,154750,1,0,0:0:0:0:
448,192,154750,1,0,0:0:0:0:
192,192,155000,1,0,0:0:0:0:
448,192,155000,1,0,0:0:0:0:
64,192,155250,1,0,0:0:0:0:
448,192,155250,1,0,0:0:0:0:
192,192,155500,1,0,0:0:0:0:
448,192,155500,1,0,0:0:0:0:
64,192,155750,1,0,0:0:0:0:
448,192,155750,1,0,0:0:0:0:
320,192,156000,128,0,156250:0:0:0:0:
64,192,156250,1,0,0:0:0:0:
448,192,156375,1,0,0:0:0:0:
448,192,156500,1,0,0:0:0:0:
64,192,156625,1,0,0:0:0:0:
192,192,156750,128,0,157000:0:0:0:0:
320,192,157000,1,0,0:0:0:0:
320,192,157125,128,0,157375:0:0:0:0:
448,192,157500,1,0,0:0:0:0:
64,192,157500,128,0,157625:0:0:0:0:
192,192,157750,1,0,0:0:0:0:
192,192,157875,1,0,0:0:0:0:
448,192,157875,1,0,0:0:0:0:
448,192,158000,1,0,0:0:0:0:
448,192,158125,1,0,0:0:0:0:
64,192,158250,1,0,0:0:0:0:
320,192,158250,1,0,0:0:0:0:
192,192,158500,1,0,0:0:0:0:
448,192,158500,1,0,0:0:0:0:
64,192,158625,128,0,159000:0:0:0:0:
448,192,159000,128,0,159125:0:0:0:0:
320,192,159000,128,0,159125:0:0:0:0:
64,192,159250,1,0,0:0:0:0:
192,192,159375,128,0,159500:0:0:0:0:
320,192,159375,128,0,159500:0:0:0:0:
448,192,159500,1,0,0:0:0:0:
320,192,159750,1,0,0:0:0:0:
64,192,159750,128,0,159875:0:0:0:0:
192,192,159750,128,0,159875:0:0:0:0:
192,192,160000,1,0,0:0:0:0:
448,192,160000,1,0,0:0:0:0:
448,192,160125,1,0,0:0:0:0:
320,192,160250,1,0,0:0:0:0:
64,192,160250,1,0,0:0:0:0:
320,192,160375,1,0,0:0:0:0:
64,192,160500,1,0,0:0:0:0:
448,192,160500,1,0,0:0:0:0:
192,192,160500,128,0,160625:0:0:0:0:
320,192,160750,128,0,160875:0:0:0:0:
64,192,160750,1,0,0:0:0:0:
64,192,161000,128,0,161125:0:0:0:0:
448,192,161000,1,0,0:0:0:0:
192,192,161250,128,0,161375:0:0:0:0:
320,192,161250,1,0,0:0:0:0:
320,192,161375,1,0,0:0:0:0:
320,192,161500,1,0,0:0:0:0:
64,192,161750,1,0,0:0:0:0:
448,192,161750,1,0,0:0:0:0:
64,192,162000,1,0,0:0:0:0:
192,192,162000,1,0,0:0:0:0:
320,192,162000,1,0,0:0:0:0:
320,192,162125,1,0,0:0:0:0:
192,192,162125,1,0,0:0:0:0:
448,192,162250,1,0,0:0:0:0:
320,192,162250,1,0,0:0:0:0:
64,192,162375,1,0,0:0:0:0:
192,192,162375,1,0,0:0:0:0:
320,192,162375,1,0,0:0:0:0:
448,192,162500,128,0,162750:0:0:0:0:
64,192,162750,1,0,0:0:0:0:
320,192,163125,1,0,0:0:0:0:
64,192,163500,1,0,0:0:0:0:
448,192,163875,1,0,0:0:0:0:
192,192,164250,1,0,0:0:0:0:
320,192,164625,1,0,0:0:0:0:
64,192,165000,1,0,0:0:0:0:
192,192,165000,1,0,0:0:0:0:
448,192,165000,1,0,0:0:0:0:
192,192,165125,1,0,0:0:0:0:
320,192,165125,1,0,0:0:0:0:
192,192,165250,1,0,0:0:0:0:
64,192,165250,1,0,0:0:0:0:
192,192,165375,1,0,0:0:0:0:
320,192,165375,1,0,0:0:0:0:
448,192,165375,1,0,0:0:0:0:
64,192,165500,128,0,165750:0:0:0:0:
320,192,165750,1,0,0:0:0:0:
448,192,165750,1,0,0:0:0:0:
64,192,166125,1,0,0:0:0:0:
192,192,166125,1,0,0:0:0:0:
192,192,166500,1,0,0:0:0:0:
320,192,166500,1,0,0:0:0:0:
320,192,166875,1,0,0:0:0:0:
448,192,166875,1,0,0:0:0:0:
64,192,167250,1,0,0:0:0:0:
192,192,167250,1,0,0:0:0:0:
448,192,167250,128,0,168000:0:0:0:0:
320,192,167625,1,0,0:0:0:0:
320,192,168000,1,0,0:0:0:0:
64,192,168000,1,0,0:0:0:0:
192,192,168125,1,0,0:0:0:0:
320,192,168250,1,0,0:0:0:0:
64,192,168375,1,0,0:0:0:0:
448,192,168375,1,0,0:0:0:0:
320,192,168750,1,0,0:0:0:0:
192,192,168750,1,0,0:0:0:0:
64,192,168843,1,0,0:0:0:0:
192,192,168960,1,0,0:0:0:0:
64,192,169062,1,0,0:0:0:0:
448,192,169062,1,0,0:0:0:0:
320,192,169429,1,0,0:0:0:0:
448,192,169429,1,0,0:0:0:0:
192,192,169546,1,0,0:0:0:0:
64,192,169664,1,0,0:0:0:0:
192,192,169781,1,0,0:0:0:0:
448,192,169781,1,0,0:0:0:0:
64,192,170132,1,0,0:0:0:0:
192,192,170132,1,0,0:0:0:0:
320,192,170226,1,0,0:0:0:0:
448,192,170320,1,0,0:0:0:0:
64,192,170437,1,0,0:0:0:0:
192,192,170437,1,0,0:0:0:0:
320,192,170765,1,0,0:0:0:0:
448,192,170765,1,0,0:0:0:0:
192,192,170859,1,0,0:0:0:0:
64,192,170953,1,0,0:0:0:0:
192,192,171046,1,0,0:0:0:0:
448,192,171046,1,0,0:0:0:0:
64,192,171281,1,0,0:0:0:0:
192,192,171281,1,0,0:0:0:0:
320,192,171375,1,0,0:0:0:0:
448,192,171468,1,0,0:0:0:0:
320,192,171562,1,0,0:0:0:0:
192,192,171562,1,0,0:0:0:0:
64,192,171726,1,0,0:0:0:0:
448,192,172031,1,0,0:0:0:0:
320,192,172031,1,0,0:0:0:0:
192,192,172125,1,0,0:0:0:0:
64,192,172359,1,0,0:0:0:0:
192,192,172406,1,0,0:0:0:0:
448,192,172453,1,0,0:0:0:0:
448,192,172687,1,0,0:0:0:0:
320,192,172687,1,0,0:0:0:0:
192,192,172968,1,0,0:0:0:0:
64,192,172968,1,0,0:0:0:0:
320,192,173203,1,0,0:0:0:0:
448,192,173203,1,0,0:0:0:0:
64,192,173367,1,0,0:0:0:0:
448,192,173531,1,0,0:0:0:0:
64,192,173671,1,0,0:0:0:0:
448,192,173789,1,0,0:0:0:0:
192,192,173906,1,0,0:0:0:0:
320,192,174023,1,0,0:0:0:0:
64,192,174117,1,0,0:0:0:0:
448,192,174210,1,0,0:0:0:0:
320,192,174304,1,0,0:0:0:0:
192,192,174398,1,0,0:0:0:0:
64,192,174492,1,0,0:0:0:0:
448,192,174585,1,0,0:0:0:0:
320,192,174656,1,0,0:0:0:0:
192,192,174750,1,0,0:0:0:0:
64,192,174843,1,0,0:0:0:0:
448,192,174937,1,0,0:0:0:0:
320,192,175031,1,0,0:0:0:0:
192,192,175101,1,0,0:0:0:0:
64,192,175171,1,0,0:0:0:0:
192,192,175242,1,0,0:0:0:0:
320,192,175312,1,0,0:0:0:0:
448,192,175382,1,0,0:0:0:0:
64,192,175453,1,0,0:0:0:0:
320,192,175523,1,0,0:0:0:0:
192,192,175593,1,0,0:0:0:0:
320,192,175664,1,0,0:0:0:0:
448,192,175734,1,0,0:0:0:0:
64,192,175781,1,0,0:0:0:0:
192,192,175851,1,0,0:0:0:0:
320,192,175921,1,0,0:0:0:0:
192,192,175992,1,0,0:0:0:0:
64,192,176062,1,0,0:0:0:0:
448,192,176109,1,0,0:0:0:0:
320,192,176179,1,0,0:0:0:0:
192,192,176250,1,0,0:0:0:0:
320,192,176296,1,0,0:0:0:0:
448,192,176367,1,0,0:0:0:0:
64,192,176437,1,0,0:0:0:0:
320,192,176507,1,0,0:0:0:0:
448,192,176578,1,0,0:0:0:0:
64,192,176648,1,0,0:0:0:0:
192,192,176718,1,0,0:0:0:0:
448,192,176789,1,0,0:0:0:0:
320,192,176859,1,0,0:0:0:0:
192,192,176929,1,0,0:0:0:0:
64,192,177000,1,0,0:0:0:0:
448,192,177046,1,0,0:0:0:0:
320,192,177093,1,0,0:0:0:0:
192,192,177140,1,0,0:0:0:0:
64,192,177187,1,0,0:0:0:0:
320,192,177234,1,0,0:0:0:0:
448,192,177281,1,0,0:0:0:0:
320,192,177328,1,0,0:0:0:0:
192,192,177375,128,0,183000:0:0:0:0:
448,192,183000,128,0,183250:0:0:0:0:
64,192,183000,128,0,183257:0:0:0:0:
448,192,183375,128,0,183625:0:0:0:0:
64,192,183375,128,0,183625:0:0:0:0:
192,192,183625,128,0,183750:0:0:0:0:
320,192,183625,128,0,183750:0:0:0:0:
64,192,183750,128,0,184125:0:0:0:0:
320,192,184125,128,0,184500:0:0:0:0:
448,192,184125,128,0,184500:0:0:0:0:
64,192,184500,128,0,184875:0:0:0:0:
448,192,184875,128,0,185250:0:0:0:0:
192,192,185250,128,0,185625:0:0:0:0:
320,192,185625,128,0,186000:0:0:0:0:
448,192,186000,128,0,187500:0:0:0:0:
64,192,186000,128,0,187500:0:0:0:0:
320,192,187875,128,0,189000:0:0:0:0:
64,192,189000,128,0,189250:0:0:0:0:
192,192,189250,1,0,0:0:0:0:
448,192,189375,128,0,189625:0:0:0:0:
320,192,189625,1,0,0:0:0:0:
192,192,189750,128,0,190125:0:0:0:0:
320,192,190125,128,0,190375:0:0:0:0:
64,192,190500,1,0,0:0:0:0:
192,192,190500,1,0,0:0:0:0:
448,192,190500,1,0,0:0:0:0:
320,192,190875,1,0,0:0:0:0:
448,192,190875,1,0,0:0:0:0:
64,192,190875,1,0,0:0:0:0:
64,192,191250,1,0,0:0:0:0:
192,192,191250,1,0,0:0:0:0:
448,192,191250,1,0,0:0:0:0:
192,192,191375,1,0,0:0:0:0:
320,192,191375,1,0,0:0:0:0:
320,192,191500,1,0,0:0:0:0:
448,192,191500,1,0,0:0:0:0:
64,192,191625,1,0,0:0:0:0:
192,192,191625,1,0,0:0:0:0:
448,192,191625,128,0,192000:0:0:0:0:
192,192,192000,1,0,0:0:0:0:
320,192,192000,1,0,0:0:0:0:
64,192,192000,128,0,192187:0:0:0:0:
64,192,192375,1,0,0:0:0:0:
192,192,192375,1,0,0:0:0:0:
320,192,192375,1,0,0:0:0:0:
448,192,192375,128,0,192562:0:0:0:0:
64,192,192750,1,0,0:0:0:0:
192,192,192750,1,0,0:0:0:0:
320,192,192750,1,0,0:0:0:0:
448,192,192750,1,0,0:0:0:0:
64,192,193125,1,0,0:0:0:0:
192,192,193125,1,0,0:0:0:0:
320,192,193125,1,0,0:0:0:0:
448,192,193125,1,0,0:0:0:0:
64,192,193250,1,0,0:0:0:0:
448,192,193250,1,0,0:0:0:0:
448,192,193375,1,0,0:0:0:0:
64,192,193375,1,0,0:0:0:0:
64,192,193500,1,0,0:0:0:0:
448,192,193500,1,0,0:0:0:0:
320,192,193500,1,0,0:0:0:0:
192,192,193500,128,0,193625:0:0:0:0:
320,192,193750,1,0,0:0:0:0:
64,192,193875,1,0,0:0:0:0:
192,192,193875,1,0,0:0:0:0:
448,192,193875,1,0,0:0:0:0:
320,192,194000,1,0,0:0:0:0:
64,192,194250,1,0,0:0:0:0:
192,192,194250,1,0,0:0:0:0:
320,192,194250,1,0,0:0:0:0:
448,192,194250,1,0,0:0:0:0:
192,192,194500,1,0,0:0:0:0:
64,192,194625,1,0,0:0:0:0:
448,192,194625,1,0,0:0:0:0:
320,192,194625,1,0,0:0:0:0:
192,192,194750,1,0,0:0:0:0:
192,192,194875,1,0,0:0:0:0:
320,192,194875,1,0,0:0:0:0:
64,192,194875,1,0,0:0:0:0:
64,192,195000,1,0,0:0:0:0:
192,192,195000,1,0,0:0:0:0:
320,192,195000,1,0,0:0:0:0:
448,192,195000,1,0,0:0:0:0:
448,192,195250,1,0,0:0:0:0:
64,192,195375,1,0,0:0:0:0:
192,192,195375,1,0,0:0:0:0:
320,192,195375,1,0,0:0:0:0:
448,192,195500,1,0,0:0:0:0:
64,192,195750,1,0,0:0:0:0:
192,192,195750,1,0,0:0:0:0:
320,192,195750,1,0,0:0:0:0:
448,192,195750,1,0,0:0:0:0:
64,192,196000,1,0,0:0:0:0:
192,192,196125,1,0,0:0:0:0:
320,192,196125,1,0,0:0:0:0:
448,192,196125,1,0,0:0:0:0:
192,192,196250,1,0,0:0:0:0:
64,192,196250,1,0,0:0:0:0:
192,192,196375,1,0,0:0:0:0:
320,192,196375,1,0,0:0:0:0:
448,192,196375,1,0,0:0:0:0:
64,192,196500,1,0,0:0:0:0:
320,192,196500,1,0,0:0:0:0:
192,192,196500,1,0,0:0:0:0:
448,192,196500,1,0,0:0:0:0:
192,192,196750,1,0,0:0:0:0:
64,192,196875,1,0,0:0:0:0:
320,192,196875,1,0,0:0:0:0:
448,192,196875,1,0,0:0:0:0:
192,192,197000,1,0,0:0:0:0:
64,192,197250,1,0,0:0:0:0:
192,192,197250,1,0,0:0:0:0:
320,192,197250,1,0,0:0:0:0:
448,192,197250,1,0,0:0:0:0:
320,192,197375,1,0,0:0:0:0:
192,192,197500,1,0,0:0:0:0:
448,192,197625,128,0,197937:0:0:0:0:
320,192,197625,128,0,197937:0:0:0:0:
192,192,197625,128,0,197937:0:0:0:0:
64,192,197625,128,0,197937:0:0:0:0:
192,192,198000,128,0,198250:0:0:0:0:
320,192,198000,128,0,198250:0:0:0:0:
64,192,198000,1,0,0:0:0:0:
448,192,198000,1,0,0:0:0:0:
64,192,198375,1,0,0:0:0:0:
192,192,198375,1,0,0:0:0:0:
448,192,198375,1,0,0:0:0:0:
320,192,198375,1,0,0:0:0:0:
192,192,198750,1,0,0:0:0:0:
320,192,198750,1,0,0:0:0:0:
64,192,198750,128,0,199062:0:0:0:0:
448,192,198750,128,0,199062:0:0:0:0:
64,192,199125,1,0,0:0:0:0:
192,192,199125,1,0,0:0:0:0:
320,192,199125,1,0,0:0:0:0:
448,192,199125,1,0,0:0:0:0:
64,192,199250,1,0,0:0:0:0:
192,192,199250,1,0,0:0:0:0:
448,192,199250,1,0,0:0:0:0:
320,192,199375,1,0,0:0:0:0:
448,192,199375,1,0,0:0:0:0:
64,192,199375,1,0,0:0:0:0:
64,192,199500,1,0,0:0:0:0:
448,192,199500,1,0,0:0:0:0:
320,192,199500,128,0,199812:0:0:0:0:
192,192,199500,128,0,199812:0:0:0:0:
64,192,199875,1,0,0:0:0:0:
192,192,199875,1,0,0:0:0:0:
320,192,199875,1,0,0:0:0:0:
448,192,199875,1,0,0:0:0:0:
64,192,200125,1,0,0:0:0:0:
192,192,200125,1,0,0:0:0:0:
64,192,200250,1,0,0:0:0:0:
192,192,200250,1,0,0:0:0:0:
320,192,200250,1,0,0:0:0:0:
448,192,200250,1,0,0:0:0:0:
448,192,200375,1,0,0:0:0:0:
320,192,200375,1,0,0:0:0:0:
448,192,200500,1,0,0:0:0:0:
320,192,200500,1,0,0:0:0:0:
64,192,200625,1,0,0:0:0:0:
192,192,200625,1,0,0:0:0:0:
320,192,200625,1,0,0:0:0:0:
448,192,200625,1,0,0:0:0:0:
64,192,200875,1,0,0:0:0:0:
192,192,200875,1,0,0:0:0:0:
320,192,200875,1,0,0:0:0:0:
448,192,200875,1,0,0:0:0:0:
192,192,201000,128,0,201125:0:0:0:0:
320,192,201000,128,0,201125:0:0:0:0:
320,192,201250,1,0,0:0:0:0:
64,192,201375,1,0,0:0:0:0:
320,192,201500,1,0,0:0:0:0:
192,192,201625,1,0,0:0:0:0:
448,192,201750,128,0,201875:0:0:0:0:
320,192,201750,128,0,201875:0:0:0:0:
64,192,202000,1,0,0:0:0:0:
320,192,202125,1,0,0:0:0:0:
192,192,202125,1,0,0:0:0:0:
64,192,202250,1,0,0:0:0:0:
448,192,202375,1,0,0:0:0:0:
192,192,202500,128,0,202625:0:0:0:0:
320,192,202500,128,0,202625:0:0:0:0:
64,192,202500,1,0,0:0:0:0:
320,192,202750,128,0,202875:0:0:0:0:
192,192,202750,128,0,202875:0:0:0:0:
448,192,202750,1,0,0:0:0:0:
320,192,203000,128,0,203125:0:0:0:0:
192,192,203000,128,0,203125:0:0:0:0:
64,192,203000,1,0,0:0:0:0:
448,192,203250,1,0,0:0:0:0:
192,192,203250,128,0,203375:0:0:0:0:
320,192,203250,128,0,203375:0:0:0:0:
64,192,203500,1,0,0:0:0:0:
64,192,203750,1,0,0:0:0:0:
64,192,204000,128,0,204187:0:0:0:0:
320,192,204000,1,0,0:0:0:0:
192,192,204000,1,0,0:0:0:0:
448,192,204000,1,0,0:0:0:0:
320,192,204375,1,0,0:0:0:0:
448,192,204375,128,0,204562:0:0:0:0:
64,192,204375,1,0,0:0:0:0:
192,192,204375,1,0,0:0:0:0:
320,192,204750,1,0,0:0:0:0:
448,192,204750,1,0,0:0:0:0:
64,192,204750,1,0,0:0:0:0:
192,192,204750,1,0,0:0:0:0:
320,192,205125,1,0,0:0:0:0:
448,192,205125,1,0,0:0:0:0:
64,192,205125,1,0,0:0:0:0:
192,192,205125,1,0,0:0:0:0:
448,192,205250,1,0,0:0:0:0:
64,192,205250,1,0,0:0:0:0:
64,192,205375,1,0,0:0:0:0:
448,192,205375,1,0,0:0:0:0:
320,192,205500,1,0,0:0:0:0:
192,192,205500,128,0,205625:0:0:0:0:
64,192,205500,1,0,0:0:0:0:
448,192,205500,1,0,0:0:0:0:
320,192,205750,1,0,0:0:0:0:
448,192,205875,1,0,0:0:0:0:
64,192,205875,1,0,0:0:0:0:
192,192,205875,1,0,0:0:0:0:
320,192,206000,1,0,0:0:0:0:
320,192,206250,1,0,0:0:0:0:
448,192,206250,1,0,0:0:0:0:
64,192,206250,1,0,0:0:0:0:
192,192,206250,1,0,0:0:0:0:
192,192,206500,1,0,0:0:0:0:
448,192,206625,1,0,0:0:0:0:
320,192,206625,1,0,0:0:0:0:
64,192,206625,1,0,0:0:0:0:
192,192,206750,1,0,0:0:0:0:
64,192,206875,1,0,0:0:0:0:
320,192,206875,1,0,0:0:0:0:
192,192,206875,1,0,0:0:0:0:
320,192,207000,1,0,0:0:0:0:
448,192,207000,1,0,0:0:0:0:
64,192,207000,1,0,0:0:0:0:
192,192,207000,1,0,0:0:0:0:
448,192,207250,1,0,0:0:0:0:
320,192,207375,1,0,0:0:0:0:
64,192,207375,1,0,0:0:0:0:
192,192,207375,1,0,0:0:0:0:
448,192,207500,1,0,0:0:0:0:
320,192,207750,1,0,0:0:0:0:
448,192,207750,1,0,0:0:0:0:
64,192,207750,1,0,0:0:0:0:
192,192,207750,1,0,0:0:0:0:
64,192,208000,1,0,0:0:0:0:
320,192,208125,1,0,0:0:0:0:
448,192,208125,1,0,0:0:0:0:
192,192,208125,1,0,0:0:0:0:
64,192,208250,1,0,0:0:0:0:
192,192,208250,1,0,0:0:0:0:
448,192,208375,1,0,0:0:0:0:
320,192,208375,1,0,0:0:0:0:
192,192,208375,1,0,0:0:0:0:
192,192,208500,1,0,0:0:0:0:
448,192,208500,1,0,0:0:0:0:
64,192,208500,1,0,0:0:0:0:
320,192,208500,1,0,0:0:0:0:
192,192,208750,1,0,0:0:0:0:
320,192,208875,1,0,0:0:0:0:
448,192,208875,1,0,0:0:0:0:
64,192,208875,1,0,0:0:0:0:
192,192,209000,1,0,0:0:0:0:
320,192,209250,1,0,0:0:0:0:
448,192,209250,1,0,0:0:0:0:
64,192,209250,1,0,0:0:0:0:
192,192,209250,1,0,0:0:0:0:
320,192,209500,1,0,0:0:0:0:
192,192,209625,128,0,209937:0:0:0:0:
64,192,209625,128,0,209937:0:0:0:0:
448,192,209625,128,0,209937:0:0:0:0:
320,192,209625,128,0,209937:0:0:0:0:
320,192,210000,1,0,0:0:0:0:
448,192,210000,1,0,0:0:0:0:
192,192,210000,1,0,0:0:0:0:
320,192,210375,1,0,0:0:0:0:
64,192,210375,1,0,0:0:0:0:
192,192,210375,1,0,0:0:0:0:
64,192,210750,128,0,211062:0:0:0:0:
448,192,210750,128,0,211062:0:0:0:0:
192,192,210750,1,0,0:0:0:0:
320,192,210750,1,0,0:0:0:0:
320,192,211125,1,0,0:0:0:0:
448,192,211125,1,0,0:0:0:0:
64,192,211125,1,0,0:0:0:0:
448,192,211250,1,0,0:0:0:0:
64,192,211250,1,0,0:0:0:0:
64,192,211375,1,0,0:0:0:0:
448,192,211375,1,0,0:0:0:0:
320,192,211500,128,0,211812:0:0:0:0:
192,192,211500,128,0,211812:0:0:0:0:
64,192,211500,1,0,0:0:0:0:
448,192,211500,1,0,0:0:0:0:
320,192,211875,1,0,0:0:0:0:
448,192,211875,1,0,0:0:0:0:
64,192,211875,1,0,0:0:0:0:
64,192,212125,1,0,0:0:0:0:
320,192,212250,1,0,0:0:0:0:
192,192,212250,1,0,0:0:0:0:
448,192,212250,128,0,212625:0:0:0:0:
320,192,212625,1,0,0:0:0:0:
64,192,212625,1,0,0:0:0:0:
192,192,212625,1,0,0:0:0:0:
320,192,212875,1,0,0:0:0:0:
448,192,212875,1,0,0:0:0:0:
64,192,212875,1,0,0:0:0:0:
192,192,212875,1,0,0:0:0:0:
320,192,213000,128,0,213125:0:0:0:0:
64,192,213375,128,0,213500:0:0:0:0:
448,192,213750,128,0,213875:0:0:0:0:
192,192,214125,128,0,214250:0:0:0:0:
448,192,214500,128,0,215687:0:0:0:0:
64,192,214500,1,0,0:0:0:0:
320,192,214750,1,0,0:0:0:0:
64,192,214875,1,0,0:0:0:0:
320,192,215000,1,0,0:0:0:0:
192,192,215125,1,0,0:0:0:0:
320,192,215250,1,0,0:0:0:0:
64,192,215312,1,0,0:0:0:0:
192,192,215437,1,0,0:0:0:0:
320,192,215562,1,0,0:0:0:0:
64,192,215687,1,0,0:0:0:0:
64,192,216000,1,0,0:0:0:0:
192,192,216000,1,0,0:0:0:0:
448,192,216000,1,0,0:0:0:0:
192,192,216125,1,0,0:0:0:0:
320,192,216125,1,0,0:0:0:0:
448,192,216250,1,0,0:0:0:0:
320,192,216250,1,0,0:0:0:0:
64,192,216375,1,0,0:0:0:0:
192,192,216375,1,0,0:0:0:0:
448,192,216375,1,0,0:0:0:0:
320,192,216500,1,0,0:0:0:0:
64,192,216500,1,0,0:0:0:0:
320,192,216625,1,0,0:0:0:0:
64,192,216625,1,0,0:0:0:0:
64,192,216750,1,0,0:0:0:0:
192,192,216750,1,0,0:0:0:0:
448,192,216750,1,0,0:0:0:0:
320,192,216875,1,0,0:0:0:0:
448,192,216875,1,0,0:0:0:0:
192,192,217000,1,0,0:0:0:0:
320,192,217000,1,0,0:0:0:0:
192,192,217125,1,0,0:0:0:0:
320,192,217125,1,0,0:0:0:0:
64,192,217125,128,0,217500:0:0:0:0:
448,192,217125,1,0,0:0:0:0:
192,192,217500,1,0,0:0:0:0:
320,192,217500,1,0,0:0:0:0:
64,192,217625,1,0,0:0:0:0:
192,192,217625,1,0,0:0:0:0:
448,192,217625,1,0,0:0:0:0:
448,192,217750,1,0,0:0:0:0:
64,192,217750,1,0,0:0:0:0:
192,192,217750,1,0,0:0:0:0:
192,192,217875,1,0,0:0:0:0:
320,192,217875,1,0,0:0:0:0:
64,192,218000,1,0,0:0:0:0:
320,192,218000,1,0,0:0:0:0:
448,192,218000,1,0,0:0:0:0:
64,192,218125,1,0,0:0:0:0:
320,192,218125,1,0,0:0:0:0:
448,192,218125,1,0,0:0:0:0:
64,192,218250,1,0,0:0:0:0:
320,192,218250,1,0,0:0:0:0:
448,192,218250,1,0,0:0:0:0:
192,192,218375,1,0,0:0:0:0:
64,192,218375,1,0,0:0:0:0:
192,192,218500,1,0,0:0:0:0:
320,192,218500,1,0,0:0:0:0:
448,192,218500,1,0,0:0:0:0:
64,192,218625,1,0,0:0:0:0:
192,192,218625,1,0,0:0:0:0:
448,192,218625,1,0,0:0:0:0:
320,192,218750,1,0,0:0:0:0:
192,192,218750,1,0,0:0:0:0:
192,192,219000,1,0,0:0:0:0:
448,192,219000,1,0,0:0:0:0:
64,192,219000,1,0,0:0:0:0:
320,192,219125,1,0,0:0:0:0:
192,192,219125,1,0,0:0:0:0:
448,192,219250,1,0,0:0:0:0:
320,192,219250,1,0,0:0:0:0:
64,192,219375,1,0,0:0:0:0:
192,192,219375,1,0,0:0:0:0:
448,192,219375,1,0,0:0:0:0:
320,192,219375,1,0,0:0:0:0:
192,192,219500,1,0,0:0:0:0:
64,192,219500,1,0,0:0:0:0:
320,192,219625,1,0,0:0:0:0:
192,192,219625,1,0,0:0:0:0:
64,192,219750,1,0,0:0:0:0:
320,192,219750,1,0,0:0:0:0:
448,192,219750,1,0,0:0:0:0:
64,192,219875,1,0,0:0:0:0:
448,192,219875,1,0,0:0:0:0:
192,192,220000,1,0,0:0:0:0:
448,192,220000,1,0,0:0:0:0:
320,192,220125,1,0,0:0:0:0:
448,192,220125,1,0,0:0:0:0:
192,192,220125,1,0,0:0:0:0:
64,192,220125,1,0,0:0:0:0:
320,192,220250,128,0,220500:0:0:0:0:
64,192,220500,1,0,0:0:0:0:
192,192,220500,1,0,0:0:0:0:
448,192,220500,1,0,0:0:0:0:
192,192,220625,1,0,0:0:0:0:
192,192,220750,1,0,0:0:0:0:
448,192,220750,1,0,0:0:0:0:
448,192,220875,1,0,0:0:0:0:
320,192,220875,1,0,0:0:0:0:
192,192,220875,1,0,0:0:0:0:
64,192,220875,1,0,0:0:0:0:
320,192,221000,1,0,0:0:0:0:
320,192,221125,1,0,0:0:0:0:
64,192,221125,1,0,0:0:0:0:
448,192,221250,1,0,0:0:0:0:
320,192,221250,1,0,0:0:0:0:
192,192,221250,1,0,0:0:0:0:
64,192,221250,1,0,0:0:0:0:
192,192,221375,1,0,0:0:0:0:
64,192,221500,1,0,0:0:0:0:
320,192,221500,1,0,0:0:0:0:
448,192,221500,1,0,0:0:0:0:
448,192,221625,128,0,221937:0:0:0:0:
320,192,221625,128,0,221937:0:0:0:0:
192,192,221625,1,0,0:0:0:0:
64,192,221625,128,0,221937:0:0:0:0:
64,192,222000,1,0,0:0:0:0:
192,192,222000,1,0,0:0:0:0:
448,192,222000,1,0,0:0:0:0:
192,192,222125,1,0,0:0:0:0:
320,192,222125,1,0,0:0:0:0:
320,192,222250,1,0,0:0:0:0:
192,192,222250,1,0,0:0:0:0:
64,192,222375,1,0,0:0:0:0:
192,192,222375,1,0,0:0:0:0:
448,192,222375,1,0,0:0:0:0:
320,192,222375,1,0,0:0:0:0:
448,192,222500,1,0,0:0:0:0:
64,192,222500,1,0,0:0:0:0:
64,192,222625,1,0,0:0:0:0:
448,192,222625,1,0,0:0:0:0:
192,192,222750,1,0,0:0:0:0:
320,192,222750,1,0,0:0:0:0:
64,192,222750,1,0,0:0:0:0:
320,192,222875,1,0,0:0:0:0:
192,192,222875,1,0,0:0:0:0:
320,192,223000,1,0,0:0:0:0:
192,192,223000,1,0,0:0:0:0:
192,192,223125,1,0,0:0:0:0:
320,192,223125,1,0,0:0:0:0:
448,192,223125,1,0,0:0:0:0:
64,192,223125,128,0,223500:0:0:0:0:
192,192,223500,1,0,0:0:0:0:
320,192,223500,1,0,0:0:0:0:
448,192,223500,1,0,0:0:0:0:
64,192,223625,1,0,0:0:0:0:
448,192,223625,1,0,0:0:0:0:
320,192,223750,1,0,0:0:0:0:
448,192,223750,1,0,0:0:0:0:
64,192,223750,1,0,0:0:0:0:
64,192,223875,1,0,0:0:0:0:
448,192,223875,1,0,0:0:0:0:
320,192,223875,1,0,0:0:0:0:
192,192,223875,1,0,0:0:0:0:
320,192,224000,1,0,0:0:0:0:
192,192,224000,1,0,0:0:0:0:
64,192,224125,1,0,0:0:0:0:
320,192,224125,1,0,0:0:0:0:
192,192,224250,1,0,0:0:0:0:
64,192,224250,1,0,0:0:0:0:
448,192,224250,1,0,0:0:0:0:
448,192,224375,1,0,0:0:0:0:
320,192,224375,1,0,0:0:0:0:
192,192,224500,1,0,0:0:0:0:
320,192,224500,1,0,0:0:0:0:
64,192,224625,1,0,0:0:0:0:
192,192,224625,1,0,0:0:0:0:
448,192,224625,1,0,0:0:0:0:
320,192,224750,128,0,225000:0:0:0:0:
192,192,224750,1,0,0:0:0:0:
64,192,224875,1,0,0:0:0:0:
448,192,225000,1,0,0:0:0:0:
192,192,225000,1,0,0:0:0:0:
64,192,225125,1,0,0:0:0:0:
448,192,225250,1,0,0:0:0:0:
64,192,225250,1,0,0:0:0:0:
448,192,225375,1,0,0:0:0:0:
320,192,225375,1,0,0:0:0:0:
192,192,225375,1,0,0:0:0:0:
320,192,225500,128,0,225625:0:0:0:0:
192,192,225500,128,0,225625:0:0:0:0:
64,192,225625,1,0,0:0:0:0:
320,192,225750,128,0,225875:0:0:0:0:
448,192,225750,128,0,225875:0:0:0:0:
192,192,225750,1,0,0:0:0:0:
64,192,225750,1,0,0:0:0:0:
192,192,225875,1,0,0:0:0:0:
192,192,226000,1,0,0:0:0:0:
64,192,226125,1,0,0:0:0:0:
320,192,226125,1,0,0:0:0:0:
448,192,226125,1,0,0:0:0:0:
192,192,226250,1,0,0:0:0:0:
448,192,226375,1,0,0:0:0:0:
320,192,226500,1,0,0:0:0:0:
192,192,226500,1,0,0:0:0:0:
64,192,226500,1,0,0:0:0:0:
448,192,226500,1,0,0:0:0:0:
192,192,226625,1,0,0:0:0:0:
192,192,226750,1,0,0:0:0:0:
64,192,226875,1,0,0:0:0:0:
192,192,226875,1,0,0:0:0:0:
320,192,226875,1,0,0:0:0:0:
448,192,226875,1,0,0:0:0:0:
320,192,227000,1,0,0:0:0:0:
320,192,227125,1,0,0:0:0:0:
64,192,227250,1,0,0:0:0:0:
192,192,227250,1,0,0:0:0:0:
320,192,227250,1,0,0:0:0:0:
448,192,227250,1,0,0:0:0:0:
64,192,227375,1,0,0:0:0:0:
64,192,227500,1,0,0:0:0:0:
320,192,227625,128,0,227937:0:0:0:0:
192,192,227625,128,0,227937:0:0:0:0:
64,192,227625,128,0,227937:0:0:0:0:
448,192,227625,1,0,0:0:0:0:
64,192,228000,1,0,0:0:0:0:
192,192,228000,1,0,0:0:0:0:
448,192,228000,1,0,0:0:0:0:
320,192,228093,1,0,0:0:0:0:
64,192,228187,1,0,0:0:0:0:
192,192,228187,1,0,0:0:0:0:
448,192,228281,1,0,0:0:0:0:
320,192,228375,1,0,0:0:0:0:
192,192,228375,1,0,0:0:0:0:
64,192,228375,1,0,0:0:0:0:
448,192,228468,1,0,0:0:0:0:
64,192,228562,1,0,0:0:0:0:
192,192,228562,1,0,0:0:0:0:
448,192,228656,1,0,0:0:0:0:
320,192,228750,1,0,0:0:0:0:
192,192,228750,1,0,0:0:0:0:
64,192,228750,1,0,0:0:0:0:
448,192,228843,1,0,0:0:0:0:
320,192,228937,1,0,0:0:0:0:
192,192,228937,1,0,0:0:0:0:
64,192,229031,1,0,0:0:0:0:
192,192,229125,1,0,0:0:0:0:
320,192,229125,1,0,0:0:0:0:
64,192,229125,1,0,0:0:0:0:
448,192,229125,128,0,229312:0:0:0:0:
64,192,229312,1,0,0:0:0:0:
192,192,229406,1,0,0:0:0:0:
320,192,229500,1,0,0:0:0:0:
448,192,229500,1,0,0:0:0:0:
64,192,229500,1,0,0:0:0:0:
192,192,229593,1,0,0:0:0:0:
64,192,229687,1,0,0:0:0:0:
320,192,229687,1,0,0:0:0:0:
192,192,229781,1,0,0:0:0:0:
320,192,229875,1,0,0:0:0:0:
448,192,229875,1,0,0:0:0:0:
64,192,229875,1,0,0:0:0:0:
192,192,229968,1,0,0:0:0:0:
448,192,230062,1,0,0:0:0:0:
320,192,230156,1,0,0:0:0:0:
192,192,230156,1,0,0:0:0:0:
64,192,230250,1,0,0:0:0:0:
448,192,230250,1,0,0:0:0:0:
192,192,230250,1,0,0:0:0:0:
320,192,230343,1,0,0:0:0:0:
448,192,230437,1,0,0:0:0:0:
64,192,230531,1,0,0:0:0:0:
320,192,230625,1,0,0:0:0:0:
192,192,230625,128,0,230906:0:0:0:0:
448,192,230625,128,0,230906:0:0:0:0:
64,192,231000,1,0,0:0:0:0:
192,192,231000,1,0,0:0:0:0:
320,192,231000,1,0,0:0:0:0:
448,192,231093,1,0,0:0:0:0:
64,192,231187,1,0,0:0:0:0:
448,192,231281,1,0,0:0:0:0:
320,192,231375,1,0,0:0:0:0:
192,192,231375,1,0,0:0:0:0:
64,192,231375,1,0,0:0:0:0:
448,192,231468,1,0,0:0:0:0:
64,192,231562,1,0,0:0:0:0:
448,192,231656,1,0,0:0:0:0:
64,192,231750,1,0,0:0:0:0:
192,192,231750,1,0,0:0:0:0:
320,192,231750,1,0,0:0:0:0:
448,192,231843,1,0,0:0:0:0:
64,192,231937,1,0,0:0:0:0:
320,192,231937,1,0,0:0:0:0:
192,192,232031,1,0,0:0:0:0:
320,192,232125,1,0,0:0:0:0:
64,192,232125,1,0,0:0:0:0:
448,192,232125,128,0,232500:0:0:0:0:
64,192,232406,1,0,0:0:0:0:
320,192,232500,1,0,0:0:0:0:
192,192,232500,1,0,0:0:0:0:
64,192,232593,1,0,0:0:0:0:
448,192,232687,1,0,0:0:0:0:
192,192,232781,1,0,0:0:0:0:
64,192,232781,1,0,0:0:0:0:
320,192,232875,1,0,0:0:0:0:
448,192,232875,1,0,0:0:0:0:
64,192,232968,1,0,0:0:0:0:
192,192,233062,1,0,0:0:0:0:
448,192,233062,1,0,0:0:0:0:
64,192,233156,1,0,0:0:0:0:
192,192,233250,1,0,0:0:0:0:
320,192,233250,1,0,0:0:0:0:
64,192,233250,128,0,233625:0:0:0:0:
448,192,233250,1,0,0:0:0:0:
448,192,233625,128,0,234000:0:0:0:0:
192,192,233625,1,0,0:0:0:0:
64,192,234000,1,0,0:0:0:0:
192,192,234000,1,0,0:0:0:0:
320,192,234000,1,0,0:0:0:0:
448,192,234093,1,0,0:0:0:0:
192,192,234187,1,0,0:0:0:0:
64,192,234281,1,0,0:0:0:0:
320,192,234281,1,0,0:0:0:0:
192,192,234375,1,0,0:0:0:0:
448,192,234375,1,0,0:0:0:0:
448,192,234562,1,0,0:0:0:0:
192,192,234562,1,0,0:0:0:0:
64,192,234562,1,0,0:0:0:0:
320,192,234656,1,0,0:0:0:0:
192,192,234750,1,0,0:0:0:0:
64,192,234750,1,0,0:0:0:0:
448,192,234750,1,0,0:0:0:0:
64,192,234937,1,0,0:0:0:0:
192,192,234937,1,0,0:0:0:0:
320,192,234937,1,0,0:0:0:0:
448,192,235031,1,0,0:0:0:0:
320,192,235125,1,0,0:0:0:0:
192,192,235125,1,0,0:0:0:0:
64,192,235125,128,0,235500:0:0:0:0:
448,192,235312,1,0,0:0:0:0:
192,192,235500,1,0,0:0:0:0:
320,192,235500,1,0,0:0:0:0:
448,192,235593,1,0,0:0:0:0:
64,192,235687,1,0,0:0:0:0:
320,192,235687,1,0,0:0:0:0:
192,192,235781,1,0,0:0:0:0:
320,192,235875,1,0,0:0:0:0:
448,192,235875,1,0,0:0:0:0:
64,192,235875,1,0,0:0:0:0:
192,192,235968,1,0,0:0:0:0:
320,192,236062,1,0,0:0:0:0:
448,192,236062,1,0,0:0:0:0:
192,192,236156,1,0,0:0:0:0:
64,192,236250,1,0,0:0:0:0:
320,192,236250,1,0,0:0:0:0:
448,192,236250,1,0,0:0:0:0:
192,192,236343,1,0,0:0:0:0:
320,192,236437,1,0,0:0:0:0:
448,192,236531,1,0,0:0:0:0:
320,192,236625,1,0,0:0:0:0:
64,192,236625,128,0,236906:0:0:0:0:
192,192,236625,128,0,236906:0:0:0:0:
320,192,237000,1,0,0:0:0:0:
448,192,237000,1,0,0:0:0:0:
64,192,237000,1,0,0:0:0:0:
192,192,237093,1,0,0:0:0:0:
320,192,237187,1,0,0:0:0:0:
64,192,237187,1,0,0:0:0:0:
448,192,237281,1,0,0:0:0:0:
320,192,237375,1,0,0:0:0:0:
192,192,237375,1,0,0:0:0:0:
64,192,237375,1,0,0:0:0:0:
320,192,237562,1,0,0:0:0:0:
448,192,237562,1,0,0:0:0:0:
64,192,237562,1,0,0:0:0:0:
192,192,237656,1,0,0:0:0:0:
320,192,237750,1,0,0:0:0:0:
448,192,237750,1,0,0:0:0:0:
64,192,237750,1,0,0:0:0:0:
64,192,237937,1,0,0:0:0:0:
448,192,237937,1,0,0:0:0:0:
192,192,238031,1,0,0:0:0:0:
320,192,238125,1,0,0:0:0:0:
64,192,238125,1,0,0:0:0:0:
448,192,238125,128,0,238500:0:0:0:0:
192,192,238312,1,0,0:0:0:0:
64,192,238500,1,0,0:0:0:0:
320,192,238500,1,0,0:0:0:0:
192,192,238500,1,0,0:0:0:0:
320,192,238625,1,0,0:0:0:0:
320,192,238750,1,0,0:0:0:0:
64,192,238875,1,0,0:0:0:0:
192,192,238875,1,0,0:0:0:0:
320,192,238875,1,0,0:0:0:0:
448,192,238875,1,0,0:0:0:0:
192,192,239000,1,0,0:0:0:0:
192,192,239125,1,0,0:0:0:0:
64,192,239250,1,0,0:0:0:0:
192,192,239250,1,0,0:0:0:0:
320,192,239250,1,0,0:0:0:0:
448,192,239250,1,0,0:0:0:0:
448,192,239375,1,0,0:0:0:0:
448,192,239500,1,0,0:0:0:0:
448,192,239625,1,0,0:0:0:0:
320,192,239625,1,0,0:0:0:0:
192,192,239625,1,0,0:0:0:0:
64,192,239625,1,0,0:0:0:0:
64,192,240000,128,0,246000:0:0:0:0:
448,192,240000,128,0,246000:0:0:0:0:
