osu file format v14

[General]
AudioFilename: audio.mp3
AudioLeadIn: 0
PreviewTime: 79684
Countdown: 0
SampleSet: Normal
StackLeniency: 0.7
Mode: 3
LetterboxInBreaks: 0
SpecialStyle: 0
WidescreenStoryboard: 0

[Editor]
DistanceSpacing: 0.8
BeatDivisor: 4
GridSize: 32
TimelineZoom: 2

[Metadata]
Title:ORACLE
TitleUnicode:ORACLE
Artist:Billx & Ostralopitek
ArtistUnicode:Billx & Ostralopitek
Creator:L A U R A
Version:Wuuutt!!
Source:
Tags:
BeatmapID:1373600
BeatmapSetID:648374

[Difficulty]
HPDrainRate:8
CircleSize:4
OverallDifficulty:8
ApproachRate:5
SliderMultiplier:1.4
SliderTickRate:1

[Events]
//Background and Video events
0,0,"konachan-com-161968-chain-flowers-original-rose-undeedking-white_hair-wink-witch-witch_hat-yellow_eyes.jpg",0,0
//Break Periods
//Storyboard Layer 0 (Background)
//Storyboard Layer 1 (Fail)
//Storyboard Layer 2 (Pass)
//Storyboard Layer 3 (Foreground)
//Storyboard Sound Samples

[TimingPoints]
106,315.789473684211,4,1,0,30,1,0
101158,-100,4,1,0,30,0,1
121527,-100,4,1,0,30,0,0
182316,-100,4,1,0,30,0,1
202448,-100,4,1,0,30,0,0
281790,-40,4,1,0,30,0,0
281895,-153.846153846154,4,1,0,30,0,0
282000,-40,4,1,0,30,0,0
282106,-181.818181818182,4,1,0,30,0,0
282263,-40,4,1,0,30,0,0
282369,-222.222222222222,4,1,0,30,0,0
282474,-40,4,1,0,30,0,0
282579,-285.714285714286,4,1,0,30,0,0
282684,-40,4,1,0,30,0,0
282842,-400,4,1,0,30,0,0
283053,-100,4,1,0,30,0,0

[HitObjects]
320,192,106,5,0,0:0:0:0:
448,192,106,1,0,0:0:0:0:
192,192,263,1,0,0:0:0:0:
64,192,421,1,0,0:0:0:0:
448,192,421,1,0,0:0:0:0:
320,192,579,1,0,0:0:0:0:
64,192,737,1,0,0:0:0:0:
192,192,737,1,0,0:0:0:0:
320,192,895,1,0,0:0:0:0:
64,192,1053,1,0,0:0:0:0:
448,192,1053,1,0,0:0:0:0:
192,192,1211,1,0,0:0:0:0:
320,192,1369,1,0,0:0:0:0:
448,192,1369,1,0,0:0:0:0:
192,192,1527,1,0,0:0:0:0:
64,192,1684,1,0,0:0:0:0:
448,192,1684,1,0,0:0:0:0:
320,192,1842,1,0,0:0:0:0:
64,192,2000,1,0,0:0:0:0:
192,192,2000,1,0,0:0:0:0:
448,192,2158,1,0,0:0:0:0:
320,192,2316,1,0,0:0:0:0:
192,192,2316,1,0,0:0:0:0:
64,192,2474,1,0,0:0:0:0:
192,192,2632,1,0,0:0:0:0:
448,192,2632,1,0,0:0:0:0:
320,192,2790,1,0,0:0:0:0:
64,192,2948,1,0,0:0:0:0:
192,192,2948,1,0,0:0:0:0:
448,192,3106,1,0,0:0:0:0:
64,192,3263,1,0,0:0:0:0:
320,192,3263,1,0,0:0:0:0:
192,192,3421,1,0,0:0:0:0:
320,192,3579,1,0,0:0:0:0:
448,192,3579,1,0,0:0:0:0:
64,192,3737,1,0,0:0:0:0:
192,192,3895,1,0,0:0:0:0:
320,192,3895,1,0,0:0:0:0:
448,192,4053,1,0,0:0:0:0:
64,192,4211,1,0,0:0:0:0:
320,192,4211,1,0,0:0:0:0:
192,192,4369,1,0,0:0:0:0:
320,192,4527,1,0,0:0:0:0:
448,192,4527,1,0,0:0:0:0:
64,192,4684,1,0,0:0:0:0:
192,192,4842,1,0,0:0:0:0:
448,192,4842,1,0,0:0:0:0:
320,192,5000,1,0,0:0:0:0:
192,192,5158,1,0,0:0:0:0:
64,192,5158,128,0,7684:0:0:0:0:
320,192,5316,1,0,0:0:0:0:
448,192,5474,1,0,0:0:0:0:
192,192,5474,1,0,0:0:0:0:
320,192,5632,1,0,0:0:0:0:
320,192,5790,1,0,0:0:0:0:
448,192,5790,1,0,0:0:0:0:
192,192,5948,1,0,0:0:0:0:
192,192,6106,1,0,0:0:0:0:
320,192,6106,1,0,0:0:0:0:
448,192,6263,1,0,0:0:0:0:
320,192,6421,1,0,0:0:0:0:
448,192,6421,1,0,0:0:0:0:
192,192,6579,1,0,0:0:0:0:
192,192,6737,1,0,0:0:0:0:
448,192,6737,1,0,0:0:0:0:
320,192,6895,1,0,0:0:0:0:
320,192,7053,1,0,0:0:0:0:
448,192,7053,1,0,0:0:0:0:
192,192,7211,1,0,0:0:0:0:
192,192,7369,1,0,0:0:0:0:
448,192,7369,1,0,0:0:0:0:
320,192,7527,1,0,0:0:0:0:
448,192,7684,1,0,0:0:0:0:
320,192,7763,1,0,0:0:0:0:
64,192,7842,1,0,0:0:0:0:
192,192,7842,1,0,0:0:0:0:
64,192,8000,1,0,0:0:0:0:
192,192,8079,1,0,0:0:0:0:
320,192,8158,1,0,0:0:0:0:
448,192,8158,1,0,0:0:0:0:
448,192,8316,1,0,0:0:0:0:
320,192,8395,1,0,0:0:0:0:
64,192,8474,1,0,0:0:0:0:
192,192,8474,1,0,0:0:0:0:
320,192,8632,1,0,0:0:0:0:
448,192,8632,1,0,0:0:0:0:
64,192,8948,1,0,0:0:0:0:
192,192,9027,1,0,0:0:0:0:
320,192,9106,1,0,0:0:0:0:
448,192,9106,1,0,0:0:0:0:
64,192,9263,1,0,0:0:0:0:
192,192,9263,1,0,0:0:0:0:
320,192,9342,1,0,0:0:0:0:
64,192,9421,1,0,0:0:0:0:
448,192,9421,1,0,0:0:0:0:
192,192,9500,1,0,0:0:0:0:
448,192,9579,1,0,0:0:0:0:
320,192,9579,1,0,0:0:0:0:
64,192,9737,1,0,0:0:0:0:
192,192,9737,1,0,0:0:0:0:
448,192,9895,1,0,0:0:0:0:
320,192,9895,1,0,0:0:0:0:
64,192,10211,1,0,0:0:0:0:
192,192,10211,1,0,0:0:0:0:
448,192,10211,1,0,0:0:0:0:
320,192,10369,1,0,0:0:0:0:
192,192,10448,1,0,0:0:0:0:
320,192,10527,1,0,0:0:0:0:
448,192,10527,1,0,0:0:0:0:
64,192,10684,1,0,0:0:0:0:
192,192,10842,1,0,0:0:0:0:
320,192,10842,1,0,0:0:0:0:
448,192,11000,1,0,0:0:0:0:
320,192,11079,1,0,0:0:0:0:
64,192,11158,1,0,0:0:0:0:
192,192,11158,1,0,0:0:0:0:
448,192,11316,1,0,0:0:0:0:
64,192,11474,1,0,0:0:0:0:
320,192,11474,1,0,0:0:0:0:
192,192,11553,1,0,0:0:0:0:
448,192,11632,1,0,0:0:0:0:
320,192,11711,1,0,0:0:0:0:
64,192,11790,1,0,0:0:0:0:
192,192,11790,1,0,0:0:0:0:
320,192,11948,1,0,0:0:0:0:
64,192,12106,1,0,0:0:0:0:
448,192,12106,1,0,0:0:0:0:
192,192,12184,1,0,0:0:0:0:
448,192,12263,1,0,0:0:0:0:
320,192,12342,1,0,0:0:0:0:
64,192,12421,1,0,0:0:0:0:
192,192,12421,1,0,0:0:0:0:
320,192,12579,1,0,0:0:0:0:
64,192,12737,1,0,0:0:0:0:
448,192,12737,1,0,0:0:0:0:
192,192,12895,1,0,0:0:0:0:
320,192,12974,1,0,0:0:0:0:
64,192,13053,1,0,0:0:0:0:
192,192,13053,1,0,0:0:0:0:
448,192,13211,1,0,0:0:0:0:
192,192,13369,1,0,0:0:0:0:
320,192,13369,1,0,0:0:0:0:
64,192,13527,1,0,0:0:0:0:
192,192,13606,1,0,0:0:0:0:
320,192,13684,1,0,0:0:0:0:
448,192,13684,1,0,0:0:0:0:
192,192,13842,1,0,0:0:0:0:
64,192,14000,1,0,0:0:0:0:
448,192,14000,1,0,0:0:0:0:
192,192,14079,1,0,0:0:0:0:
448,192,14158,1,0,0:0:0:0:
320,192,14237,1,0,0:0:0:0:
64,192,14316,1,0,0:0:0:0:
192,192,14316,1,0,0:0:0:0:
320,192,14474,1,0,0:0:0:0:
64,192,14632,1,0,0:0:0:0:
448,192,14632,1,0,0:0:0:0:
320,192,14711,1,0,0:0:0:0:
64,192,14790,1,0,0:0:0:0:
192,192,14869,1,0,0:0:0:0:
320,192,14948,1,0,0:0:0:0:
448,192,14948,1,0,0:0:0:0:
64,192,15263,1,0,0:0:0:0:
192,192,15263,1,0,0:0:0:0:
320,192,15263,1,0,0:0:0:0:
448,192,15421,1,0,0:0:0:0:
320,192,15500,1,0,0:0:0:0:
64,192,15579,1,0,0:0:0:0:
192,192,15579,1,0,0:0:0:0:
320,192,15737,1,0,0:0:0:0:
64,192,15895,1,0,0:0:0:0:
448,192,15895,1,0,0:0:0:0:
192,192,16053,1,0,0:0:0:0:
448,192,16132,1,0,0:0:0:0:
320,192,16211,1,0,0:0:0:0:
64,192,16211,1,0,0:0:0:0:
192,192,16369,1,0,0:0:0:0:
320,192,16527,1,0,0:0:0:0:
448,192,16527,1,0,0:0:0:0:
64,192,16606,1,0,0:0:0:0:
192,192,16684,1,0,0:0:0:0:
320,192,16763,1,0,0:0:0:0:
64,192,16842,1,0,0:0:0:0:
192,192,16842,1,0,0:0:0:0:
320,192,17000,1,0,0:0:0:0:
64,192,17158,1,0,0:0:0:0:
448,192,17158,1,0,0:0:0:0:
192,192,17237,1,0,0:0:0:0:
448,192,17316,1,0,0:0:0:0:
320,192,17395,1,0,0:0:0:0:
64,192,17474,1,0,0:0:0:0:
192,192,17474,1,0,0:0:0:0:
320,192,17632,1,0,0:0:0:0:
64,192,17790,1,0,0:0:0:0:
192,192,17790,1,0,0:0:0:0:
448,192,17790,1,0,0:0:0:0:
320,192,17948,1,0,0:0:0:0:
320,192,18106,1,0,0:0:0:0:
448,192,18106,1,0,0:0:0:0:
64,192,18106,1,0,0:0:0:0:
192,192,18263,1,0,0:0:0:0:
64,192,18421,1,0,0:0:0:0:
192,192,18421,1,0,0:0:0:0:
448,192,18421,1,0,0:0:0:0:
320,192,18579,1,0,0:0:0:0:
320,192,18737,1,0,0:0:0:0:
448,192,18737,1,0,0:0:0:0:
192,192,18737,1,0,0:0:0:0:
64,192,18895,1,0,0:0:0:0:
64,192,19053,1,0,0:0:0:0:
192,192,19053,1,0,0:0:0:0:
448,192,19053,1,0,0:0:0:0:
320,192,19132,1,0,0:0:0:0:
64,192,19211,1,0,0:0:0:0:
192,192,19290,1,0,0:0:0:0:
320,192,19369,1,0,0:0:0:0:
448,192,19369,1,0,0:0:0:0:
64,192,19527,1,0,0:0:0:0:
192,192,19606,1,0,0:0:0:0:
448,192,19684,1,0,0:0:0:0:
320,192,19763,1,0,0:0:0:0:
192,192,19842,1,0,0:0:0:0:
64,192,19842,1,0,0:0:0:0:
320,192,20000,1,0,0:0:0:0:
64,192,20000,1,0,0:0:0:0:
448,192,20000,128,0,20316:0:0:0:0:
64,192,20316,1,0,0:0:0:0:
192,192,20316,1,0,0:0:0:0:
320,192,20395,1,0,0:0:0:0:
64,192,20474,1,0,0:0:0:0:
192,192,20553,1,0,0:0:0:0:
320,192,20632,1,0,0:0:0:0:
448,192,20632,1,0,0:0:0:0:
64,192,20711,1,0,0:0:0:0:
192,192,20790,1,0,0:0:0:0:
448,192,20869,1,0,0:0:0:0:
320,192,20948,1,0,0:0:0:0:
64,192,20948,1,0,0:0:0:0:
192,192,21027,1,0,0:0:0:0:
448,192,21106,1,0,0:0:0:0:
320,192,21184,1,0,0:0:0:0:
64,192,21263,1,0,0:0:0:0:
192,192,21263,1,0,0:0:0:0:
448,192,21342,1,0,0:0:0:0:
64,192,21421,1,0,0:0:0:0:
192,192,21500,1,0,0:0:0:0:
320,192,21579,1,0,0:0:0:0:
448,192,21579,1,0,0:0:0:0:
64,192,21658,1,0,0:0:0:0:
192,192,21658,1,0,0:0:0:0:
320,192,21737,1,0,0:0:0:0:
448,192,21737,1,0,0:0:0:0:
192,192,21816,1,0,0:0:0:0:
448,192,21895,1,0,0:0:0:0:
64,192,21895,1,0,0:0:0:0:
320,192,21974,1,0,0:0:0:0:
64,192,22053,1,0,0:0:0:0:
192,192,22132,1,0,0:0:0:0:
320,192,22211,1,0,0:0:0:0:
448,192,22211,1,0,0:0:0:0:
64,192,22290,1,0,0:0:0:0:
192,192,22290,1,0,0:0:0:0:
320,192,22369,1,0,0:0:0:0:
448,192,22369,1,0,0:0:0:0:
192,192,22448,1,0,0:0:0:0:
64,192,22527,1,0,0:0:0:0:
448,192,22527,1,0,0:0:0:0:
320,192,22606,1,0,0:0:0:0:
64,192,22684,1,0,0:0:0:0:
192,192,22763,1,0,0:0:0:0:
320,192,22842,1,0,0:0:0:0:
448,192,22842,1,0,0:0:0:0:
64,192,22921,1,0,0:0:0:0:
192,192,23000,1,0,0:0:0:0:
448,192,23079,1,0,0:0:0:0:
320,192,23158,1,0,0:0:0:0:
192,192,23158,1,0,0:0:0:0:
64,192,23237,1,0,0:0:0:0:
448,192,23316,1,0,0:0:0:0:
320,192,23395,1,0,0:0:0:0:
64,192,23474,1,0,0:0:0:0:
192,192,23474,1,0,0:0:0:0:
448,192,23553,1,0,0:0:0:0:
64,192,23632,1,0,0:0:0:0:
192,192,23711,1,0,0:0:0:0:
320,192,23790,1,0,0:0:0:0:
448,192,23790,1,0,0:0:0:0:
64,192,23869,1,0,0:0:0:0:
192,192,23948,1,0,0:0:0:0:
320,192,24027,1,0,0:0:0:0:
64,192,24106,1,0,0:0:0:0:
448,192,24106,1,0,0:0:0:0:
192,192,24184,1,0,0:0:0:0:
64,192,24263,1,0,0:0:0:0:
448,192,24263,1,0,0:0:0:0:
320,192,24342,1,0,0:0:0:0:
448,192,24421,1,0,0:0:0:0:
64,192,24421,1,0,0:0:0:0:
192,192,24500,1,0,0:0:0:0:
448,192,24579,1,0,0:0:0:0:
320,192,24658,1,0,0:0:0:0:
64,192,24737,1,0,0:0:0:0:
192,192,24737,1,0,0:0:0:0:
320,192,24816,1,0,0:0:0:0:
64,192,24895,1,0,0:0:0:0:
448,192,24895,1,0,0:0:0:0:
192,192,24974,1,0,0:0:0:0:
320,192,25053,1,0,0:0:0:0:
448,192,25053,1,0,0:0:0:0:
64,192,25132,1,0,0:0:0:0:
192,192,25211,1,0,0:0:0:0:
448,192,25290,1,0,0:0:0:0:
64,192,25369,1,0,0:0:0:0:
320,192,25369,1,0,0:0:0:0:
448,192,25448,1,0,0:0:0:0:
320,192,25527,1,0,0:0:0:0:
64,192,25606,1,0,0:0:0:0:
448,192,25684,1,0,0:0:0:0:
192,192,25684,1,0,0:0:0:0:
320,192,25763,1,0,0:0:0:0:
64,192,25842,1,0,0:0:0:0:
192,192,25921,1,0,0:0:0:0:
64,192,26000,1,0,0:0:0:0:
448,192,26000,1,0,0:0:0:0:
192,192,26079,1,0,0:0:0:0:
448,192,26158,1,0,0:0:0:0:
320,192,26237,1,0,0:0:0:0:
64,192,26316,1,0,0:0:0:0:
192,192,26316,1,0,0:0:0:0:
448,192,26395,1,0,0:0:0:0:
64,192,26474,1,0,0:0:0:0:
192,192,26553,1,0,0:0:0:0:
320,192,26632,1,0,0:0:0:0:
448,192,26632,1,0,0:0:0:0:
192,192,26711,1,0,0:0:0:0:
64,192,26790,1,0,0:0:0:0:
448,192,26790,1,0,0:0:0:0:
320,192,26869,1,0,0:0:0:0:
64,192,26948,1,0,0:0:0:0:
448,192,26948,1,0,0:0:0:0:
192,192,27027,1,0,0:0:0:0:
320,192,27106,1,0,0:0:0:0:
64,192,27106,1,0,0:0:0:0:
448,192,27184,1,0,0:0:0:0:
192,192,27263,1,0,0:0:0:0:
320,192,27263,1,0,0:0:0:0:
64,192,27342,1,0,0:0:0:0:
448,192,27421,1,0,0:0:0:0:
192,192,27421,1,0,0:0:0:0:
320,192,27500,1,0,0:0:0:0:
64,192,27579,1,0,0:0:0:0:
192,192,27579,1,0,0:0:0:0:
448,192,27658,1,0,0:0:0:0:
320,192,27737,1,0,0:0:0:0:
192,192,27816,1,0,0:0:0:0:
448,192,27895,1,0,0:0:0:0:
64,192,27895,1,0,0:0:0:0:
192,192,27974,1,0,0:0:0:0:
448,192,28053,1,0,0:0:0:0:
64,192,28053,1,0,0:0:0:0:
320,192,28132,1,0,0:0:0:0:
64,192,28211,1,0,0:0:0:0:
448,192,28211,1,0,0:0:0:0:
192,192,28290,1,0,0:0:0:0:
448,192,28369,1,0,0:0:0:0:
64,192,28369,1,0,0:0:0:0:
320,192,28448,1,0,0:0:0:0:
64,192,28527,1,0,0:0:0:0:
448,192,28527,1,0,0:0:0:0:
192,192,28606,1,0,0:0:0:0:
448,192,28684,1,0,0:0:0:0:
320,192,28763,1,0,0:0:0:0:
64,192,28842,1,0,0:0:0:0:
192,192,28842,1,0,0:0:0:0:
448,192,28921,1,0,0:0:0:0:
320,192,28921,1,0,0:0:0:0:
320,192,29158,1,0,0:0:0:0:
448,192,29158,1,0,0:0:0:0:
64,192,29237,1,0,0:0:0:0:
192,192,29316,1,0,0:0:0:0:
448,192,29316,1,0,0:0:0:0:
320,192,29474,1,0,0:0:0:0:
448,192,29474,1,0,0:0:0:0:
192,192,29553,1,0,0:0:0:0:
64,192,29632,1,0,0:0:0:0:
448,192,29632,1,0,0:0:0:0:
320,192,29711,1,0,0:0:0:0:
64,192,29790,1,0,0:0:0:0:
192,192,29790,1,0,0:0:0:0:
64,192,30027,1,0,0:0:0:0:
192,192,30106,1,0,0:0:0:0:
448,192,30184,1,0,0:0:0:0:
320,192,30263,1,0,0:0:0:0:
192,192,30342,1,0,0:0:0:0:
64,192,30421,1,0,0:0:0:0:
448,192,30421,1,0,0:0:0:0:
320,192,30421,1,0,0:0:0:0:
192,192,30500,1,0,0:0:0:0:
448,192,30579,1,0,0:0:0:0:
320,192,30658,1,0,0:0:0:0:
64,192,30737,1,0,0:0:0:0:
192,192,30737,1,0,0:0:0:0:
448,192,30816,1,0,0:0:0:0:
320,192,30895,1,0,0:0:0:0:
64,192,30974,1,0,0:0:0:0:
192,192,31053,1,0,0:0:0:0:
448,192,31053,1,0,0:0:0:0:
320,192,31132,1,0,0:0:0:0:
64,192,31211,1,0,0:0:0:0:
192,192,31290,1,0,0:0:0:0:
448,192,31369,1,0,0:0:0:0:
320,192,31369,1,0,0:0:0:0:
64,192,31448,1,0,0:0:0:0:
192,192,31527,1,0,0:0:0:0:
320,192,31606,1,0,0:0:0:0:
64,192,31684,1,0,0:0:0:0:
192,192,31684,1,0,0:0:0:0:
448,192,31763,1,0,0:0:0:0:
320,192,31842,1,0,0:0:0:0:
64,192,31921,1,0,0:0:0:0:
192,192,32000,1,0,0:0:0:0:
448,192,32000,1,0,0:0:0:0:
320,192,32079,1,0,0:0:0:0:
64,192,32158,1,0,0:0:0:0:
192,192,32237,1,0,0:0:0:0:
448,192,32316,1,0,0:0:0:0:
320,192,32316,1,0,0:0:0:0:
64,192,32395,1,0,0:0:0:0:
448,192,32474,1,0,0:0:0:0:
320,192,32553,1,0,0:0:0:0:
64,192,32632,1,0,0:0:0:0:
192,192,32632,1,0,0:0:0:0:
448,192,32711,1,0,0:0:0:0:
320,192,32790,1,0,0:0:0:0:
192,192,32869,1,0,0:0:0:0:
64,192,32948,1,0,0:0:0:0:
448,192,32948,1,0,0:0:0:0:
320,192,33027,1,0,0:0:0:0:
64,192,33106,1,0,0:0:0:0:
192,192,33184,1,0,0:0:0:0:
320,192,33263,1,0,0:0:0:0:
448,192,33263,1,0,0:0:0:0:
192,192,33342,1,0,0:0:0:0:
448,192,33421,1,0,0:0:0:0:
320,192,33500,1,0,0:0:0:0:
64,192,33579,1,0,0:0:0:0:
192,192,33579,1,0,0:0:0:0:
448,192,33658,1,0,0:0:0:0:
320,192,33737,1,0,0:0:0:0:
64,192,33816,1,0,0:0:0:0:
192,192,33895,1,0,0:0:0:0:
320,192,33895,1,0,0:0:0:0:
448,192,33974,1,0,0:0:0:0:
64,192,34053,1,0,0:0:0:0:
192,192,34132,1,0,0:0:0:0:
320,192,34211,1,0,0:0:0:0:
448,192,34211,128,0,34527:0:0:0:0:
64,192,34527,1,0,0:0:0:0:
192,192,34527,1,0,0:0:0:0:
320,192,34606,1,0,0:0:0:0:
64,192,34684,1,0,0:0:0:0:
192,192,34763,1,0,0:0:0:0:
448,192,34842,1,0,0:0:0:0:
320,192,34842,1,0,0:0:0:0:
64,192,35000,1,0,0:0:0:0:
192,192,35000,1,0,0:0:0:0:
448,192,35079,1,0,0:0:0:0:
320,192,35158,1,0,0:0:0:0:
64,192,35237,1,0,0:0:0:0:
192,192,35316,1,0,0:0:0:0:
320,192,35395,1,0,0:0:0:0:
64,192,35474,1,0,0:0:0:0:
448,192,35474,1,0,0:0:0:0:
320,192,35553,1,0,0:0:0:0:
64,192,35632,1,0,0:0:0:0:
192,192,35711,1,0,0:0:0:0:
320,192,35790,1,0,0:0:0:0:
448,192,35790,1,0,0:0:0:0:
64,192,35869,1,0,0:0:0:0:
192,192,35948,1,0,0:0:0:0:
448,192,36027,1,0,0:0:0:0:
320,192,36106,1,0,0:0:0:0:
64,192,36106,1,0,0:0:0:0:
192,192,36184,1,0,0:0:0:0:
448,192,36263,1,0,0:0:0:0:
320,192,36342,1,0,0:0:0:0:
64,192,36421,1,0,0:0:0:0:
192,192,36421,1,0,0:0:0:0:
448,192,36500,1,0,0:0:0:0:
320,192,36579,1,0,0:0:0:0:
64,192,36658,1,0,0:0:0:0:
192,192,36737,1,0,0:0:0:0:
448,192,36737,1,0,0:0:0:0:
320,192,36816,1,0,0:0:0:0:
64,192,36895,1,0,0:0:0:0:
192,192,36974,1,0,0:0:0:0:
320,192,37053,1,0,0:0:0:0:
448,192,37053,1,0,0:0:0:0:
64,192,37132,1,0,0:0:0:0:
448,192,37211,1,0,0:0:0:0:
320,192,37290,1,0,0:0:0:0:
64,192,37369,1,0,0:0:0:0:
448,192,37369,1,0,0:0:0:0:
192,192,37448,1,0,0:0:0:0:
448,192,37527,1,0,0:0:0:0:
320,192,37606,1,0,0:0:0:0:
64,192,37684,1,0,0:0:0:0:
192,192,37684,1,0,0:0:0:0:
448,192,38000,1,0,0:0:0:0:
320,192,38079,1,0,0:0:0:0:
192,192,38158,1,0,0:0:0:0:
320,192,38237,1,0,0:0:0:0:
448,192,38316,1,0,0:0:0:0:
64,192,38632,1,0,0:0:0:0:
192,192,38711,1,0,0:0:0:0:
320,192,38790,1,0,0:0:0:0:
192,192,38869,1,0,0:0:0:0:
64,192,38948,1,0,0:0:0:0:
192,192,39027,1,0,0:0:0:0:
320,192,39263,1,0,0:0:0:0:
448,192,39263,1,0,0:0:0:0:
64,192,39342,1,0,0:0:0:0:
192,192,39342,1,0,0:0:0:0:
320,192,39500,1,0,0:0:0:0:
448,192,39500,1,0,0:0:0:0:
192,192,39579,1,0,0:0:0:0:
64,192,39579,1,0,0:0:0:0:
320,192,39658,1,0,0:0:0:0:
448,192,39658,1,0,0:0:0:0:
192,192,39816,1,0,0:0:0:0:
64,192,39816,1,0,0:0:0:0:
320,192,39895,1,0,0:0:0:0:
448,192,39895,1,0,0:0:0:0:
64,192,39974,1,0,0:0:0:0:
192,192,39974,1,0,0:0:0:0:
320,192,40053,1,0,0:0:0:0:
448,192,40053,1,0,0:0:0:0:
64,192,40132,1,0,0:0:0:0:
192,192,40211,1,0,0:0:0:0:
320,192,40290,1,0,0:0:0:0:
448,192,40369,1,0,0:0:0:0:
320,192,40448,1,0,0:0:0:0:
192,192,40527,1,0,0:0:0:0:
448,192,40527,1,0,0:0:0:0:
64,192,40527,128,0,45579:0:0:0:0:
320,192,43053,128,0,48106:0:0:0:0:
448,192,45579,128,0,49369:0:0:0:0:
192,192,48106,128,0,53158:0:0:0:0:
64,192,49369,128,0,50000:0:0:0:0:
448,192,50000,128,0,50632:0:0:0:0:
320,192,50632,128,0,51895:0:0:0:0:
64,192,50632,128,0,55684:0:0:0:0:
448,192,51895,1,0,0:0:0:0:
448,192,52527,1,0,0:0:0:0:
448,192,53158,1,0,0:0:0:0:
320,192,53158,128,0,55684:0:0:0:0:
448,192,53790,1,0,0:0:0:0:
448,192,54421,1,0,0:0:0:0:
448,192,55053,1,0,0:0:0:0:
448,192,55684,1,0,0:0:0:0:
192,192,55842,1,0,0:0:0:0:
64,192,55842,1,0,0:0:0:0:
320,192,56000,1,0,0:0:0:0:
64,192,56158,1,0,0:0:0:0:
192,192,56158,1,0,0:0:0:0:
448,192,56316,1,0,0:0:0:0:
320,192,56395,1,0,0:0:0:0:
64,192,56474,1,0,0:0:0:0:
192,192,56474,1,0,0:0:0:0:
320,192,56632,1,0,0:0:0:0:
448,192,56632,1,0,0:0:0:0:
64,192,56948,1,0,0:0:0:0:
192,192,56948,1,0,0:0:0:0:
320,192,57106,1,0,0:0:0:0:
64,192,57263,1,0,0:0:0:0:
448,192,57263,1,0,0:0:0:0:
64,192,57421,1,0,0:0:0:0:
192,192,57500,1,0,0:0:0:0:
448,192,57579,1,0,0:0:0:0:
320,192,57579,1,0,0:0:0:0:
192,192,57737,1,0,0:0:0:0:
64,192,57737,1,0,0:0:0:0:
320,192,57895,1,0,0:0:0:0:
64,192,58211,1,0,0:0:0:0:
192,192,58211,1,0,0:0:0:0:
448,192,58369,1,0,0:0:0:0:
320,192,58448,1,0,0:0:0:0:
64,192,58527,1,0,0:0:0:0:
192,192,58527,1,0,0:0:0:0:
64,192,58684,1,0,0:0:0:0:
320,192,58842,1,0,0:0:0:0:
448,192,58842,1,0,0:0:0:0:
64,192,59000,1,0,0:0:0:0:
192,192,59079,1,0,0:0:0:0:
320,192,59158,1,0,0:0:0:0:
448,192,59158,1,0,0:0:0:0:
192,192,59316,1,0,0:0:0:0:
64,192,59474,1,0,0:0:0:0:
448,192,59474,1,0,0:0:0:0:
320,192,59632,1,0,0:0:0:0:
192,192,59711,1,0,0:0:0:0:
448,192,59790,1,0,0:0:0:0:
320,192,59790,1,0,0:0:0:0:
192,192,59948,1,0,0:0:0:0:
64,192,60106,1,0,0:0:0:0:
448,192,60106,1,0,0:0:0:0:
320,192,60263,1,0,0:0:0:0:
192,192,60342,1,0,0:0:0:0:
320,192,60421,1,0,0:0:0:0:
448,192,60421,1,0,0:0:0:0:
192,192,60579,1,0,0:0:0:0:
64,192,60737,1,0,0:0:0:0:
320,192,60737,1,0,0:0:0:0:
448,192,60737,128,0,61684:0:0:0:0:
320,192,63263,1,0,0:0:0:0:
448,192,63263,1,0,0:0:0:0:
64,192,63263,128,0,64527:0:0:0:0:
448,192,64527,128,0,64842:0:0:0:0:
64,192,64842,128,0,65474:0:0:0:0:
320,192,65474,128,0,65790:0:0:0:0:
448,192,65790,1,0,0:0:0:0:
64,192,65790,128,0,67053:0:0:0:0:
448,192,67053,128,0,68316:0:0:0:0:
64,192,68316,1,0,0:0:0:0:
320,192,68316,128,0,69579:0:0:0:0:
64,192,69579,128,0,69658:0:0:0:0:
192,192,69658,128,0,69895:0:0:0:0:
448,192,69895,128,0,70842:0:0:0:0:
64,192,70842,1,0,0:0:0:0:
320,192,70842,128,0,72106:0:0:0:0:
64,192,72106,128,0,73369:0:0:0:0:
448,192,73369,1,0,0:0:0:0:
320,192,73369,1,0,0:0:0:0:
64,192,74000,1,0,0:0:0:0:
448,192,74000,1,0,0:0:0:0:
64,192,74632,1,0,0:0:0:0:
448,192,74632,128,0,74948:0:0:0:0:
192,192,74948,128,0,75895:0:0:0:0:
64,192,75263,1,0,0:0:0:0:
320,192,75263,1,0,0:0:0:0:
448,192,75895,1,0,0:0:0:0:
64,192,75895,1,0,0:0:0:0:
64,192,76211,1,0,0:0:0:0:
192,192,76211,1,0,0:0:0:0:
320,192,76527,1,0,0:0:0:0:
64,192,76527,1,0,0:0:0:0:
192,192,76842,1,0,0:0:0:0:
320,192,76842,1,0,0:0:0:0:
64,192,77158,1,0,0:0:0:0:
448,192,77158,1,0,0:0:0:0:
192,192,77316,1,0,0:0:0:0:
448,192,77316,1,0,0:0:0:0:
64,192,77474,1,0,0:0:0:0:
320,192,77474,1,0,0:0:0:0:
320,192,77632,1,0,0:0:0:0:
192,192,77632,1,0,0:0:0:0:
320,192,77790,1,0,0:0:0:0:
448,192,77790,1,0,0:0:0:0:
192,192,77948,1,0,0:0:0:0:
64,192,77948,1,0,0:0:0:0:
64,192,78106,1,0,0:0:0:0:
448,192,78106,1,0,0:0:0:0:
192,192,78263,1,0,0:0:0:0:
320,192,78263,1,0,0:0:0:0:
64,192,78421,1,0,0:0:0:0:
192,192,78421,1,0,0:0:0:0:
448,192,78421,1,0,0:0:0:0:
320,192,78500,1,0,0:0:0:0:
192,192,78579,1,0,0:0:0:0:
64,192,78658,1,0,0:0:0:0:
448,192,78737,1,0,0:0:0:0:
320,192,78816,1,0,0:0:0:0:
192,192,78895,1,0,0:0:0:0:
64,192,78974,1,0,0:0:0:0:
448,192,79053,1,0,0:0:0:0:
320,192,79132,1,0,0:0:0:0:
192,192,79211,1,0,0:0:0:0:
64,192,79290,1,0,0:0:0:0:
448,192,79369,1,0,0:0:0:0:
320,192,79448,1,0,0:0:0:0:
192,192,79527,1,0,0:0:0:0:
64,192,79606,1,0,0:0:0:0:
320,192,79684,1,0,0:0:0:0:
448,192,79684,1,0,0:0:0:0:
64,192,79895,5,0,0:0:0:0:
192,192,79895,1,0,0:0:0:0:
320,192,80000,1,0,0:0:0:0:
448,192,80000,1,0,0:0:0:0:
192,192,80158,1,0,0:0:0:0:
64,192,80158,1,0,0:0:0:0:
320,192,80211,1,0,0:0:0:0:
448,192,80211,1,0,0:0:0:0:
64,192,80316,1,0,0:0:0:0:
192,192,80316,1,0,0:0:0:0:
448,192,80316,1,0,0:0:0:0:
64,192,80632,1,0,0:0:0:0:
192,192,80632,128,0,80948:0:0:0:0:
320,192,80948,5,0,0:0:0:0:
448,192,80948,1,0,0:0:0:0:
64,192,80948,1,0,0:0:0:0:
192,192,81106,1,0,0:0:0:0:
64,192,81263,1,0,0:0:0:0:
448,192,81263,1,0,0:0:0:0:
320,192,81421,1,0,0:0:0:0:
64,192,81579,1,0,0:0:0:0:
448,192,81579,1,0,0:0:0:0:
192,192,81737,1,0,0:0:0:0:
320,192,81895,1,0,0:0:0:0:
448,192,81895,1,0,0:0:0:0:
192,192,82053,1,0,0:0:0:0:
64,192,82211,1,0,0:0:0:0:
448,192,82211,1,0,0:0:0:0:
320,192,82290,1,0,0:0:0:0:
64,192,82369,1,0,0:0:0:0:
192,192,82448,1,0,0:0:0:0:
320,192,82527,1,0,0:0:0:0:
448,192,82527,1,0,0:0:0:0:
192,192,82684,1,0,0:0:0:0:
64,192,82842,1,0,0:0:0:0:
448,192,82842,1,0,0:0:0:0:
320,192,82921,1,0,0:0:0:0:
64,192,83000,1,0,0:0:0:0:
192,192,83079,1,0,0:0:0:0:
320,192,83158,1,0,0:0:0:0:
448,192,83158,1,0,0:0:0:0:
64,192,83237,1,0,0:0:0:0:
192,192,83316,1,0,0:0:0:0:
448,192,83395,1,0,0:0:0:0:
320,192,83474,1,0,0:0:0:0:
192,192,83474,1,0,0:0:0:0:
64,192,83632,1,0,0:0:0:0:
192,192,83790,1,0,0:0:0:0:
448,192,83790,1,0,0:0:0:0:
320,192,83948,1,0,0:0:0:0:
64,192,84106,1,0,0:0:0:0:
192,192,84106,1,0,0:0:0:0:
320,192,84263,1,0,0:0:0:0:
64,192,84421,1,0,0:0:0:0:
448,192,84421,1,0,0:0:0:0:
192,192,84579,1,0,0:0:0:0:
320,192,84658,1,0,0:0:0:0:
192,192,84737,1,0,0:0:0:0:
64,192,84737,1,0,0:0:0:0:
448,192,84895,1,0,0:0:0:0:
320,192,85053,1,0,0:0:0:0:
64,192,85053,1,0,0:0:0:0:
192,192,85211,1,0,0:0:0:0:
320,192,85369,1,0,0:0:0:0:
448,192,85369,1,0,0:0:0:0:
64,192,85527,1,0,0:0:0:0:
320,192,85527,1,0,0:0:0:0:
64,192,85684,1,0,0:0:0:0:
192,192,85684,1,0,0:0:0:0:
320,192,85842,1,0,0:0:0:0:
448,192,85842,1,0,0:0:0:0:
64,192,86000,1,0,0:0:0:0:
448,192,86000,1,0,0:0:0:0:
64,192,86316,1,0,0:0:0:0:
192,192,86316,1,0,0:0:0:0:
320,192,86474,1,0,0:0:0:0:
64,192,86632,1,0,0:0:0:0:
448,192,86632,1,0,0:0:0:0:
192,192,86790,1,0,0:0:0:0:
320,192,86948,1,0,0:0:0:0:
448,192,86948,1,0,0:0:0:0:
64,192,87106,1,0,0:0:0:0:
192,192,87263,1,0,0:0:0:0:
320,192,87263,1,0,0:0:0:0:
448,192,87421,1,0,0:0:0:0:
64,192,87579,1,0,0:0:0:0:
192,192,87579,1,0,0:0:0:0:
448,192,87737,1,0,0:0:0:0:
320,192,87816,1,0,0:0:0:0:
64,192,87895,1,0,0:0:0:0:
448,192,87895,1,0,0:0:0:0:
192,192,87974,1,0,0:0:0:0:
448,192,88053,1,0,0:0:0:0:
320,192,88132,1,0,0:0:0:0:
64,192,88211,1,0,0:0:0:0:
192,192,88211,1,0,0:0:0:0:
320,192,88369,1,0,0:0:0:0:
64,192,88527,1,0,0:0:0:0:
448,192,88527,1,0,0:0:0:0:
192,192,88684,1,0,0:0:0:0:
320,192,88763,1,0,0:0:0:0:
64,192,88842,1,0,0:0:0:0:
192,192,88842,1,0,0:0:0:0:
448,192,89000,1,0,0:0:0:0:
320,192,89158,1,0,0:0:0:0:
192,192,89158,1,0,0:0:0:0:
64,192,89316,1,0,0:0:0:0:
192,192,89395,1,0,0:0:0:0:
320,192,89474,1,0,0:0:0:0:
448,192,89474,1,0,0:0:0:0:
64,192,89632,1,0,0:0:0:0:
192,192,89711,1,0,0:0:0:0:
320,192,89790,1,0,0:0:0:0:
448,192,89790,1,0,0:0:0:0:
64,192,89948,1,0,0:0:0:0:
320,192,90027,1,0,0:0:0:0:
64,192,90106,1,0,0:0:0:0:
192,192,90106,1,0,0:0:0:0:
448,192,90263,1,0,0:0:0:0:
320,192,90342,1,0,0:0:0:0:
64,192,90421,1,0,0:0:0:0:
192,192,90421,1,0,0:0:0:0:
64,192,90579,1,0,0:0:0:0:
448,192,90579,1,0,0:0:0:0:
192,192,90737,1,0,0:0:0:0:
448,192,90737,1,0,0:0:0:0:
320,192,90895,1,0,0:0:0:0:
448,192,90895,1,0,0:0:0:0:
64,192,91053,1,0,0:0:0:0:
192,192,91053,1,0,0:0:0:0:
320,192,91053,1,0,0:0:0:0:
448,192,91211,1,0,0:0:0:0:
64,192,91369,1,0,0:0:0:0:
448,192,91369,1,0,0:0:0:0:
320,192,91369,1,0,0:0:0:0:
192,192,91527,1,0,0:0:0:0:
320,192,91684,1,0,0:0:0:0:
448,192,91684,1,0,0:0:0:0:
192,192,91842,1,0,0:0:0:0:
64,192,92000,1,0,0:0:0:0:
448,192,92000,1,0,0:0:0:0:
320,192,92000,1,0,0:0:0:0:
192,192,92158,1,0,0:0:0:0:
448,192,92316,1,0,0:0:0:0:
64,192,92316,1,0,0:0:0:0:
320,192,92474,1,0,0:0:0:0:
64,192,92632,1,0,0:0:0:0:
192,192,92632,1,0,0:0:0:0:
448,192,92632,1,0,0:0:0:0:
320,192,92790,1,0,0:0:0:0:
448,192,92869,1,0,0:0:0:0:
64,192,92948,1,0,0:0:0:0:
320,192,92948,1,0,0:0:0:0:
192,192,93027,1,0,0:0:0:0:
448,192,93106,1,0,0:0:0:0:
320,192,93184,1,0,0:0:0:0:
64,192,93263,1,0,0:0:0:0:
448,192,93263,1,0,0:0:0:0:
192,192,93263,1,0,0:0:0:0:
320,192,93421,1,0,0:0:0:0:
64,192,93579,1,0,0:0:0:0:
448,192,93579,1,0,0:0:0:0:
192,192,93737,1,0,0:0:0:0:
320,192,93895,1,0,0:0:0:0:
448,192,93895,1,0,0:0:0:0:
64,192,93895,1,0,0:0:0:0:
192,192,94053,1,0,0:0:0:0:
320,192,94211,1,0,0:0:0:0:
448,192,94211,1,0,0:0:0:0:
192,192,94369,1,0,0:0:0:0:
192,192,94527,1,0,0:0:0:0:
448,192,94527,1,0,0:0:0:0:
64,192,94527,1,0,0:0:0:0:
320,192,94606,1,0,0:0:0:0:
192,192,94684,1,0,0:0:0:0:
320,192,94763,1,0,0:0:0:0:
64,192,94842,1,0,0:0:0:0:
448,192,94842,1,0,0:0:0:0:
192,192,95000,1,0,0:0:0:0:
64,192,95158,1,0,0:0:0:0:
320,192,95158,1,0,0:0:0:0:
448,192,95158,1,0,0:0:0:0:
192,192,95316,1,0,0:0:0:0:
64,192,95474,1,0,0:0:0:0:
448,192,95474,1,0,0:0:0:0:
320,192,95632,1,0,0:0:0:0:
64,192,95790,1,0,0:0:0:0:
320,192,95790,1,0,0:0:0:0:
448,192,95790,1,0,0:0:0:0:
192,192,95948,1,0,0:0:0:0:
320,192,96106,1,0,0:0:0:0:
448,192,96106,1,0,0:0:0:0:
64,192,96263,1,0,0:0:0:0:
192,192,96421,1,0,0:0:0:0:
448,192,96421,1,0,0:0:0:0:
320,192,96421,1,0,0:0:0:0:
64,192,96579,1,0,0:0:0:0:
192,192,96737,1,0,0:0:0:0:
320,192,96737,1,0,0:0:0:0:
448,192,96895,1,0,0:0:0:0:
64,192,97053,1,0,0:0:0:0:
320,192,97053,1,0,0:0:0:0:
192,192,97053,1,0,0:0:0:0:
448,192,97211,1,0,0:0:0:0:
64,192,97369,1,0,0:0:0:0:
448,192,97369,1,0,0:0:0:0:
192,192,97448,1,0,0:0:0:0:
320,192,97527,1,0,0:0:0:0:
192,192,97606,1,0,0:0:0:0:
320,192,97684,1,0,0:0:0:0:
448,192,97684,1,0,0:0:0:0:
64,192,97684,1,0,0:0:0:0:
192,192,97842,1,0,0:0:0:0:
64,192,98000,1,0,0:0:0:0:
448,192,98000,1,0,0:0:0:0:
320,192,98079,1,0,0:0:0:0:
192,192,98158,1,0,0:0:0:0:
320,192,98237,1,0,0:0:0:0:
64,192,98316,1,0,0:0:0:0:
192,192,98316,1,0,0:0:0:0:
448,192,98316,1,0,0:0:0:0:
320,192,98474,1,0,0:0:0:0:
448,192,98632,1,0,0:0:0:0:
64,192,98632,1,0,0:0:0:0:
192,192,98790,1,0,0:0:0:0:
64,192,98948,1,0,0:0:0:0:
448,192,98948,1,0,0:0:0:0:
320,192,98948,1,0,0:0:0:0:
192,192,99106,1,0,0:0:0:0:
64,192,99263,1,0,0:0:0:0:
448,192,99263,1,0,0:0:0:0:
320,192,99421,1,0,0:0:0:0:
64,192,99579,1,0,0:0:0:0:
320,192,99579,1,0,0:0:0:0:
448,192,99579,1,0,0:0:0:0:
192,192,99737,1,0,0:0:0:0:
320,192,99895,1,0,0:0:0:0:
448,192,99895,128,0,101158:0:0:0:0:
64,192,100211,1,0,0:0:0:0:
192,192,100290,1,0,0:0:0:0:
320,192,100369,1,0,0:0:0:0:
192,192,100448,1,0,0:0:0:0:
64,192,100527,1,0,0:0:0:0:
320,192,100684,1,0,0:0:0:0:
192,192,100842,1,0,0:0:0:0:
192,192,101158,1,0,0:0:0:0:
64,192,101158,1,0,0:0:0:0:
320,192,101158,1,0,0:0:0:0:
448,192,101316,1,0,0:0:0:0:
192,192,101474,1,0,0:0:0:0:
320,192,101474,1,0,0:0:0:0:
64,192,101632,128,0,101790:0:0:0:0:
192,192,101790,1,0,0:0:0:0:
448,192,101790,128,0,101948:0:0:0:0:
320,192,101948,1,0,0:0:0:0:
64,192,102106,1,0,0:0:0:0:
192,192,102106,1,0,0:0:0:0:
448,192,102106,1,0,0:0:0:0:
320,192,102263,1,0,0:0:0:0:
64,192,102421,1,0,0:0:0:0:
192,192,102421,1,0,0:0:0:0:
448,192,102579,1,0,0:0:0:0:
64,192,102737,1,0,0:0:0:0:
192,192,102737,1,0,0:0:0:0:
320,192,102737,1,0,0:0:0:0:
448,192,102895,1,0,0:0:0:0:
320,192,103053,1,0,0:0:0:0:
192,192,103053,1,0,0:0:0:0:
64,192,103211,1,0,0:0:0:0:
192,192,103369,1,0,0:0:0:0:
320,192,103369,1,0,0:0:0:0:
448,192,103369,1,0,0:0:0:0:
64,192,103527,1,0,0:0:0:0:
320,192,103527,1,0,0:0:0:0:
192,192,103684,1,0,0:0:0:0:
448,192,103684,1,0,0:0:0:0:
320,192,103842,1,0,0:0:0:0:
192,192,104000,1,0,0:0:0:0:
64,192,104000,1,0,0:0:0:0:
448,192,104000,1,0,0:0:0:0:
320,192,104158,128,0,104316:0:0:0:0:
192,192,104316,1,0,0:0:0:0:
64,192,104316,128,0,104474:0:0:0:0:
448,192,104474,1,0,0:0:0:0:
320,192,104632,1,0,0:0:0:0:
192,192,104632,1,0,0:0:0:0:
64,192,104632,1,0,0:0:0:0:
448,192,104790,1,0,0:0:0:0:
320,192,104948,1,0,0:0:0:0:
192,192,104948,1,0,0:0:0:0:
64,192,105106,1,0,0:0:0:0:
192,192,105263,1,0,0:0:0:0:
448,192,105263,1,0,0:0:0:0:
320,192,105263,1,0,0:0:0:0:
192,192,105421,1,0,0:0:0:0:
448,192,105579,1,0,0:0:0:0:
64,192,105579,1,0,0:0:0:0:
320,192,105658,1,0,0:0:0:0:
192,192,105737,1,0,0:0:0:0:
64,192,105895,1,0,0:0:0:0:
448,192,105895,1,0,0:0:0:0:
320,192,105895,1,0,0:0:0:0:
192,192,106053,1,0,0:0:0:0:
64,192,106211,128,0,106369:0:0:0:0:
448,192,106211,1,0,0:0:0:0:
320,192,106369,1,0,0:0:0:0:
64,192,106527,1,0,0:0:0:0:
192,192,106527,1,0,0:0:0:0:
448,192,106527,1,0,0:0:0:0:
320,192,106684,128,0,106842:0:0:0:0:
448,192,106842,1,0,0:0:0:0:
64,192,106842,128,0,107000:0:0:0:0:
192,192,107000,1,0,0:0:0:0:
320,192,107158,1,0,0:0:0:0:
448,192,107158,1,0,0:0:0:0:
64,192,107158,1,0,0:0:0:0:
192,192,107316,1,0,0:0:0:0:
320,192,107474,1,0,0:0:0:0:
448,192,107474,1,0,0:0:0:0:
64,192,107632,1,0,0:0:0:0:
192,192,107790,1,0,0:0:0:0:
448,192,107790,1,0,0:0:0:0:
320,192,107948,1,0,0:0:0:0:
64,192,108106,1,0,0:0:0:0:
192,192,108106,1,0,0:0:0:0:
448,192,108106,1,0,0:0:0:0:
320,192,108263,1,0,0:0:0:0:
64,192,108421,1,0,0:0:0:0:
448,192,108421,1,0,0:0:0:0:
192,192,108579,1,0,0:0:0:0:
320,192,108579,1,0,0:0:0:0:
64,192,108737,1,0,0:0:0:0:
320,192,108737,1,0,0:0:0:0:
448,192,108737,1,0,0:0:0:0:
192,192,108895,1,0,0:0:0:0:
320,192,109053,1,0,0:0:0:0:
448,192,109053,1,0,0:0:0:0:
64,192,109211,128,0,109369:0:0:0:0:
448,192,109369,1,0,0:0:0:0:
320,192,109369,128,0,109527:0:0:0:0:
64,192,109527,1,0,0:0:0:0:
192,192,109606,1,0,0:0:0:0:
64,192,109684,1,0,0:0:0:0:
320,192,109684,1,0,0:0:0:0:
448,192,109684,1,0,0:0:0:0:
192,192,109842,1,0,0:0:0:0:
64,192,109921,1,0,0:0:0:0:
320,192,110000,1,0,0:0:0:0:
448,192,110000,1,0,0:0:0:0:
64,192,110158,1,0,0:0:0:0:
192,192,110237,1,0,0:0:0:0:
320,192,110316,1,0,0:0:0:0:
448,192,110316,1,0,0:0:0:0:
64,192,110474,1,0,0:0:0:0:
192,192,110553,1,0,0:0:0:0:
320,192,110632,1,0,0:0:0:0:
448,192,110632,1,0,0:0:0:0:
64,192,110711,1,0,0:0:0:0:
192,192,110790,1,0,0:0:0:0:
448,192,110869,1,0,0:0:0:0:
320,192,110948,1,0,0:0:0:0:
192,192,111027,1,0,0:0:0:0:
64,192,111106,1,0,0:0:0:0:
448,192,111106,1,0,0:0:0:0:
320,192,111184,1,0,0:0:0:0:
64,192,111263,1,0,0:0:0:0:
192,192,111263,1,0,0:0:0:0:
320,192,111421,1,0,0:0:0:0:
64,192,111579,1,0,0:0:0:0:
192,192,111579,1,0,0:0:0:0:
448,192,111579,1,0,0:0:0:0:
320,192,111737,128,0,111895:0:0:0:0:
192,192,111895,1,0,0:0:0:0:
64,192,111895,128,0,112053:0:0:0:0:
448,192,112053,1,0,0:0:0:0:
320,192,112211,1,0,0:0:0:0:
64,192,112211,1,0,0:0:0:0:
192,192,112211,1,0,0:0:0:0:
448,192,112369,1,0,0:0:0:0:
192,192,112527,1,0,0:0:0:0:
320,192,112527,1,0,0:0:0:0:
64,192,112606,1,0,0:0:0:0:
192,192,112684,1,0,0:0:0:0:
320,192,112842,1,0,0:0:0:0:
448,192,112842,1,0,0:0:0:0:
64,192,112842,1,0,0:0:0:0:
192,192,113000,1,0,0:0:0:0:
320,192,113158,1,0,0:0:0:0:
448,192,113158,1,0,0:0:0:0:
64,192,113237,1,0,0:0:0:0:
192,192,113316,1,0,0:0:0:0:
320,192,113474,1,0,0:0:0:0:
448,192,113474,1,0,0:0:0:0:
64,192,113474,1,0,0:0:0:0:
192,192,113553,1,0,0:0:0:0:
320,192,113632,1,0,0:0:0:0:
64,192,113790,1,0,0:0:0:0:
192,192,113790,1,0,0:0:0:0:
320,192,113948,1,0,0:0:0:0:
64,192,114106,1,0,0:0:0:0:
192,192,114106,1,0,0:0:0:0:
448,192,114106,1,0,0:0:0:0:
320,192,114263,128,0,114421:0:0:0:0:
192,192,114421,1,0,0:0:0:0:
64,192,114421,128,0,114579:0:0:0:0:
448,192,114579,1,0,0:0:0:0:
320,192,114737,1,0,0:0:0:0:
192,192,114737,1,0,0:0:0:0:
64,192,114737,1,0,0:0:0:0:
448,192,114895,1,0,0:0:0:0:
320,192,115053,1,0,0:0:0:0:
64,192,115053,1,0,0:0:0:0:
192,192,115132,1,0,0:0:0:0:
320,192,115211,1,0,0:0:0:0:
64,192,115369,1,0,0:0:0:0:
192,192,115369,1,0,0:0:0:0:
448,192,115369,1,0,0:0:0:0:
320,192,115527,1,0,0:0:0:0:
64,192,115684,1,0,0:0:0:0:
192,192,115684,1,0,0:0:0:0:
320,192,115842,1,0,0:0:0:0:
64,192,116000,1,0,0:0:0:0:
448,192,116000,1,0,0:0:0:0:
192,192,116158,1,0,0:0:0:0:
320,192,116158,1,0,0:0:0:0:
320,192,116316,1,0,0:0:0:0:
448,192,116316,1,0,0:0:0:0:
64,192,116316,1,0,0:0:0:0:
192,192,116474,1,0,0:0:0:0:
320,192,116632,1,0,0:0:0:0:
448,192,116632,1,0,0:0:0:0:
192,192,116790,128,0,116948:0:0:0:0:
64,192,116948,1,0,0:0:0:0:
448,192,116948,128,0,117106:0:0:0:0:
320,192,117106,1,0,0:0:0:0:
64,192,117263,1,0,0:0:0:0:
192,192,117263,1,0,0:0:0:0:
448,192,117263,1,0,0:0:0:0:
320,192,117421,1,0,0:0:0:0:
64,192,117579,1,0,0:0:0:0:
448,192,117579,1,0,0:0:0:0:
192,192,117737,1,0,0:0:0:0:
64,192,117895,1,0,0:0:0:0:
448,192,117895,1,0,0:0:0:0:
320,192,117895,1,0,0:0:0:0:
192,192,118053,1,0,0:0:0:0:
320,192,118211,1,0,0:0:0:0:
448,192,118211,1,0,0:0:0:0:
192,192,118369,1,0,0:0:0:0:
64,192,118527,1,0,0:0:0:0:
448,192,118527,1,0,0:0:0:0:
320,192,118527,1,0,0:0:0:0:
192,192,118684,1,0,0:0:0:0:
320,192,118842,1,0,0:0:0:0:
448,192,118842,1,0,0:0:0:0:
64,192,119000,1,0,0:0:0:0:
192,192,119000,1,0,0:0:0:0:
320,192,119158,1,0,0:0:0:0:
448,192,119158,1,0,0:0:0:0:
64,192,119237,1,0,0:0:0:0:
192,192,119237,1,0,0:0:0:0:
320,192,119316,1,0,0:0:0:0:
448,192,119316,1,0,0:0:0:0:
64,192,119474,1,0,0:0:0:0:
192,192,119474,1,0,0:0:0:0:
320,192,119553,1,0,0:0:0:0:
448,192,119553,1,0,0:0:0:0:
192,192,119632,1,0,0:0:0:0:
64,192,119632,1,0,0:0:0:0:
320,192,119711,1,0,0:0:0:0:
448,192,119711,1,0,0:0:0:0:
64,192,119790,1,0,0:0:0:0:
192,192,119790,1,0,0:0:0:0:
448,192,119790,1,0,0:0:0:0:
320,192,119948,1,0,0:0:0:0:
64,192,120106,1,0,0:0:0:0:
192,192,120106,1,0,0:0:0:0:
448,192,120106,1,0,0:0:0:0:
320,192,120263,1,0,0:0:0:0:
192,192,120342,1,0,0:0:0:0:
320,192,120421,1,0,0:0:0:0:
448,192,120421,1,0,0:0:0:0:
64,192,120579,1,0,0:0:0:0:
192,192,120658,1,0,0:0:0:0:
320,192,120737,1,0,0:0:0:0:
448,192,120737,1,0,0:0:0:0:
64,192,120816,1,0,0:0:0:0:
192,192,120895,1,0,0:0:0:0:
448,192,120974,1,0,0:0:0:0:
320,192,121053,1,0,0:0:0:0:
192,192,121132,1,0,0:0:0:0:
64,192,121211,1,0,0:0:0:0:
192,192,121290,1,0,0:0:0:0:
320,192,121369,1,0,0:0:0:0:
448,192,121369,128,0,124211:0:0:0:0:
64,192,124211,128,0,124369:0:0:0:0:
192,192,124369,128,0,124527:0:0:0:0:
320,192,124527,128,0,124684:0:0:0:0:
448,192,124684,128,0,124842:0:0:0:0:
320,192,124842,128,0,125000:0:0:0:0:
64,192,125000,128,0,125316:0:0:0:0:
192,192,125316,128,0,125474:0:0:0:0:
320,192,125474,128,0,125632:0:0:0:0:
448,192,125632,128,0,125790:0:0:0:0:
320,192,125790,128,0,125948:0:0:0:0:
192,192,125948,128,0,126106:0:0:0:0:
64,192,126106,128,0,126263:0:0:0:0:
448,192,126263,128,0,126579:0:0:0:0:
192,192,126579,128,0,126737:0:0:0:0:
320,192,126737,128,0,126895:0:0:0:0:
448,192,126895,128,0,127053:0:0:0:0:
320,192,127053,128,0,127211:0:0:0:0:
192,192,127211,128,0,127369:0:0:0:0:
64,192,127369,128,0,127527:0:0:0:0:
448,192,127527,128,0,127842:0:0:0:0:
320,192,127842,128,0,128000:0:0:0:0:
192,192,128000,128,0,128158:0:0:0:0:
64,192,128158,128,0,128316:0:0:0:0:
192,192,128316,128,0,128474:0:0:0:0:
448,192,128474,128,0,128632:0:0:0:0:
320,192,128632,128,0,128790:0:0:0:0:
64,192,128790,128,0,129106:0:0:0:0:
192,192,129106,128,0,129263:0:0:0:0:
320,192,129263,128,0,129421:0:0:0:0:
448,192,129421,128,0,129579:0:0:0:0:
320,192,129579,128,0,129737:0:0:0:0:
192,192,129737,128,0,129895:0:0:0:0:
64,192,129895,128,0,130053:0:0:0:0:
448,192,130053,128,0,130369:0:0:0:0:
320,192,130369,128,0,130527:0:0:0:0:
192,192,130527,128,0,130684:0:0:0:0:
64,192,130684,128,0,130842:0:0:0:0:
192,192,130842,128,0,131000:0:0:0:0:
448,192,131000,128,0,131158:0:0:0:0:
320,192,131158,128,0,131316:0:0:0:0:
64,192,131316,128,0,131474:0:0:0:0:
192,192,131474,1,0,0:0:0:0:
448,192,131474,128,0,132737:0:0:0:0:
320,192,132737,1,0,0:0:0:0:
64,192,132737,128,0,133053:0:0:0:0:
192,192,133211,1,0,0:0:0:0:
448,192,133211,128,0,133527:0:0:0:0:
320,192,133684,1,0,0:0:0:0:
64,192,133684,128,0,134000:0:0:0:0:
192,192,134000,1,0,0:0:0:0:
448,192,134000,128,0,135263:0:0:0:0:
192,192,135263,1,0,0:0:0:0:
320,192,135263,1,0,0:0:0:0:
64,192,135263,128,0,135579:0:0:0:0:
320,192,135737,1,0,0:0:0:0:
448,192,135737,128,0,136053:0:0:0:0:
320,192,136211,1,0,0:0:0:0:
64,192,136211,128,0,136527:0:0:0:0:
192,192,136527,1,0,0:0:0:0:
448,192,136527,128,0,137790:0:0:0:0:
320,192,137158,1,0,0:0:0:0:
64,192,137158,1,0,0:0:0:0:
320,192,137790,1,0,0:0:0:0:
64,192,137790,128,0,138106:0:0:0:0:
192,192,138106,1,0,0:0:0:0:
448,192,138106,1,0,0:0:0:0:
448,192,138263,1,0,0:0:0:0:
320,192,138263,128,0,138579:0:0:0:0:
64,192,138421,1,0,0:0:0:0:
192,192,138421,1,0,0:0:0:0:
448,192,138737,1,0,0:0:0:0:
64,192,138737,128,0,139053:0:0:0:0:
192,192,139053,1,0,0:0:0:0:
448,192,139053,1,0,0:0:0:0:
320,192,139132,1,0,0:0:0:0:
192,192,139211,1,0,0:0:0:0:
64,192,139290,1,0,0:0:0:0:
448,192,139369,1,0,0:0:0:0:
320,192,139448,1,0,0:0:0:0:
192,192,139527,1,0,0:0:0:0:
64,192,139606,1,0,0:0:0:0:
448,192,139684,1,0,0:0:0:0:
320,192,139763,1,0,0:0:0:0:
64,192,139842,1,0,0:0:0:0:
192,192,139921,1,0,0:0:0:0:
320,192,140000,1,0,0:0:0:0:
448,192,140079,1,0,0:0:0:0:
64,192,140158,1,0,0:0:0:0:
192,192,140237,1,0,0:0:0:0:
320,192,140316,1,0,0:0:0:0:
448,192,140316,1,0,0:0:0:0:
64,192,140474,1,0,0:0:0:0:
192,192,140474,1,0,0:0:0:0:
192,192,140632,1,0,0:0:0:0:
64,192,140632,1,0,0:0:0:0:
448,192,140737,1,0,0:0:0:0:
320,192,140737,1,0,0:0:0:0:
192,192,140842,1,0,0:0:0:0:
64,192,140842,1,0,0:0:0:0:
448,192,140948,1,0,0:0:0:0:
320,192,140948,1,0,0:0:0:0:
64,192,141158,1,0,0:0:0:0:
320,192,141263,1,0,0:0:0:0:
192,192,141263,1,0,0:0:0:0:
64,192,141579,1,0,0:0:0:0:
320,192,141579,1,0,0:0:0:0:
448,192,141579,128,0,142842:0:0:0:0:
320,192,142842,1,0,0:0:0:0:
64,192,142842,128,0,143158:0:0:0:0:
192,192,143316,1,0,0:0:0:0:
448,192,143316,128,0,143632:0:0:0:0:
320,192,143790,1,0,0:0:0:0:
64,192,143790,128,0,144106:0:0:0:0:
192,192,144106,1,0,0:0:0:0:
448,192,144106,128,0,145369:0:0:0:0:
320,192,145369,1,0,0:0:0:0:
64,192,145369,128,0,145684:0:0:0:0:
192,192,145842,1,0,0:0:0:0:
320,192,145842,128,0,146158:0:0:0:0:
448,192,146316,1,0,0:0:0:0:
64,192,146316,128,0,146632:0:0:0:0:
192,192,146632,1,0,0:0:0:0:
448,192,146632,128,0,147895:0:0:0:0:
320,192,146948,1,0,0:0:0:0:
64,192,147263,1,0,0:0:0:0:
192,192,147579,1,0,0:0:0:0:
320,192,147895,1,0,0:0:0:0:
64,192,147895,128,0,148211:0:0:0:0:
192,192,148211,1,0,0:0:0:0:
320,192,148369,1,0,0:0:0:0:
448,192,148369,128,0,148684:0:0:0:0:
192,192,148527,1,0,0:0:0:0:
320,192,148842,1,0,0:0:0:0:
64,192,148842,128,0,149158:0:0:0:0:
192,192,149158,1,0,0:0:0:0:
448,192,149158,128,0,150421:0:0:0:0:
320,192,149474,1,0,0:0:0:0:
64,192,149474,1,0,0:0:0:0:
64,192,149790,1,0,0:0:0:0:
192,192,149790,1,0,0:0:0:0:
320,192,150106,1,0,0:0:0:0:
192,192,150106,1,0,0:0:0:0:
320,192,150421,1,0,0:0:0:0:
64,192,150421,128,0,150737:0:0:0:0:
192,192,150737,1,0,0:0:0:0:
448,192,150737,1,0,0:0:0:0:
448,192,150895,1,0,0:0:0:0:
320,192,150895,128,0,151211:0:0:0:0:
64,192,151053,1,0,0:0:0:0:
192,192,151053,1,0,0:0:0:0:
448,192,151369,1,0,0:0:0:0:
64,192,151369,128,0,151684:0:0:0:0:
320,192,151684,1,0,0:0:0:0:
448,192,151684,1,0,0:0:0:0:
64,192,151842,1,0,0:0:0:0:
192,192,151842,1,0,0:0:0:0:
320,192,152000,1,0,0:0:0:0:
448,192,152000,1,0,0:0:0:0:
64,192,152158,1,0,0:0:0:0:
192,192,152158,1,0,0:0:0:0:
64,192,152316,1,0,0:0:0:0:
448,192,152316,1,0,0:0:0:0:
192,192,152474,1,0,0:0:0:0:
320,192,152474,1,0,0:0:0:0:
64,192,152632,1,0,0:0:0:0:
448,192,152632,1,0,0:0:0:0:
192,192,152790,1,0,0:0:0:0:
320,192,152790,1,0,0:0:0:0:
64,192,152948,1,0,0:0:0:0:
448,192,152948,1,0,0:0:0:0:
192,192,153106,1,0,0:0:0:0:
320,192,153263,1,0,0:0:0:0:
448,192,153263,1,0,0:0:0:0:
64,192,153421,1,0,0:0:0:0:
192,192,153421,1,0,0:0:0:0:
320,192,153579,1,0,0:0:0:0:
64,192,153737,1,0,0:0:0:0:
192,192,153895,1,0,0:0:0:0:
448,192,153895,1,0,0:0:0:0:
320,192,154053,1,0,0:0:0:0:
192,192,154211,1,0,0:0:0:0:
64,192,154211,1,0,0:0:0:0:
448,192,154369,1,0,0:0:0:0:
320,192,154369,1,0,0:0:0:0:
64,192,154527,1,0,0:0:0:0:
192,192,154684,1,0,0:0:0:0:
320,192,154684,1,0,0:0:0:0:
64,192,154842,1,0,0:0:0:0:
192,192,155000,1,0,0:0:0:0:
448,192,155000,1,0,0:0:0:0:
320,192,155158,1,0,0:0:0:0:
64,192,155158,1,0,0:0:0:0:
192,192,155316,1,0,0:0:0:0:
448,192,155316,1,0,0:0:0:0:
320,192,155474,1,0,0:0:0:0:
64,192,155474,1,0,0:0:0:0:
192,192,155632,1,0,0:0:0:0:
448,192,155632,1,0,0:0:0:0:
320,192,155790,1,0,0:0:0:0:
64,192,155790,1,0,0:0:0:0:
192,192,155948,1,0,0:0:0:0:
320,192,156106,1,0,0:0:0:0:
448,192,156106,1,0,0:0:0:0:
192,192,156263,1,0,0:0:0:0:
64,192,156421,1,0,0:0:0:0:
448,192,156421,1,0,0:0:0:0:
320,192,156579,1,0,0:0:0:0:
192,192,156737,1,0,0:0:0:0:
64,192,156737,1,0,0:0:0:0:
320,192,156895,1,0,0:0:0:0:
448,192,156895,1,0,0:0:0:0:
64,192,157053,1,0,0:0:0:0:
192,192,157211,1,0,0:0:0:0:
448,192,157211,1,0,0:0:0:0:
320,192,157369,1,0,0:0:0:0:
448,192,157527,1,0,0:0:0:0:
64,192,157527,1,0,0:0:0:0:
192,192,157684,1,0,0:0:0:0:
320,192,157684,1,0,0:0:0:0:
64,192,157842,1,0,0:0:0:0:
448,192,157842,1,0,0:0:0:0:
192,192,158000,1,0,0:0:0:0:
320,192,158000,1,0,0:0:0:0:
64,192,158158,1,0,0:0:0:0:
448,192,158158,1,0,0:0:0:0:
192,192,158316,1,0,0:0:0:0:
320,192,158474,1,0,0:0:0:0:
64,192,158632,1,0,0:0:0:0:
192,192,158632,1,0,0:0:0:0:
320,192,158790,1,0,0:0:0:0:
448,192,158948,1,0,0:0:0:0:
64,192,158948,1,0,0:0:0:0:
192,192,159106,1,0,0:0:0:0:
320,192,159263,1,0,0:0:0:0:
448,192,159263,1,0,0:0:0:0:
64,192,159421,1,0,0:0:0:0:
192,192,159421,1,0,0:0:0:0:
320,192,159579,1,0,0:0:0:0:
64,192,159737,1,0,0:0:0:0:
192,192,159895,1,0,0:0:0:0:
320,192,160053,1,0,0:0:0:0:
448,192,160053,1,0,0:0:0:0:
192,192,160211,1,0,0:0:0:0:
64,192,160211,1,0,0:0:0:0:
320,192,160369,1,0,0:0:0:0:
448,192,160369,1,0,0:0:0:0:
192,192,160527,1,0,0:0:0:0:
64,192,160527,128,0,161790:0:0:0:0:
192,192,161474,128,0,161790:0:0:0:0:
320,192,161790,1,0,0:0:0:0:
448,192,161790,1,0,0:0:0:0:
192,192,161948,1,0,0:0:0:0:
64,192,162106,1,0,0:0:0:0:
192,192,162106,1,0,0:0:0:0:
448,192,162106,1,0,0:0:0:0:
320,192,162263,1,0,0:0:0:0:
64,192,162421,1,0,0:0:0:0:
448,192,162421,1,0,0:0:0:0:
192,192,162579,1,0,0:0:0:0:
448,192,162737,1,0,0:0:0:0:
64,192,162737,1,0,0:0:0:0:
320,192,162737,1,0,0:0:0:0:
192,192,162895,1,0,0:0:0:0:
320,192,163053,1,0,0:0:0:0:
448,192,163053,1,0,0:0:0:0:
64,192,163211,1,0,0:0:0:0:
192,192,163369,1,0,0:0:0:0:
448,192,163369,1,0,0:0:0:0:
320,192,163369,1,0,0:0:0:0:
64,192,163448,1,0,0:0:0:0:
448,192,163527,1,0,0:0:0:0:
320,192,163606,1,0,0:0:0:0:
192,192,163684,1,0,0:0:0:0:
64,192,163684,1,0,0:0:0:0:
448,192,163842,1,0,0:0:0:0:
320,192,164000,1,0,0:0:0:0:
64,192,164000,1,0,0:0:0:0:
192,192,164000,1,0,0:0:0:0:
448,192,164158,1,0,0:0:0:0:
320,192,164316,1,0,0:0:0:0:
64,192,164316,128,0,164632:0:0:0:0:
192,192,164474,1,0,0:0:0:0:
320,192,164632,1,0,0:0:0:0:
448,192,164632,1,0,0:0:0:0:
192,192,164790,1,0,0:0:0:0:
64,192,164948,1,0,0:0:0:0:
448,192,164948,1,0,0:0:0:0:
320,192,165106,1,0,0:0:0:0:
64,192,165263,1,0,0:0:0:0:
448,192,165263,1,0,0:0:0:0:
192,192,165263,1,0,0:0:0:0:
320,192,165421,1,0,0:0:0:0:
64,192,165579,1,0,0:0:0:0:
448,192,165579,1,0,0:0:0:0:
192,192,165658,1,0,0:0:0:0:
320,192,165658,1,0,0:0:0:0:
64,192,165737,1,0,0:0:0:0:
448,192,165737,1,0,0:0:0:0:
192,192,165895,1,0,0:0:0:0:
320,192,165895,1,0,0:0:0:0:
64,192,165895,1,0,0:0:0:0:
448,192,166053,1,0,0:0:0:0:
64,192,166211,1,0,0:0:0:0:
320,192,166211,1,0,0:0:0:0:
192,192,166290,1,0,0:0:0:0:
448,192,166369,1,0,0:0:0:0:
320,192,166448,1,0,0:0:0:0:
192,192,166527,1,0,0:0:0:0:
448,192,166527,1,0,0:0:0:0:
64,192,166527,128,0,166842:0:0:0:0:
192,192,166842,1,0,0:0:0:0:
448,192,166842,128,0,167158:0:0:0:0:
64,192,167158,1,0,0:0:0:0:
192,192,167158,1,0,0:0:0:0:
320,192,167158,1,0,0:0:0:0:
448,192,167316,1,0,0:0:0:0:
192,192,167474,1,0,0:0:0:0:
320,192,167474,1,0,0:0:0:0:
64,192,167632,1,0,0:0:0:0:
448,192,167790,1,0,0:0:0:0:
64,192,167790,1,0,0:0:0:0:
192,192,167790,1,0,0:0:0:0:
320,192,167948,1,0,0:0:0:0:
64,192,168106,1,0,0:0:0:0:
448,192,168106,1,0,0:0:0:0:
192,192,168263,1,0,0:0:0:0:
320,192,168421,1,0,0:0:0:0:
448,192,168421,1,0,0:0:0:0:
64,192,168421,1,0,0:0:0:0:
192,192,168579,1,0,0:0:0:0:
320,192,168737,1,0,0:0:0:0:
448,192,168737,1,0,0:0:0:0:
192,192,168895,1,0,0:0:0:0:
448,192,169053,1,0,0:0:0:0:
320,192,169053,1,0,0:0:0:0:
64,192,169053,1,0,0:0:0:0:
192,192,169211,1,0,0:0:0:0:
320,192,169369,1,0,0:0:0:0:
448,192,169369,1,0,0:0:0:0:
64,192,169448,1,0,0:0:0:0:
448,192,169527,1,0,0:0:0:0:
320,192,169606,1,0,0:0:0:0:
64,192,169684,1,0,0:0:0:0:
192,192,169684,1,0,0:0:0:0:
448,192,169763,1,0,0:0:0:0:
64,192,169842,1,0,0:0:0:0:
192,192,169921,1,0,0:0:0:0:
320,192,170000,1,0,0:0:0:0:
448,192,170000,1,0,0:0:0:0:
64,192,170079,1,0,0:0:0:0:
448,192,170158,1,0,0:0:0:0:
320,192,170237,1,0,0:0:0:0:
64,192,170316,1,0,0:0:0:0:
192,192,170316,1,0,0:0:0:0:
320,192,170474,1,0,0:0:0:0:
448,192,170474,1,0,0:0:0:0:
64,192,170632,1,0,0:0:0:0:
192,192,170632,1,0,0:0:0:0:
448,192,170790,1,0,0:0:0:0:
320,192,170869,1,0,0:0:0:0:
64,192,170948,1,0,0:0:0:0:
448,192,170948,1,0,0:0:0:0:
192,192,171027,1,0,0:0:0:0:
320,192,171106,1,0,0:0:0:0:
448,192,171106,1,0,0:0:0:0:
192,192,171184,1,0,0:0:0:0:
64,192,171263,1,0,0:0:0:0:
448,192,171263,1,0,0:0:0:0:
320,192,171342,1,0,0:0:0:0:
64,192,171421,1,0,0:0:0:0:
192,192,171500,1,0,0:0:0:0:
320,192,171579,1,0,0:0:0:0:
448,192,171579,1,0,0:0:0:0:
448,192,171895,1,0,0:0:0:0:
64,192,171895,1,0,0:0:0:0:
448,192,172053,1,0,0:0:0:0:
448,192,172211,1,0,0:0:0:0:
192,192,172211,1,0,0:0:0:0:
64,192,172211,1,0,0:0:0:0:
448,192,172369,1,0,0:0:0:0:
448,192,172527,1,0,0:0:0:0:
320,192,172527,1,0,0:0:0:0:
448,192,172684,1,0,0:0:0:0:
448,192,172842,1,0,0:0:0:0:
64,192,172842,1,0,0:0:0:0:
192,192,172842,1,0,0:0:0:0:
448,192,173000,1,0,0:0:0:0:
320,192,173079,1,0,0:0:0:0:
192,192,173158,1,0,0:0:0:0:
64,192,173158,1,0,0:0:0:0:
192,192,173316,1,0,0:0:0:0:
192,192,173474,1,0,0:0:0:0:
448,192,173474,1,0,0:0:0:0:
320,192,173474,1,0,0:0:0:0:
192,192,173632,1,0,0:0:0:0:
192,192,173790,1,0,0:0:0:0:
448,192,173790,1,0,0:0:0:0:
192,192,173948,1,0,0:0:0:0:
192,192,174106,1,0,0:0:0:0:
64,192,174106,1,0,0:0:0:0:
320,192,174106,1,0,0:0:0:0:
192,192,174263,1,0,0:0:0:0:
448,192,174342,1,0,0:0:0:0:
320,192,174421,1,0,0:0:0:0:
64,192,174421,1,0,0:0:0:0:
320,192,174579,1,0,0:0:0:0:
320,192,174737,1,0,0:0:0:0:
192,192,174737,1,0,0:0:0:0:
448,192,174737,1,0,0:0:0:0:
320,192,174895,1,0,0:0:0:0:
320,192,175053,1,0,0:0:0:0:
64,192,175053,1,0,0:0:0:0:
320,192,175211,1,0,0:0:0:0:
320,192,175369,1,0,0:0:0:0:
448,192,175369,1,0,0:0:0:0:
64,192,175369,1,0,0:0:0:0:
320,192,175527,1,0,0:0:0:0:
448,192,175606,1,0,0:0:0:0:
320,192,175684,1,0,0:0:0:0:
64,192,175684,1,0,0:0:0:0:
64,192,175842,1,0,0:0:0:0:
192,192,176000,1,0,0:0:0:0:
320,192,176000,1,0,0:0:0:0:
448,192,176000,1,0,0:0:0:0:
192,192,176158,1,0,0:0:0:0:
320,192,176316,1,0,0:0:0:0:
64,192,176316,1,0,0:0:0:0:
320,192,176474,1,0,0:0:0:0:
64,192,176632,1,0,0:0:0:0:
448,192,176632,1,0,0:0:0:0:
192,192,176632,1,0,0:0:0:0:
448,192,176790,1,0,0:0:0:0:
320,192,176869,1,0,0:0:0:0:
64,192,176948,1,0,0:0:0:0:
448,192,176948,1,0,0:0:0:0:
64,192,177106,1,0,0:0:0:0:
64,192,177263,1,0,0:0:0:0:
448,192,177263,1,0,0:0:0:0:
192,192,177263,1,0,0:0:0:0:
64,192,177421,1,0,0:0:0:0:
64,192,177579,1,0,0:0:0:0:
320,192,177579,1,0,0:0:0:0:
64,192,177737,1,0,0:0:0:0:
64,192,177895,1,0,0:0:0:0:
448,192,177895,1,0,0:0:0:0:
320,192,177895,1,0,0:0:0:0:
64,192,178053,1,0,0:0:0:0:
192,192,178132,1,0,0:0:0:0:
320,192,178211,1,0,0:0:0:0:
448,192,178211,1,0,0:0:0:0:
320,192,178369,1,0,0:0:0:0:
320,192,178527,1,0,0:0:0:0:
64,192,178527,1,0,0:0:0:0:
448,192,178527,1,0,0:0:0:0:
320,192,178684,1,0,0:0:0:0:
320,192,178842,1,0,0:0:0:0:
64,192,178842,1,0,0:0:0:0:
320,192,179000,1,0,0:0:0:0:
320,192,179158,1,0,0:0:0:0:
64,192,179158,1,0,0:0:0:0:
448,192,179158,1,0,0:0:0:0:
320,192,179316,1,0,0:0:0:0:
192,192,179395,1,0,0:0:0:0:
64,192,179474,1,0,0:0:0:0:
448,192,179474,1,0,0:0:0:0:
448,192,179632,1,0,0:0:0:0:
320,192,179790,1,0,0:0:0:0:
64,192,179790,1,0,0:0:0:0:
192,192,179790,1,0,0:0:0:0:
320,192,179948,1,0,0:0:0:0:
192,192,180106,1,0,0:0:0:0:
64,192,180106,1,0,0:0:0:0:
448,192,180106,1,0,0:0:0:0:
192,192,180263,1,0,0:0:0:0:
64,192,180421,1,0,0:0:0:0:
320,192,180421,1,0,0:0:0:0:
448,192,180421,1,0,0:0:0:0:
64,192,180579,1,0,0:0:0:0:
192,192,180737,1,0,0:0:0:0:
320,192,180737,1,0,0:0:0:0:
448,192,180816,1,0,0:0:0:0:
64,192,180895,1,0,0:0:0:0:
192,192,180974,1,0,0:0:0:0:
448,192,181053,1,0,0:0:0:0:
320,192,181132,1,0,0:0:0:0:
64,192,181211,1,0,0:0:0:0:
192,192,181211,1,0,0:0:0:0:
448,192,181369,1,0,0:0:0:0:
320,192,181448,1,0,0:0:0:0:
64,192,181527,1,0,0:0:0:0:
192,192,181606,1,0,0:0:0:0:
320,192,181684,1,0,0:0:0:0:
448,192,181684,1,0,0:0:0:0:
64,192,181684,1,0,0:0:0:0:
64,192,182000,1,0,0:0:0:0:
192,192,182000,1,0,0:0:0:0:
320,192,182158,1,0,0:0:0:0:
64,192,182316,1,0,0:0:0:0:
192,192,182316,1,0,0:0:0:0:
448,192,182316,1,0,0:0:0:0:
448,192,182474,128,0,182632:0:0:0:0:
64,192,182632,128,0,182790:0:0:0:0:
192,192,182632,1,0,0:0:0:0:
320,192,182790,1,0,0:0:0:0:
320,192,182948,1,0,0:0:0:0:
448,192,182948,1,0,0:0:0:0:
192,192,182948,1,0,0:0:0:0:
64,192,183106,1,0,0:0:0:0:
192,192,183263,1,0,0:0:0:0:
320,192,183263,1,0,0:0:0:0:
448,192,183421,1,0,0:0:0:0:
192,192,183579,1,0,0:0:0:0:
320,192,183579,1,0,0:0:0:0:
64,192,183579,1,0,0:0:0:0:
448,192,183737,1,0,0:0:0:0:
64,192,183895,1,0,0:0:0:0:
320,192,183895,1,0,0:0:0:0:
192,192,184053,1,0,0:0:0:0:
320,192,184211,1,0,0:0:0:0:
448,192,184211,1,0,0:0:0:0:
64,192,184211,1,0,0:0:0:0:
192,192,184369,1,0,0:0:0:0:
64,192,184527,1,0,0:0:0:0:
448,192,184527,1,0,0:0:0:0:
192,192,184684,1,0,0:0:0:0:
64,192,184842,1,0,0:0:0:0:
320,192,184842,1,0,0:0:0:0:
448,192,184842,1,0,0:0:0:0:
64,192,185000,128,0,185158:0:0:0:0:
192,192,185158,1,0,0:0:0:0:
448,192,185158,128,0,185316:0:0:0:0:
320,192,185316,1,0,0:0:0:0:
192,192,185474,1,0,0:0:0:0:
64,192,185474,1,0,0:0:0:0:
448,192,185474,1,0,0:0:0:0:
320,192,185632,1,0,0:0:0:0:
64,192,185790,1,0,0:0:0:0:
448,192,185790,1,0,0:0:0:0:
192,192,185948,1,0,0:0:0:0:
320,192,186106,1,0,0:0:0:0:
448,192,186106,1,0,0:0:0:0:
64,192,186106,1,0,0:0:0:0:
192,192,186184,1,0,0:0:0:0:
320,192,186263,1,0,0:0:0:0:
64,192,186421,1,0,0:0:0:0:
192,192,186421,1,0,0:0:0:0:
448,192,186579,1,0,0:0:0:0:
320,192,186737,1,0,0:0:0:0:
192,192,186737,1,0,0:0:0:0:
64,192,186737,1,0,0:0:0:0:
448,192,186895,1,0,0:0:0:0:
64,192,187053,1,0,0:0:0:0:
320,192,187053,1,0,0:0:0:0:
192,192,187211,1,0,0:0:0:0:
64,192,187369,1,0,0:0:0:0:
320,192,187369,1,0,0:0:0:0:
448,192,187369,1,0,0:0:0:0:
192,192,187527,128,0,187684:0:0:0:0:
64,192,187684,1,0,0:0:0:0:
320,192,187684,128,0,187842:0:0:0:0:
448,192,187842,1,0,0:0:0:0:
64,192,188000,1,0,0:0:0:0:
192,192,188000,1,0,0:0:0:0:
448,192,188000,1,0,0:0:0:0:
320,192,188158,1,0,0:0:0:0:
64,192,188316,1,0,0:0:0:0:
192,192,188316,1,0,0:0:0:0:
320,192,188474,1,0,0:0:0:0:
192,192,188632,1,0,0:0:0:0:
64,192,188632,1,0,0:0:0:0:
448,192,188632,1,0,0:0:0:0:
320,192,188790,1,0,0:0:0:0:
448,192,188948,1,0,0:0:0:0:
192,192,188948,1,0,0:0:0:0:
64,192,189106,1,0,0:0:0:0:
320,192,189263,1,0,0:0:0:0:
448,192,189263,1,0,0:0:0:0:
192,192,189263,1,0,0:0:0:0:
64,192,189421,1,0,0:0:0:0:
192,192,189500,1,0,0:0:0:0:
320,192,189579,1,0,0:0:0:0:
448,192,189579,1,0,0:0:0:0:
64,192,189658,1,0,0:0:0:0:
448,192,189737,1,0,0:0:0:0:
320,192,189816,1,0,0:0:0:0:
64,192,189895,1,0,0:0:0:0:
192,192,189895,1,0,0:0:0:0:
448,192,189974,1,0,0:0:0:0:
64,192,190053,1,0,0:0:0:0:
192,192,190132,1,0,0:0:0:0:
320,192,190211,1,0,0:0:0:0:
448,192,190211,1,0,0:0:0:0:
64,192,190290,1,0,0:0:0:0:
448,192,190369,1,0,0:0:0:0:
320,192,190448,1,0,0:0:0:0:
64,192,190527,1,0,0:0:0:0:
192,192,190527,1,0,0:0:0:0:
448,192,190606,1,0,0:0:0:0:
64,192,190684,1,0,0:0:0:0:
192,192,190763,1,0,0:0:0:0:
320,192,190842,1,0,0:0:0:0:
448,192,190842,1,0,0:0:0:0:
64,192,190921,1,0,0:0:0:0:
192,192,191000,1,0,0:0:0:0:
448,192,191000,1,0,0:0:0:0:
320,192,191079,1,0,0:0:0:0:
64,192,191158,1,0,0:0:0:0:
192,192,191158,1,0,0:0:0:0:
320,192,191237,1,0,0:0:0:0:
448,192,191237,1,0,0:0:0:0:
64,192,191316,1,0,0:0:0:0:
192,192,191395,1,0,0:0:0:0:
320,192,191395,1,0,0:0:0:0:
64,192,191474,1,0,0:0:0:0:
448,192,191474,1,0,0:0:0:0:
320,192,191553,1,0,0:0:0:0:
64,192,191632,1,0,0:0:0:0:
192,192,191711,1,0,0:0:0:0:
320,192,191790,1,0,0:0:0:0:
448,192,191790,128,0,192106:0:0:0:0:
192,192,192106,1,0,0:0:0:0:
64,192,192106,1,0,0:0:0:0:
320,192,192263,1,0,0:0:0:0:
192,192,192421,1,0,0:0:0:0:
448,192,192421,1,0,0:0:0:0:
64,192,192421,1,0,0:0:0:0:
320,192,192579,128,0,192737:0:0:0:0:
448,192,192737,1,0,0:0:0:0:
64,192,192737,128,0,192895:0:0:0:0:
192,192,192895,1,0,0:0:0:0:
192,192,193053,1,0,0:0:0:0:
320,192,193053,1,0,0:0:0:0:
448,192,193053,1,0,0:0:0:0:
64,192,193211,1,0,0:0:0:0:
448,192,193369,1,0,0:0:0:0:
320,192,193369,1,0,0:0:0:0:
64,192,193448,1,0,0:0:0:0:
192,192,193527,1,0,0:0:0:0:
64,192,193684,1,0,0:0:0:0:
448,192,193684,1,0,0:0:0:0:
320,192,193684,1,0,0:0:0:0:
192,192,193842,1,0,0:0:0:0:
320,192,194000,1,0,0:0:0:0:
448,192,194000,1,0,0:0:0:0:
64,192,194158,1,0,0:0:0:0:
192,192,194316,1,0,0:0:0:0:
320,192,194316,1,0,0:0:0:0:
448,192,194316,1,0,0:0:0:0:
64,192,194474,1,0,0:0:0:0:
192,192,194632,1,0,0:0:0:0:
448,192,194632,1,0,0:0:0:0:
320,192,194790,1,0,0:0:0:0:
64,192,194948,1,0,0:0:0:0:
192,192,194948,1,0,0:0:0:0:
448,192,194948,1,0,0:0:0:0:
320,192,195106,128,0,195263:0:0:0:0:
448,192,195263,1,0,0:0:0:0:
64,192,195263,128,0,195421:0:0:0:0:
192,192,195421,1,0,0:0:0:0:
64,192,195579,1,0,0:0:0:0:
448,192,195579,1,0,0:0:0:0:
320,192,195579,1,0,0:0:0:0:
192,192,195737,1,0,0:0:0:0:
320,192,195816,1,0,0:0:0:0:
64,192,195895,1,0,0:0:0:0:
192,192,195895,1,0,0:0:0:0:
448,192,196053,1,0,0:0:0:0:
64,192,196211,1,0,0:0:0:0:
320,192,196211,1,0,0:0:0:0:
192,192,196211,1,0,0:0:0:0:
448,192,196369,1,0,0:0:0:0:
64,192,196527,1,0,0:0:0:0:
320,192,196527,1,0,0:0:0:0:
192,192,196684,1,0,0:0:0:0:
320,192,196842,1,0,0:0:0:0:
448,192,196842,1,0,0:0:0:0:
64,192,196842,1,0,0:0:0:0:
192,192,196921,1,0,0:0:0:0:
448,192,197000,1,0,0:0:0:0:
320,192,197079,1,0,0:0:0:0:
192,192,197158,1,0,0:0:0:0:
64,192,197158,1,0,0:0:0:0:
320,192,197316,1,0,0:0:0:0:
192,192,197474,1,0,0:0:0:0:
64,192,197474,1,0,0:0:0:0:
448,192,197474,1,0,0:0:0:0:
320,192,197632,128,0,197790:0:0:0:0:
448,192,197790,1,0,0:0:0:0:
64,192,197790,128,0,197948:0:0:0:0:
192,192,197948,1,0,0:0:0:0:
320,192,198106,1,0,0:0:0:0:
448,192,198106,1,0,0:0:0:0:
64,192,198106,1,0,0:0:0:0:
192,192,198263,1,0,0:0:0:0:
320,192,198421,1,0,0:0:0:0:
448,192,198421,1,0,0:0:0:0:
64,192,198579,1,0,0:0:0:0:
192,192,198737,1,0,0:0:0:0:
448,192,198737,1,0,0:0:0:0:
320,192,198737,1,0,0:0:0:0:
64,192,198895,1,0,0:0:0:0:
192,192,199053,1,0,0:0:0:0:
320,192,199053,1,0,0:0:0:0:
448,192,199211,1,0,0:0:0:0:
64,192,199369,1,0,0:0:0:0:
320,192,199369,1,0,0:0:0:0:
192,192,199369,1,0,0:0:0:0:
448,192,199684,128,0,200316:0:0:0:0:
192,192,199684,1,0,0:0:0:0:
64,192,200316,128,0,200948:0:0:0:0:
320,192,200316,1,0,0:0:0:0:
320,192,200948,1,0,0:0:0:0:
448,192,200948,1,0,0:0:0:0:
192,192,201027,1,0,0:0:0:0:
448,192,201106,1,0,0:0:0:0:
320,192,201184,1,0,0:0:0:0:
64,192,201263,1,0,0:0:0:0:
192,192,201263,1,0,0:0:0:0:
320,192,201342,1,0,0:0:0:0:
64,192,201421,1,0,0:0:0:0:
192,192,201500,1,0,0:0:0:0:
320,192,201579,1,0,0:0:0:0:
448,192,201579,1,0,0:0:0:0:
192,192,201658,1,0,0:0:0:0:
448,192,201737,1,0,0:0:0:0:
320,192,201816,1,0,0:0:0:0:
64,192,201895,1,0,0:0:0:0:
192,192,201895,1,0,0:0:0:0:
320,192,202211,1,0,0:0:0:0:
448,192,202211,1,0,0:0:0:0:
64,192,202211,1,0,0:0:0:0:
192,192,202527,1,0,0:0:0:0:
64,192,202527,128,0,202684:0:0:0:0:
448,192,202684,128,0,202842:0:0:0:0:
320,192,202842,128,0,203158:0:0:0:0:
64,192,202842,1,0,0:0:0:0:
192,192,203158,1,0,0:0:0:0:
448,192,203158,1,0,0:0:0:0:
64,192,203158,1,0,0:0:0:0:
64,192,203316,128,0,203474:0:0:0:0:
448,192,203474,128,0,203632:0:0:0:0:
320,192,203474,1,0,0:0:0:0:
192,192,203790,128,0,203948:0:0:0:0:
64,192,203790,1,0,0:0:0:0:
320,192,203790,1,0,0:0:0:0:
448,192,204106,128,0,204263:0:0:0:0:
64,192,204106,1,0,0:0:0:0:
64,192,204421,128,0,204737:0:0:0:0:
192,192,204421,1,0,0:0:0:0:
320,192,204421,1,0,0:0:0:0:
320,192,204737,1,0,0:0:0:0:
448,192,204737,1,0,0:0:0:0:
448,192,205053,128,0,205211:0:0:0:0:
64,192,205053,1,0,0:0:0:0:
320,192,205053,1,0,0:0:0:0:
64,192,205211,128,0,205369:0:0:0:0:
320,192,205369,128,0,205527:0:0:0:0:
192,192,205369,1,0,0:0:0:0:
192,192,205684,1,0,0:0:0:0:
448,192,205684,1,0,0:0:0:0:
64,192,205684,1,0,0:0:0:0:
64,192,205842,128,0,206000:0:0:0:0:
448,192,206000,128,0,206158:0:0:0:0:
320,192,206000,1,0,0:0:0:0:
64,192,206158,128,0,206316:0:0:0:0:
448,192,206316,128,0,206474:0:0:0:0:
192,192,206316,1,0,0:0:0:0:
320,192,206316,1,0,0:0:0:0:
192,192,206474,128,0,206632:0:0:0:0:
448,192,206632,128,0,206790:0:0:0:0:
64,192,206632,1,0,0:0:0:0:
192,192,206790,128,0,206948:0:0:0:0:
64,192,206948,128,0,207263:0:0:0:0:
448,192,206948,1,0,0:0:0:0:
320,192,206948,1,0,0:0:0:0:
192,192,207263,1,0,0:0:0:0:
320,192,207263,1,0,0:0:0:0:
320,192,207579,128,0,207737:0:0:0:0:
448,192,207579,1,0,0:0:0:0:
64,192,207579,1,0,0:0:0:0:
64,192,207737,128,0,207895:0:0:0:0:
448,192,207895,128,0,208053:0:0:0:0:
192,192,207895,1,0,0:0:0:0:
64,192,208211,1,0,0:0:0:0:
320,192,208211,1,0,0:0:0:0:
192,192,208211,1,0,0:0:0:0:
64,192,208369,128,0,208527:0:0:0:0:
448,192,208527,128,0,208684:0:0:0:0:
192,192,208527,1,0,0:0:0:0:
64,192,208842,128,0,209000:0:0:0:0:
192,192,208842,1,0,0:0:0:0:
320,192,208842,1,0,0:0:0:0:
192,192,209158,128,0,209316:0:0:0:0:
448,192,209158,1,0,0:0:0:0:
448,192,209474,128,0,209632:0:0:0:0:
64,192,209474,1,0,0:0:0:0:
192,192,209474,1,0,0:0:0:0:
320,192,209632,1,0,0:0:0:0:
64,192,209711,1,0,0:0:0:0:
320,192,209790,1,0,0:0:0:0:
192,192,209790,128,0,209869:0:0:0:0:
192,192,209948,128,0,210027:0:0:0:0:
192,192,210106,128,0,210184:0:0:0:0:
448,192,210263,128,0,210342:0:0:0:0:
448,192,210421,128,0,210500:0:0:0:0:
448,192,210579,128,0,210658:0:0:0:0:
448,192,210737,128,0,210895:0:0:0:0:
320,192,210895,1,0,0:0:0:0:
64,192,210974,1,0,0:0:0:0:
192,192,211053,128,0,211132:0:0:0:0:
192,192,211211,128,0,211290:0:0:0:0:
192,192,211369,128,0,211448:0:0:0:0:
448,192,211527,128,0,211606:0:0:0:0:
320,192,211684,128,0,211763:0:0:0:0:
192,192,211842,128,0,211921:0:0:0:0:
64,192,212000,128,0,212316:0:0:0:0:
192,192,212316,1,0,0:0:0:0:
448,192,212316,1,0,0:0:0:0:
448,192,212632,128,0,212790:0:0:0:0:
192,192,212632,1,0,0:0:0:0:
320,192,212632,1,0,0:0:0:0:
64,192,212790,128,0,212948:0:0:0:0:
320,192,212948,128,0,213106:0:0:0:0:
448,192,212948,1,0,0:0:0:0:
192,192,213106,1,0,0:0:0:0:
64,192,213263,1,0,0:0:0:0:
448,192,213263,1,0,0:0:0:0:
320,192,213263,1,0,0:0:0:0:
64,192,213421,128,0,213579:0:0:0:0:
448,192,213579,128,0,213737:0:0:0:0:
192,192,213579,1,0,0:0:0:0:
320,192,213737,1,0,0:0:0:0:
192,192,213895,128,0,214053:0:0:0:0:
64,192,213895,1,0,0:0:0:0:
448,192,213895,1,0,0:0:0:0:
320,192,214053,1,0,0:0:0:0:
448,192,214211,128,0,214369:0:0:0:0:
192,192,214211,1,0,0:0:0:0:
320,192,214369,1,0,0:0:0:0:
64,192,214527,128,0,214842:0:0:0:0:
192,192,214527,1,0,0:0:0:0:
448,192,214527,1,0,0:0:0:0:
320,192,214684,1,0,0:0:0:0:
192,192,214842,1,0,0:0:0:0:
448,192,214842,1,0,0:0:0:0:
320,192,215000,1,0,0:0:0:0:
448,192,215158,128,0,215316:0:0:0:0:
64,192,215158,1,0,0:0:0:0:
192,192,215158,1,0,0:0:0:0:
64,192,215316,128,0,215474:0:0:0:0:
320,192,215474,128,0,215632:0:0:0:0:
448,192,215474,1,0,0:0:0:0:
192,192,215632,1,0,0:0:0:0:
64,192,215790,1,0,0:0:0:0:
448,192,215790,1,0,0:0:0:0:
320,192,215790,1,0,0:0:0:0:
64,192,215948,128,0,216106:0:0:0:0:
448,192,216106,128,0,216263:0:0:0:0:
192,192,216106,1,0,0:0:0:0:
64,192,216263,128,0,216421:0:0:0:0:
448,192,216421,128,0,216579:0:0:0:0:
192,192,216421,1,0,0:0:0:0:
320,192,216421,1,0,0:0:0:0:
192,192,216579,128,0,216737:0:0:0:0:
320,192,216737,128,0,216895:0:0:0:0:
448,192,216737,1,0,0:0:0:0:
64,192,216895,128,0,217053:0:0:0:0:
448,192,217053,128,0,217369:0:0:0:0:
192,192,217053,1,0,0:0:0:0:
320,192,217053,1,0,0:0:0:0:
64,192,217211,1,0,0:0:0:0:
192,192,217369,1,0,0:0:0:0:
320,192,217369,1,0,0:0:0:0:
64,192,217527,1,0,0:0:0:0:
192,192,217684,128,0,217842:0:0:0:0:
320,192,217684,1,0,0:0:0:0:
448,192,217684,1,0,0:0:0:0:
448,192,217842,128,0,218000:0:0:0:0:
64,192,218000,128,0,218158:0:0:0:0:
192,192,218000,1,0,0:0:0:0:
320,192,218158,1,0,0:0:0:0:
192,192,218316,1,0,0:0:0:0:
64,192,218316,1,0,0:0:0:0:
448,192,218316,1,0,0:0:0:0:
448,192,218474,128,0,218632:0:0:0:0:
64,192,218632,128,0,218790:0:0:0:0:
192,192,218632,1,0,0:0:0:0:
448,192,218790,1,0,0:0:0:0:
320,192,218948,128,0,219106:0:0:0:0:
192,192,218948,1,0,0:0:0:0:
64,192,218948,1,0,0:0:0:0:
448,192,219106,1,0,0:0:0:0:
64,192,219263,128,0,219421:0:0:0:0:
192,192,219263,1,0,0:0:0:0:
320,192,219421,1,0,0:0:0:0:
448,192,219579,128,0,219737:0:0:0:0:
64,192,219579,1,0,0:0:0:0:
192,192,219579,1,0,0:0:0:0:
320,192,219737,1,0,0:0:0:0:
64,192,219895,128,0,220211:0:0:0:0:
448,192,219895,1,0,0:0:0:0:
192,192,220053,1,0,0:0:0:0:
320,192,220211,1,0,0:0:0:0:
448,192,220211,1,0,0:0:0:0:
192,192,220369,128,0,220527:0:0:0:0:
448,192,220527,128,0,220842:0:0:0:0:
64,192,220527,1,0,0:0:0:0:
320,192,220842,128,0,221000:0:0:0:0:
64,192,220842,1,0,0:0:0:0:
192,192,220842,1,0,0:0:0:0:
448,192,221000,128,0,221158:0:0:0:0:
64,192,221158,128,0,221316:0:0:0:0:
448,192,221316,128,0,221474:0:0:0:0:
320,192,221474,128,0,221632:0:0:0:0:
64,192,221632,128,0,221790:0:0:0:0:
192,192,221790,128,0,221948:0:0:0:0:
448,192,221948,128,0,222106:0:0:0:0:
320,192,222106,128,0,222421:0:0:0:0:
64,192,222421,128,0,223684:0:0:0:0:
192,192,222421,1,0,0:0:0:0:
320,192,222579,1,0,0:0:0:0:
192,192,222737,1,0,0:0:0:0:
448,192,222737,1,0,0:0:0:0:
320,192,222895,1,0,0:0:0:0:
320,192,223053,1,0,0:0:0:0:
448,192,223053,1,0,0:0:0:0:
192,192,223211,1,0,0:0:0:0:
192,192,223369,1,0,0:0:0:0:
448,192,223369,1,0,0:0:0:0:
320,192,223527,1,0,0:0:0:0:
448,192,223684,128,0,224316:0:0:0:0:
192,192,223684,1,0,0:0:0:0:
320,192,223842,1,0,0:0:0:0:
64,192,224000,1,0,0:0:0:0:
192,192,224000,1,0,0:0:0:0:
64,192,224158,1,0,0:0:0:0:
320,192,224316,128,0,224632:0:0:0:0:
192,192,224316,1,0,0:0:0:0:
448,192,224474,1,0,0:0:0:0:
192,192,224632,128,0,224948:0:0:0:0:
64,192,224632,1,0,0:0:0:0:
448,192,224790,1,0,0:0:0:0:
64,192,224948,128,0,226211:0:0:0:0:
320,192,224948,1,0,0:0:0:0:
448,192,225106,1,0,0:0:0:0:
192,192,225263,1,0,0:0:0:0:
320,192,225263,1,0,0:0:0:0:
192,192,225421,1,0,0:0:0:0:
320,192,225579,1,0,0:0:0:0:
448,192,225579,1,0,0:0:0:0:
192,192,225737,1,0,0:0:0:0:
192,192,225895,1,0,0:0:0:0:
448,192,225895,1,0,0:0:0:0:
320,192,226053,1,0,0:0:0:0:
192,192,226211,128,0,227474:0:0:0:0:
448,192,226211,1,0,0:0:0:0:
320,192,226369,1,0,0:0:0:0:
64,192,226527,1,0,0:0:0:0:
448,192,226527,1,0,0:0:0:0:
320,192,226684,1,0,0:0:0:0:
320,192,226842,1,0,0:0:0:0:
448,192,226842,1,0,0:0:0:0:
64,192,227000,1,0,0:0:0:0:
64,192,227158,1,0,0:0:0:0:
448,192,227158,1,0,0:0:0:0:
320,192,227316,1,0,0:0:0:0:
448,192,227474,128,0,228737:0:0:0:0:
64,192,227474,1,0,0:0:0:0:
320,192,227632,1,0,0:0:0:0:
64,192,227790,1,0,0:0:0:0:
192,192,227790,1,0,0:0:0:0:
320,192,227948,1,0,0:0:0:0:
320,192,228106,1,0,0:0:0:0:
64,192,228106,1,0,0:0:0:0:
192,192,228263,1,0,0:0:0:0:
320,192,228421,1,0,0:0:0:0:
64,192,228421,1,0,0:0:0:0:
192,192,228579,1,0,0:0:0:0:
64,192,228737,128,0,230000:0:0:0:0:
320,192,228737,1,0,0:0:0:0:
192,192,228895,1,0,0:0:0:0:
320,192,229053,1,0,0:0:0:0:
448,192,229053,1,0,0:0:0:0:
192,192,229211,1,0,0:0:0:0:
192,192,229369,1,0,0:0:0:0:
448,192,229369,1,0,0:0:0:0:
320,192,229527,1,0,0:0:0:0:
320,192,229684,1,0,0:0:0:0:
448,192,229684,1,0,0:0:0:0:
192,192,229842,1,0,0:0:0:0:
448,192,230000,128,0,232527:0:0:0:0:
320,192,230000,1,0,0:0:0:0:
64,192,230079,1,0,0:0:0:0:
192,192,230158,1,0,0:0:0:0:
320,192,230158,1,0,0:0:0:0:
64,192,230316,1,0,0:0:0:0:
320,192,230395,1,0,0:0:0:0:
192,192,230474,1,0,0:0:0:0:
64,192,230474,1,0,0:0:0:0:
320,192,230632,1,0,0:0:0:0:
64,192,230711,1,0,0:0:0:0:
192,192,230790,1,0,0:0:0:0:
320,192,230790,1,0,0:0:0:0:
64,192,230948,1,0,0:0:0:0:
320,192,231027,1,0,0:0:0:0:
192,192,231106,1,0,0:0:0:0:
64,192,231106,1,0,0:0:0:0:
320,192,231263,1,0,0:0:0:0:
64,192,231342,1,0,0:0:0:0:
192,192,231421,1,0,0:0:0:0:
320,192,231421,1,0,0:0:0:0:
64,192,231500,1,0,0:0:0:0:
192,192,231579,1,0,0:0:0:0:
320,192,231658,1,0,0:0:0:0:
192,192,231737,1,0,0:0:0:0:
64,192,231816,1,0,0:0:0:0:
192,192,231895,1,0,0:0:0:0:
320,192,231895,1,0,0:0:0:0:
320,192,232527,1,0,0:0:0:0:
64,192,232527,128,0,233790:0:0:0:0:
192,192,232684,1,0,0:0:0:0:
192,192,232842,1,0,0:0:0:0:
448,192,232842,1,0,0:0:0:0:
320,192,233000,1,0,0:0:0:0:
320,192,233158,1,0,0:0:0:0:
448,192,233158,1,0,0:0:0:0:
192,192,233316,1,0,0:0:0:0:
192,192,233474,1,0,0:0:0:0:
448,192,233474,1,0,0:0:0:0:
320,192,233632,1,0,0:0:0:0:
192,192,233790,128,0,234263:0:0:0:0:
448,192,233790,1,0,0:0:0:0:
320,192,233948,1,0,0:0:0:0:
64,192,234106,1,0,0:0:0:0:
448,192,234106,1,0,0:0:0:0:
320,192,234263,128,0,234421:0:0:0:0:
64,192,234421,128,0,234737:0:0:0:0:
192,192,234421,1,0,0:0:0:0:
448,192,234579,1,0,0:0:0:0:
192,192,234737,128,0,235053:0:0:0:0:
320,192,234737,1,0,0:0:0:0:
64,192,234895,1,0,0:0:0:0:
448,192,235053,128,0,237579:0:0:0:0:
320,192,235053,1,0,0:0:0:0:
64,192,235211,1,0,0:0:0:0:
192,192,235369,1,0,0:0:0:0:
320,192,235369,1,0,0:0:0:0:
64,192,235527,1,0,0:0:0:0:
64,192,235684,1,0,0:0:0:0:
320,192,235684,1,0,0:0:0:0:
192,192,235842,1,0,0:0:0:0:
320,192,236000,1,0,0:0:0:0:
192,192,236000,1,0,0:0:0:0:
64,192,236158,1,0,0:0:0:0:
64,192,236316,1,0,0:0:0:0:
192,192,236316,1,0,0:0:0:0:
320,192,236474,1,0,0:0:0:0:
320,192,236632,1,0,0:0:0:0:
64,192,236632,1,0,0:0:0:0:
192,192,236790,1,0,0:0:0:0:
64,192,236948,1,0,0:0:0:0:
192,192,236948,1,0,0:0:0:0:
320,192,237106,1,0,0:0:0:0:
320,192,237263,1,0,0:0:0:0:
64,192,237263,1,0,0:0:0:0:
192,192,237421,1,0,0:0:0:0:
64,192,237579,128,0,238842:0:0:0:0:
320,192,237579,1,0,0:0:0:0:
192,192,237737,1,0,0:0:0:0:
320,192,237895,1,0,0:0:0:0:
448,192,237895,1,0,0:0:0:0:
192,192,238053,1,0,0:0:0:0:
192,192,238211,1,0,0:0:0:0:
448,192,238211,1,0,0:0:0:0:
320,192,238369,1,0,0:0:0:0:
320,192,238527,1,0,0:0:0:0:
448,192,238527,1,0,0:0:0:0:
192,192,238684,1,0,0:0:0:0:
448,192,238842,128,0,239474:0:0:0:0:
320,192,238842,1,0,0:0:0:0:
192,192,239000,1,0,0:0:0:0:
64,192,239158,1,0,0:0:0:0:
320,192,239158,1,0,0:0:0:0:
192,192,239316,1,0,0:0:0:0:
64,192,239474,128,0,239632:0:0:0:0:
320,192,239474,1,0,0:0:0:0:
192,192,239632,128,0,239790:0:0:0:0:
448,192,239790,128,0,239948:0:0:0:0:
64,192,239790,1,0,0:0:0:0:
320,192,239948,128,0,240106:0:0:0:0:
192,192,240106,1,0,0:0:0:0:
64,192,240106,128,0,241369:0:0:0:0:
64,192,242632,1,0,0:0:0:0:
192,192,242632,1,0,0:0:0:0:
448,192,243106,1,0,0:0:0:0:
448,192,243184,1,0,0:0:0:0:
320,192,243579,1,0,0:0:0:0:
192,192,243737,1,0,0:0:0:0:
448,192,243895,1,0,0:0:0:0:
320,192,243974,1,0,0:0:0:0:
192,192,244053,1,0,0:0:0:0:
320,192,244211,1,0,0:0:0:0:
192,192,244290,1,0,0:0:0:0:
64,192,244369,1,0,0:0:0:0:
448,192,244527,1,0,0:0:0:0:
320,192,244606,1,0,0:0:0:0:
192,192,244684,1,0,0:0:0:0:
320,192,244842,1,0,0:0:0:0:
192,192,244921,1,0,0:0:0:0:
64,192,245000,1,0,0:0:0:0:
448,192,245158,1,0,0:0:0:0:
320,192,245158,1,0,0:0:0:0:
64,192,245632,1,0,0:0:0:0:
64,192,245711,1,0,0:0:0:0:
192,192,246106,1,0,0:0:0:0:
320,192,246263,1,0,0:0:0:0:
64,192,246421,1,0,0:0:0:0:
192,192,246500,1,0,0:0:0:0:
320,192,246579,1,0,0:0:0:0:
192,192,246737,1,0,0:0:0:0:
320,192,246816,1,0,0:0:0:0:
448,192,246895,1,0,0:0:0:0:
64,192,247053,1,0,0:0:0:0:
192,192,247132,1,0,0:0:0:0:
320,192,247211,1,0,0:0:0:0:
192,192,247369,1,0,0:0:0:0:
320,192,247448,1,0,0:0:0:0:
448,192,247527,1,0,0:0:0:0:
64,192,247684,1,0,0:0:0:0:
192,192,247684,1,0,0:0:0:0:
448,192,248158,1,0,0:0:0:0:
448,192,248237,1,0,0:0:0:0:
320,192,248632,1,0,0:0:0:0:
192,192,248790,1,0,0:0:0:0:
448,192,248948,1,0,0:0:0:0:
320,192,249027,1,0,0:0:0:0:
192,192,249106,1,0,0:0:0:0:
320,192,249263,1,0,0:0:0:0:
192,192,249342,1,0,0:0:0:0:
64,192,249421,1,0,0:0:0:0:
448,192,249579,1,0,0:0:0:0:
320,192,249658,1,0,0:0:0:0:
192,192,249737,1,0,0:0:0:0:
320,192,249895,1,0,0:0:0:0:
192,192,249974,1,0,0:0:0:0:
64,192,250053,1,0,0:0:0:0:
320,192,250211,1,0,0:0:0:0:
448,192,250211,1,0,0:0:0:0:
64,192,250369,1,0,0:0:0:0:
448,192,250527,1,0,0:0:0:0:
320,192,250684,1,0,0:0:0:0:
64,192,250842,1,0,0:0:0:0:
192,192,250842,1,0,0:0:0:0:
448,192,251000,1,0,0:0:0:0:
320,192,251079,1,0,0:0:0:0:
64,192,251158,1,0,0:0:0:0:
192,192,251158,1,0,0:0:0:0:
320,192,251474,1,0,0:0:0:0:
448,192,251474,1,0,0:0:0:0:
64,192,251553,1,0,0:0:0:0:
192,192,251553,1,0,0:0:0:0:
320,192,251632,1,0,0:0:0:0:
448,192,251632,1,0,0:0:0:0:
192,192,251711,1,0,0:0:0:0:
64,192,251711,1,0,0:0:0:0:
320,192,251790,1,0,0:0:0:0:
448,192,251790,1,0,0:0:0:0:
64,192,251869,1,0,0:0:0:0:
192,192,251869,1,0,0:0:0:0:
320,192,251948,1,0,0:0:0:0:
448,192,251948,1,0,0:0:0:0:
64,192,252027,1,0,0:0:0:0:
192,192,252027,1,0,0:0:0:0:
320,192,252106,1,0,0:0:0:0:
448,192,252106,1,0,0:0:0:0:
64,192,252184,1,0,0:0:0:0:
192,192,252184,1,0,0:0:0:0:
320,192,252263,1,0,0:0:0:0:
448,192,252263,1,0,0:0:0:0:
192,192,252342,1,0,0:0:0:0:
64,192,252342,1,0,0:0:0:0:
448,192,252421,1,0,0:0:0:0:
320,192,252500,1,0,0:0:0:0:
64,192,252579,1,0,0:0:0:0:
192,192,252658,1,0,0:0:0:0:
320,192,252737,1,0,0:0:0:0:
448,192,252737,1,0,0:0:0:0:
64,192,252816,1,0,0:0:0:0:
448,192,252895,1,0,0:0:0:0:
320,192,252974,1,0,0:0:0:0:
64,192,253053,1,0,0:0:0:0:
192,192,253053,1,0,0:0:0:0:
448,192,253132,1,0,0:0:0:0:
320,192,253211,1,0,0:0:0:0:
192,192,253290,1,0,0:0:0:0:
64,192,253369,1,0,0:0:0:0:
448,192,253369,1,0,0:0:0:0:
320,192,253448,1,0,0:0:0:0:
64,192,253527,1,0,0:0:0:0:
192,192,253606,1,0,0:0:0:0:
320,192,253684,1,0,0:0:0:0:
448,192,253684,1,0,0:0:0:0:
64,192,253842,1,0,0:0:0:0:
192,192,254000,1,0,0:0:0:0:
64,192,254000,1,0,0:0:0:0:
448,192,254079,1,0,0:0:0:0:
320,192,254158,1,0,0:0:0:0:
64,192,254316,1,0,0:0:0:0:
448,192,254316,1,0,0:0:0:0:
192,192,254395,1,0,0:0:0:0:
320,192,254474,1,0,0:0:0:0:
64,192,254632,1,0,0:0:0:0:
192,192,254632,1,0,0:0:0:0:
448,192,254711,1,0,0:0:0:0:
320,192,254790,1,0,0:0:0:0:
192,192,254948,1,0,0:0:0:0:
64,192,254948,1,0,0:0:0:0:
448,192,255027,1,0,0:0:0:0:
320,192,255106,1,0,0:0:0:0:
64,192,255263,1,0,0:0:0:0:
192,192,255263,1,0,0:0:0:0:
320,192,255421,1,0,0:0:0:0:
64,192,255579,1,0,0:0:0:0:
448,192,255579,1,0,0:0:0:0:
192,192,255658,1,0,0:0:0:0:
448,192,255737,1,0,0:0:0:0:
320,192,255816,1,0,0:0:0:0:
64,192,255895,1,0,0:0:0:0:
192,192,255895,1,0,0:0:0:0:
320,192,256053,1,0,0:0:0:0:
64,192,256211,1,0,0:0:0:0:
448,192,256211,1,0,0:0:0:0:
192,192,256369,1,0,0:0:0:0:
320,192,256527,1,0,0:0:0:0:
448,192,256527,1,0,0:0:0:0:
192,192,256606,1,0,0:0:0:0:
64,192,256684,1,0,0:0:0:0:
320,192,256842,1,0,0:0:0:0:
192,192,256842,1,0,0:0:0:0:
448,192,256921,1,0,0:0:0:0:
320,192,257000,1,0,0:0:0:0:
64,192,257158,1,0,0:0:0:0:
192,192,257158,1,0,0:0:0:0:
448,192,257237,1,0,0:0:0:0:
320,192,257316,1,0,0:0:0:0:
448,192,257474,1,0,0:0:0:0:
64,192,257474,1,0,0:0:0:0:
192,192,257553,1,0,0:0:0:0:
320,192,257632,1,0,0:0:0:0:
192,192,257790,1,0,0:0:0:0:
64,192,257790,1,0,0:0:0:0:
448,192,257869,1,0,0:0:0:0:
320,192,257948,1,0,0:0:0:0:
64,192,258027,1,0,0:0:0:0:
192,192,258106,1,0,0:0:0:0:
320,192,258106,1,0,0:0:0:0:
448,192,258184,1,0,0:0:0:0:
320,192,258263,1,0,0:0:0:0:
192,192,258342,1,0,0:0:0:0:
64,192,258421,1,0,0:0:0:0:
448,192,258421,1,0,0:0:0:0:
320,192,258579,1,0,0:0:0:0:
64,192,258737,1,0,0:0:0:0:
192,192,258737,1,0,0:0:0:0:
320,192,258895,1,0,0:0:0:0:
64,192,259053,1,0,0:0:0:0:
448,192,259053,1,0,0:0:0:0:
192,192,259132,1,0,0:0:0:0:
320,192,259211,1,0,0:0:0:0:
64,192,259369,1,0,0:0:0:0:
192,192,259369,1,0,0:0:0:0:
320,192,259448,1,0,0:0:0:0:
448,192,259527,1,0,0:0:0:0:
64,192,259684,1,0,0:0:0:0:
320,192,259684,1,0,0:0:0:0:
448,192,259763,1,0,0:0:0:0:
320,192,259842,1,0,0:0:0:0:
64,192,260000,1,0,0:0:0:0:
192,192,260000,1,0,0:0:0:0:
320,192,260079,1,0,0:0:0:0:
192,192,260158,1,0,0:0:0:0:
320,192,260316,1,0,0:0:0:0:
448,192,260316,1,0,0:0:0:0:
192,192,260395,1,0,0:0:0:0:
64,192,260474,1,0,0:0:0:0:
192,192,260632,1,0,0:0:0:0:
448,192,260632,1,0,0:0:0:0:
320,192,260711,1,0,0:0:0:0:
192,192,260790,1,0,0:0:0:0:
64,192,260948,1,0,0:0:0:0:
448,192,260948,1,0,0:0:0:0:
320,192,261027,1,0,0:0:0:0:
192,192,261106,1,0,0:0:0:0:
320,192,261263,1,0,0:0:0:0:
448,192,261263,1,0,0:0:0:0:
192,192,261342,1,0,0:0:0:0:
64,192,261421,1,0,0:0:0:0:
192,192,261579,1,0,0:0:0:0:
320,192,261579,1,0,0:0:0:0:
64,192,261658,1,0,0:0:0:0:
192,192,261737,1,0,0:0:0:0:
320,192,261895,1,0,0:0:0:0:
448,192,261895,1,0,0:0:0:0:
64,192,261974,1,0,0:0:0:0:
192,192,262053,1,0,0:0:0:0:
64,192,262211,1,0,0:0:0:0:
448,192,262211,1,0,0:0:0:0:
192,192,262290,1,0,0:0:0:0:
320,192,262369,1,0,0:0:0:0:
64,192,262527,1,0,0:0:0:0:
192,192,262527,1,0,0:0:0:0:
320,192,262684,1,0,0:0:0:0:
448,192,262684,1,0,0:0:0:0:
64,192,262842,1,0,0:0:0:0:
192,192,262842,1,0,0:0:0:0:
448,192,262842,1,0,0:0:0:0:
320,192,262921,1,0,0:0:0:0:
64,192,263000,1,0,0:0:0:0:
192,192,263079,1,0,0:0:0:0:
320,192,263158,1,0,0:0:0:0:
448,192,263158,1,0,0:0:0:0:
64,192,263237,1,0,0:0:0:0:
448,192,263316,1,0,0:0:0:0:
320,192,263395,1,0,0:0:0:0:
64,192,263474,1,0,0:0:0:0:
192,192,263474,1,0,0:0:0:0:
320,192,263632,1,0,0:0:0:0:
64,192,263790,1,0,0:0:0:0:
448,192,263790,1,0,0:0:0:0:
192,192,263948,1,0,0:0:0:0:
320,192,264106,1,0,0:0:0:0:
448,192,264106,1,0,0:0:0:0:
192,192,264184,1,0,0:0:0:0:
64,192,264263,1,0,0:0:0:0:
192,192,264421,1,0,0:0:0:0:
448,192,264421,1,0,0:0:0:0:
320,192,264500,1,0,0:0:0:0:
192,192,264579,1,0,0:0:0:0:
64,192,264737,1,0,0:0:0:0:
448,192,264737,1,0,0:0:0:0:
320,192,264816,1,0,0:0:0:0:
192,192,264895,1,0,0:0:0:0:
320,192,265053,1,0,0:0:0:0:
448,192,265053,1,0,0:0:0:0:
64,192,265132,1,0,0:0:0:0:
192,192,265211,1,0,0:0:0:0:
64,192,265369,1,0,0:0:0:0:
448,192,265369,1,0,0:0:0:0:
320,192,265527,1,0,0:0:0:0:
64,192,265684,1,0,0:0:0:0:
192,192,265684,1,0,0:0:0:0:
448,192,265763,1,0,0:0:0:0:
64,192,265842,1,0,0:0:0:0:
192,192,265921,1,0,0:0:0:0:
320,192,266000,1,0,0:0:0:0:
448,192,266000,1,0,0:0:0:0:
192,192,266158,1,0,0:0:0:0:
64,192,266316,1,0,0:0:0:0:
448,192,266316,1,0,0:0:0:0:
320,192,266474,1,0,0:0:0:0:
64,192,266632,1,0,0:0:0:0:
192,192,266632,1,0,0:0:0:0:
320,192,266711,1,0,0:0:0:0:
448,192,266790,1,0,0:0:0:0:
64,192,266948,1,0,0:0:0:0:
320,192,266948,1,0,0:0:0:0:
192,192,267027,1,0,0:0:0:0:
320,192,267106,1,0,0:0:0:0:
64,192,267263,1,0,0:0:0:0:
448,192,267263,1,0,0:0:0:0:
192,192,267342,1,0,0:0:0:0:
320,192,267421,1,0,0:0:0:0:
192,192,267579,1,0,0:0:0:0:
64,192,267579,1,0,0:0:0:0:
320,192,267737,1,0,0:0:0:0:
448,192,267737,1,0,0:0:0:0:
64,192,267895,1,0,0:0:0:0:
448,192,267895,1,0,0:0:0:0:
192,192,267974,1,0,0:0:0:0:
448,192,268053,1,0,0:0:0:0:
320,192,268132,1,0,0:0:0:0:
192,192,268211,1,0,0:0:0:0:
64,192,268211,1,0,0:0:0:0:
448,192,268290,1,0,0:0:0:0:
320,192,268369,1,0,0:0:0:0:
192,192,268448,1,0,0:0:0:0:
64,192,268527,1,0,0:0:0:0:
448,192,268527,1,0,0:0:0:0:
320,192,268684,1,0,0:0:0:0:
64,192,268842,1,0,0:0:0:0:
192,192,268842,1,0,0:0:0:0:
320,192,269000,1,0,0:0:0:0:
64,192,269158,1,0,0:0:0:0:
448,192,269158,1,0,0:0:0:0:
192,192,269237,1,0,0:0:0:0:
320,192,269316,1,0,0:0:0:0:
64,192,269474,1,0,0:0:0:0:
192,192,269474,1,0,0:0:0:0:
320,192,269553,1,0,0:0:0:0:
448,192,269632,1,0,0:0:0:0:
64,192,269790,1,0,0:0:0:0:
320,192,269790,1,0,0:0:0:0:
192,192,269869,1,0,0:0:0:0:
320,192,269948,1,0,0:0:0:0:
192,192,270106,1,0,0:0:0:0:
64,192,270106,1,0,0:0:0:0:
448,192,270184,1,0,0:0:0:0:
320,192,270263,1,0,0:0:0:0:
64,192,270421,1,0,0:0:0:0:
192,192,270421,1,0,0:0:0:0:
448,192,270421,1,0,0:0:0:0:
320,192,270579,1,0,0:0:0:0:
320,192,270737,1,0,0:0:0:0:
448,192,270737,1,0,0:0:0:0:
64,192,270737,1,0,0:0:0:0:
192,192,270895,1,0,0:0:0:0:
64,192,271053,1,0,0:0:0:0:
192,192,271053,1,0,0:0:0:0:
448,192,271053,1,0,0:0:0:0:
320,192,271211,1,0,0:0:0:0:
320,192,271369,1,0,0:0:0:0:
448,192,271369,1,0,0:0:0:0:
192,192,271369,1,0,0:0:0:0:
64,192,271527,1,0,0:0:0:0:
192,192,271606,1,0,0:0:0:0:
320,192,271684,1,0,0:0:0:0:
448,192,271684,1,0,0:0:0:0:
448,192,271842,1,0,0:0:0:0:
320,192,271921,1,0,0:0:0:0:
64,192,272000,1,0,0:0:0:0:
192,192,272000,1,0,0:0:0:0:
64,192,272158,1,0,0:0:0:0:
192,192,272237,1,0,0:0:0:0:
448,192,272316,1,0,0:0:0:0:
320,192,272395,1,0,0:0:0:0:
64,192,272474,1,0,0:0:0:0:
192,192,272474,1,0,0:0:0:0:
320,192,272632,1,0,0:0:0:0:
448,192,272632,1,0,0:0:0:0:
64,192,272948,1,0,0:0:0:0:
192,192,272948,1,0,0:0:0:0:
448,192,272948,1,0,0:0:0:0:
320,192,273027,1,0,0:0:0:0:
64,192,273106,1,0,0:0:0:0:
192,192,273184,1,0,0:0:0:0:
320,192,273263,1,0,0:0:0:0:
448,192,273263,1,0,0:0:0:0:
192,192,273421,1,0,0:0:0:0:
64,192,273579,1,0,0:0:0:0:
448,192,273579,1,0,0:0:0:0:
192,192,273658,1,0,0:0:0:0:
448,192,273737,1,0,0:0:0:0:
320,192,273816,1,0,0:0:0:0:
64,192,273895,1,0,0:0:0:0:
192,192,273895,1,0,0:0:0:0:
320,192,274053,1,0,0:0:0:0:
64,192,274211,1,0,0:0:0:0:
448,192,274211,1,0,0:0:0:0:
192,192,274290,1,0,0:0:0:0:
320,192,274369,1,0,0:0:0:0:
64,192,274527,1,0,0:0:0:0:
192,192,274527,1,0,0:0:0:0:
320,192,274606,1,0,0:0:0:0:
448,192,274684,1,0,0:0:0:0:
64,192,274842,1,0,0:0:0:0:
192,192,274842,1,0,0:0:0:0:
448,192,274921,1,0,0:0:0:0:
320,192,275000,1,0,0:0:0:0:
64,192,275158,1,0,0:0:0:0:
448,192,275158,1,0,0:0:0:0:
192,192,275316,1,0,0:0:0:0:
320,192,275474,1,0,0:0:0:0:
448,192,275474,1,0,0:0:0:0:
192,192,275553,1,0,0:0:0:0:
448,192,275632,1,0,0:0:0:0:
320,192,275711,1,0,0:0:0:0:
64,192,275790,1,0,0:0:0:0:
192,192,275790,1,0,0:0:0:0:
320,192,275948,1,0,0:0:0:0:
448,192,276106,1,0,0:0:0:0:
64,192,276106,1,0,0:0:0:0:
192,192,276184,1,0,0:0:0:0:
448,192,276263,1,0,0:0:0:0:
320,192,276342,1,0,0:0:0:0:
64,192,276421,1,0,0:0:0:0:
192,192,276421,1,0,0:0:0:0:
320,192,276579,1,0,0:0:0:0:
64,192,276737,1,0,0:0:0:0:
448,192,276737,1,0,0:0:0:0:
192,192,276816,1,0,0:0:0:0:
320,192,276895,1,0,0:0:0:0:
64,192,277053,1,0,0:0:0:0:
448,192,277053,1,0,0:0:0:0:
320,192,277132,1,0,0:0:0:0:
192,192,277211,1,0,0:0:0:0:
64,192,277369,1,0,0:0:0:0:
448,192,277369,1,0,0:0:0:0:
192,192,277448,1,0,0:0:0:0:
320,192,277527,1,0,0:0:0:0:
64,192,277684,1,0,0:0:0:0:
448,192,277684,1,0,0:0:0:0:
320,192,277763,1,0,0:0:0:0:
192,192,277842,1,0,0:0:0:0:
448,192,278000,1,0,0:0:0:0:
64,192,278000,1,0,0:0:0:0:
320,192,278079,1,0,0:0:0:0:
64,192,278158,1,0,0:0:0:0:
192,192,278237,1,0,0:0:0:0:
320,192,278316,1,0,0:0:0:0:
448,192,278316,1,0,0:0:0:0:
192,192,278474,1,0,0:0:0:0:
64,192,278632,1,0,0:0:0:0:
448,192,278632,1,0,0:0:0:0:
320,192,278711,1,0,0:0:0:0:
64,192,278790,1,0,0:0:0:0:
192,192,278869,1,0,0:0:0:0:
320,192,278948,1,0,0:0:0:0:
448,192,278948,1,0,0:0:0:0:
192,192,279106,1,0,0:0:0:0:
64,192,279263,1,0,0:0:0:0:
448,192,279263,1,0,0:0:0:0:
320,192,279342,1,0,0:0:0:0:
192,192,279421,1,0,0:0:0:0:
320,192,279579,1,0,0:0:0:0:
448,192,279579,1,0,0:0:0:0:
192,192,279658,1,0,0:0:0:0:
64,192,279737,1,0,0:0:0:0:
192,192,279895,1,0,0:0:0:0:
448,192,279895,1,0,0:0:0:0:
320,192,279974,1,0,0:0:0:0:
192,192,280053,1,0,0:0:0:0:
320,192,280211,1,0,0:0:0:0:
448,192,280211,1,0,0:0:0:0:
192,192,280290,1,0,0:0:0:0:
64,192,280369,1,0,0:0:0:0:
192,192,280527,1,0,0:0:0:0:
448,192,280527,1,0,0:0:0:0:
320,192,280527,1,0,0:0:0:0:
64,192,280684,1,0,0:0:0:0:
64,192,280842,1,0,0:0:0:0:
192,192,280842,1,0,0:0:0:0:
448,192,280842,1,0,0:0:0:0:
320,192,281000,1,0,0:0:0:0:
320,192,281158,1,0,0:0:0:0:
448,192,281158,1,0,0:0:0:0:
64,192,281158,1,0,0:0:0:0:
192,192,281316,1,0,0:0:0:0:
64,192,281474,1,0,0:0:0:0:
192,192,281474,1,0,0:0:0:0:
448,192,281474,1,0,0:0:0:0:
320,192,281790,1,0,0:0:0:0:
448,192,281790,1,0,0:0:0:0:
64,192,282000,1,0,0:0:0:0:
192,192,282000,1,0,0:0:0:0:
320,192,282263,1,0,0:0:0:0:
448,192,282263,1,0,0:0:0:0:
64,192,282474,1,0,0:0:0:0:
192,192,282474,1,0,0:0:0:0:
320,192,282684,1,0,0:0:0:0:
448,192,282684,1,0,0:0:0:0:
192,192,283053,1,0,0:0:0:0:
64,192,283053,128,0,291895:0:0:0:0:
448,192,283053,1,0,0:0:0:0:
320,192,283211,1,0,0:0:0:0:
320,192,283369,1,0,0:0:0:0:
448,192,283369,1,0,0:0:0:0:
192,192,283527,1,0,0:0:0:0:
192,192,283684,1,0,0:0:0:0:
448,192,283684,1,0,0:0:0:0:
320,192,283842,1,0,0:0:0:0:
320,192,284000,1,0,0:0:0:0:
448,192,284000,1,0,0:0:0:0:
192,192,284158,1,0,0:0:0:0:
192,192,284316,1,0,0:0:0:0:
448,192,284316,1,0,0:0:0:0:
320,192,284395,1,0,0:0:0:0:
448,192,284474,1,0,0:0:0:0:
192,192,284632,1,0,0:0:0:0:
320,192,284632,1,0,0:0:0:0:
448,192,284711,1,0,0:0:0:0:
320,192,284790,1,0,0:0:0:0:
192,192,284948,1,0,0:0:0:0:
448,192,284948,1,0,0:0:0:0:
320,192,285027,1,0,0:0:0:0:
192,192,285106,1,0,0:0:0:0:
320,192,285263,1,0,0:0:0:0:
448,192,285263,1,0,0:0:0:0:
192,192,285342,1,0,0:0:0:0:
320,192,285421,1,0,0:0:0:0:
192,192,285579,1,0,0:0:0:0:
448,192,285579,1,0,0:0:0:0:
320,192,285737,1,0,0:0:0:0:
320,192,285895,1,0,0:0:0:0:
448,192,285895,1,0,0:0:0:0:
192,192,286053,1,0,0:0:0:0:
192,192,286211,1,0,0:0:0:0:
448,192,286211,1,0,0:0:0:0:
320,192,286369,1,0,0:0:0:0:
320,192,286527,1,0,0:0:0:0:
448,192,286527,1,0,0:0:0:0:
192,192,286684,1,0,0:0:0:0:
192,192,286842,1,0,0:0:0:0:
448,192,286842,1,0,0:0:0:0:
320,192,286921,1,0,0:0:0:0:
448,192,287000,1,0,0:0:0:0:
192,192,287158,1,0,0:0:0:0:
320,192,287158,1,0,0:0:0:0:
448,192,287237,1,0,0:0:0:0:
320,192,287316,1,0,0:0:0:0:
192,192,287474,1,0,0:0:0:0:
448,192,287474,1,0,0:0:0:0:
320,192,287553,1,0,0:0:0:0:
448,192,287632,1,0,0:0:0:0:
320,192,287790,1,0,0:0:0:0:
192,192,287790,1,0,0:0:0:0:
192,192,287948,1,0,0:0:0:0:
320,192,288106,1,0,0:0:0:0:
448,192,288106,1,0,0:0:0:0:
320,192,288263,1,0,0:0:0:0:
192,192,288421,1,0,0:0:0:0:
448,192,288421,1,0,0:0:0:0:
448,192,288579,1,0,0:0:0:0:
192,192,288737,1,0,0:0:0:0:
320,192,288737,1,0,0:0:0:0:
192,192,288895,1,0,0:0:0:0:
320,192,289053,1,0,0:0:0:0:
448,192,289053,1,0,0:0:0:0:
192,192,289211,1,0,0:0:0:0:
192,192,289369,1,0,0:0:0:0:
448,192,289369,1,0,0:0:0:0:
320,192,289448,1,0,0:0:0:0:
192,192,289527,1,0,0:0:0:0:
448,192,289684,1,0,0:0:0:0:
320,192,289684,1,0,0:0:0:0:
192,192,289763,1,0,0:0:0:0:
320,192,289842,1,0,0:0:0:0:
192,192,290000,1,0,0:0:0:0:
448,192,290000,1,0,0:0:0:0:
320,192,290079,1,0,0:0:0:0:
448,192,290158,1,0,0:0:0:0:
192,192,290316,1,0,0:0:0:0:
320,192,290316,1,0,0:0:0:0:
448,192,290395,1,0,0:0:0:0:
320,192,290474,1,0,0:0:0:0:
192,192,290632,1,0,0:0:0:0:
448,192,290632,1,0,0:0:0:0:
320,192,290711,1,0,0:0:0:0:
192,192,290790,1,0,0:0:0:0:
320,192,290948,1,0,0:0:0:0:
448,192,290948,1,0,0:0:0:0:
192,192,291027,1,0,0:0:0:0:
320,192,291106,1,0,0:0:0:0:
448,192,291263,1,0,0:0:0:0:
192,192,291263,1,0,0:0:0:0:
320,192,291342,1,0,0:0:0:0:
448,192,291421,1,0,0:0:0:0:
320,192,291579,1,0,0:0:0:0:
192,192,291579,1,0,0:0:0:0:
448,192,291658,1,0,0:0:0:0:
320,192,291737,1,0,0:0:0:0:
448,192,291895,1,0,0:0:0:0:
320,192,291974,1,0,0:0:0:0:
64,192,292053,1,0,0:0:0:0:
192,192,292053,1,0,0:0:0:0:
320,192,292211,1,0,0:0:0:0:
448,192,292211,1,0,0:0:0:0:
192,192,292290,1,0,0:0:0:0:
64,192,292369,1,0,0:0:0:0:
448,192,292369,1,0,0:0:0:0:
192,192,292448,1,0,0:0:0:0:
320,192,292448,1,0,0:0:0:0:
448,192,292527,1,0,0:0:0:0:
64,192,292527,1,0,0:0:0:0:
320,192,292684,1,0,0:0:0:0:
64,192,292842,1,0,0:0:0:0:
192,192,292842,1,0,0:0:0:0:
448,192,293158,128,0,302000:0:0:0:0:
320,192,293158,128,0,300737:0:0:0:0:
192,192,293158,128,0,299474:0:0:0:0:
