osu file format v14

[General]
AudioFilename: audio.mp3
AudioLeadIn: 0
PreviewTime: 98309
Countdown: 0
SampleSet: Soft
StackLeniency: 0.7
Mode: 3
LetterboxInBreaks: 0
SpecialStyle: 0
WidescreenStoryboard: 1

[Editor]
Bookmarks: 19848,39848,138002
DistanceSpacing: 0.95
BeatDivisor: 2
GridSize: 32
TimelineZoom: 1.8

[Metadata]
Title:walking to school trippin
TitleUnicode:walking to school trippin
Artist:BilliumMoto
ArtistUnicode:BilliumMoto
Creator:Lenfried-
Version:standard
Source:osu!
Tags:famoss peter featured artist fa mappers' guild
BeatmapID:2145595
BeatmapSetID:989246

[Difficulty]
HPDrainRate:7
CircleSize:7
OverallDifficulty:7
ApproachRate:5
SliderMultiplier:1.4
SliderTickRate:1

[Events]
//Background and Video events
0,0,"color-painting-art-illustration-mural-modern-art-1406699-pxherecom.jpg",0,0
//Break Periods
//Storyboard Layer 0 (Background)
//Storyboard Layer 1 (Fail)
//Storyboard Layer 2 (Pass)
//Storyboard Layer 3 (Foreground)
//Storyboard Layer 4 (Overlay)
//Storyboard Sound Samples
Sample,29386,0,"clap.wav",50
Sample,49079,0,"clap.wav",70
Sample,82309,0,"LR_Snare Soft Fast.wav",40
Sample,82617,0,"LR_Snare Soft Fast.wav",40
Sample,86309,0,"LR_Snare Soft Fast.wav",40
Sample,87232,0,"LR_Snare Soft Fast.wav",40
Sample,87540,0,"LR_Snare Soft Fast.wav",40
Sample,87848,0,"LR_Snare Soft Fast.wav",40
Sample,90002,0,"LR_Snare Drum 2.wav",70
Sample,90309,0,"LR_Snare Soft Fast.wav",40
Sample,92156,0,"LR_Snare Soft Fast.wav",40
Sample,92463,0,"LR_Snare Soft Fast.wav",40
Sample,92463,0,"LR_Snare Drum 2.wav",70
Sample,92771,0,"LR_Snare Soft Fast.wav",40
Sample,93232,0,"LR_Snare Soft Fast.wav",40
Sample,94925,0,"LR_Snare Drum 2.wav",70
Sample,95232,0,"LR_Snare Soft Fast.wav",40
Sample,147540,0,"clap.wav",50
Sample,167232,0,"clap.wav",70

[TimingPoints]
156,307.692307692308,4,2,1,70,1,0

[HitObjects]
109,192,156,5,0,0:0:0:0:
402,192,463,1,0,0:0:0:0:
182,192,771,1,0,0:0:0:0:
329,192,925,1,0,0:0:0:0:
109,192,1079,1,0,0:0:0:0:
256,192,1232,128,0,1694:0:0:0:0:
402,192,1848,1,0,0:0:0:0:
329,192,2156,1,0,0:0:0:0:
256,192,2309,1,0,0:0:0:0:
182,192,2463,1,0,0:0:0:0:
109,192,2617,1,0,0:0:0:0:
402,192,2925,1,0,0:0:0:0:
109,192,3232,1,0,0:0:0:0:
329,192,3540,1,0,0:0:0:0:
182,192,3694,128,0,4156:0:0:0:0:
182,192,4463,1,0,0:0:0:0:
329,192,4771,1,0,0:0:0:0:
109,192,5079,1,0,0:0:0:0:
402,192,5386,1,0,0:0:0:0:
182,192,5694,1,0,0:0:0:0:
329,192,5848,1,0,0:0:0:0:
109,192,6002,1,0,0:0:0:0:
256,192,6156,128,0,6617:0:0:0:0:
402,192,6771,1,0,0:0:0:0:
329,192,7079,1,0,0:0:0:0:
256,192,7232,1,0,0:0:0:0:
182,192,7386,1,0,0:0:0:0:
109,192,7540,1,0,0:0:0:0:
402,192,7848,1,0,0:0:0:0:
109,192,8156,1,0,0:0:0:0:
329,192,8463,1,0,0:0:0:0:
182,192,8617,128,0,9079:0:0:0:0:
36,192,10002,1,2,0:0:0:0:
182,192,10002,1,0,0:0:0:0:
182,192,10309,1,0,0:0:0:0:
329,192,10617,1,2,0:0:0:0:
475,192,10617,1,0,0:0:0:0:
36,192,10925,1,2,0:0:0:0:
182,192,10925,1,0,0:0:0:0:
256,192,11232,1,0,0:0:0:0:
36,192,11540,1,2,0:0:0:0:
182,192,11540,1,0,0:0:0:0:
402,192,11848,1,0,0:0:0:0:
36,192,12002,1,2,0:0:0:0:
182,192,12002,1,0,0:0:0:0:
182,192,12309,1,0,0:0:0:0:
329,192,12463,1,2,0:0:0:0:
475,192,12463,1,0,0:0:0:0:
256,192,12771,1,0,0:0:0:0:
36,192,13079,1,2,0:0:0:0:
182,192,13079,1,0,0:0:0:0:
36,192,13386,1,2,0:0:0:0:
182,192,13386,1,0,0:0:0:0:
329,192,13694,1,0,0:0:0:0:
329,192,14002,1,2,0:0:0:0:
475,192,14002,1,0,0:0:0:0:
182,192,14309,1,0,0:0:0:0:
329,192,14617,1,0,0:0:0:0:
109,192,14771,1,0,0:0:0:0:
329,192,14925,1,2,0:0:0:0:
475,192,14925,1,0,0:0:0:0:
256,192,15232,1,0,0:0:0:0:
36,192,15540,1,2,0:0:0:0:
182,192,15540,1,0,0:0:0:0:
329,192,15848,1,2,0:0:0:0:
475,192,15848,1,0,0:0:0:0:
256,192,16156,1,0,0:0:0:0:
329,192,16463,1,2,0:0:0:0:
475,192,16463,1,0,0:0:0:0:
109,192,16771,1,0,0:0:0:0:
329,192,16925,1,2,0:0:0:0:
475,192,16925,1,0,0:0:0:0:
329,192,17232,1,0,0:0:0:0:
36,192,17386,1,2,0:0:0:0:
182,192,17386,1,0,0:0:0:0:
256,192,17694,1,0,0:0:0:0:
329,192,18002,1,2,0:0:0:0:
475,192,18002,1,0,0:0:0:0:
329,192,18309,1,2,0:0:0:0:
475,192,18309,1,0,0:0:0:0:
182,192,18463,128,0,18771:0:0:0:0:
256,192,18771,1,0,0:0:0:0:
36,192,18925,1,0,0:0:0:0:
329,192,19079,1,0,0:0:0:0:
109,192,19232,1,0,0:0:0:0:
402,192,19386,1,0,0:0:0:0:
182,192,19540,1,0,0:0:0:0:
475,192,19694,1,0,0:0:0:0:
256,192,19848,128,0,20156:0:0:0:0:
182,192,20156,128,2,20463:0:0:0:0:
475,192,20156,1,0,0:0:0:0:
329,192,20463,128,8,20771:0:0:0:0:
36,192,20771,1,2,0:0:0:0:
182,192,20771,128,0,20925:0:0:0:0:
475,192,20925,128,0,21386:0:0:0:0:
36,192,21540,128,0,21694:0:0:0:0:
329,192,21848,1,0,0:0:0:0:
36,192,22002,1,2,0:0:0:0:
182,192,22002,1,0,0:0:0:0:
329,192,22156,1,0,0:0:0:0:
36,192,22309,1,2,0:0:0:0:
182,192,22309,128,0,22617:0:0:0:0:
109,192,22617,128,2,22925:0:0:0:0:
329,192,22617,1,0,0:0:0:0:
402,192,22925,128,8,23232:0:0:0:0:
36,192,23232,1,2,0:0:0:0:
329,192,23232,128,0,23386:0:0:0:0:
182,192,23386,128,0,23848:0:0:0:0:
402,192,23848,1,2,0:0:0:0:
256,192,24002,1,2,0:0:0:0:
109,192,24156,128,8,24463:0:0:0:0:
402,192,24463,128,0,24771:0:0:0:0:
36,192,24771,128,2,25079:0:0:0:0:
329,192,24771,1,0,0:0:0:0:
182,192,25079,128,2,25386:0:0:0:0:
402,192,25079,1,0,0:0:0:0:
329,192,25386,128,8,25694:0:0:0:0:
109,192,25694,1,2,0:0:0:0:
329,192,25848,128,0,26309:0:0:0:0:
36,192,26463,128,0,26617:0:0:0:0:
402,192,26771,1,0,0:0:0:0:
182,192,26925,1,0,0:0:0:0:
329,192,27079,1,0,0:0:0:0:
109,192,27232,128,2,27540:0:0:0:0:
475,192,27232,1,0,0:0:0:0:
36,192,27540,1,2,0:0:0:0:
256,192,27540,128,0,27848:0:0:0:0:
402,192,27848,128,8,28156:0:0:0:0:
36,192,28156,1,2,0:0:0:0:
182,192,28156,128,0,28309:0:0:0:0:
329,192,28309,128,0,28771:0:0:0:50:clap.wav
36,192,28771,1,2,0:0:0:0:
182,192,28771,1,0,0:0:0:0:
329,192,29079,1,10,0:0:0:0:
475,192,29079,1,0,0:0:0:50:clap.wav
109,192,29232,1,0,0:0:0:50:clap2.wav
256,192,29386,1,2,0:0:0:0:
109,192,29540,1,0,0:0:0:50:clap2.wav
329,192,29694,1,6,0:0:0:0:
329,192,29848,1,0,0:0:0:0:
36,192,30002,1,2,0:0:0:0:
182,192,30002,128,0,30309:0:0:0:0:
329,192,30309,128,8,30617:0:0:0:0:
36,192,30617,1,2,0:0:0:0:
182,192,30617,128,0,30771:0:0:0:0:
475,192,30771,128,0,31232:0:0:0:0:
109,192,30925,1,0,0:0:0:0:
256,192,31232,1,0,0:0:0:0:
36,192,31386,128,0,31540:0:0:0:0:
329,192,31694,1,0,0:0:0:0:
36,192,31848,1,2,0:0:0:0:
182,192,31848,1,0,0:0:0:0:
329,192,32002,1,0,0:0:0:0:
36,192,32156,1,2,0:0:0:0:
182,192,32156,128,0,32463:0:0:0:0:
109,192,32463,128,2,32771:0:0:0:0:
329,192,32463,1,0,0:0:0:0:
402,192,32771,128,8,33079:0:0:0:0:
36,192,33079,1,2,0:0:0:0:
329,192,33079,128,0,33232:0:0:0:0:
182,192,33232,128,0,33694:0:0:0:0:
402,192,33694,1,2,0:0:0:0:
256,192,33848,1,2,0:0:0:0:
109,192,34002,128,8,34309:0:0:0:0:
402,192,34309,128,0,34617:0:0:0:0:
329,192,34617,1,2,0:0:0:0:
329,192,34771,1,0,0:0:0:0:
36,192,34925,1,2,0:0:0:0:
182,192,34925,128,0,35232:0:0:0:0:
329,192,35232,128,8,35540:0:0:0:0:
109,192,35540,1,2,0:0:0:0:
329,192,35694,128,0,36156:0:0:0:0:
36,192,36309,128,0,36463:0:0:0:0:
402,192,36617,1,0,0:0:0:0:
182,192,36771,1,0,0:0:0:0:
329,192,36925,1,0,0:0:0:0:
475,192,37079,1,2,0:0:0:0:
109,192,37079,1,0,0:0:0:0:
109,192,37232,1,0,0:0:0:0:
475,192,37386,1,2,0:0:0:0:
256,192,37386,128,0,37694:0:0:0:0:
402,192,37694,128,8,38002:0:0:0:0:
36,192,38002,1,2,0:0:0:0:
182,192,38002,128,0,38156:0:0:0:0:
329,192,38156,128,0,38463:0:0:0:70:clap.wav
256,192,38463,1,0,0:0:0:0:
36,192,38617,1,0,0:0:0:0:
329,192,38771,1,0,0:0:0:0:
109,192,38925,1,0,0:0:0:0:
402,192,39079,1,0,0:0:0:0:
182,192,39232,1,0,0:0:0:0:
475,192,39386,1,0,0:0:0:0:
256,192,39540,1,0,0:0:0:0:
36,192,39694,1,0,0:0:0:0:
402,192,39848,1,2,0:0:0:0:
256,192,40002,128,0,40156:0:0:0:0:
36,192,40156,1,8,0:0:0:0:
329,192,40156,128,0,40309:0:0:0:0:
402,192,40309,128,0,40463:0:0:0:0:
36,192,40463,1,2,0:0:0:0:
182,192,40617,128,0,41079:0:0:0:0:
182,192,41232,128,0,41386:0:0:0:0:
475,192,41386,1,8,0:0:0:0:
256,192,41540,128,0,41694:0:0:0:0:
329,192,41694,1,2,0:0:0:0:
329,192,41848,1,0,0:0:0:0:
36,192,42002,1,2,0:0:0:0:
109,192,42002,1,0,0:0:0:0:
182,192,42309,128,2,42463:0:0:0:0:
475,192,42309,1,0,0:0:0:0:
329,192,42463,128,0,42617:0:0:0:0:
109,192,42617,128,8,42771:0:0:0:0:
402,192,42617,1,0,0:0:0:0:
256,192,42771,128,0,42925:0:0:0:0:
36,192,42925,1,2,0:0:0:0:
182,192,43079,128,0,43540:0:0:0:0:
329,192,43540,1,2,0:0:0:0:
256,192,43694,1,2,0:0:0:0:
36,192,43848,1,8,0:0:0:0:
182,192,43848,1,0,0:0:0:0:
475,192,43848,1,0,0:0:0:0:
109,192,44463,1,2,0:0:0:0:
329,192,44463,1,0,0:0:0:0:
329,192,44617,1,0,0:0:0:0:
182,192,44771,1,2,0:0:0:0:
256,192,44925,128,0,45079:0:0:0:0:
36,192,45079,1,8,0:0:0:0:
329,192,45079,128,0,45232:0:0:0:0:
402,192,45232,128,0,45386:0:0:0:0:
109,192,45386,1,2,0:0:0:0:
182,192,45540,128,0,46002:0:0:0:0:
36,192,46156,128,0,46309:0:0:0:0:
402,192,46309,1,8,0:0:0:0:
256,192,46463,128,0,46617:0:0:0:0:
475,192,46771,128,0,46925:0:0:0:0:
182,192,46925,1,2,0:0:0:0:
182,192,47079,1,0,0:0:0:0:
402,192,47079,128,0,47232:0:0:0:0:
329,192,47232,1,2,0:0:0:0:
182,192,47386,128,0,47540:0:0:0:0:
36,192,47540,1,8,0:0:0:0:
256,192,47694,128,0,47848:0:0:0:0:
402,192,47848,1,2,0:0:0:0:
109,192,48002,128,0,48463:0:0:0:0:
329,192,48463,1,2,0:0:0:0:
329,192,48617,1,0,0:0:0:0:
36,192,48771,1,10,0:0:0:0:
182,192,48771,1,0,0:0:0:70:clap.wav
402,192,48925,1,0,0:0:0:70:clap2.wav
256,192,49079,1,2,0:0:0:0:
402,192,49232,1,0,0:0:0:70:clap2.wav
182,192,49386,1,2,0:0:0:0:
329,192,49386,1,0,0:0:0:0:
182,192,49540,1,0,0:0:0:0:
402,192,49694,1,2,0:0:0:0:
256,192,49848,128,0,50002:0:0:0:0:
36,192,50002,1,8,0:0:0:0:
329,192,50002,128,0,50156:0:0:0:0:
402,192,50156,128,0,50309:0:0:0:0:
36,192,50309,1,2,0:0:0:0:
182,192,50463,128,0,50925:0:0:0:0:
402,192,50617,1,0,0:0:0:0:
329,192,50925,1,0,0:0:0:0:
182,192,51079,128,0,51232:0:0:0:0:
475,192,51232,1,8,0:0:0:0:
256,192,51386,128,0,51540:0:0:0:0:
182,192,51540,1,2,0:0:0:0:
182,192,51694,1,0,0:0:0:0:
402,192,51848,1,2,0:0:0:0:
475,192,51848,1,0,0:0:0:0:
182,192,52156,128,2,52309:0:0:0:0:
475,192,52156,1,0,0:0:0:0:
329,192,52309,128,0,52463:0:0:0:0:
109,192,52463,128,8,52617:0:0:0:0:
402,192,52463,1,0,0:0:0:0:
256,192,52617,128,0,52771:0:0:0:0:
36,192,52771,1,2,0:0:0:0:
182,192,52925,128,0,53386:0:0:0:0:
402,192,53079,1,0,0:0:0:0:
329,192,53386,1,2,0:0:0:0:
256,192,53540,1,2,0:0:0:0:
36,192,53694,1,8,0:0:0:0:
182,192,53694,1,0,0:0:0:0:
475,192,53694,1,0,0:0:0:0:
109,192,54309,1,2,0:0:0:0:
329,192,54309,1,0,0:0:0:0:
329,192,54463,1,0,0:0:0:0:
182,192,54617,1,2,0:0:0:0:
256,192,54771,128,0,54925:0:0:0:0:
36,192,54925,1,8,0:0:0:0:
329,192,54925,128,0,55079:0:0:0:0:
402,192,55079,128,0,55232:0:0:0:0:
109,192,55232,1,2,0:0:0:0:
182,192,55386,128,0,55848:0:0:0:0:
402,192,55540,1,0,0:0:0:0:
329,192,55848,1,0,0:0:0:0:
36,192,56002,128,0,56156:0:0:0:0:
402,192,56156,1,8,0:0:0:0:
256,192,56309,128,0,56463:0:0:0:0:
109,192,56463,1,0,0:0:0:0:
475,192,56617,128,0,56771:0:0:0:0:
182,192,56771,1,2,0:0:0:0:
182,192,56925,1,0,0:0:0:0:
402,192,56925,128,0,57079:0:0:0:0:
329,192,57079,1,2,0:0:0:0:
182,192,57232,128,0,57386:0:0:0:0:
36,192,57386,1,8,0:0:0:0:
256,192,57540,128,0,57694:0:0:0:0:
402,192,57694,1,2,0:0:0:0:
109,192,57848,128,0,58156:0:0:0:0:
256,192,58156,1,0,0:0:0:0:
36,192,58309,1,0,0:0:0:0:
329,192,58463,1,0,0:0:0:0:
109,192,58617,1,0,0:0:0:0:
402,192,58771,1,0,0:0:0:0:
182,192,58925,1,0,0:0:0:0:
475,192,59079,1,0,0:0:0:0:
256,192,59232,1,6,0:0:0:0:
36,192,59386,1,0,0:0:0:0:
182,192,59540,1,0,0:0:0:0:
329,192,59848,1,0,0:0:0:0:
475,192,60156,1,0,0:0:0:0:
402,192,60309,1,0,0:0:0:0:
109,192,60463,1,0,0:0:0:0:
329,192,60617,1,0,0:0:0:0:
109,192,60925,1,0,0:0:0:0:
182,192,61232,1,0,0:0:0:0:
329,192,61386,1,0,0:0:0:0:
329,192,61540,1,0,0:0:0:0:
36,192,61694,1,0,0:0:0:0:
182,192,61694,1,0,0:0:0:0:
182,192,62002,1,0,0:0:0:0:
329,192,62002,128,0,62156:0:0:0:0:
329,192,62309,128,0,62463:0:0:0:0:
182,192,62617,1,0,0:0:0:0:
329,192,62617,128,0,62771:0:0:0:0:
329,192,62925,128,0,63079:0:0:0:0:
36,192,63232,1,0,0:0:0:0:
329,192,63232,128,0,63386:0:0:0:0:
182,192,63540,1,0,0:0:0:70:LR_Snare Drum 3.wav
329,192,63540,128,0,63694:0:0:0:0:
36,192,63848,1,0,0:0:0:70:LR_Snare Drum 3.wav
329,192,63848,128,0,64156:0:0:0:0:
182,192,64156,1,0,0:0:0:0:
182,192,64309,1,0,0:0:0:0:
402,192,64463,1,0,0:0:0:0:
329,192,64771,1,0,0:0:0:0:
182,192,65079,1,0,0:0:0:0:
402,192,65232,1,0,0:0:0:0:
109,192,65386,1,0,0:0:0:0:
329,192,65540,1,0,0:0:0:0:
256,192,65848,1,0,0:0:0:0:
329,192,66156,1,0,0:0:0:0:
36,192,66463,1,0,0:0:0:0:
182,192,66617,1,0,0:0:0:0:
182,192,66771,1,0,0:0:0:0:
109,192,66925,1,0,0:0:0:0:
329,192,66925,128,0,67079:0:0:0:0:
329,192,67232,128,0,67386:0:0:0:0:
109,192,67540,1,0,0:0:0:0:
329,192,67540,128,0,67694:0:0:0:0:
36,192,67848,128,0,68156:0:0:0:0:
329,192,67848,128,0,68002:0:0:0:0:
329,192,68156,128,2,68309:0:0:0:0:
475,192,68156,1,0,0:0:0:0:
36,192,68463,1,2,0:0:0:0:
182,192,68463,1,0,0:0:0:0:
256,192,68463,1,0,0:0:0:0:
182,192,68771,128,0,68925:0:0:0:0:
256,192,68925,128,0,69079:0:0:0:0:
109,192,69079,1,2,0:0:0:0:
329,192,69079,128,0,69232:0:0:0:0:
475,192,69232,128,0,69694:0:0:0:0:
182,192,69540,1,0,0:0:0:70:LR_Snare Drum 2.wav
329,192,69694,128,0,69848:0:0:0:0:
475,192,69848,128,0,70309:0:0:0:0:
256,192,70002,1,2,0:0:0:0:
36,192,70309,128,0,70617:0:0:0:70:LR_Snare Drum 2.wav
329,192,70309,1,0,0:0:0:0:
182,192,70617,128,0,70771:0:0:0:0:
329,192,70771,128,0,70925:0:0:0:70:LR_Snare Drum 2.wav
475,192,70771,1,0,0:0:0:0:
182,192,70925,128,0,71386:0:0:0:0:
402,192,71232,1,0,0:0:0:70:LR_Snare Drum 2.wav
182,192,71540,128,0,71848:0:0:0:70:LR_Snare Drum 2.wav
475,192,71540,1,0,0:0:0:0:
329,192,71848,128,2,72002:0:0:0:0:
182,192,72002,128,0,72156:0:0:0:70:LR_Snare Drum 2.wav
475,192,72002,1,0,0:0:0:0:
36,192,72156,128,0,72463:0:0:0:0:
329,192,72463,128,2,72617:0:0:0:0:
475,192,72463,1,0,0:0:0:0:
182,192,72617,128,0,72925:0:0:0:0:
475,192,72771,1,0,0:0:0:70:LR_Snare Drum 2.wav
329,192,72925,128,0,73386:0:0:0:0:
36,192,73232,1,0,0:0:0:70:LR_Snare Drum .wav
256,192,73386,1,0,0:0:0:0:
475,192,73386,128,0,74002:0:0:0:0:
182,192,73694,1,0,0:0:0:0:
109,192,74002,1,2,0:0:0:0:
329,192,74002,128,0,74156:0:0:0:0:
475,192,74156,128,0,74617:0:0:0:0:
182,192,74463,1,0,0:0:0:70:LR_Snare Drum 2.wav
329,192,74617,128,0,74771:0:0:0:0:
475,192,74771,128,0,75232:0:0:0:0:
182,192,74925,1,2,0:0:0:0:
36,192,75232,128,0,75540:0:0:0:70:LR_Snare Drum 2.wav
182,192,75232,1,0,0:0:0:0:
182,192,75540,128,0,75694:0:0:0:0:
329,192,75694,128,0,75848:0:0:0:70:LR_Snare Drum 2.wav
475,192,75694,1,0,0:0:0:0:
182,192,75848,128,0,76309:0:0:0:0:
475,192,76156,1,0,0:0:0:70:LR_Snare Drum 2.wav
182,192,76463,128,0,76771:0:0:0:70:LR_Snare Drum 2.wav
402,192,76463,1,0,0:0:0:0:
256,192,76771,128,2,76925:0:0:0:0:
182,192,76925,128,0,77079:0:0:0:70:LR_Snare Drum 2.wav
475,192,76925,1,0,0:0:0:0:
109,192,77079,128,0,77386:0:0:0:0:
329,192,77386,128,2,77694:0:0:0:0:
475,192,77386,1,0,0:0:0:0:
36,192,77694,1,0,0:0:0:70:LR_Snare Drum 2.wav
182,192,77694,128,0,78002:0:0:0:0:
329,192,78002,128,0,78925:0:0:0:0:
182,192,78309,128,0,78925:0:0:0:0:
36,192,78925,1,4,0:0:0:0:
475,192,78925,1,2,0:0:0:0:
36,192,79386,1,0,0:0:0:70:LR_Snare Drum 2.wav
256,192,79386,128,0,79540:0:0:0:40:LR_Snare Soft Fast.wav
329,192,79540,128,0,79694:0:0:0:0:
36,192,79694,1,0,0:0:0:40:LR_Snare Soft Fast.wav
402,192,79694,128,0,79848:0:0:0:0:
182,192,80002,128,0,80463:0:0:0:0:
475,192,80156,1,0,0:0:0:70:LR_Snare Drum 2.wav
36,192,80463,1,0,0:0:0:40:LR_Snare Soft Fast.wav
182,192,80617,128,0,80771:0:0:0:70:LR_Snare Drum 2.wav
475,192,80617,1,0,0:0:0:40:LR_Snare Soft Fast.wav
36,192,80925,1,0,0:0:0:40:LR_Snare Soft Fast.wav
256,192,80925,128,0,81079:0:0:0:0:
475,192,81079,1,0,0:0:0:70:LR_Snare Drum 2.wav
256,192,81232,128,0,81386:0:0:0:0:
36,192,81386,1,0,0:0:0:70:LR_Snare Drum 2.wav
329,192,81386,128,0,81540:0:0:0:40:LR_Snare Soft Fast.wav
182,192,81694,128,2,81848:0:0:0:0:
329,192,81848,128,0,82002:0:0:0:70:LR_Snare Drum 2.wav
475,192,81848,1,0,0:0:0:40:LR_Snare Soft Fast.wav
109,192,82002,128,0,82156:0:0:0:0:
256,192,82156,128,0,82309:0:0:0:40:LR_Snare Soft Fast.wav
475,192,82156,1,0,0:0:0:0:
36,192,82309,1,2,0:0:0:0:
182,192,82463,128,0,82925:0:0:0:0:
36,192,82617,1,0,0:0:0:70:LR_Snare Drum 2.wav
475,192,82848,1,0,0:0:0:40:LR_Snare Soft Fast.wav
329,192,82925,1,0,0:0:0:40:LR_Snare Soft Fast.wav
36,192,83079,1,0,0:0:0:70:LR_Snare Drum .wav
475,192,83386,1,0,0:0:0:40:LR_Snare Soft Fast.wav
36,192,83540,1,0,0:0:0:40:LR_Snare Soft Fast.wav
36,192,83848,1,2,0:0:0:0:
109,192,84309,1,0,0:0:0:70:LR_Snare Drum 2.wav
256,192,84309,128,0,84463:0:0:0:40:LR_Snare Soft Fast.wav
329,192,84463,128,0,84617:0:0:0:0:
109,192,84617,1,0,0:0:0:40:LR_Snare Soft Fast.wav
402,192,84617,128,0,84771:0:0:0:0:
256,192,84771,1,2,0:0:0:0:
182,192,84925,128,0,85386:0:0:0:0:
402,192,85079,1,0,0:0:0:70:LR_Snare Drum 2.wav
109,192,85386,1,0,0:0:0:40:LR_Snare Soft Fast.wav
182,192,85540,128,0,85694:0:0:0:70:LR_Snare Drum 2.wav
402,192,85540,1,0,0:0:0:40:LR_Snare Soft Fast.wav
256,192,85848,128,0,86002:0:0:0:40:LR_Snare Soft Fast.wav
402,192,85848,1,0,0:0:0:0:
329,192,86156,128,0,86309:0:0:0:0:
109,192,86309,1,0,0:0:0:70:LR_Snare Drum 2.wav
402,192,86463,128,0,86617:0:0:0:0:
109,192,86771,1,0,0:0:0:70:LR_Snare Drum 2.wav
329,192,86771,128,0,86925:0:0:0:40:LR_Snare Soft Fast.wav
256,192,87079,128,0,87232:0:0:0:40:LR_Snare Soft Fast.wav
402,192,87079,1,0,0:0:0:0:
109,192,87232,1,2,0:0:0:0:
182,192,87386,128,0,87848:0:0:0:0:
402,192,87540,1,0,0:0:0:70:LR_Snare Drum 2.wav
402,192,87771,1,0,0:0:0:40:LR_Snare Soft Fast.wav
109,192,87848,1,2,0:0:0:0:
182,192,88156,1,2,0:0:0:0:
329,192,88156,1,0,0:0:0:40:LR_Snare Soft Fast.wav
256,192,88463,1,0,0:0:0:0:
36,192,88771,1,2,0:0:0:0:
36,192,89232,1,0,0:0:0:70:LR_Snare Drum 2.wav
256,192,89232,128,0,89386:0:0:0:40:LR_Snare Soft Fast.wav
329,192,89386,128,0,89540:0:0:0:0:
36,192,89540,1,0,0:0:0:70:LR_Kick Normal .wav
402,192,89540,128,0,89694:0:0:0:40:LR_Snare Soft Fast.wav
182,192,89848,128,0,90309:0:0:0:0:
475,192,90002,1,0,0:0:0:70:LR_Kick Normal .wav
36,192,90309,1,0,0:0:0:70:LR_Kick Normal .wav
182,192,90463,128,0,90617:0:0:0:70:LR_Snare Drum 2.wav
475,192,90463,1,0,0:0:0:40:LR_Snare Soft Fast.wav
256,192,90771,128,0,90925:0:0:0:70:LR_Kick Normal .wav
475,192,90771,1,0,0:0:0:40:LR_Snare Soft Fast.wav
256,192,91079,128,0,91232:0:0:0:70:LR_Kick Normal .wav
36,192,91232,1,0,0:0:0:70:LR_Snare Drum 2.wav
329,192,91232,128,0,91386:0:0:0:40:LR_Snare Soft Fast.wav
182,192,91540,128,2,91694:0:0:0:0:
329,192,91694,128,0,91848:0:0:0:70:LR_Snare Drum 2.wav
475,192,91694,1,0,0:0:0:40:LR_Snare Soft Fast.wav
109,192,91848,128,0,92002:0:0:0:0:
256,192,92002,128,0,92156:0:0:0:70:LR_Kick Normal .wav
475,192,92002,1,0,0:0:0:40:LR_Snare Soft Fast.wav
36,192,92156,1,2,0:0:0:0:
182,192,92309,128,0,92771:0:0:0:0:
475,192,92463,1,0,0:0:0:70:LR_Kick Normal .wav
475,192,92694,1,0,0:0:0:40:LR_Snare Soft Fast.wav
36,192,92771,1,0,0:0:0:70:LR_Kick Normal .wav
475,192,92925,1,0,0:0:0:70:LR_Snare Drum .wav
36,192,93232,1,0,0:0:0:70:LR_Kick Normal .wav
36,192,93386,1,0,0:0:0:40:LR_Snare Soft Fast.wav
475,192,93694,1,2,0:0:0:0:
109,192,94156,1,0,0:0:0:40:LR_Snare Soft Fast.wav
256,192,94156,128,0,94309:0:0:0:0:
329,192,94309,128,0,94463:0:0:0:0:
109,192,94463,1,0,0:0:0:70:LR_Kick Normal .wav
402,192,94463,128,0,94617:0:0:0:40:LR_Snare Soft Fast.wav
182,192,94771,128,0,95232:0:0:0:70:LR_Kick Normal .wav
402,192,94925,1,0,0:0:0:70:LR_Kick Normal .wav
109,192,95232,1,0,0:0:0:70:LR_Kick Normal .wav
182,192,95386,128,0,95540:0:0:0:70:LR_Snare Drum 2.wav
402,192,95386,1,0,0:0:0:40:LR_Snare Soft Fast.wav
256,192,95694,128,0,95848:0:0:0:70:LR_Kick Normal .wav
402,192,95694,1,0,0:0:0:40:LR_Snare Soft Fast.wav
329,192,96002,128,0,96156:0:0:0:0:
402,192,96309,128,0,96463:0:0:0:70:LR_Snare Drum 2.wav
329,192,96617,128,0,96771:0:0:0:70:LR_Snare Drum 2.wav
36,192,96771,1,0,0:0:0:40:LR_Snare Soft Fast.wav
109,192,96771,1,0,0:0:0:0:
256,192,96925,128,0,97079:0:0:0:70:LR_Kick Normal .wav
402,192,97079,1,0,0:0:0:70:LR_Snare Drum .wav
36,192,97232,1,0,0:0:0:40:LR_Snare Soft Fast.wav
182,192,97232,128,0,97386:0:0:0:0:
329,192,97386,128,0,98309:0:0:0:70:LR_Snare Drum 2.wav
402,192,97386,1,0,0:0:0:0:
36,192,97694,1,0,0:0:0:40:LR_Snare Soft Fast.wav
109,192,97694,1,0,0:0:0:0:
182,192,98002,128,0,98309:0:0:0:70:LR_Snare Drum .wav
109,192,98309,128,0,98463:0:0:0:0:
182,192,98463,128,0,98617:0:0:0:0:
402,192,98617,128,0,98771:0:0:0:0:
36,192,98771,128,0,98925:0:0:0:0:
256,192,98925,1,2,0:0:0:0:
36,192,99232,128,8,99386:0:0:0:0:
182,192,99232,1,0,0:0:0:0:
402,192,99386,128,0,99540:0:0:0:0:
256,192,99540,1,2,0:0:0:0:
402,192,99848,128,0,100002:0:0:0:0:
109,192,100156,128,0,100309:0:0:0:0:
329,192,100309,128,0,100463:0:0:0:0:
36,192,100463,1,8,0:0:0:0:
182,192,100463,128,0,100771:0:0:0:0:
329,192,100771,1,2,0:0:0:0:
182,192,101079,128,2,101232:0:0:0:0:
329,192,101079,1,0,0:0:0:0:
109,192,101386,128,2,101540:0:0:0:0:
402,192,101386,1,0,0:0:0:0:
182,192,101540,128,0,101694:0:0:0:0:
256,192,101694,128,8,101848:0:0:0:0:
475,192,101694,1,0,0:0:0:0:
182,192,102002,1,2,0:0:0:0:
329,192,102156,128,0,102309:0:0:0:0:
402,192,102463,128,0,102617:0:0:0:0:
329,192,102617,1,2,0:0:0:0:
36,192,102771,128,2,102925:0:0:0:0:
329,192,102771,1,0,0:0:0:0:
182,192,102925,128,8,103232:0:0:0:0:
36,192,103540,128,2,103694:0:0:0:0:
256,192,103540,1,0,0:0:0:0:
402,192,103694,128,0,103848:0:0:0:0:
256,192,103848,1,2,0:0:0:0:
36,192,104156,128,8,104309:0:0:0:0:
182,192,104156,1,0,0:0:0:0:
329,192,104309,128,0,104463:0:0:0:0:
475,192,104463,1,2,0:0:0:0:
182,192,104771,128,0,104925:0:0:0:0:
109,192,105079,128,0,105232:0:0:0:0:
475,192,105232,128,0,105386:0:0:0:0:
36,192,105386,1,8,0:0:0:0:
182,192,105386,128,0,105694:0:0:0:0:
182,192,106002,128,2,106156:0:0:0:0:
329,192,106002,1,0,0:0:0:0:
109,192,106309,128,2,106463:0:0:0:0:
329,192,106309,1,0,0:0:0:0:
475,192,106463,128,0,106617:0:0:0:0:
36,192,106617,1,8,0:0:0:0:
256,192,106617,128,0,106771:0:0:0:0:
182,192,106925,128,2,107232:0:0:0:0:
402,192,106925,1,0,0:0:0:0:
256,192,107232,128,0,107540:0:0:0:0:
475,192,107540,128,2,108156:0:0:0:0:
36,192,107848,128,10,108156:0:0:0:0:
109,192,108156,128,2,108309:0:0:0:0:
182,192,108309,128,0,108463:0:0:0:0:
402,192,108463,128,0,108617:0:0:0:0:
36,192,108617,128,0,108771:0:0:0:0:
109,192,108617,128,0,108771:0:0:0:0:
256,192,108771,1,2,0:0:0:0:
36,192,109079,128,8,109232:0:0:0:0:
182,192,109079,1,0,0:0:0:0:
402,192,109232,128,0,109386:0:0:0:0:
475,192,109232,128,0,109386:0:0:0:0:
256,192,109386,1,2,0:0:0:0:
402,192,109694,128,0,109848:0:0:0:0:
109,192,110002,128,0,110156:0:0:0:0:
329,192,110156,128,0,110309:0:0:0:0:
36,192,110309,128,8,110617:0:0:0:0:
182,192,110309,128,0,110617:0:0:0:0:
329,192,110617,1,2,0:0:0:0:
182,192,110925,128,2,111079:0:0:0:0:
329,192,110925,1,0,0:0:0:0:
109,192,111232,128,2,111386:0:0:0:0:
402,192,111232,1,0,0:0:0:0:
182,192,111386,128,0,111540:0:0:0:0:
329,192,111540,128,8,111694:0:0:0:0:
402,192,111540,128,0,111694:0:0:0:0:
182,192,111848,1,2,0:0:0:0:
329,192,112002,128,0,112156:0:0:0:0:
402,192,112309,128,0,112463:0:0:0:0:
329,192,112463,1,2,0:0:0:0:
36,192,112617,128,2,112771:0:0:0:0:
329,192,112617,1,0,0:0:0:0:
182,192,112771,128,8,113079:0:0:0:0:
402,192,112771,128,0,113079:0:0:0:0:
36,192,113386,128,2,113540:0:0:0:0:
256,192,113386,1,0,0:0:0:0:
402,192,113540,128,0,113694:0:0:0:0:
475,192,113540,128,0,113694:0:0:0:0:
256,192,113694,1,2,0:0:0:0:
36,192,114002,128,8,114156:0:0:0:0:
182,192,114002,1,0,0:0:0:0:
329,192,114156,128,0,114309:0:0:0:0:
402,192,114156,128,0,114309:0:0:0:0:
109,192,114309,1,2,0:0:0:0:
182,192,114617,128,0,114771:0:0:0:0:
109,192,114925,128,0,115079:0:0:0:0:
475,192,115079,128,0,115232:0:0:0:0:
182,192,115232,128,8,115540:0:0:0:0:
329,192,115232,128,0,115540:0:0:0:0:
182,192,115848,128,2,116002:0:0:0:0:
329,192,115848,1,0,0:0:0:0:
109,192,116156,128,0,116309:0:0:0:0:
475,192,116309,128,0,116463:0:0:0:0:
36,192,116463,1,8,0:0:0:0:
256,192,116463,128,0,116771:0:0:0:0:
182,192,116771,128,2,117079:0:0:0:0:
402,192,116771,1,0,0:0:0:0:
329,192,117079,128,0,117386:0:0:0:0:
475,192,117386,128,0,118002:0:0:0:0:
36,192,117694,128,0,118002:0:0:0:0:
256,192,118002,128,0,118309:0:0:0:0:
109,192,118309,1,2,0:0:0:0:
109,192,118463,1,0,0:0:0:0:
256,192,118925,1,2,0:0:0:0:
256,192,119232,1,2,0:0:0:0:
256,192,119848,1,2,0:0:0:0:
256,192,120309,1,2,0:0:0:0:
329,192,120463,1,0,0:0:0:0:
329,192,120617,1,0,0:0:0:0:
182,192,120771,1,2,0:0:0:0:
329,192,120925,1,0,0:0:0:0:
402,192,121079,1,0,0:0:0:0:
109,192,121232,1,0,0:0:0:0:
256,192,121386,1,2,0:0:0:0:
402,192,121386,1,0,0:0:0:0:
36,192,121694,1,2,0:0:0:0:
256,192,121694,1,0,0:0:0:0:
182,192,121848,1,0,0:0:0:0:
329,192,122002,1,0,0:0:0:0:
256,192,122309,1,2,0:0:0:0:
475,192,122309,1,0,0:0:0:0:
36,192,122617,1,0,0:0:0:70:LR_Snare Drum 2.wav
182,192,122617,1,0,0:0:0:0:
402,192,122771,1,0,0:0:0:0:
329,192,123079,1,0,0:0:0:0:
109,192,123232,1,2,0:0:0:0:
256,192,123232,1,0,0:0:0:0:
109,192,123386,1,0,0:0:0:0:
182,192,123694,1,0,0:0:0:0:
256,192,123848,1,2,0:0:0:0:
256,192,124156,1,2,0:0:0:0:
329,192,124617,1,0,0:0:0:0:
109,192,124771,1,2,0:0:0:0:
256,192,124771,1,0,0:0:0:0:
402,192,124925,1,0,0:0:0:0:
256,192,125232,1,2,0:0:0:0:
475,192,125232,1,0,0:0:0:0:
329,192,125386,1,0,0:0:0:0:
182,192,125540,1,0,0:0:0:0:
36,192,125694,1,2,0:0:0:0:
329,192,125694,1,0,0:0:0:0:
329,192,125848,1,0,0:0:0:0:
182,192,126002,1,0,0:0:0:0:
475,192,126156,1,0,0:0:0:0:
109,192,126309,1,2,0:0:0:0:
256,192,126309,1,0,0:0:0:0:
256,192,126617,1,2,0:0:0:0:
402,192,126617,1,0,0:0:0:0:
329,192,126771,1,0,0:0:0:0:
182,192,126925,1,0,0:0:0:0:
182,192,127232,1,0,0:0:0:0:
182,192,127386,1,0,0:0:0:0:
36,192,127540,1,0,0:0:0:70:clap2.wav
256,192,127540,1,0,0:0:0:0:
402,192,127540,1,0,0:0:0:0:
256,192,127848,128,0,128002:0:0:0:0:
109,192,128156,1,6,0:0:0:0:
256,192,128309,1,0,0:0:0:0:
402,192,128463,1,0,0:0:0:0:
256,192,128617,1,0,0:0:0:0:
109,192,128771,1,0,0:0:0:0:
182,192,128925,1,0,0:0:0:0:
36,192,129079,1,0,0:0:0:0:
109,192,129232,128,0,129694:0:0:0:0:
256,192,129848,1,0,0:0:0:0:
182,192,130156,1,0,0:0:0:0:
36,192,130309,1,0,0:0:0:0:
182,192,130463,1,0,0:0:0:0:
109,192,130617,1,0,0:0:0:0:
402,192,130925,1,0,0:0:0:0:
256,192,131079,1,0,0:0:0:0:
109,192,131232,1,0,0:0:0:30:clap2.wav
182,192,131386,1,0,0:0:0:0:
256,192,131540,1,0,0:0:0:0:
109,192,131694,128,0,132156:0:0:0:0:
182,192,132463,1,0,0:0:0:30:clap2.wav
36,192,132617,1,0,0:0:0:0:
182,192,132771,1,0,0:0:0:0:
329,192,132925,1,0,0:0:0:0:
36,192,133079,1,0,0:0:0:50:clap2.wav
109,192,133079,1,0,0:0:0:0:
256,192,133232,1,0,0:0:0:0:
402,192,133386,1,0,0:0:0:50:hihat.wav
475,192,133386,1,0,0:0:0:0:
256,192,133540,1,0,0:0:0:0:
36,192,133694,1,0,0:0:0:50:clap2.wav
109,192,133694,1,0,0:0:0:0:
182,192,133848,1,0,0:0:0:0:
329,192,134002,1,0,0:0:0:50:hihat.wav
475,192,134002,1,0,0:0:0:0:
109,192,134156,128,0,134617:0:0:0:0:
329,192,134309,1,0,0:0:0:50:clap2.wav
182,192,134617,1,0,0:0:0:50:hihat.wav
329,192,134771,1,0,0:0:0:0:
109,192,134925,1,0,0:0:0:50:clap2.wav
329,192,135079,1,0,0:0:0:0:
36,192,135232,1,0,0:0:0:50:hihat.wav
182,192,135232,1,0,0:0:0:0:
256,192,135386,1,0,0:0:0:0:
109,192,135540,1,0,0:0:0:50:clap2.wav
329,192,135540,1,0,0:0:0:0:
182,192,135848,1,0,0:0:0:50:hihat.wav
402,192,135848,1,0,0:0:0:0:
256,192,136002,1,0,0:0:0:0:
109,192,136156,1,0,0:0:0:50:hihat.wav
329,192,136156,1,0,0:0:0:0:
402,192,136309,1,0,0:0:0:0:
256,192,136463,1,0,0:0:0:50:hihat.wav
109,192,136617,128,0,136771:0:0:0:0:
256,192,136925,1,0,0:0:0:0:
36,192,137079,1,0,0:0:0:0:
329,192,137232,1,0,0:0:0:0:
109,192,137386,1,0,0:0:0:0:
402,192,137540,1,0,0:0:0:0:
182,192,137694,1,0,0:0:0:0:
475,192,137848,1,0,0:0:0:0:
256,192,138002,1,0,0:0:0:0:
36,192,138156,1,0,0:0:0:0:
329,192,138309,128,2,138463:0:0:0:0:
475,192,138309,1,0,0:0:0:0:
109,192,138463,128,0,138617:0:0:0:0:
402,192,138617,128,8,138771:0:0:0:0:
182,192,138771,128,0,138925:0:0:0:0:
36,192,138925,1,2,0:0:0:0:
256,192,138925,128,0,139079:0:0:0:0:
329,192,139079,128,0,139540:0:0:0:0:
36,192,139694,128,0,139848:0:0:0:0:
329,192,140002,1,0,0:0:0:0:
36,192,140156,1,2,0:0:0:0:
182,192,140156,1,0,0:0:0:0:
329,192,140309,1,0,0:0:0:0:
36,192,140463,1,2,0:0:0:0:
182,192,140463,128,0,140771:0:0:0:0:
109,192,140771,128,2,140925:0:0:0:0:
402,192,140771,1,0,0:0:0:0:
329,192,140925,128,0,141079:0:0:0:0:
36,192,141079,128,8,141232:0:0:0:0:
256,192,141232,128,0,141386:0:0:0:0:
402,192,141386,1,2,0:0:0:0:
475,192,141386,128,0,141540:0:0:0:0:
182,192,141540,128,0,142002:0:0:0:0:
402,192,142002,1,2,0:0:0:0:
256,192,142156,1,2,0:0:0:0:
109,192,142309,128,8,142463:0:0:0:0:
329,192,142463,128,0,142617:0:0:0:0:
182,192,142617,128,0,142771:0:0:0:0:
402,192,142771,128,0,142925:0:0:0:0:
109,192,142925,1,2,0:0:0:0:
329,192,142925,1,0,0:0:0:0:
109,192,143079,1,0,0:0:0:0:
182,192,143232,128,2,143386:0:0:0:0:
329,192,143232,1,0,0:0:0:0:
109,192,143386,128,0,143540:0:0:0:0:
402,192,143540,128,8,143694:0:0:0:0:
329,192,143694,128,0,143848:0:0:0:0:
109,192,143848,1,2,0:0:0:0:
182,192,143848,128,0,144002:0:0:0:0:
329,192,144002,128,0,144463:0:0:0:0:
36,192,144617,128,0,144771:0:0:0:0:
402,192,144925,128,0,145079:0:0:0:0:
182,192,145079,128,0,145232:0:0:0:0:
329,192,145232,128,0,145386:0:0:0:0:
182,192,145386,1,2,0:0:0:0:
475,192,145386,1,0,0:0:0:0:
182,192,145540,1,0,0:0:0:0:
256,192,145694,128,2,145848:0:0:0:0:
402,192,145694,1,0,0:0:0:0:
182,192,145848,128,0,146002:0:0:0:0:
402,192,146002,128,8,146156:0:0:0:0:
329,192,146156,128,0,146309:0:0:0:0:
36,192,146309,1,2,0:0:0:0:
182,192,146309,128,0,146463:0:0:0:0:
329,192,146463,128,0,146925:0:0:0:50:clap.wav
36,192,146925,1,2,0:0:0:0:
182,192,146925,1,0,0:0:0:0:
182,192,147079,1,0,0:0:0:0:
329,192,147232,1,10,0:0:0:0:
475,192,147232,1,0,0:0:0:50:clap.wav
109,192,147386,1,0,0:0:0:50:clap2.wav
256,192,147540,1,2,0:0:0:0:
109,192,147694,1,0,0:0:0:50:clap2.wav
329,192,147848,1,6,0:0:0:0:
329,192,148002,1,0,0:0:0:0:
36,192,148156,1,2,0:0:0:0:
182,192,148156,128,0,148309:0:0:0:0:
329,192,148309,128,0,148463:0:0:0:0:
109,192,148463,1,8,0:0:0:0:
256,192,148463,128,0,148617:0:0:0:0:
402,192,148617,128,0,148771:0:0:0:0:
36,192,148771,1,2,0:0:0:0:
182,192,148771,128,0,148925:0:0:0:0:
475,192,148925,128,0,149386:0:0:0:0:
109,192,149079,1,0,0:0:0:0:
256,192,149386,1,0,0:0:0:0:
36,192,149540,128,0,149694:0:0:0:0:
475,192,149694,1,8,0:0:0:0:
329,192,149848,1,0,0:0:0:0:
36,192,150002,1,2,0:0:0:0:
182,192,150002,1,0,0:0:0:0:
329,192,150156,1,0,0:0:0:0:
36,192,150309,1,2,0:0:0:0:
182,192,150309,1,0,0:0:0:0:
182,192,150617,128,2,150771:0:0:0:0:
329,192,150617,1,0,0:0:0:0:
109,192,150771,128,0,150925:0:0:0:0:
256,192,150925,1,8,0:0:0:0:
475,192,150925,128,0,151079:0:0:0:0:
402,192,151079,128,0,151232:0:0:0:0:
36,192,151232,1,2,0:0:0:0:
329,192,151232,128,0,151386:0:0:0:0:
182,192,151386,128,0,151848:0:0:0:0:
402,192,151848,1,2,0:0:0:0:
256,192,152002,1,2,0:0:0:0:
109,192,152156,128,8,152309:0:0:0:0:
329,192,152309,128,0,152463:0:0:0:0:
182,192,152463,128,0,152617:0:0:0:0:
402,192,152617,128,0,152771:0:0:0:0:
109,192,152771,1,2,0:0:0:0:
329,192,152771,1,0,0:0:0:0:
329,192,152925,1,0,0:0:0:0:
36,192,153079,1,2,0:0:0:0:
182,192,153079,128,0,153232:0:0:0:0:
329,192,153232,128,0,153386:0:0:0:0:
109,192,153386,128,8,153540:0:0:0:0:
256,192,153540,128,0,153694:0:0:0:0:
36,192,153694,128,2,153848:0:0:0:0:
475,192,153694,1,0,0:0:0:0:
329,192,153848,128,0,154309:0:0:0:0:
36,192,154463,128,0,154617:0:0:0:0:
402,192,154771,128,0,154925:0:0:0:0:
182,192,154925,128,0,155079:0:0:0:0:
329,192,155079,128,0,155232:0:0:0:0:
475,192,155232,1,2,0:0:0:0:
109,192,155232,1,0,0:0:0:0:
109,192,155386,1,0,0:0:0:0:
256,192,155540,128,2,155694:0:0:0:0:
402,192,155540,1,0,0:0:0:0:
182,192,155694,128,0,155848:0:0:0:0:
402,192,155848,128,8,156002:0:0:0:0:
329,192,156002,128,0,156156:0:0:0:0:
36,192,156156,1,2,0:0:0:0:
182,192,156156,128,0,156309:0:0:0:0:
329,192,156309,128,0,156617:0:0:0:70:clap.wav
256,192,156617,1,0,0:0:0:0:
36,192,156771,1,0,0:0:0:0:
329,192,156925,1,0,0:0:0:0:
109,192,157079,1,0,0:0:0:0:
402,192,157232,1,0,0:0:0:0:
182,192,157386,1,0,0:0:0:0:
475,192,157540,1,0,0:0:0:0:
256,192,157694,1,0,0:0:0:0:
329,192,158002,128,2,158156:0:0:0:0:
475,192,158002,1,0,0:0:0:0:
109,192,158156,128,0,158309:0:0:0:0:
329,192,158309,1,8,0:0:0:0:
402,192,158309,128,0,158463:0:0:0:0:
182,192,158463,128,0,158617:0:0:0:0:
36,192,158617,1,2,0:0:0:0:
256,192,158617,128,0,158771:0:0:0:0:
329,192,158771,128,0,159232:0:0:0:0:
109,192,158925,1,0,0:0:0:0:
402,192,159232,1,0,0:0:0:0:
36,192,159386,128,0,159540:0:0:0:0:
329,192,159386,1,0,0:0:0:0:
256,192,159540,1,8,0:0:0:0:
475,192,159540,1,0,0:0:0:0:
36,192,159848,1,2,0:0:0:0:
182,192,159848,1,0,0:0:0:0:
329,192,160002,1,0,0:0:0:0:
36,192,160156,1,2,0:0:0:0:
182,192,160156,128,0,160463:0:0:0:0:
109,192,160463,128,2,160617:0:0:0:0:
402,192,160463,1,0,0:0:0:0:
329,192,160617,128,0,160771:0:0:0:0:
36,192,160771,128,8,160925:0:0:0:0:
182,192,160771,1,0,0:0:0:0:
256,192,160925,128,0,161079:0:0:0:0:
402,192,161079,1,2,0:0:0:0:
475,192,161079,128,0,161232:0:0:0:0:
182,192,161232,128,0,161694:0:0:0:0:
329,192,161386,1,0,0:0:0:0:
329,192,161694,1,2,0:0:0:0:
329,192,161848,1,2,0:0:0:0:
109,192,162002,128,8,162156:0:0:0:0:
256,192,162002,1,0,0:0:0:0:
329,192,162156,128,0,162309:0:0:0:0:
182,192,162309,128,0,162463:0:0:0:0:
402,192,162463,128,0,162617:0:0:0:0:
109,192,162617,1,2,0:0:0:0:
329,192,162617,1,0,0:0:0:0:
109,192,162771,1,0,0:0:0:0:
182,192,162925,128,2,163079:0:0:0:0:
329,192,162925,1,0,0:0:0:0:
109,192,163079,128,0,163232:0:0:0:0:
256,192,163232,1,8,0:0:0:0:
402,192,163232,128,0,163386:0:0:0:0:
329,192,163386,128,0,163540:0:0:0:0:
109,192,163540,1,2,0:0:0:0:
182,192,163540,128,0,163694:0:0:0:0:
329,192,163694,128,0,164156:0:0:0:0:
109,192,163848,1,0,0:0:0:0:
256,192,164156,1,0,0:0:0:0:
36,192,164309,128,0,164463:0:0:0:0:
402,192,164309,1,0,0:0:0:0:
182,192,164463,1,8,0:0:0:0:
329,192,164463,1,0,0:0:0:0:
402,192,164617,128,0,164771:0:0:0:0:
182,192,164771,128,0,164925:0:0:0:0:
329,192,164925,128,0,165079:0:0:0:0:
182,192,165079,1,2,0:0:0:0:
475,192,165079,1,0,0:0:0:0:
182,192,165232,1,0,0:0:0:0:
256,192,165386,128,2,165540:0:0:0:0:
402,192,165386,1,0,0:0:0:0:
182,192,165540,128,0,165694:0:0:0:0:
109,192,165694,1,8,0:0:0:0:
402,192,165694,128,0,165848:0:0:0:0:
329,192,165848,128,0,166002:0:0:0:0:
36,192,166002,1,2,0:0:0:0:
182,192,166002,128,0,166156:0:0:0:0:
329,192,166156,128,0,166617:0:0:0:50:clap.wav
475,192,166156,1,0,0:0:0:0:
36,192,166463,1,0,0:0:0:50:clap.wav
182,192,166463,1,0,0:0:0:0:
256,192,166617,1,2,0:0:0:0:
256,192,166771,1,0,0:0:0:0:
329,192,166925,1,10,0:0:0:0:
475,192,166925,1,0,0:0:0:70:clap.wav
109,192,167079,1,0,0:0:0:70:clap2.wav
256,192,167232,1,2,0:0:0:0:
109,192,167386,1,0,0:0:0:70:clap2.wav
329,192,167540,1,0,0:0:0:0:
329,192,167694,1,0,0:0:0:0:
36,192,167848,1,2,0:0:0:0:
182,192,167848,128,0,168002:0:0:0:0:
329,192,168002,128,0,168156:0:0:0:0:
109,192,168156,1,8,0:0:0:0:
256,192,168156,128,0,168309:0:0:0:0:
402,192,168309,128,0,168463:0:0:0:0:
36,192,168463,1,2,0:0:0:0:
182,192,168463,128,0,168617:0:0:0:0:
475,192,168617,128,0,169079:0:0:0:0:
109,192,168771,1,0,0:0:0:0:
182,192,169079,1,0,0:0:0:0:
36,192,169232,128,0,169386:0:0:0:0:
329,192,169232,1,0,0:0:0:0:
256,192,169386,1,8,0:0:0:0:
475,192,169386,1,0,0:0:0:0:
329,192,169540,1,0,0:0:0:0:
36,192,169694,1,2,0:0:0:0:
182,192,169694,1,0,0:0:0:0:
182,192,169848,1,0,0:0:0:0:
329,192,170002,1,2,0:0:0:0:
402,192,170002,1,0,0:0:0:0:
182,192,170309,128,2,170463:0:0:0:0:
329,192,170309,1,0,0:0:0:0:
109,192,170463,128,0,170617:0:0:0:0:
256,192,170617,1,8,0:0:0:0:
475,192,170617,128,0,170771:0:0:0:0:
402,192,170771,128,0,170925:0:0:0:0:
36,192,170925,1,2,0:0:0:0:
329,192,170925,128,0,171079:0:0:0:0:
182,192,171079,128,0,171540:0:0:0:0:
402,192,171232,1,0,0:0:0:0:
329,192,171540,1,2,0:0:0:0:
329,192,171694,1,2,0:0:0:0:
182,192,171848,128,8,172002:0:0:0:0:
256,192,171848,1,0,0:0:0:0:
109,192,172002,128,0,172156:0:0:0:0:
402,192,172156,128,0,172309:0:0:0:0:
329,192,172309,128,0,172463:0:0:0:0:
109,192,172463,1,2,0:0:0:0:
256,192,172463,1,0,0:0:0:0:
109,192,172617,1,0,0:0:0:0:
182,192,172771,128,2,172925:0:0:0:0:
402,192,172771,1,0,0:0:0:0:
329,192,172925,128,0,173079:0:0:0:0:
109,192,173079,128,8,173232:0:0:0:0:
256,192,173232,128,0,173386:0:0:0:0:
36,192,173386,128,2,173540:0:0:0:0:
475,192,173386,1,0,0:0:0:0:
329,192,173540,128,0,174002:0:0:0:0:
109,192,173694,1,0,0:0:0:0:
182,192,174002,1,0,0:0:0:0:
36,192,174156,128,0,174309:0:0:0:0:
256,192,174156,1,0,0:0:0:0:
329,192,174309,1,8,0:0:0:0:
475,192,174309,1,0,0:0:0:0:
182,192,174463,128,0,174617:0:0:0:0:
329,192,174617,128,0,174771:0:0:0:0:
475,192,174617,1,0,0:0:0:0:
36,192,174771,128,0,174925:0:0:0:0:
182,192,174925,128,2,175232:0:0:0:0:
402,192,174925,1,0,0:0:0:0:
256,192,175232,128,2,175386:0:0:0:0:
402,192,175232,1,0,0:0:0:0:
182,192,175386,128,0,175540:0:0:0:0:
109,192,175540,1,8,0:0:0:0:
402,192,175540,128,0,175694:0:0:0:0:
329,192,175694,128,0,175848:0:0:0:0:
36,192,175848,1,2,0:0:0:0:
182,192,175848,128,0,176002:0:0:0:0:
329,192,176002,128,0,176309:0:0:0:70:clap.wav
475,192,176002,1,0,0:0:0:0:
256,192,176309,1,0,0:0:0:0:
36,192,176463,1,0,0:0:0:0:
329,192,176617,1,0,0:0:0:0:
109,192,176771,1,0,0:0:0:0:
402,192,176925,1,0,0:0:0:0:
182,192,177079,1,0,0:0:0:0:
475,192,177232,1,0,0:0:0:0:
256,192,177386,1,0,0:0:0:0:
36,192,177540,1,0,0:0:0:0:
256,192,177848,128,0,178002:0:0:0:0:
329,192,178002,128,0,178156:0:0:0:0:
402,192,178156,128,0,178309:0:0:0:0:
182,192,178463,128,0,178925:0:0:0:0:
182,192,179079,128,0,179232:0:0:0:0:
256,192,179386,128,0,179540:0:0:0:0:
256,192,179694,128,0,179848:0:0:0:0:
329,192,179848,128,0,180002:0:0:0:0:
182,192,180156,128,0,180309:0:0:0:0:
329,192,180309,128,0,180463:0:0:0:0:
109,192,180463,128,0,180617:0:0:0:0:
256,192,180617,128,0,180771:0:0:0:0:
182,192,180925,128,0,181386:0:0:0:0:
329,192,181502,1,0,0:0:0:0:
402,192,181502,1,0,0:0:0:0:
109,192,181720,1,0,0:0:0:0:
182,192,181720,1,0,0:0:0:0:
