osu file format v14

[General]
AudioFilename: audio.mp3
AudioLeadIn: 0
PreviewTime: 17395
Countdown: 0
SampleSet: Soft
StackLeniency: 0.7
Mode: 3
LetterboxInBreaks: 0
EpilepsyWarning: 1
SpecialStyle: 0
WidescreenStoryboard: 1

[Editor]
DistanceSpacing: 0.95
BeatDivisor: 4
GridSize: 32
TimelineZoom: 3.399999

[Metadata]
Title:life flashes before weeb eyes
TitleUnicode:life flashes before weeb eyes
Artist:BilliumMoto
ArtistUnicode:BilliumMoto
Creator:Unpredictable
Version:aries' normal
Source:osu!
Tags:-mysticeyes keppsado scotty -_aries_- famoss peter petereu fa featured artist electronic instrumental future bass trap anime jazz mappers' guild mg dynamix
BeatmapID:2165196
BeatmapSetID:985172

[Difficulty]
HPDrainRate:7
CircleSize:4
OverallDifficulty:7
ApproachRate:5
SliderMultiplier:1.4
SliderTickRate:1

[Events]
//Background and Video events
0,0,"billiummoto.jpg",0,0
//Break Periods
//Storyboard Layer 0 (Background)
//Storyboard Layer 1 (Fail)
//Storyboard Layer 2 (Pass)
//Storyboard Layer 3 (Foreground)
//Storyboard Layer 4 (Overlay)
//Storyboard Sound Samples
Sample,51293,0,"sparkle.wav",100
Sample,102042,0,"sparkle.wav",100
Sample,122923,0,"clapwave.wav",70
Sample,139840,0,"clap.wav",70
Sample,152791,0,"sparkle.wav",100

[TimingPoints]
545,264.31718061674,4,2,1,70,1,0
17461,-100,4,2,1,70,0,1
51293,-100,4,2,1,60,0,0
59752,-100,4,2,1,65,0,0
68210,-100,4,2,1,40,0,0
76668,-100,4,2,1,50,0,0
80897,-100,4,2,1,55,0,0
85126,-100,4,2,1,60,0,1
101514,-100,4,2,1,70,0,0
102042,-100,4,2,1,40,0,0
119619,-100,4,2,1,70,0,0
123188,-100,4,2,1,70,0,1
129267,-100,4,2,1,70,0,0
131646,-100,4,2,1,70,0,1
137725,-100,4,2,1,70,0,0
140104,-100,4,2,1,70,0,1
146183,-100,4,2,1,70,0,0
148562,-100,4,2,1,70,0,1
152263,-100,4,2,1,70,0,0
152791,-100,4,2,1,40,0,0

[HitObjects]
192,192,545,5,2,0:0:0:0:
320,192,809,128,0,1073:0:0:0:0:
64,192,1073,1,0,0:0:0:70:clapwave.wav
448,192,1073,1,0,0:0:0:0:
192,192,1337,128,2,1602:0:0:0:0:
192,192,1866,128,2,2130:0:0:0:0:
320,192,2130,1,0,0:0:0:70:clapwave.wav
448,192,2130,1,0,0:0:0:0:
64,192,2263,1,0,0:0:0:0:
320,192,2395,128,0,2659:0:0:0:0:
192,192,2659,1,2,0:0:0:0:
64,192,2659,1,0,0:0:0:0:
320,192,2923,1,0,0:0:0:0:
192,192,3056,1,2,0:0:0:0:
64,192,3188,1,8,0:0:0:0:
448,192,3188,1,0,0:0:0:0:
320,192,3452,1,0,0:0:0:0:
64,192,3584,1,0,0:0:0:0:
320,192,3716,1,0,0:0:0:0:
64,192,3848,1,0,0:0:0:0:
448,192,3981,128,2,4245:0:0:0:0:
64,192,4245,128,0,4509:0:0:0:0:
192,192,4509,1,0,0:0:0:0:
320,192,4774,1,2,0:0:0:0:
192,192,5038,128,0,5302:0:0:0:0:
64,192,5302,1,0,0:0:0:70:clapwave.wav
448,192,5302,1,0,0:0:0:0:
320,192,5567,128,2,5831:0:0:0:0:
64,192,5963,1,2,0:0:0:0:
320,192,6095,128,2,6359:0:0:0:0:
64,192,6359,1,0,0:0:0:70:clapwave.wav
192,192,6359,1,0,0:0:0:0:
448,192,6492,1,0,0:0:0:0:
192,192,6624,128,0,6888:0:0:0:0:
448,192,6888,1,10,0:0:0:0:
64,192,7020,128,0,7152:0:0:0:0:
320,192,7152,1,10,0:0:0:0:
192,192,7285,128,0,7417:0:0:0:0:
448,192,7417,1,10,0:0:0:0:
64,192,7615,1,10,0:0:0:0:
320,192,7813,1,10,0:0:0:0:
64,192,7945,1,10,0:0:0:0:
448,192,8078,128,0,8210:0:0:0:0:
192,192,8210,1,10,0:0:0:0:
320,192,8342,128,0,8474:0:0:0:0:
64,192,8474,1,0,0:0:0:50:snare.wav
192,192,8474,1,0,0:0:0:0:
448,192,8738,128,0,8870:0:0:0:70:clapwave.wav
192,192,9003,1,0,0:0:0:70:LR_Tom Hit.wav
320,192,9003,1,12,0:0:0:0:
64,192,9267,1,8,0:0:0:0:
448,192,9399,1,0,0:0:0:0:
64,192,9663,1,0,0:0:0:0:
448,192,9796,1,8,0:0:0:0:
320,192,10060,1,2,0:0:0:0:
64,192,10192,1,2,0:0:0:0:
192,192,10192,1,0,0:0:0:0:
320,192,10456,1,2,0:0:0:0:
64,192,10589,1,2,0:0:0:0:
192,192,10589,1,0,0:0:0:0:
320,192,10853,1,2,0:0:0:0:
448,192,10853,1,0,0:0:0:0:
192,192,11117,1,0,0:0:0:70:LR_Tom Hit.wav
320,192,11117,1,8,0:0:0:0:
448,192,11382,1,8,0:0:0:0:
64,192,11514,1,0,0:0:0:0:
448,192,11778,1,0,0:0:0:0:
64,192,11910,1,8,0:0:0:0:
192,192,12174,1,2,0:0:0:0:
320,192,12307,1,2,0:0:0:0:
448,192,12307,1,0,0:0:0:0:
192,192,12571,1,2,0:0:0:0:
320,192,12703,1,2,0:0:0:0:
448,192,12703,1,0,0:0:0:0:
64,192,12835,1,2,0:0:0:0:
320,192,12967,1,2,0:0:0:0:
448,192,12967,1,0,0:0:0:0:
64,192,13100,1,2,0:0:0:0:
320,192,13232,1,8,0:0:0:70:LR_Tom Hit.wav
192,192,13232,1,8,0:0:0:0:
64,192,13496,1,8,0:0:0:0:
448,192,13628,1,0,0:0:0:0:
64,192,13893,1,0,0:0:0:0:
448,192,14025,1,8,0:0:0:0:
320,192,14289,1,2,0:0:0:0:
448,192,14289,1,0,0:0:0:0:
64,192,14487,1,2,0:0:0:0:
192,192,14487,1,0,0:0:0:0:
320,192,14685,1,2,0:0:0:0:
448,192,14685,1,0,0:0:0:0:
64,192,14818,1,2,0:0:0:0:
192,192,14818,1,0,0:0:0:0:
320,192,15016,1,0,0:0:0:0:
448,192,15016,1,0,0:0:0:0:
64,192,15214,1,0,0:0:0:0:
192,192,15214,1,0,0:0:0:0:
320,192,15346,1,0,0:0:0:70:bassdrop.wav
448,192,15346,128,2,16668:0:0:0:0:
64,192,15611,1,0,0:0:0:0:
320,192,15875,128,0,16668:0:0:0:0:
64,192,16139,1,0,0:0:0:0:
192,192,16404,1,0,0:0:0:0:
64,192,16668,1,0,0:0:0:0:
448,192,16932,1,0,0:0:0:0:
320,192,17064,1,0,0:0:0:0:
192,192,17196,1,0,0:0:0:0:
64,192,17329,1,0,0:0:0:0:
320,192,17461,1,2,0:0:0:0:
448,192,17461,1,4,0:0:0:0:
192,192,17725,1,2,0:0:0:0:
320,192,17857,1,0,0:0:0:0:
64,192,17989,1,0,0:0:0:70:snareclap.wav
448,192,17989,1,0,0:0:0:0:
192,192,18122,1,0,0:0:0:0:
448,192,18254,128,2,18386:0:0:0:0:
320,192,18386,128,0,18518:0:0:0:0:
192,192,18518,128,0,18650:0:0:0:0:
64,192,18650,128,0,18782:0:0:0:0:
448,192,18782,128,0,18915:0:0:0:0:
64,192,19047,1,0,0:0:0:70:snareclap.wav
192,192,19047,1,0,0:0:0:0:
320,192,19179,1,0,0:0:0:0:
448,192,19311,1,2,0:0:0:0:
192,192,19443,1,0,0:0:0:0:
64,192,19575,1,0,0:0:0:0:
448,192,19707,1,0,0:0:0:0:
192,192,19840,1,0,0:0:0:0:
320,192,19972,1,0,0:0:0:50:snare.wav
64,192,20104,1,0,0:0:0:70:snareclap.wav
192,192,20104,1,0,0:0:0:0:
448,192,20236,1,2,0:0:0:0:
320,192,20368,128,0,20500:0:0:0:0:
192,192,20500,128,0,20633:0:0:0:0:
64,192,20633,1,2,0:0:0:0:
448,192,20765,1,0,0:0:0:0:
64,192,20897,128,0,21029:0:0:0:0:
192,192,21029,1,2,0:0:0:0:
320,192,21161,1,0,0:0:0:70:snareclap.wav
448,192,21161,1,0,0:0:0:0:
192,192,21293,128,0,21426:0:0:0:0:
320,192,21426,128,0,21558:0:0:0:0:
64,192,21690,128,2,21954:0:0:0:0:
192,192,21954,1,2,0:0:0:0:
448,192,22086,1,2,0:0:0:0:
64,192,22219,1,0,0:0:0:70:snareclap.wav
192,192,22219,1,0,0:0:0:0:
448,192,22351,128,0,22483:0:0:0:0:
192,192,22483,128,2,22615:0:0:0:0:
320,192,22615,128,0,22747:0:0:0:0:
64,192,22747,128,0,22879:0:0:0:0:
192,192,22879,1,0,0:0:0:0:
448,192,22945,1,0,0:0:0:0:
192,192,23011,128,0,23144:0:0:0:0:
320,192,23276,1,0,0:0:0:70:snareclap.wav
448,192,23276,1,0,0:0:0:0:
64,192,23408,1,0,0:0:0:0:
320,192,23540,1,2,0:0:0:0:
192,192,23672,1,0,0:0:0:0:
448,192,23804,1,0,0:0:0:0:
64,192,23937,1,0,0:0:0:0:
320,192,24069,1,0,0:0:0:0:
192,192,24201,1,0,0:0:0:0:
64,192,24333,1,0,0:0:0:70:snareclap.wav
448,192,24333,1,0,0:0:0:0:
320,192,24465,1,2,0:0:0:0:
64,192,24597,128,0,24730:0:0:0:0:
192,192,24730,1,0,0:0:0:0:
448,192,24862,128,2,24994:0:0:0:0:
320,192,24994,128,0,25126:0:0:0:0:
64,192,25126,128,0,25258:0:0:0:0:
192,192,25258,1,2,0:0:0:0:
320,192,25390,1,0,0:0:0:70:snareclap.wav
448,192,25390,1,0,0:0:0:0:
192,192,25522,1,0,0:0:0:0:
64,192,25655,1,0,0:0:0:0:
320,192,25787,1,0,0:0:0:0:
64,192,25919,1,4,0:0:0:0:
192,192,25919,1,2,0:0:0:0:
320,192,26183,1,2,0:0:0:0:
192,192,26315,1,0,0:0:0:0:
64,192,26448,1,0,0:0:0:70:snareclap.wav
448,192,26448,1,0,0:0:0:0:
320,192,26580,1,0,0:0:0:70:LR_Tom Normal.wav
64,192,26712,128,2,26844:0:0:0:0:
192,192,26844,128,0,26976:0:0:0:0:
320,192,26976,128,0,27108:0:0:0:0:
448,192,27108,128,0,27241:0:0:0:0:
64,192,27241,128,0,27373:0:0:0:0:
320,192,27505,1,0,0:0:0:70:snareclap.wav
448,192,27505,1,0,0:0:0:0:
64,192,27637,1,0,0:0:0:0:
448,192,27769,1,2,0:0:0:0:
192,192,27901,1,0,0:0:0:0:
320,192,28033,1,0,0:0:0:0:
64,192,28166,1,0,0:0:0:0:
448,192,28298,1,0,0:0:0:0:
192,192,28430,1,0,0:0:0:50:snare.wav
320,192,28562,1,0,0:0:0:70:snareclap.wav
448,192,28562,1,0,0:0:0:0:
64,192,28694,1,2,0:0:0:0:
192,192,28826,128,0,28959:0:0:0:0:
320,192,28959,128,0,29091:0:0:0:0:
448,192,29091,1,2,0:0:0:0:
64,192,29223,128,0,29355:0:0:0:0:
448,192,29355,128,0,29487:0:0:0:0:
320,192,29487,1,2,0:0:0:0:
64,192,29619,1,0,0:0:0:70:snareclap.wav
192,192,29619,1,0,0:0:0:0:
320,192,29752,128,0,29884:0:0:0:0:
192,192,29884,128,0,30016:0:0:0:0:
448,192,30148,128,2,30412:0:0:0:0:
64,192,30412,128,2,30544:0:0:0:0:
192,192,30544,128,2,30677:0:0:0:0:
320,192,30677,1,0,0:0:0:70:snareclap.wav
448,192,30677,1,0,0:0:0:0:
64,192,30809,128,0,30941:0:0:0:0:
448,192,30941,128,2,31073:0:0:0:0:
320,192,31073,128,0,31205:0:0:0:0:
64,192,31205,128,0,31337:0:0:0:0:
448,192,31337,1,0,0:0:0:0:
192,192,31404,1,0,0:0:0:0:
448,192,31470,128,0,31602:0:0:0:0:
320,192,31602,1,0,0:0:0:70:LR_Tom Hit.wav
64,192,31734,1,0,0:0:0:70:snareclap.wav
192,192,31734,1,0,0:0:0:0:
448,192,31866,1,0,0:0:0:0:
64,192,31998,1,2,0:0:0:0:
320,192,32130,1,0,0:0:0:0:
192,192,32263,1,0,0:0:0:0:
448,192,32395,1,0,0:0:0:0:
64,192,32527,1,0,0:0:0:0:
320,192,32659,1,0,0:0:0:0:
64,192,32791,1,0,0:0:0:70:snareclap.wav
448,192,32791,1,0,0:0:0:0:
192,192,32923,1,2,0:0:0:0:
448,192,33056,128,0,33188:0:0:0:0:
320,192,33188,128,0,33320:0:0:0:0:
64,192,33320,128,2,33584:0:0:0:0:
192,192,33452,1,0,0:0:0:0:
448,192,33584,128,2,33848:0:0:0:0:
320,192,33716,1,0,0:0:0:0:
64,192,33848,1,0,0:0:0:70:snareclap.wav
192,192,33848,1,0,0:0:0:0:
320,192,33981,1,0,0:0:0:0:
64,192,34113,128,0,34245:0:0:0:0:
192,192,34245,128,0,34377:0:0:0:0:
320,192,34377,1,2,0:0:0:0:
448,192,34377,128,4,34641:0:0:0:0:
192,192,34641,128,2,34906:0:0:0:0:
64,192,34906,1,0,0:0:0:70:snareclap.wav
448,192,34906,1,0,0:0:0:0:
320,192,35038,1,0,0:0:0:0:
64,192,35170,128,2,35302:0:0:0:0:
192,192,35302,128,0,35434:0:0:0:0:
320,192,35434,128,0,35567:0:0:0:0:
448,192,35567,128,0,35699:0:0:0:0:
64,192,35699,128,0,35831:0:0:0:0:
320,192,35963,1,0,0:0:0:70:snareclap.wav
448,192,35963,1,0,0:0:0:0:
192,192,36095,1,0,0:0:0:0:
320,192,36227,128,2,36492:0:0:0:0:
64,192,36492,1,8,0:0:0:0:
448,192,36624,1,0,0:0:0:0:
192,192,36756,1,8,0:0:0:0:
320,192,36888,1,0,0:0:0:0:
64,192,37020,1,0,0:0:0:70:snareclap.wav
192,192,37020,1,0,0:0:0:0:
448,192,37152,1,2,0:0:0:0:
320,192,37285,128,0,37549:0:0:0:0:
64,192,37549,1,2,0:0:0:0:
448,192,37681,1,2,0:0:0:0:
192,192,37813,128,0,38078:0:0:0:0:
320,192,38078,128,0,38342:0:0:0:70:snareclap.wav
448,192,38078,1,0,0:0:0:0:
64,192,38342,128,0,38606:0:0:0:0:
448,192,38606,128,2,38870:0:0:0:0:
320,192,38870,128,2,39135:0:0:0:0:
64,192,39135,1,0,0:0:0:70:snareclap.wav
192,192,39135,1,0,0:0:0:0:
448,192,39399,128,2,39531:0:0:0:0:
320,192,39531,128,0,39663:0:0:0:0:
64,192,39663,128,0,39796:0:0:0:0:
192,192,39796,128,0,40192:0:0:0:0:
448,192,39928,1,0,0:0:0:0:
64,192,40060,1,0,0:0:0:70:LR_Tom Normal.wav
320,192,40192,1,0,0:0:0:70:snareclap.wav
448,192,40192,1,0,0:0:0:0:
192,192,40324,1,0,0:0:0:0:
64,192,40456,1,2,0:0:0:0:
320,192,40589,1,0,0:0:0:0:
448,192,40721,1,0,0:0:0:0:
192,192,40853,1,0,0:0:0:0:
320,192,40985,1,0,0:0:0:0:
192,192,41117,1,0,0:0:0:0:
64,192,41249,1,0,0:0:0:70:snareclap.wav
448,192,41249,1,0,0:0:0:0:
320,192,41382,1,2,0:0:0:0:
64,192,41514,128,0,41646:0:0:0:0:
192,192,41646,128,0,41778:0:0:0:0:
448,192,41778,128,2,42042:0:0:0:0:
320,192,41910,1,0,0:0:0:0:
64,192,42042,128,2,42307:0:0:0:0:
192,192,42174,1,0,0:0:0:0:
320,192,42307,1,0,0:0:0:70:snareclap.wav
448,192,42307,1,0,0:0:0:0:
192,192,42439,128,0,42835:0:0:0:0:
64,192,42835,128,4,43100:0:0:0:0:
448,192,42835,1,2,0:0:0:0:
320,192,43100,128,2,43364:0:0:0:0:
64,192,43364,1,0,0:0:0:70:snareclap.wav
448,192,43364,1,0,0:0:0:0:
192,192,43496,1,0,0:0:0:70:LR_Tom Hit.wav
448,192,43628,128,2,43760:0:0:0:0:
320,192,43760,128,0,43893:0:0:0:0:
192,192,43893,128,0,44025:0:0:0:0:
64,192,44025,128,0,44157:0:0:0:0:
448,192,44157,128,0,44289:0:0:0:0:
64,192,44421,1,0,0:0:0:70:snareclap.wav
192,192,44421,1,0,0:0:0:0:
320,192,44553,1,0,0:0:0:0:
448,192,44685,128,10,44950:0:0:0:0:
192,192,44818,1,0,0:0:0:0:
64,192,44950,1,8,0:0:0:0:
320,192,45082,1,0,0:0:0:0:
192,192,45214,1,8,0:0:0:0:
64,192,45346,1,0,0:0:0:50:snare.wav
320,192,45478,1,0,0:0:0:70:snareclap.wav
448,192,45478,1,0,0:0:0:0:
64,192,45611,1,2,0:0:0:0:
192,192,45743,128,0,45875:0:0:0:0:
320,192,45875,128,2,46007:0:0:0:0:
448,192,46007,128,2,46139:0:0:0:0:
64,192,46139,1,2,0:0:0:0:
320,192,46271,128,0,46536:0:0:0:0:
448,192,46404,1,0,0:0:0:70:LR_Tom Hit.wav
64,192,46536,1,0,0:0:0:70:snareclap.wav
192,192,46536,128,0,46800:0:0:0:0:
320,192,46668,1,0,0:0:0:70:LR_Tom Hit.wav
448,192,46800,128,0,47064:0:0:0:0:
64,192,46932,1,0,0:0:0:70:LR_Tom Hit.wav
320,192,47064,128,2,47329:0:0:0:0:
64,192,47329,128,2,47461:0:0:0:0:
192,192,47461,128,2,47593:0:0:0:0:
320,192,47593,1,0,0:0:0:70:snareclap.wav
448,192,47593,1,0,0:0:0:0:
64,192,47725,1,0,0:0:0:0:
192,192,47857,128,2,48122:0:0:0:0:
320,192,48122,1,0,0:0:0:0:
64,192,48254,1,0,0:0:0:0:
448,192,48386,128,0,48518:0:0:0:0:
320,192,48518,128,0,48650:0:0:0:70:LR_Tom Hit.wav
64,192,48650,1,0,0:0:0:70:snareclap.wav
192,192,48650,1,0,0:0:0:0:
448,192,48782,1,0,0:0:0:0:
192,192,48915,1,2,0:0:0:0:
320,192,49047,1,0,0:0:0:0:
64,192,49179,1,2,0:0:0:0:
320,192,49311,1,2,0:0:0:0:
320,192,49575,1,2,0:0:0:0:
64,192,49707,1,0,0:0:0:70:snareclap.wav
448,192,49707,1,0,0:0:0:0:
320,192,49840,1,0,0:0:0:0:
192,192,49972,1,2,0:0:0:0:
192,192,50104,1,2,0:0:0:0:
64,192,50236,1,0,0:0:0:70:snareclap.wav
448,192,50236,1,0,0:0:0:0:
320,192,50368,1,2,0:0:0:0:
320,192,50500,1,2,0:0:0:0:
192,192,50633,1,2,0:0:0:0:
64,192,50765,1,0,0:0:0:70:snareclap.wav
448,192,50765,1,0,0:0:0:0:
320,192,50897,128,0,51029:0:0:0:0:
192,192,51029,128,0,51293:0:0:0:0:
320,192,51293,1,2,0:0:0:0:
448,192,51293,1,4,0:0:0:0:
64,192,51690,1,2,0:0:0:0:
64,192,51954,1,2,0:0:0:0:
320,192,52086,1,8,0:0:0:0:
192,192,52219,1,0,0:0:0:0:
320,192,52351,1,0,0:0:0:100:clap.wav
448,192,52351,1,0,0:0:0:0:
64,192,52615,1,0,0:0:0:0:
320,192,52879,1,8,0:0:0:0:
192,192,53276,1,8,0:0:0:0:
448,192,53408,1,2,0:0:0:0:
448,192,53804,1,2,0:0:0:0:
448,192,54069,1,2,0:0:0:0:
192,192,54201,1,8,0:0:0:0:
320,192,54333,1,8,0:0:0:0:
64,192,54465,1,0,0:0:0:100:clap.wav
192,192,54465,1,0,0:0:0:0:
448,192,54730,1,0,0:0:0:0:
64,192,54994,1,8,0:0:0:0:
448,192,55390,1,8,0:0:0:0:
192,192,55522,1,2,0:0:0:0:
192,192,55919,1,2,0:0:0:0:
192,192,56183,1,2,0:0:0:0:
448,192,56315,1,8,0:0:0:0:
64,192,56448,1,0,0:0:0:0:
320,192,56580,1,0,0:0:0:100:clap.wav
448,192,56580,1,0,0:0:0:0:
192,192,56844,1,8,0:0:0:0:
320,192,56976,1,0,0:0:0:0:
64,192,57108,1,8,0:0:0:0:
192,192,57373,1,0,0:0:0:70:LR_Tom Normal.wav
448,192,57505,1,8,0:0:0:0:
64,192,57637,1,2,0:0:0:0:
320,192,58033,1,2,0:0:0:0:
320,192,58298,1,2,0:0:0:0:
64,192,58430,1,8,0:0:0:0:
448,192,58562,1,8,0:0:0:0:
64,192,58694,1,0,0:0:0:100:clap.wav
192,192,58694,1,0,0:0:0:0:
320,192,58959,1,8,0:0:0:0:
192,192,59223,1,2,0:0:0:0:
320,192,59487,1,0,0:0:0:70:LR_Tom Normal.wav
448,192,59619,1,8,0:0:0:0:
64,192,59752,1,2,0:0:0:0:
64,192,60148,1,2,0:0:0:0:
64,192,60412,1,2,0:0:0:0:
320,192,60544,1,8,0:0:0:0:
192,192,60677,1,0,0:0:0:0:
320,192,60809,1,0,0:0:0:100:clap.wav
448,192,60809,1,0,0:0:0:0:
64,192,61073,1,8,0:0:0:0:
192,192,61337,1,8,0:0:0:0:
320,192,61602,1,0,0:0:0:70:LR_Tom Normal.wav
64,192,61734,1,8,0:0:0:0:
448,192,61866,1,2,0:0:0:0:
448,192,62263,1,2,0:0:0:0:
448,192,62527,1,2,0:0:0:0:
192,192,62659,1,8,0:0:0:0:
320,192,62791,1,8,0:0:0:0:
64,192,62923,1,0,0:0:0:100:clap.wav
192,192,62923,1,0,0:0:0:0:
448,192,63188,1,0,0:0:0:50:snare.wav
320,192,63452,1,8,0:0:0:0:
64,192,63716,1,0,0:0:0:70:LR_Tom Normal.wav
192,192,63981,1,2,0:0:0:0:
192,192,64377,1,2,0:0:0:0:
192,192,64641,1,2,0:0:0:0:
448,192,64774,1,8,0:0:0:0:
64,192,64906,1,0,0:0:0:0:
320,192,65038,1,0,0:0:0:100:clap.wav
448,192,65038,1,0,0:0:0:0:
192,192,65302,1,8,0:0:0:0:
320,192,65567,1,8,0:0:0:0:
64,192,65831,1,0,0:0:0:70:LR_Tom Normal.wav
320,192,65963,1,8,0:0:0:0:
192,192,66095,1,2,0:0:0:0:
320,192,66624,1,2,0:0:0:0:
64,192,67020,1,0,0:0:0:0:
448,192,67152,128,0,67417:0:0:0:50:LR_J Hit Pong Drop.wav
320,192,67417,128,0,67681:0:0:0:0:
192,192,67681,128,0,67945:0:0:0:0:
320,192,67945,128,0,68210:0:0:0:100:discord_message.wav
64,192,68210,1,0,0:0:0:0:
448,192,68408,1,0,0:0:0:0:
192,192,68606,1,0,0:0:0:0:
320,192,68738,1,8,0:0:0:0:
448,192,68738,1,0,0:0:0:0:
64,192,69003,1,0,0:0:0:0:
320,192,69135,1,0,0:0:0:0:
192,192,69267,1,0,0:0:0:0:
320,192,69663,1,2,0:0:0:0:
64,192,69796,1,8,0:0:0:0:
192,192,69796,1,0,0:0:0:0:
448,192,69928,1,0,0:0:0:0:
192,192,70192,128,0,70589:0:0:0:0:
448,192,70721,1,0,0:0:0:0:
64,192,70853,1,8,0:0:0:0:
192,192,70853,1,0,0:0:0:0:
448,192,71117,1,0,0:0:0:0:
192,192,71249,1,0,0:0:0:0:
320,192,71382,1,0,0:0:0:0:
192,192,71646,1,0,0:0:0:0:
320,192,71910,1,8,0:0:0:0:
448,192,71910,1,0,0:0:0:0:
64,192,72042,1,2,0:0:0:0:
320,192,72307,1,0,0:0:0:0:
448,192,72439,1,2,0:0:0:0:
64,192,72703,128,0,72967:0:0:0:0:
320,192,72967,1,8,0:0:0:0:
448,192,72967,1,0,0:0:0:0:
64,192,73232,1,2,0:0:0:0:
320,192,73364,1,0,0:0:0:0:
192,192,73628,1,0,0:0:0:0:
320,192,73893,1,2,0:0:0:0:
64,192,74025,1,8,0:0:0:0:
192,192,74025,1,0,0:0:0:0:
448,192,74289,1,0,0:0:0:0:
320,192,74421,128,0,74818:0:0:0:0:
64,192,74818,1,0,0:0:0:0:
320,192,75082,1,8,0:0:0:0:
448,192,75082,1,0,0:0:0:0:
64,192,75346,1,0,0:0:0:0:
320,192,75478,1,0,0:0:0:0:
448,192,75611,1,0,0:0:0:50:snare.wav
320,192,75875,1,0,0:0:0:0:
64,192,76007,1,2,0:0:0:0:
192,192,76007,1,8,0:0:0:0:
320,192,76271,1,2,0:0:0:0:
448,192,76271,1,8,0:0:0:0:
192,192,76404,1,0,0:0:0:0:
64,192,76668,1,2,0:0:0:0:
448,192,76668,1,0,0:0:0:0:
320,192,77064,1,0,0:0:0:0:
64,192,77196,1,8,0:0:0:0:
192,192,77196,1,0,0:0:0:0:
448,192,77461,1,2,0:0:0:0:
192,192,77593,1,0,0:0:0:0:
64,192,77857,1,0,0:0:0:0:
192,192,78122,1,2,0:0:0:0:
320,192,78254,1,8,0:0:0:0:
448,192,78254,1,0,0:0:0:0:
64,192,78386,1,0,0:0:0:0:
320,192,78650,128,0,79047:0:0:0:0:
192,192,79179,1,0,0:0:0:0:
320,192,79311,1,8,0:0:0:0:
448,192,79311,1,0,0:0:0:0:
64,192,79575,1,0,0:0:0:0:
320,192,79707,1,0,0:0:0:0:
192,192,79840,1,0,0:0:0:0:
320,192,80104,1,0,0:0:0:0:
448,192,80236,1,2,0:0:0:0:
64,192,80368,1,8,0:0:0:0:
192,192,80368,1,0,0:0:0:0:
320,192,80633,1,0,0:0:0:0:
64,192,80897,1,2,0:0:0:0:
448,192,81161,128,0,81426:0:0:0:0:
64,192,81426,1,8,0:0:0:0:
192,192,81426,1,0,0:0:0:0:
448,192,81690,1,2,0:0:0:0:
192,192,81822,1,0,0:0:0:0:
320,192,82086,1,0,0:0:0:0:
192,192,82351,1,2,0:0:0:0:
320,192,82483,1,8,0:0:0:0:
448,192,82483,1,0,0:0:0:0:
64,192,82615,1,0,0:0:0:0:
192,192,82879,128,0,83276:0:0:0:0:
320,192,83276,1,0,0:0:0:0:
64,192,83408,1,0,0:0:0:0:
448,192,83540,128,8,83804:0:0:0:0:
320,192,83804,128,0,84069:0:0:0:0:
192,192,84069,1,0,0:0:0:0:
448,192,84201,1,0,0:0:0:0:
64,192,84333,128,0,84597:0:0:0:0:
192,192,84597,128,0,84862:0:0:0:0:
320,192,84862,128,0,85126:0:0:0:0:
64,192,85126,1,2,0:0:0:0:
448,192,85126,1,4,0:0:0:0:
192,192,85390,1,0,0:0:0:0:
320,192,85655,1,8,0:0:0:0:
448,192,85655,128,0,85919:0:0:0:0:
64,192,85919,1,2,0:0:0:0:
320,192,86183,128,0,86448:0:0:0:0:
192,192,86448,1,0,0:0:0:0:
64,192,86580,1,2,0:0:0:0:
320,192,86712,1,8,0:0:0:0:
448,192,86712,128,0,86976:0:0:0:0:
192,192,86976,1,0,0:0:0:0:
64,192,87108,128,0,87505:0:0:0:0:
448,192,87505,1,0,0:0:0:0:
64,192,87769,1,8,0:0:0:0:
192,192,87769,128,0,88033:0:0:0:0:
320,192,88033,128,0,88298:0:0:0:0:
448,192,88298,128,0,88562:0:0:0:0:
64,192,88562,128,0,88826:0:0:0:0:
320,192,88826,1,8,0:0:0:0:
448,192,88826,1,0,0:0:0:0:
192,192,88959,1,2,0:0:0:0:
448,192,89091,128,0,89355:0:0:0:0:
64,192,89355,1,2,0:0:0:0:
320,192,89355,1,0,0:0:0:0:
448,192,89619,1,0,0:0:0:0:
64,192,89884,128,8,90148:0:0:0:0:
192,192,89884,1,0,0:0:0:0:
320,192,90148,1,2,0:0:0:0:
192,192,90412,128,0,90677:0:0:0:0:
320,192,90677,1,0,0:0:0:0:
64,192,90809,1,2,0:0:0:0:
448,192,90941,1,8,0:0:0:0:
320,192,90941,128,0,91205:0:0:0:0:
192,192,91205,1,0,0:0:0:70:LR_Tom Normal.wav
448,192,91337,128,0,91734:0:0:0:0:
64,192,91734,1,0,0:0:0:0:
320,192,91998,1,8,0:0:0:0:
448,192,91998,1,0,0:0:0:0:
64,192,92263,1,0,0:0:0:0:
320,192,92395,1,0,0:0:0:0:
192,192,92527,1,0,0:0:0:0:
448,192,92659,1,0,0:0:0:0:
320,192,92791,1,0,0:0:0:0:
64,192,92923,1,2,0:0:0:0:
192,192,92923,1,8,0:0:0:0:
448,192,93056,1,0,0:0:0:0:
64,192,93188,1,2,0:0:0:0:
192,192,93188,1,8,0:0:0:0:
320,192,93320,128,8,93584:0:0:0:0:
64,192,93584,1,0,0:0:0:0:
448,192,93584,1,0,0:0:0:0:
192,192,93848,1,0,0:0:0:0:
320,192,94113,1,0,0:0:0:0:
192,192,94377,1,0,0:0:0:0:
448,192,94509,1,0,0:0:0:0:
64,192,94641,128,0,94774:0:0:0:70:LR_Tom Hit.wav
192,192,94774,128,0,94906:0:0:0:70:LR_Tom Hit.wav
448,192,94906,1,0,0:0:0:70:LR_Tom Normal.wav
320,192,95038,1,2,0:0:0:0:
64,192,95170,1,2,0:0:0:0:
320,192,95302,1,0,0:0:0:70:LR_Tom Hit.wav
64,192,95434,1,2,0:0:0:0:
192,192,95434,1,0,0:0:0:0:
448,192,95567,128,2,95963:0:0:0:0:
192,192,95963,1,0,0:0:0:0:
320,192,96227,1,8,0:0:0:0:
448,192,96227,1,0,0:0:0:0:
192,192,96359,1,0,0:0:0:0:
64,192,96492,1,0,0:0:0:0:
320,192,96624,1,0,0:0:0:0:
448,192,96756,1,0,0:0:0:0:
192,192,96888,1,0,0:0:0:0:
320,192,97020,1,0,0:0:0:0:
64,192,97152,1,2,0:0:0:0:
320,192,97285,1,8,0:0:0:0:
448,192,97285,1,0,0:0:0:0:
192,192,97417,1,2,0:0:0:0:
448,192,97549,128,0,97813:0:0:0:0:
64,192,97813,1,2,0:0:0:0:
320,192,97813,1,0,0:0:0:0:
448,192,98078,1,0,0:0:0:0:
64,192,98342,128,8,98606:0:0:0:0:
192,192,98342,1,0,0:0:0:0:
320,192,98606,1,2,0:0:0:0:
192,192,98870,128,0,99135:0:0:0:0:
320,192,99135,1,0,0:0:0:0:
448,192,99267,1,2,0:0:0:0:
64,192,99399,1,8,0:0:0:0:
192,192,99399,1,0,0:0:0:0:
320,192,99531,128,0,99796:0:0:0:50:LR_Tom Normal.wav
64,192,99796,128,0,100192:0:0:0:0:
192,192,100192,1,0,0:0:0:0:
448,192,100456,1,8,0:0:0:0:
320,192,100456,1,0,0:0:0:0:
64,192,100589,1,0,0:0:0:0:
448,192,100721,1,0,0:0:0:0:
192,192,100853,1,0,0:0:0:0:
320,192,100985,128,0,101249:0:0:0:0:
64,192,101249,1,0,0:0:0:0:
448,192,101382,1,10,0:0:0:0:
64,192,101514,1,0,0:0:0:70:snareclap.wav
192,192,101514,1,0,0:0:0:0:
64,192,102042,1,0,0:0:0:0:
320,192,102307,1,0,0:0:0:0:
448,192,102571,128,0,102835:0:0:0:0:
192,192,102835,128,0,103100:0:0:0:0:
320,192,103100,1,0,0:0:0:0:
64,192,103364,1,0,0:0:0:0:
320,192,103496,1,0,0:0:0:0:
192,192,103628,1,0,0:0:0:0:
448,192,103760,128,0,104025:0:0:0:0:
64,192,104025,1,0,0:0:0:0:
320,192,104223,128,0,104685:0:0:0:0:
64,192,104685,1,0,0:0:0:0:
192,192,104950,1,0,0:0:0:0:
320,192,105214,128,0,105743:0:0:0:0:
64,192,105743,1,0,0:0:0:0:
192,192,105875,1,0,0:0:0:0:
448,192,106007,1,0,0:0:0:0:
320,192,106139,1,0,0:0:0:0:
192,192,106271,128,0,106668:0:0:0:0:
320,192,106668,1,0,0:0:0:0:
64,192,106800,128,0,107064:0:0:0:0:
448,192,107064,1,0,0:0:0:0:
192,192,107196,1,0,0:0:0:0:
64,192,107461,1,0,0:0:0:0:
320,192,107725,128,0,107989:0:0:0:0:
192,192,107989,128,0,108254:0:0:0:0:
448,192,108254,1,0,0:0:0:0:
64,192,108386,128,0,108915:0:0:0:0:
448,192,108915,128,0,109179:0:0:0:0:
320,192,109179,128,0,109443:0:0:0:0:
64,192,109443,128,0,109707:0:0:0:0:
192,192,109707,128,0,109972:0:0:0:0:
448,192,109972,1,0,0:0:0:0:
320,192,110104,1,0,0:0:0:0:
64,192,110236,1,0,0:0:0:0:
192,192,110368,1,0,0:0:0:0:
448,192,110500,1,0,0:0:0:0:
192,192,110765,1,0,0:0:0:0:
320,192,111029,128,0,111293:0:0:0:0:
64,192,111293,128,0,111558:0:0:0:0:
448,192,111558,1,0,0:0:0:0:
192,192,111822,1,0,0:0:0:0:
64,192,111954,1,0,0:0:0:0:
448,192,112086,1,0,0:0:0:0:
320,192,112219,1,0,0:0:0:0:
64,192,112351,1,0,0:0:0:0:
192,192,112483,128,0,112747:0:0:0:0:
448,192,112747,128,0,113144:0:0:0:0:
64,192,113144,1,0,0:0:0:0:
192,192,113408,1,0,0:0:0:0:
320,192,113672,1,0,0:0:0:0:
448,192,114069,1,0,0:0:0:0:
192,192,114201,1,0,0:0:0:0:
320,192,114333,1,0,0:0:0:0:
64,192,114465,1,0,0:0:0:0:
320,192,114597,1,0,0:0:0:0:
192,192,114730,1,0,0:0:0:0:
448,192,114862,1,0,0:0:0:0:
320,192,115126,1,0,0:0:0:0:
64,192,115258,1,0,0:0:0:0:
448,192,115390,1,0,0:0:0:0:
192,192,115522,1,0,0:0:0:0:
320,192,115655,1,0,0:0:0:0:
64,192,115787,128,0,116051:0:0:0:0:
320,192,116051,128,0,116315:0:0:0:0:
192,192,116315,1,0,0:0:0:0:
448,192,116448,1,0,0:0:0:0:
64,192,116580,1,0,0:0:0:0:
320,192,116712,1,0,0:0:0:0:
192,192,116844,1,0,0:0:0:0:
192,192,117241,1,0,0:0:0:0:
448,192,117373,1,0,0:0:0:0:
64,192,117505,1,0,0:0:0:0:
320,192,117637,1,0,0:0:0:0:
192,192,117769,1,0,0:0:0:0:
64,192,117901,128,0,118166:0:0:0:0:
192,192,118166,128,0,118430:0:0:0:0:
448,192,118430,1,0,0:0:0:0:
192,192,118694,1,0,0:0:0:0:
320,192,118826,1,0,0:0:0:0:
64,192,118959,1,0,0:0:0:0:
192,192,118959,1,0,0:0:0:0:
320,192,119223,1,0,0:0:0:0:
448,192,119223,1,0,0:0:0:0:
64,192,119487,1,0,0:0:0:0:
192,192,119487,1,0,0:0:0:0:
448,192,119752,1,2,0:0:0:0:
192,192,119884,1,2,0:0:0:0:
320,192,120016,1,2,0:0:0:0:
448,192,120016,1,0,0:0:0:0:
64,192,120148,1,8,0:0:0:0:
64,192,120412,1,0,0:0:0:70:snareclap.wav
448,192,120412,1,0,0:0:0:0:
192,192,120544,1,0,0:0:0:0:
320,192,120809,1,2,0:0:0:0:
448,192,120809,1,0,0:0:0:0:
192,192,121205,1,0,0:0:0:0:
320,192,121337,128,0,121734:0:0:0:0:
64,192,121734,1,0,0:0:0:0:
192,192,121866,1,0,0:0:0:0:
448,192,121998,128,0,122263:0:0:0:0:
64,192,122263,1,2,0:0:0:0:
192,192,122263,1,0,0:0:0:0:
320,192,122395,1,8,0:0:0:0:
64,192,122527,1,2,0:0:0:0:
192,192,122527,1,0,0:0:0:0:
448,192,122659,1,0,0:0:0:70:snareclap.wav
64,192,122791,1,2,0:0:0:0:
192,192,122791,1,0,0:0:0:0:
320,192,122923,1,0,0:0:0:70:snareclap.wav
64,192,123188,128,2,123452:0:0:0:0:
448,192,123188,1,4,0:0:0:0:
320,192,123452,1,0,0:0:0:0:
64,192,123716,1,0,0:0:0:70:snareclap.wav
192,192,123716,1,0,0:0:0:0:
448,192,123848,1,0,0:0:0:0:
192,192,123981,128,0,124113:0:0:0:0:
320,192,124113,128,0,124245:0:0:0:50:snare.wav
192,192,124245,128,0,124377:0:0:0:0:
320,192,124377,128,0,124509:0:0:0:50:snare.wav
64,192,124509,128,2,124774:0:0:0:0:
192,192,124774,128,0,125038:0:0:0:70:snareclap.wav
448,192,124774,1,0,0:0:0:0:
320,192,125038,128,0,125302:0:0:0:0:
448,192,125302,128,0,125567:0:0:0:0:
64,192,125567,128,0,125699:0:0:0:0:
192,192,125699,128,0,125831:0:0:0:0:
320,192,125831,1,0,0:0:0:70:snareclap.wav
448,192,125831,1,0,0:0:0:0:
64,192,125963,128,0,126095:0:0:0:0:
448,192,126095,128,2,126227:0:0:0:0:
192,192,126227,128,2,126359:0:0:0:0:
64,192,126359,128,2,126624:0:0:0:0:
320,192,126492,1,0,0:0:0:0:
448,192,126624,128,2,126888:0:0:0:0:
192,192,126756,1,0,0:0:0:0:
64,192,126888,1,0,0:0:0:70:snareclap.wav
320,192,126888,1,0,0:0:0:0:
192,192,127020,1,0,0:0:0:70:LR_Tom Normal.wav
320,192,127152,1,2,0:0:0:0:
192,192,127285,1,0,0:0:0:0:
448,192,127417,128,2,127681:0:0:0:0:
64,192,127417,1,4,0:0:0:0:
64,192,127945,1,0,0:0:0:100:clap.wav
192,192,127945,1,0,0:0:0:0:
448,192,128078,128,0,128210:0:0:0:0:
320,192,128210,128,0,128342:0:0:0:0:
192,192,128342,128,0,128474:0:0:0:0:
64,192,128474,1,2,0:0:0:0:
320,192,128606,1,0,0:0:0:0:
448,192,128870,1,2,0:0:0:0:
64,192,129003,1,0,0:0:0:100:clap.wav
192,192,129003,1,0,0:0:0:0:
320,192,129135,1,0,0:0:0:0:
192,192,129267,128,6,129531:0:0:0:0:
64,192,130060,1,0,0:0:0:100:clap.wav
448,192,130060,1,0,0:0:0:0:
320,192,130324,1,0,0:0:0:0:
192,192,130456,1,0,0:0:0:0:
320,192,130589,128,2,130853:0:0:0:0:
64,192,130853,1,2,0:0:0:0:
192,192,130985,1,2,0:0:0:0:
448,192,131117,128,0,131382:0:0:0:100:clap.wav
320,192,131117,1,2,0:0:0:0:
64,192,131382,128,0,131646:0:0:0:0:
192,192,131646,128,4,131910:0:0:0:0:
320,192,131910,128,0,132174:0:0:0:0:
64,192,132174,1,0,0:0:0:70:snareclap.wav
448,192,132174,1,0,0:0:0:0:
192,192,132307,128,0,132439:0:0:0:0:
320,192,132439,1,0,0:0:0:0:
320,192,132571,1,0,0:0:0:0:
448,192,132703,1,2,0:0:0:0:
64,192,132703,1,0,0:0:0:0:
192,192,132835,1,0,0:0:0:0:
192,192,132967,1,0,0:0:0:0:
320,192,133100,1,0,0:0:0:0:
64,192,133232,1,0,0:0:0:70:snareclap.wav
192,192,133232,1,0,0:0:0:0:
320,192,133364,1,0,0:0:0:0:
448,192,133496,1,2,0:0:0:0:
192,192,133628,1,0,0:0:0:0:
320,192,133760,128,2,134025:0:0:0:0:
64,192,134025,128,2,134289:0:0:0:0:
320,192,134289,1,0,0:0:0:70:snareclap.wav
448,192,134289,1,0,0:0:0:0:
192,192,134421,128,0,134553:0:0:0:0:
448,192,134553,1,0,0:0:0:0:
64,192,134685,1,0,0:0:0:70:snareclap.wav
320,192,134818,128,0,134950:0:0:0:0:
64,192,134950,1,0,0:0:0:0:
448,192,135082,1,2,0:0:0:0:
192,192,135214,128,0,135346:0:0:0:0:
64,192,135346,1,0,0:0:0:0:
448,192,135478,1,0,0:0:0:70:snareclap.wav
320,192,135611,128,0,135809:0:0:0:0:
64,192,135875,1,0,0:0:0:0:
64,192,136139,1,0,0:0:0:0:
64,192,136404,1,0,0:0:0:0:
320,192,136536,1,2,0:0:0:0:
192,192,136668,1,2,0:0:0:0:
320,192,136800,1,2,0:0:0:0:
64,192,136932,1,2,0:0:0:0:
448,192,136932,128,4,137196:0:0:0:0:
320,192,137196,1,0,0:0:0:0:
64,192,137329,1,0,0:0:0:100:clap.wav
192,192,137329,1,0,0:0:0:0:
448,192,137461,1,0,0:0:0:70:snareclap.wav
320,192,137593,1,0,0:0:0:0:
192,192,137725,128,0,137989:0:0:0:70:bassdrop.wav
448,192,137989,1,0,0:0:0:0:
192,192,138254,1,0,0:0:0:0:
64,192,138518,1,0,0:0:0:100:clap.wav
448,192,138518,1,0,0:0:0:0:
320,192,138782,1,0,0:0:0:0:
192,192,139047,1,0,0:0:0:0:
448,192,139179,1,2,0:0:0:0:
320,192,139179,1,0,0:0:0:0:
64,192,139311,128,0,139443:0:0:0:0:
448,192,139443,1,2,0:0:0:0:
320,192,139443,1,0,0:0:0:0:
192,192,139575,1,0,0:0:0:100:clap.wav
448,192,139707,1,2,0:0:0:0:
320,192,139707,1,0,0:0:0:0:
64,192,139840,1,0,0:0:0:70:clapwave.wav
320,192,139972,1,0,0:0:0:0:
64,192,140104,1,2,0:0:0:0:
448,192,140104,1,4,0:0:0:0:
320,192,140368,1,0,0:0:0:0:
64,192,140500,128,2,140633:0:0:0:0:
320,192,140633,1,0,0:0:0:70:snareclap.wav
448,192,140633,1,0,0:0:0:0:
192,192,140765,128,0,140897:0:0:0:0:
320,192,140897,1,0,0:0:0:0:
320,192,141029,1,0,0:0:0:50:snare.wav
64,192,141161,1,0,0:0:0:0:
64,192,141293,1,0,0:0:0:50:snare.wav
448,192,141426,128,2,141690:0:0:0:0:
192,192,141426,1,0,0:0:0:0:
64,192,141690,1,0,0:0:0:70:snareclap.wav
320,192,141690,128,0,141954:0:0:0:0:
192,192,141954,128,0,142219:0:0:0:0:
64,192,142219,128,0,142483:0:0:0:0:
448,192,142483,1,0,0:0:0:0:
320,192,142615,1,0,0:0:0:0:
64,192,142747,1,0,0:0:0:70:snareclap.wav
192,192,142747,1,0,0:0:0:0:
320,192,142879,128,0,143011:0:0:0:0:
192,192,143011,1,2,0:0:0:0:
192,192,143144,1,2,0:0:0:0:
64,192,143276,1,2,0:0:0:0:
320,192,143408,1,0,0:0:0:0:
192,192,143540,1,2,0:0:0:0:
448,192,143672,128,0,143804:0:0:0:0:
64,192,143804,1,0,0:0:0:70:snareclap.wav
192,192,143804,1,0,0:0:0:0:
320,192,143937,1,0,0:0:0:70:LR_Tom Normal.wav
448,192,144069,128,2,144201:0:0:0:0:
320,192,144201,1,0,0:0:0:0:
192,192,144267,1,0,0:0:0:0:
64,192,144333,128,6,144597:0:0:0:0:
192,192,144597,1,0,0:0:0:100:clap2.wav
320,192,144862,1,0,0:0:0:100:clap.wav
448,192,144862,1,0,0:0:0:0:
64,192,144994,1,0,0:0:0:0:
192,192,145126,1,0,0:0:0:0:
448,192,145258,1,0,0:0:0:0:
64,192,145390,128,2,145522:0:0:0:0:
320,192,145522,128,0,145655:0:0:0:0:
448,192,145655,1,0,0:0:0:0:
64,192,145787,128,2,145919:0:0:0:0:
320,192,145919,1,0,0:0:0:100:clap.wav
448,192,145919,128,0,146051:0:0:0:0:
64,192,146183,128,6,147505:0:0:0:0:
320,192,146976,1,0,0:0:0:100:clap.wav
448,192,146976,1,0,0:0:0:0:
192,192,147241,1,0,0:0:0:0:
320,192,147373,1,0,0:0:0:0:
448,192,147505,1,0,0:0:0:0:
64,192,148033,1,2,0:0:0:0:
448,192,148033,128,4,148298:0:0:0:0:
192,192,148166,1,0,0:0:0:0:
320,192,148298,128,0,148562:0:0:0:0:
64,192,148562,128,4,148826:0:0:0:0:
320,192,148826,1,0,0:0:0:0:
64,192,149091,1,0,0:0:0:70:snareclap.wav
448,192,149091,1,0,0:0:0:0:
192,192,149223,128,0,149355:0:0:0:0:
320,192,149355,1,0,0:0:0:0:
320,192,149487,1,0,0:0:0:0:
64,192,149619,1,2,0:0:0:0:
192,192,149619,1,0,0:0:0:0:
448,192,149752,1,0,0:0:0:0:
448,192,149884,1,0,0:0:0:0:
320,192,150016,1,0,0:0:0:0:
64,192,150148,1,0,0:0:0:70:snareclap.wav
192,192,150148,1,0,0:0:0:0:
320,192,150280,1,0,0:0:0:0:
448,192,150412,1,2,0:0:0:0:
192,192,150544,1,0,0:0:0:0:
320,192,150677,128,2,150941:0:0:0:0:
64,192,150941,128,2,151205:0:0:0:0:
320,192,151205,1,0,0:0:0:70:snareclap.wav
448,192,151205,1,0,0:0:0:0:
192,192,151337,128,0,151470:0:0:0:0:
448,192,151470,1,0,0:0:0:0:
64,192,151602,1,0,0:0:0:70:snareclap.wav
320,192,151734,128,0,151866:0:0:0:0:
64,192,151866,1,0,0:0:0:0:
448,192,151998,1,2,0:0:0:0:
64,192,152130,128,0,152263:0:0:0:0:
192,192,152263,128,0,152791:0:0:0:50:LR_J Hit Pong Drop.wav
320,192,152263,128,0,152791:0:0:0:0:
64,192,152791,128,0,153584:0:0:0:0:
448,192,153584,1,0,0:0:0:0:
320,192,153716,1,0,0:0:0:0:
64,192,153848,1,0,0:0:0:0:
448,192,153981,1,0,0:0:0:0:
192,192,154113,1,0,0:0:0:0:
320,192,154245,1,0,0:0:0:0:
448,192,154377,1,0,0:0:0:0:
64,192,154641,1,0,0:0:0:0:
448,192,154906,128,0,155038:0:0:0:0:
192,192,155038,1,0,0:0:0:0:
320,192,155170,1,0,0:0:0:0:
64,192,155302,1,0,0:0:0:0:
192,192,155434,1,0,0:0:0:0:
320,192,155963,1,0,0:0:0:0:
64,192,156624,1,0,0:0:0:0:
192,192,156756,1,0,0:0:0:0:
448,192,156888,1,0,0:0:0:0:
320,192,157020,1,0,0:0:0:0:
64,192,158210,1,0,0:0:0:0:
320,192,158342,1,0,0:0:0:0:
192,192,158474,1,0,0:0:0:0:
448,192,158606,1,0,0:0:0:0:
64,192,159003,1,0,0:0:0:0:
448,192,159135,1,0,0:0:0:0:
320,192,159267,1,0,0:0:0:0:
192,192,159399,1,0,0:0:0:0:
448,192,159928,1,0,0:0:0:0:
192,192,160060,1,0,0:0:0:0:
320,192,160192,1,0,0:0:0:0:
192,192,160324,1,0,0:0:0:0:
64,192,160456,1,0,0:0:0:0:
448,192,160589,1,0,0:0:0:0:
192,192,160721,1,0,0:0:0:0:
320,192,160853,1,0,0:0:0:0:
448,192,160985,1,0,0:0:0:0:
320,192,161117,1,0,0:0:0:0:
192,192,161249,1,0,0:0:0:0:
64,192,161514,1,0,0:0:0:0:
320,192,161646,1,0,0:0:0:0:
192,192,161910,1,0,0:0:0:0:
448,192,162042,1,0,0:0:0:0:
448,192,162571,1,0,0:0:0:0:
192,192,162703,1,0,0:0:0:0:
320,192,162967,1,0,0:0:0:0:
64,192,163100,1,0,0:0:0:0:
192,192,163232,1,0,0:0:0:0:
448,192,163364,128,0,163893:0:0:0:0:
320,192,163893,128,0,164421:0:0:0:0:
64,192,164421,1,0,0:0:0:0:
448,192,164950,128,0,165214:0:0:0:0:
192,192,165214,1,0,0:0:0:0:
320,192,165346,1,0,0:0:0:0:
64,192,165478,1,0,0:0:0:0:
192,192,165743,1,0,0:0:0:0:
448,192,165875,1,0,0:0:0:0:
64,192,166139,1,0,0:0:0:0:
320,192,166271,1,0,0:0:0:0:
448,192,166800,1,0,0:0:0:0:
192,192,166932,1,0,0:0:0:0:
320,192,167196,1,0,0:0:0:0:
64,192,167329,1,0,0:0:0:0:
192,192,167461,1,0,0:0:0:0:
320,192,167857,1,0,0:0:0:0:
64,192,167989,1,0,0:0:0:0:
448,192,168254,1,0,0:0:0:0:
192,192,168386,1,0,0:0:0:0:
192,192,168915,1,0,0:0:0:0:
448,192,169047,1,0,0:0:0:0:
64,192,169311,1,0,0:0:0:0:
320,192,169575,1,0,0:0:0:0:
192,192,169707,1,0,0:0:0:0:
448,192,170500,128,0,170765:0:0:0:0:
64,192,170765,1,0,0:0:0:0:
192,192,170897,1,0,0:0:0:0:
320,192,171029,1,0,0:0:0:0:
448,192,171161,1,0,0:0:0:0:
192,192,171293,1,0,0:0:0:0:
320,192,171558,1,0,0:0:0:0:
64,192,171822,128,0,171954:0:0:0:0:
192,192,171954,1,0,0:0:0:0:
448,192,172086,1,0,0:0:0:0:
320,192,172219,1,0,0:0:0:0:
192,192,172351,1,0,0:0:0:0:
320,192,173540,1,0,0:0:0:0:
64,192,173672,1,0,0:0:0:0:
192,192,173804,1,0,0:0:0:0:
320,192,173937,1,0,0:0:0:0:
64,192,174333,1,0,0:0:0:0:
448,192,174465,1,0,0:0:0:0:
192,192,174730,1,0,0:0:0:0:
320,192,174994,1,0,0:0:0:0:
64,192,175258,1,0,0:0:0:0:
448,192,175390,1,0,0:0:0:0:
192,192,175522,1,0,0:0:0:0:
448,192,175787,1,0,0:0:0:0:
320,192,176051,1,0,0:0:0:0:
64,192,176315,1,0,0:0:0:0:
448,192,176448,1,0,0:0:0:0:
192,192,176580,1,0,0:0:0:0:
320,192,176844,1,0,0:0:0:0:
64,192,177108,1,0,0:0:0:0:
192,192,177373,1,0,0:0:0:0:
448,192,177637,1,0,0:0:0:0:
64,192,177769,1,0,0:0:0:0:
320,192,177901,1,0,0:0:0:0:
192,192,178166,128,0,178694:0:0:0:0:
320,192,178826,1,0,0:0:0:0:
64,192,178959,128,0,179223:0:0:0:0:
192,192,179223,1,0,0:0:0:0:
448,192,179355,1,0,0:0:0:0:
320,192,179487,1,0,0:0:0:0:
192,192,179619,1,0,0:0:0:0:
64,192,180148,1,0,0:0:0:0:
448,192,180280,1,0,0:0:0:0:
320,192,180412,1,0,0:0:0:0:
192,192,180544,1,0,0:0:0:0:
64,192,180677,1,0,0:0:0:0:
448,192,181073,1,0,0:0:0:0:
320,192,181205,1,0,0:0:0:0:
320,192,181337,1,0,0:0:0:0:
64,192,181470,1,0,0:0:0:0:
192,192,181602,1,0,0:0:0:0:
448,192,181734,1,0,0:0:0:0:
320,192,181866,1,0,0:0:0:0:
64,192,181998,1,0,0:0:0:0:
192,192,182130,1,0,0:0:0:0:
320,192,182263,1,0,0:0:0:0:
448,192,182395,1,0,0:0:0:0:
64,192,182593,1,0,0:0:0:0:
192,192,182857,1,0,0:0:0:0:
320,192,183122,1,0,0:0:0:0:
448,192,183386,128,0,184509:0:0:0:0:
