osu file format v14

[General]
AudioFilename: audio.mp3
AudioLeadIn: 0
PreviewTime: 84877
Countdown: 0
SampleSet: Normal
StackLeniency: 0.7
Mode: 1
LetterboxInBreaks: 0
WidescreenStoryboard: 0

[Editor]
Bookmarks: 44449,64984,85518,131080,141347
DistanceSpacing: 0.95
BeatDivisor: 4
GridSize: 32
TimelineZoom: 1.999999

[Metadata]
Title:four veiled stars
TitleUnicode:four veiled stars
Artist:BilliumMoto
ArtistUnicode:BilliumMoto
Creator:Nifty
Version:Oni
Source:osu!
Tags:featured artist fa guitar sv mappers guild faputa electronic zun 摩多羅 隠岐奈 okina matara 東方天空璋 ~ Hidden Star in 秘匿されたフォーシーズンズ The Concealed Seasons
BeatmapID:2075617
BeatmapSetID:972301

[Difficulty]
HPDrainRate:5
CircleSize:2
OverallDifficulty:5.5
ApproachRate:10
SliderMultiplier:1.4
SliderTickRate:1

[Events]
//Background and Video events
0,0,"dd.jpg",0,120
//Break Periods
2,65264,69667
//Storyboard Layer 0 (Background)
//Storyboard Layer 1 (Fail)
//Storyboard Layer 2 (Pass)
//Storyboard Layer 3 (Foreground)
//Storyboard Sound Samples

[TimingPoints]
813,320.855614973262,4,1,0,60,1,0
3379,-100,4,1,0,60,0,0
23914,-100,4,1,0,70,0,0
42042,-100,4,1,0,40,0,0
42845,-100,4,1,0,50,0,0
43246,-100,4,1,0,60,0,0
43486,-100,4,1,0,70,0,0
43807,-100,4,1,0,80,0,0
44449,-83.3333333333333,4,1,0,100,0,0
46615,-90.9090909090909,4,1,0,100,0,0
49422,-83.3333333333333,4,1,0,100,0,0
52069,-90.9090909090909,4,1,0,100,0,0
54636,-83.3333333333333,4,1,0,100,0,0
57283,-90.9090909090909,4,1,0,100,0,0
59770,-83.3333333333333,4,1,0,100,0,0
62577,-90.9090909090909,4,1,0,100,0,0
64984,-100,4,1,0,20,0,0
66267,-125,4,1,0,60,0,0
72684,-125,4,1,0,70,0,0
75171,-111.111111111111,4,1,0,70,0,0
85679,-100,4,1,0,70,0,0
116321,-100,4,1,0,80,0,0
116481,-111.111111111111,4,1,0,80,0,0
125625,-100,4,1,0,100,0,0
126588,-100,4,1,0,100,0,1
136855,-100,4,1,0,100,0,1
144556,-100,4,1,0,100,0,0

[HitObjects]
137,163,3380,5,0,0:0:0:0:
330,129,3540,1,8,0:0:0:0:
137,163,3861,1,0,0:0:0:0:
330,129,4021,1,8,0:0:0:0:
309,75,4342,1,0,0:0:0:0:
194,134,4663,1,0,0:0:0:0:
328,95,4823,1,8,0:0:0:0:
362,49,5144,1,0,0:0:0:0:
293,108,5304,1,8,0:0:0:0:
183,139,5625,1,0,0:0:0:0:
337,94,5946,1,0,0:0:0:0:
338,80,6107,1,8,0:0:0:0:
348,80,6427,1,0,0:0:0:0:
349,80,6588,1,8,0:0:0:0:
353,80,6909,1,0,0:0:0:0:
369,83,7230,1,0,0:0:0:0:
371,83,7390,1,8,0:0:0:0:
349,103,7711,1,0,0:0:0:0:
349,103,7871,1,8,0:0:0:0:
348,92,8192,1,0,0:0:0:0:
317,97,8353,1,8,0:0:0:0:
201,76,8513,1,0,0:0:0:0:
375,77,8673,1,0,0:0:0:0:
322,74,8834,1,8,0:0:0:0:
371,79,8914,1,8,0:0:0:0:
322,74,8994,1,0,0:0:0:0:
322,74,9155,1,8,0:0:0:0:
322,74,9315,1,8,0:0:0:0:
254,100,9476,1,0,0:0:0:0:
375,77,9636,1,8,0:0:0:0:
244,131,9796,1,0,0:0:0:0:
378,145,10117,1,8,0:0:0:0:
378,145,10278,1,0,0:0:0:0:
378,145,10438,1,8,0:0:0:0:
378,145,10599,1,8,0:0:0:0:
378,145,10759,1,0,0:0:0:0:
375,86,10919,1,8,0:0:0:0:
243,28,11079,1,0,0:0:0:0:
243,28,11561,1,0,0:0:0:0:
243,28,12042,1,0,0:0:0:0:
264,91,12363,1,0,0:0:0:0:
235,96,12684,1,8,0:0:0:0:
229,157,12845,1,0,0:0:0:0:
223,226,13005,1,8,0:0:0:0:
344,94,13165,1,8,0:0:0:0:
224,221,13326,1,0,0:0:0:0:
228,162,13486,1,0,0:0:0:0:
223,224,13647,1,0,0:0:0:0:
260,164,13807,1,8,0:0:0:0:
261,133,14128,1,0,0:0:0:0:
350,93,14288,1,8,0:0:0:0:
174,69,14609,1,0,0:0:0:0:
212,111,14770,1,8,0:0:0:0:
302,138,14930,1,0,0:0:0:0:
212,111,15091,1,8,0:0:0:0:
150,162,15411,1,0,0:0:0:0:
338,79,15572,1,8,0:0:0:0:
338,79,15732,1,8,0:0:0:0:
150,162,15893,1,0,0:0:0:0:
150,162,16053,1,8,0:0:0:0:
259,144,16214,1,0,0:0:0:0:
150,162,16374,1,8,0:0:0:0:
245,140,16695,1,0,0:0:0:0:
339,79,16855,1,8,0:0:0:0:
224,169,17176,1,0,0:0:0:0:
348,64,17256,1,0,0:0:0:0:
224,169,17337,1,8,0:0:0:0:
254,118,17497,1,0,0:0:0:0:
224,169,17657,1,8,0:0:0:0:
103,97,17978,1,0,0:0:0:0:
161,131,18139,1,8,0:0:0:0:
104,98,18299,1,8,0:0:0:0:
33,57,18460,1,0,0:0:0:0:
349,64,18620,1,8,0:0:0:0:
156,108,18780,1,0,0:0:0:0:
349,64,18941,1,0,0:0:0:0:
254,162,19101,1,8,0:0:0:0:
349,64,19181,1,8,0:0:0:0:
274,173,19262,1,0,0:0:0:0:
274,173,19422,1,8,0:0:0:0:
274,173,19583,1,8,0:0:0:0:
274,173,19743,1,0,0:0:0:0:
349,64,19823,1,0,0:0:0:0:
274,173,19903,1,8,0:0:0:0:
274,173,20064,1,0,0:0:0:0:
170,107,20385,1,8,0:0:0:0:
170,107,20545,1,0,0:0:0:0:
170,107,20706,1,8,0:0:0:0:
170,107,20866,1,8,0:0:0:0:
170,107,21026,1,0,0:0:0:0:
170,107,21187,1,8,0:0:0:0:
170,107,21347,1,0,0:0:0:0:
177,131,21829,1,0,0:0:0:0:
197,191,22310,1,0,0:0:0:0:
198,162,22390,1,0,0:0:0:0:
197,191,22631,1,0,0:0:0:0:
279,130,22952,1,8,0:0:0:0:
333,163,23112,1,0,0:0:0:0:
291,135,23272,1,0,0:0:0:0:
291,135,23433,1,8,0:0:0:0:
262,165,23593,1,0,0:0:0:0:
286,178,23673,1,0,0:0:0:0:
262,165,23754,1,0,0:0:0:0:
262,165,23914,1,12,0:0:0:0:
286,178,24235,1,8,0:0:0:0:
286,178,24395,1,0,0:0:0:0:
243,127,24556,1,8,0:0:0:0:
339,96,24716,1,0,0:0:0:0:
352,89,24877,1,8,0:0:0:0:
350,98,24957,1,0,0:0:0:0:
286,178,25037,1,0,0:0:0:0:
339,96,25198,1,0,0:0:0:0:
198,72,25518,1,8,0:0:0:0:
259,88,25679,1,0,0:0:0:0:
65,91,25839,1,8,0:0:0:0:
345,80,26000,1,0,0:0:0:0:
65,91,26160,1,8,0:0:0:0:
346,88,26240,1,0,0:0:0:0:
65,91,26321,1,8,0:0:0:0:
65,91,26481,1,0,0:0:0:0:
355,85,26802,1,8,0:0:0:0:
341,105,26962,1,8,0:0:0:0:
167,150,27123,1,0,0:0:0:0:
353,88,27283,1,8,0:0:0:0:
167,150,27444,1,0,0:0:0:0:
355,85,27524,1,0,0:0:0:0:
230,167,27604,1,8,0:0:0:0:
230,167,27764,1,0,0:0:0:0:
350,76,28085,1,0,0:0:0:0:
244,296,28246,1,8,0:0:0:0:
230,167,28406,1,0,0:0:0:0:
230,167,28567,1,8,0:0:0:0:
230,167,28727,1,8,0:0:0:0:
350,76,28887,1,0,0:0:0:0:
343,69,28968,1,0,0:0:0:0:
230,167,29048,1,8,0:0:0:0:
174,285,29369,1,8,0:0:0:0:
201,227,29529,1,0,0:0:0:0:
201,227,29690,1,8,0:0:0:0:
343,69,29850,1,0,0:0:0:0:
201,227,30010,1,8,0:0:0:0:
343,69,30091,1,0,0:0:0:0:
201,227,30171,1,0,0:0:0:0:
343,69,30331,1,0,0:0:0:0:
165,178,30652,1,8,0:0:0:0:
165,178,30812,1,0,0:0:0:0:
103,173,30973,1,8,0:0:0:0:
380,97,31133,1,8,0:0:0:0:
43,155,31294,1,0,0:0:0:0:
43,155,31454,1,8,0:0:0:0:
369,83,31534,1,8,0:0:0:0:
43,155,31615,1,0,0:0:0:0:
171,180,31935,1,0,0:0:0:0:
171,180,32096,1,0,0:0:0:0:
171,180,32256,1,0,0:0:0:0:
384,89,32417,1,0,0:0:0:0:
171,180,32577,1,0,0:0:0:0:
171,180,32738,1,8,0:0:0:0:
384,89,32818,1,8,0:0:0:0:
171,180,32898,1,0,0:0:0:0:
171,180,33058,1,8,0:0:0:0:
148,168,33139,1,8,0:0:0:0:
171,180,33219,1,8,0:0:0:0:
384,89,33379,1,0,0:0:0:0:
384,89,33540,1,8,0:0:0:0:
384,89,33620,1,8,0:0:0:0:
171,180,33700,1,0,0:0:0:0:
171,180,33861,1,8,0:0:0:0:
384,89,34021,1,8,0:0:0:0:
171,180,34181,1,0,0:0:0:0:
286,178,34502,1,8,0:0:0:0:
286,178,34662,1,0,0:0:0:0:
243,127,34823,1,8,0:0:0:0:
384,89,34984,1,0,0:0:0:0:
286,178,35144,1,8,0:0:0:0:
384,89,35224,1,0,0:0:0:0:
286,178,35304,1,0,0:0:0:0:
384,89,35465,1,0,0:0:0:0:
286,178,35785,1,8,0:0:0:0:
272,151,35946,1,0,0:0:0:0:
65,91,36106,1,8,0:0:0:0:
384,89,36267,1,0,0:0:0:0:
65,91,36427,1,8,0:0:0:0:
384,89,36508,1,8,0:0:0:0:
65,91,36588,1,0,0:0:0:0:
384,89,36748,1,0,0:0:0:0:
182,104,36909,1,8,0:0:0:0:
167,150,37069,1,0,0:0:0:0:
293,98,37230,1,8,0:0:0:0:
375,96,37550,1,8,0:0:0:0:
167,150,37711,1,0,0:0:0:0:
195,144,37791,1,0,0:0:0:0:
230,167,37871,1,0,0:0:0:0:
230,167,38031,1,8,0:0:0:0:
375,96,38192,1,8,0:0:0:0:
244,296,38352,1,0,0:0:0:0:
236,228,38513,1,8,0:0:0:0:
230,167,38673,1,0,0:0:0:0:
230,167,38753,1,0,0:0:0:0:
230,167,38834,1,0,0:0:0:0:
230,167,38994,1,8,0:0:0:0:
375,96,39075,1,8,0:0:0:0:
375,96,39155,1,0,0:0:0:0:
375,96,39315,1,8,0:0:0:0:
174,285,39636,1,8,0:0:0:0:
201,227,39796,1,0,0:0:0:0:
201,227,39957,1,8,0:0:0:0:
375,96,40117,1,0,0:0:0:0:
201,227,40277,1,8,0:0:0:0:
375,96,40358,1,0,0:0:0:0:
201,227,40438,1,0,0:0:0:0:
375,96,40599,1,0,0:0:0:0:
375,96,40759,1,0,0:0:0:0:
165,178,40919,1,8,0:0:0:0:
165,178,41079,1,0,0:0:0:0:
103,173,41240,1,8,0:0:0:0:
365,119,41401,1,0,0:0:0:0:
43,155,41561,1,8,0:0:0:0:
365,119,41641,1,0,0:0:0:0:
43,155,41722,1,8,0:0:0:0:
43,155,41882,1,0,0:0:0:0:
181,85,42203,1,0,0:0:0:0:
252,52,42363,1,0,0:0:0:0:
177,74,42524,1,8,0:0:0:0:
249,54,42684,1,8,0:0:0:0:
177,86,42845,1,0,0:0:0:0:
350,94,42925,1,0,0:0:0:0:
351,103,43005,1,0,0:0:0:0:
346,102,43085,1,0,0:0:0:0:
351,103,43165,1,8,0:0:0:0:
257,52,43326,1,8,0:0:0:0:
182,83,43486,1,0,0:0:0:0:
164,114,43567,1,0,0:0:0:0:
256,53,43647,1,0,0:0:0:0:
184,82,43807,1,12,0:0:0:0:
52,160,44449,1,4,0:0:0:0:
222,138,45572,1,12,0:0:0:0:
245,167,47016,1,4,0:0:0:0:
308,173,47176,1,8,0:0:0:0:
348,133,47256,1,8,0:0:0:0:
370,180,47337,1,0,0:0:0:0:
370,180,47497,1,8,0:0:0:0:
382,191,47577,5,8,0:0:0:0:
370,180,47657,1,8,0:0:0:0:
370,180,47818,1,0,0:0:0:0:
366,133,47898,1,0,0:0:0:0:
370,180,47978,1,8,0:0:0:0:
258,262,48299,1,0,0:0:0:0:
258,262,48460,1,8,0:0:0:0:
366,122,48540,1,8,0:0:0:0:
365,121,48620,1,0,0:0:0:0:
359,118,48700,1,0,0:0:0:0:
355,120,48780,1,8,0:0:0:0:
258,262,48941,1,0,0:0:0:0:
258,262,49021,1,0,0:0:0:0:
258,262,49101,1,0,0:0:0:0:
258,262,49262,1,8,0:0:0:0:
258,262,49583,1,4,0:0:0:0:
153,60,50706,1,12,0:0:0:0:
293,360,51508,1,12,0:0:0:0:
180,119,52149,1,4,0:0:0:0:
232,160,52310,1,8,0:0:0:0:
344,117,52390,1,8,0:0:0:0:
256,179,52470,1,0,0:0:0:0:
256,179,52631,1,8,0:0:0:0:
225,177,52711,1,8,0:0:0:0:
256,179,52791,1,8,0:0:0:0:
256,179,52952,1,0,0:0:0:0:
354,106,53032,1,0,0:0:0:0:
256,179,53112,1,8,0:0:0:0:
256,179,53433,1,0,0:0:0:0:
256,179,53593,1,0,0:0:0:0:
354,106,53673,1,0,0:0:0:0:
256,179,53754,1,8,0:0:0:0:
335,95,53834,1,0,0:0:0:0:
256,179,53914,1,8,0:0:0:0:
192,173,54075,1,0,0:0:0:0:
192,173,54155,1,0,0:0:0:0:
192,173,54235,1,0,0:0:0:0:
192,173,54395,1,8,0:0:0:0:
87,108,54716,1,4,0:0:0:0:
307,241,55358,1,4,0:0:0:0:
216,186,55599,1,4,0:0:0:0:
128,132,55839,1,12,0:0:0:0:
343,120,56321,1,0,0:0:0:0:
343,120,56481,1,0,0:0:0:0:
456,186,56641,1,12,0:0:0:0:
359,170,56882,1,4,0:0:0:0:
250,152,57123,1,12,0:0:0:0:
109,152,57444,1,0,0:0:0:0:
371,101,57524,1,0,0:0:0:0:
145,152,57604,1,8,0:0:0:0:
120,98,57764,1,0,0:0:0:0:
120,98,57845,1,0,0:0:0:0:
120,98,57925,1,0,0:0:0:0:
120,98,58085,1,0,0:0:0:0:
361,105,58165,1,0,0:0:0:0:
120,98,58246,1,8,0:0:0:0:
145,152,58567,1,0,0:0:0:0:
145,152,58727,1,8,0:0:0:0:
145,152,58807,1,8,0:0:0:0:
145,152,58887,1,8,0:0:0:0:
208,177,59048,1,0,0:0:0:0:
356,99,59128,1,8,0:0:0:0:
180,166,59208,1,0,0:0:0:0:
180,166,59288,1,0,0:0:0:0:
347,96,59449,1,0,0:0:0:0:
158,157,59529,1,8,0:0:0:0:
100,133,59690,1,8,0:0:0:0:
100,133,59850,1,4,0:0:0:0:
346,97,60171,1,8,0:0:0:0:
347,96,60331,1,8,0:0:0:0:
336,246,60492,1,4,0:0:0:0:
247,203,60732,1,4,0:0:0:0:
162,162,60973,1,12,0:0:0:0:
356,144,61454,1,0,0:0:0:0:
294,149,61615,1,8,0:0:0:0:
231,155,61775,1,4,0:0:0:0:
79,133,62016,1,4,0:0:0:0:
308,101,62256,1,12,0:0:0:0:
308,101,62417,1,12,0:0:0:0:
154,144,62738,1,0,0:0:0:0:
337,86,62818,1,0,0:0:0:0:
154,144,62898,1,8,0:0:0:0:
154,144,63058,1,0,0:0:0:0:
154,144,63139,1,0,0:0:0:0:
154,144,63219,1,0,0:0:0:0:
336,87,63299,1,0,0:0:0:0:
154,144,63379,1,8,0:0:0:0:
284,126,63540,1,8,0:0:0:0:
189,204,63700,1,0,0:0:0:0:
189,204,63861,1,8,0:0:0:0:
336,87,63941,1,8,0:0:0:0:
189,204,64021,1,0,0:0:0:0:
189,204,64181,1,8,0:0:0:0:
189,204,64262,1,8,0:0:0:0:
336,87,64342,1,0,0:0:0:0:
189,204,64422,1,0,0:0:0:0:
162,187,64502,1,0,0:0:0:0:
164,188,64663,1,8,0:0:0:0:
257,131,64984,1,0,0:0:0:0:
257,131,65064,1,8,0:0:0:0:
226,132,70117,5,8,0:0:0:0:
317,91,70438,1,8,0:0:0:0:
360,135,70759,1,8,0:0:0:0:
333,96,71080,1,8,0:0:0:0:
360,135,71401,1,8,0:0:0:0:
333,96,71722,1,8,0:0:0:0:
360,135,72042,1,8,0:0:0:0:
333,96,72363,1,8,0:0:0:0:
346,96,72524,1,8,0:0:0:0:
360,135,72684,1,8,0:0:0:0:
266,225,73005,1,8,0:0:0:0:
362,132,73326,1,8,0:0:0:0:
266,224,73647,1,8,0:0:0:0:
360,138,73968,1,8,0:0:0:0:
268,222,74288,1,8,0:0:0:0:
268,222,74609,1,8,0:0:0:0:
268,222,74930,1,8,0:0:0:0:
268,222,75091,1,8,0:0:0:0:
268,222,75251,1,4,0:0:0:0:
346,115,75572,1,8,0:0:0:0:
146,180,75732,1,0,0:0:0:0:
146,180,75893,1,8,0:0:0:0:
146,180,76133,1,0,0:0:0:0:
346,115,76214,1,8,0:0:0:0:
146,180,76374,1,0,0:0:0:0:
146,180,76534,1,8,0:0:0:0:
146,180,76775,1,0,0:0:0:0:
346,115,76855,1,8,0:0:0:0:
146,180,77016,1,8,0:0:0:0:
146,180,77176,1,0,0:0:0:0:
151,113,77337,1,0,0:0:0:0:
146,180,77497,1,8,0:0:0:0:
146,180,77657,1,0,0:0:0:0:
146,180,77818,1,8,0:0:0:0:
342,107,78139,1,8,0:0:0:0:
146,180,78299,1,0,0:0:0:0:
146,180,78460,1,8,0:0:0:0:
146,180,78700,1,0,0:0:0:0:
342,107,78780,1,8,0:0:0:0:
184,75,78941,1,0,0:0:0:0:
199,34,79101,1,8,0:0:0:0:
342,107,79262,1,8,0:0:0:0:
141,113,79342,1,8,0:0:0:0:
124,102,79422,1,8,0:0:0:0:
84,195,79583,1,0,0:0:0:0:
123,138,79743,1,8,0:0:0:0:
21,210,80064,1,0,0:0:0:0:
345,98,80144,1,0,0:0:0:0:
76,178,80224,1,0,0:0:0:0:
129,148,80385,1,8,0:0:0:0:
344,102,80706,1,8,0:0:0:0:
199,265,80866,1,0,0:0:0:0:
199,265,81026,1,8,0:0:0:0:
199,265,81267,1,0,0:0:0:0:
342,93,81347,1,8,0:0:0:0:
199,265,81508,1,0,0:0:0:0:
199,265,81668,1,8,0:0:0:0:
199,265,81909,1,0,0:0:0:0:
342,93,81989,1,8,0:0:0:0:
199,265,82149,1,8,0:0:0:0:
199,265,82310,1,0,0:0:0:0:
342,93,82470,1,0,0:0:0:0:
199,265,82631,1,8,0:0:0:0:
199,265,82791,1,0,0:0:0:0:
199,265,82952,1,8,0:0:0:0:
314,217,83272,1,8,0:0:0:0:
334,91,83433,1,0,0:0:0:0:
431,168,83593,1,8,0:0:0:0:
313,217,83914,1,8,0:0:0:0:
334,91,84075,1,0,0:0:0:0:
429,171,84235,1,8,0:0:0:0:
322,213,84556,1,8,0:0:0:0:
322,213,84877,1,8,0:0:0:0:
322,213,85037,1,0,0:0:0:0:
322,213,85198,1,8,0:0:0:0:
322,213,85358,1,8,0:0:0:0:
322,213,85518,1,0,0:0:0:0:
347,107,85839,1,8,0:0:0:0:
302,171,86000,1,0,0:0:0:0:
123,75,86160,1,8,0:0:0:0:
355,89,86240,1,0,0:0:0:0:
137,126,86321,1,8,0:0:0:0:
203,171,86481,1,0,0:0:0:0:
347,107,86641,1,8,0:0:0:0:
347,107,86722,1,8,0:0:0:0:
277,138,86802,1,0,0:0:0:0:
291,199,87123,1,8,0:0:0:0:
291,199,87283,1,0,0:0:0:0:
356,98,87363,1,0,0:0:0:0:
337,174,87444,1,8,0:0:0:0:
156,176,87604,1,8,0:0:0:0:
291,199,87764,1,0,0:0:0:0:
356,98,87845,1,8,0:0:0:0:
291,199,87925,1,0,0:0:0:0:
234,174,88085,1,0,0:0:0:0:
112,119,88406,1,8,0:0:0:0:
112,119,88567,1,0,0:0:0:0:
345,92,88647,1,0,0:0:0:0:
297,139,88727,1,8,0:0:0:0:
289,113,88887,1,8,0:0:0:0:
345,92,88968,1,0,0:0:0:0:
298,124,89048,1,8,0:0:0:0:
289,113,89208,1,0,0:0:0:0:
345,92,89369,1,0,0:0:0:0:
296,124,89529,1,8,0:0:0:0:
296,124,89609,1,8,0:0:0:0:
296,124,89690,1,0,0:0:0:0:
361,101,90010,1,8,0:0:0:0:
369,98,90171,1,0,0:0:0:0:
232,143,90331,1,8,0:0:0:0:
361,101,90411,1,8,0:0:0:0:
188,127,90492,1,0,0:0:0:0:
100,94,90652,1,8,0:0:0:0:
206,173,90973,1,8,0:0:0:0:
281,97,91133,1,8,0:0:0:0:
372,96,91214,1,0,0:0:0:0:
372,96,91294,1,8,0:0:0:0:
355,94,91615,1,0,0:0:0:0:
354,96,91695,1,0,0:0:0:0:
157,169,91775,1,8,0:0:0:0:
157,169,91935,1,0,0:0:0:0:
105,137,92096,1,0,0:0:0:0:
382,97,92176,1,0,0:0:0:0:
105,137,92256,1,8,0:0:0:0:
379,102,92417,1,0,0:0:0:0:
105,137,92577,1,8,0:0:0:0:
81,196,92738,1,0,0:0:0:0:
105,137,92898,1,0,0:0:0:0:
382,97,93139,1,0,0:0:0:0:
168,144,93219,1,8,0:0:0:0:
379,102,93299,1,0,0:0:0:0:
383,88,93460,1,0,0:0:0:0:
288,185,93540,1,8,0:0:0:0:
362,91,93620,1,8,0:0:0:0:
288,185,93700,1,0,0:0:0:0:
288,185,93861,1,8,0:0:0:0:
168,144,94181,1,0,0:0:0:0:
367,105,94262,1,0,0:0:0:0:
168,144,94342,1,8,0:0:0:0:
368,97,94502,1,0,0:0:0:0:
227,128,94663,1,8,0:0:0:0:
153,127,94823,1,0,0:0:0:0:
153,127,94984,1,8,0:0:0:0:
371,90,95064,1,0,0:0:0:0:
370,90,95144,1,8,0:0:0:0:
377,89,95304,1,0,0:0:0:0:
364,89,95385,1,8,0:0:0:0:
94,147,95465,1,0,0:0:0:0:
94,147,95786,1,8,0:0:0:0:
160,57,96107,1,8,0:0:0:0:
289,95,96267,1,0,0:0:0:0:
372,84,96347,1,0,0:0:0:0:
289,95,96427,1,8,0:0:0:0:
161,121,96588,1,8,0:0:0:0:
203,171,96748,1,0,0:0:0:0:
372,84,96829,1,8,0:0:0:0:
238,213,96908,1,0,0:0:0:0:
186,195,97069,1,0,0:0:0:0:
291,199,97390,1,8,0:0:0:0:
291,199,97550,1,0,0:0:0:0:
387,92,97631,1,0,0:0:0:0:
285,140,97711,1,8,0:0:0:0:
156,176,97871,1,8,0:0:0:0:
291,199,98031,1,0,0:0:0:0:
291,199,98112,1,0,0:0:0:0:
291,199,98192,1,0,0:0:0:0:
234,174,98352,1,0,0:0:0:0:
112,119,98673,1,8,0:0:0:0:
379,99,98834,1,0,0:0:0:0:
379,99,98994,1,0,0:0:0:0:
379,99,99075,1,0,0:0:0:0:
112,119,99154,1,8,0:0:0:0:
295,132,99315,1,8,0:0:0:0:
379,99,99395,1,8,0:0:0:0:
295,132,99476,1,0,0:0:0:0:
379,99,99636,1,0,0:0:0:0:
305,128,99796,1,8,0:0:0:0:
305,128,99877,1,8,0:0:0:0:
289,121,99957,1,0,0:0:0:0:
232,143,100277,1,0,0:0:0:0:
232,143,100438,1,8,0:0:0:0:
379,99,100599,1,0,0:0:0:0:
379,99,100679,1,8,0:0:0:0:
188,127,100759,1,0,0:0:0:0:
100,94,100919,1,8,0:0:0:0:
379,99,101080,1,0,0:0:0:0:
206,173,101240,1,8,0:0:0:0:
379,99,101321,1,0,0:0:0:0:
281,97,101400,1,8,0:0:0:0:
298,242,101561,1,8,0:0:0:0:
390,104,101882,1,0,0:0:0:0:
390,104,101962,1,0,0:0:0:0:
390,104,102042,1,8,0:0:0:0:
157,169,102202,1,0,0:0:0:0:
105,137,102363,1,0,0:0:0:0:
397,102,102444,1,0,0:0:0:0:
105,137,102523,1,8,0:0:0:0:
397,92,102684,1,0,0:0:0:0:
105,137,102844,1,8,0:0:0:0:
81,196,103005,1,0,0:0:0:0:
105,137,103165,1,0,0:0:0:0:
388,89,103406,1,0,0:0:0:0:
168,144,103486,1,8,0:0:0:0:
388,89,103567,1,0,0:0:0:0:
397,85,103727,1,0,0:0:0:0:
288,185,103807,1,8,0:0:0:0:
393,84,103887,1,8,0:0:0:0:
288,185,103967,1,0,0:0:0:0:
388,89,104128,1,8,0:0:0:0:
168,144,104448,1,0,0:0:0:0:
381,71,104529,1,0,0:0:0:0:
168,144,104609,1,8,0:0:0:0:
388,73,104770,1,0,0:0:0:0:
227,128,104930,1,8,0:0:0:0:
153,127,105090,1,0,0:0:0:0:
388,73,105171,1,0,0:0:0:0:
153,127,105251,1,8,0:0:0:0:
391,75,105331,1,0,0:0:0:0:
153,127,105411,1,8,0:0:0:0:
388,73,105572,1,0,0:0:0:0:
388,73,105732,1,8,0:0:0:0:
300,119,105893,1,8,0:0:0:0:
157,160,106053,5,4,0:0:0:0:
404,76,106374,1,8,0:0:0:0:
412,81,106454,1,8,0:0:0:0:
157,160,106534,1,0,0:0:0:0:
157,160,106855,1,8,0:0:0:0:
412,87,106935,1,8,0:0:0:0:
157,160,107016,1,0,0:0:0:0:
157,160,107176,1,8,0:0:0:0:
157,160,107337,1,0,0:0:0:0:
412,87,107657,1,8,0:0:0:0:
412,87,107738,1,8,0:0:0:0:
157,160,107818,1,0,0:0:0:0:
412,87,107898,1,0,0:0:0:0:
157,160,107978,1,8,0:0:0:0:
412,87,108139,1,0,0:0:0:0:
157,160,108299,1,8,0:0:0:0:
157,160,108460,1,8,0:0:0:0:
98,126,108620,1,0,0:0:0:0:
412,87,108941,1,8,0:0:0:0:
412,87,109021,1,8,0:0:0:0:
161,121,109101,1,0,0:0:0:0:
161,121,109422,1,8,0:0:0:0:
412,87,109502,1,8,0:0:0:0:
161,121,109583,1,0,0:0:0:0:
161,121,109743,1,8,0:0:0:0:
161,121,109903,1,0,0:0:0:0:
243,172,110144,1,8,0:0:0:0:
161,121,110224,1,8,0:0:0:0:
161,121,110385,1,0,0:0:0:0:
109,78,110545,1,8,0:0:0:0:
109,78,110866,1,0,0:0:0:0:
109,78,111026,1,8,0:0:0:0:
392,74,111107,1,0,0:0:0:0:
109,78,111187,1,8,0:0:0:0:
392,74,111347,1,0,0:0:0:0:
206,173,111508,1,8,0:0:0:0:
254,209,111668,1,8,0:0:0:0:
277,226,111749,1,8,0:0:0:0:
298,242,111829,1,8,0:0:0:0:
242,213,111989,1,0,0:0:0:0:
184,183,112150,1,0,0:0:0:0:
157,169,112310,1,8,0:0:0:0:
364,80,112470,1,8,0:0:0:0:
105,137,112631,1,0,0:0:0:0:
105,137,112791,1,8,0:0:0:0:
372,77,112952,1,0,0:0:0:0:
105,137,113112,1,8,0:0:0:0:
81,196,113273,1,0,0:0:0:0:
105,137,113433,1,0,0:0:0:0:
372,77,113673,1,0,0:0:0:0:
168,144,113754,1,8,0:0:0:0:
372,77,113914,1,0,0:0:0:0:
288,185,114075,1,8,0:0:0:0:
288,185,114235,1,8,0:0:0:0:
288,185,114315,1,8,0:0:0:0:
288,185,114396,1,8,0:0:0:0:
168,144,114556,1,0,0:0:0:0:
168,144,114716,1,0,0:0:0:0:
168,144,114877,1,8,0:0:0:0:
372,77,114957,1,8,0:0:0:0:
227,128,115198,1,8,0:0:0:0:
388,79,115278,1,8,0:0:0:0:
153,127,115358,1,0,0:0:0:0:
153,127,115519,1,8,0:0:0:0:
380,79,115599,1,0,0:0:0:0:
153,127,115679,1,8,0:0:0:0:
94,147,115839,1,0,0:0:0:0:
94,147,116000,1,8,0:0:0:0:
388,79,116080,1,8,0:0:0:0:
94,147,116160,1,8,0:0:0:0:
153,127,116321,1,0,0:0:0:0:
153,127,116802,1,0,0:0:0:0:
153,127,117283,1,0,0:0:0:0:
153,127,117604,1,0,0:0:0:0:
153,127,118085,1,0,0:0:0:0:
153,127,118567,1,0,0:0:0:0:
153,127,118887,1,8,0:0:0:0:
153,127,119369,1,8,0:0:0:0:
153,127,119850,1,8,0:0:0:0:
153,127,120171,1,8,0:0:0:0:
289,95,120812,1,8,0:0:0:0:
289,95,121133,1,8,0:0:0:0:
289,95,121454,1,8,0:0:0:0:
289,95,121615,1,8,0:0:0:0:
371,103,121695,1,0,0:0:0:0:
384,122,121775,1,8,0:0:0:0:
436,247,122096,1,8,0:0:0:0:
383,105,122176,1,0,0:0:0:0:
436,247,122256,1,8,0:0:0:0:
389,102,122337,1,0,0:0:0:0:
379,222,122577,1,8,0:0:0:0:
321,197,122738,1,8,0:0:0:0:
371,105,122818,1,0,0:0:0:0:
261,171,122898,1,8,0:0:0:0:
200,144,123058,1,8,0:0:0:0:
371,105,123139,1,0,0:0:0:0:
200,144,123219,1,8,0:0:0:0:
200,144,123700,1,0,0:0:0:0:
371,105,123941,1,0,0:0:0:0:
264,220,124021,1,8,0:0:0:0:
264,220,124181,1,8,0:0:0:0:
371,105,124262,1,0,0:0:0:0:
264,220,124342,1,8,0:0:0:0:
202,178,124663,1,8,0:0:0:0:
371,105,124743,1,0,0:0:0:0:
158,147,124823,1,8,0:0:0:0:
371,105,124903,1,0,0:0:0:0:
67,140,125144,1,0,0:0:0:0:
371,105,125224,1,0,0:0:0:0:
67,140,125304,1,8,0:0:0:0:
67,140,125465,1,0,0:0:0:0:
125,116,125625,1,12,0:0:0:0:
180,131,125786,1,8,0:0:0:0:
248,152,125946,1,4,0:0:0:0:
144,134,126588,1,12,0:0:0:0:
144,134,126748,1,0,0:0:0:0:
367,106,126829,1,0,0:0:0:0:
144,134,126909,1,8,0:0:0:0:
367,106,127069,1,0,0:0:0:0:
144,134,127230,1,8,0:0:0:0:
144,134,127310,1,8,0:0:0:0:
144,134,127390,1,8,0:0:0:0:
144,134,127550,1,0,0:0:0:0:
144,134,127711,1,8,0:0:0:0:
255,174,128032,1,0,0:0:0:0:
299,190,128192,1,8,0:0:0:0:
299,190,128353,1,0,0:0:0:0:
363,103,128433,1,0,0:0:0:0:
299,190,128513,1,8,0:0:0:0:
299,190,128673,1,0,0:0:0:0:
299,190,128754,1,0,0:0:0:0:
299,190,128834,1,0,0:0:0:0:
299,190,128994,1,8,0:0:0:0:
246,194,129315,1,0,0:0:0:0:
246,194,129476,1,8,0:0:0:0:
359,107,129636,1,0,0:0:0:0:
308,189,129796,1,8,0:0:0:0:
359,107,129877,1,0,0:0:0:0:
309,222,129957,1,8,0:0:0:0:
249,203,130117,1,0,0:0:0:0:
185,183,130278,1,8,0:0:0:0:
359,107,130358,1,8,0:0:0:0:
120,164,130438,1,8,0:0:0:0:
192,173,130599,1,0,0:0:0:0:
359,107,130759,1,0,0:0:0:0:
367,104,130919,1,0,0:0:0:0:
308,189,131080,1,8,0:0:0:0:
373,109,131160,1,8,0:0:0:0:
308,189,131240,1,0,0:0:0:0:
265,176,131401,1,8,0:0:0:0:
132,208,131722,1,8,0:0:0:0:
144,134,131882,1,0,0:0:0:0:
378,98,131962,1,0,0:0:0:0:
144,134,132043,1,8,0:0:0:0:
378,98,132203,1,0,0:0:0:0:
144,134,132364,1,8,0:0:0:0:
144,134,132444,1,8,0:0:0:0:
144,134,132524,1,8,0:0:0:0:
144,134,132684,1,0,0:0:0:0:
144,134,132845,1,8,0:0:0:0:
255,174,133166,1,0,0:0:0:0:
299,190,133326,1,8,0:0:0:0:
299,190,133487,1,0,0:0:0:0:
378,97,133567,1,0,0:0:0:0:
299,190,133647,1,8,0:0:0:0:
378,97,133807,1,0,0:0:0:0:
299,190,133968,1,8,0:0:0:0:
299,190,134128,1,8,0:0:0:0:
263,181,134208,1,8,0:0:0:0:
246,194,134289,1,8,0:0:0:0:
246,194,134449,1,0,0:0:0:0:
246,194,134610,1,8,0:0:0:0:
391,76,134930,1,8,0:0:0:0:
383,91,135091,1,0,0:0:0:0:
413,252,135251,1,8,0:0:0:0:
385,84,135331,1,8,0:0:0:0:
413,252,135411,1,0,0:0:0:0:
413,252,135572,1,8,0:0:0:0:
391,76,135652,1,8,0:0:0:0:
359,240,135732,1,0,0:0:0:0:
396,64,135893,1,8,0:0:0:0:
273,207,135973,1,0,0:0:0:0:
254,189,136053,1,0,0:0:0:0:
206,145,136214,1,8,0:0:0:0:
208,134,136294,1,8,0:0:0:0:
206,145,136374,1,8,0:0:0:0:
147,183,136534,1,0,0:0:0:0:
284,185,136855,1,12,0:0:0:0:
144,134,137176,1,8,0:0:0:0:
325,139,137337,1,0,0:0:0:0:
368,85,137417,1,0,0:0:0:0:
144,134,137497,1,8,0:0:0:0:
144,134,137657,1,8,0:0:0:0:
144,134,137818,1,0,0:0:0:0:
365,70,137898,1,8,0:0:0:0:
365,71,137978,1,0,0:0:0:0:
363,69,138139,1,8,0:0:0:0:
255,174,138299,1,0,0:0:0:0:
299,190,138459,1,8,0:0:0:0:
299,190,138620,1,0,0:0:0:0:
365,70,138700,1,0,0:0:0:0:
299,190,138780,1,8,0:0:0:0:
299,190,138940,1,0,0:0:0:0:
261,123,139101,1,0,0:0:0:0:
299,190,139181,1,0,0:0:0:0:
299,190,139261,1,8,0:0:0:0:
246,194,139582,1,0,0:0:0:0:
246,194,139743,1,8,0:0:0:0:
356,61,139903,1,0,0:0:0:0:
308,189,140063,1,8,0:0:0:0:
356,61,140144,1,8,0:0:0:0:
361,65,140224,1,0,0:0:0:0:
249,203,140384,1,0,0:0:0:0:
185,183,140545,1,8,0:0:0:0:
356,61,140625,1,8,0:0:0:0:
120,164,140705,1,8,0:0:0:0:
192,173,140866,1,0,0:0:0:0:
356,61,141026,1,0,0:0:0:0:
356,61,141187,1,0,0:0:0:0:
308,189,141347,1,8,0:0:0:0:
356,61,141427,1,0,0:0:0:0:
308,189,141507,1,0,0:0:0:0:
265,176,141668,1,8,0:0:0:0:
246,163,141748,1,8,0:0:0:0:
208,137,141829,1,8,0:0:0:0:
178,72,141989,1,4,0:0:0:0:
137,134,142149,1,4,0:0:0:0:
264,238,142550,1,8,0:0:0:0:
242,220,142631,1,8,0:0:0:0:
192,179,142791,1,0,0:0:0:0:
192,179,142952,1,8,0:0:0:0:
192,179,143112,1,4,0:0:0:0:
78,143,143433,1,4,0:0:0:0:
135,161,143593,1,4,0:0:0:0:
201,50,143914,1,8,0:0:0:0:
153,134,144155,1,8,0:0:0:0:
153,134,144235,1,8,0:0:0:0:
328,51,144395,1,0,0:0:0:0:
153,134,144556,1,4,0:0:0:0:
281,159,144877,1,0,0:0:0:0:
339,171,145037,1,0,0:0:0:0:
339,171,145198,1,8,0:0:0:0:
352,65,145358,1,0,0:0:0:0:
339,171,145518,1,8,0:0:0:0:
339,171,145679,1,0,0:0:0:0:
339,171,145839,1,8,0:0:0:0:
352,65,146000,1,0,0:0:0:0:
339,171,146160,1,8,0:0:0:0:
339,171,146321,1,0,0:0:0:0:
339,171,146481,1,8,0:0:0:0:
357,74,146641,1,0,0:0:0:0:
339,171,146802,1,8,0:0:0:0:
