osu file format v14

[General]
AudioFilename: audio.mp3
AudioLeadIn: 0
PreviewTime: 84877
Countdown: 0
SampleSet: Normal
StackLeniency: 0.7
Mode: 1
LetterboxInBreaks: 0
WidescreenStoryboard: 0

[Editor]
Bookmarks: 44449,64984,85518,131080,141347
DistanceSpacing: 0.95
BeatDivisor: 4
GridSize: 32
TimelineZoom: 1.999999

[Metadata]
Title:four veiled stars
TitleUnicode:four veiled stars
Artist:BilliumMoto
ArtistUnicode:BilliumMoto
Creator:Nifty
Version:Kantan
Source:osu!
Tags:featured artist fa guitar sv mappers guild faputa electronic zun 摩多羅 隠岐奈 okina matara 東方天空璋 ~ Hidden Star in 秘匿されたフォーシーズンズ The Concealed Seasons
BeatmapID:2073553
BeatmapSetID:972301

[Difficulty]
HPDrainRate:7.5
CircleSize:2
OverallDifficulty:3.5
ApproachRate:10
SliderMultiplier:1.4
SliderTickRate:1

[Events]
//Background and Video events
0,0,"dd.jpg",0,120
//Break Periods
2,65184,69667
//Storyboard Layer 0 (Background)
//Storyboard Layer 1 (Fail)
//Storyboard Layer 2 (Pass)
//Storyboard Layer 3 (Foreground)
//Storyboard Sound Samples

[TimingPoints]
813,320.855614973262,4,1,0,60,1,0
3379,-100,4,1,0,60,0,0
23914,-100,4,1,0,70,0,0
42042,-100,4,1,0,40,0,0
42845,-100,4,1,0,50,0,0
43246,-100,4,1,0,60,0,0
43486,-100,4,1,0,70,0,0
43807,-100,4,1,0,80,0,0
44449,-100,4,1,0,100,0,0
64984,-100,4,1,0,20,0,0
66267,-100,4,1,0,60,0,0
72684,-100,4,1,0,70,0,0
116321,-100,4,1,0,80,0,0
125625,-100,4,1,0,100,0,0
126588,-100,4,1,0,100,0,1
136855,-100,4,1,0,100,0,1
144556,-100,4,1,0,100,0,0

[HitObjects]
137,163,3379,5,0,0:0:0:0:
309,75,4342,1,0,0:0:0:0:
265,108,4663,1,0,0:0:0:0:
362,49,5304,1,8,0:0:0:0:
295,81,5946,1,8,0:0:0:0:
267,90,6909,1,8,0:0:0:0:
260,78,7230,1,8,0:0:0:0:
363,140,7871,1,0,0:0:0:0:
201,76,8513,1,0,0:0:0:0:
322,74,8834,1,8,0:0:0:0:
322,74,9155,1,8,0:0:0:0:
244,131,9796,1,0,0:0:0:0:
378,145,10117,1,8,0:0:0:0:
378,145,10438,1,8,0:0:0:0:
235,96,12684,1,8,0:0:0:0:
223,226,13005,1,8,0:0:0:0:
224,221,13326,1,8,0:0:0:0:
223,224,13647,1,0,0:0:0:0:
174,69,14609,1,0,0:0:0:0:
257,146,14930,1,0,0:0:0:0:
150,162,15572,1,8,0:0:0:0:
150,162,16214,1,8,0:0:0:0:
224,169,17176,1,8,0:0:0:0:
224,169,17497,1,8,0:0:0:0:
103,97,18139,1,0,0:0:0:0:
156,108,18780,1,0,0:0:0:0:
254,162,19101,1,8,0:0:0:0:
274,173,19422,1,8,0:0:0:0:
274,173,20064,1,0,0:0:0:0:
170,107,20385,1,8,0:0:0:0:
170,107,20706,1,8,0:0:0:0:
170,107,21347,1,0,0:0:0:0:
197,191,22631,1,0,0:0:0:0:
279,130,22952,1,8,0:0:0:0:
291,135,23272,1,0,0:0:0:0:
262,165,23914,1,12,0:0:0:0:
243,127,24556,1,8,0:0:0:0:
286,178,25037,1,0,0:0:0:0:
286,178,25518,1,8,0:0:0:0:
65,91,25839,1,8,0:0:0:0:
65,91,26321,1,0,0:0:0:0:
167,150,27444,1,0,0:0:0:0:
230,167,27764,1,0,0:0:0:0:
230,167,28406,1,0,0:0:0:0:
230,167,28727,1,8,0:0:0:0:
230,167,29048,1,8,0:0:0:0:
201,227,29690,1,8,0:0:0:0:
201,227,30171,1,0,0:0:0:0:
165,178,30652,1,8,0:0:0:0:
103,173,30973,1,8,0:0:0:0:
43,155,31454,1,8,0:0:0:0:
171,180,32577,1,0,0:0:0:0:
171,180,33219,1,8,0:0:0:0:
171,180,33540,1,0,0:0:0:0:
171,180,34181,1,0,0:0:0:0:
243,127,34823,1,8,0:0:0:0:
286,178,35304,1,0,0:0:0:0:
286,178,35785,1,8,0:0:0:0:
65,91,36106,1,8,0:0:0:0:
65,91,36588,1,0,0:0:0:0:
167,150,37069,1,0,0:0:0:0:
230,167,38031,1,8,0:0:0:0:
230,167,38673,1,0,0:0:0:0:
230,167,38994,1,8,0:0:0:0:
230,167,39315,1,0,0:0:0:0:
201,227,39957,1,8,0:0:0:0:
201,227,40438,1,0,0:0:0:0:
165,178,40919,1,8,0:0:0:0:
103,173,41240,1,8,0:0:0:0:
43,155,41722,1,8,0:0:0:0:
181,85,42203,1,0,0:0:0:0:
177,74,42524,1,8,0:0:0:0:
183,83,43165,1,0,0:0:0:0:
182,83,43486,1,0,0:0:0:0:
184,82,43807,1,12,0:0:0:0:
52,160,44449,1,4,0:0:0:0:
222,138,45572,1,12,0:0:0:0:
245,167,47016,1,4,0:0:0:0:
370,180,47337,1,0,0:0:0:0:
370,180,47657,1,8,0:0:0:0:
258,262,48299,1,0,0:0:0:0:
258,262,48620,1,0,0:0:0:0:
258,262,48941,1,0,0:0:0:0:
258,262,49262,1,8,0:0:0:0:
258,262,49583,1,4,0:0:0:0:
153,60,50706,1,12,0:0:0:0:
293,360,51508,1,12,0:0:0:0:
180,119,52149,1,4,0:0:0:0:
256,179,52470,1,0,0:0:0:0:
256,179,52791,1,8,0:0:0:0:
256,179,53433,1,0,0:0:0:0:
256,179,53754,1,8,0:0:0:0:
192,173,54075,1,0,0:0:0:0:
192,173,54395,1,8,0:0:0:0:
87,108,54716,1,4,0:0:0:0:
128,132,55839,1,12,0:0:0:0:
250,152,57123,1,12,0:0:0:0:
145,152,57604,1,8,0:0:0:0:
120,98,57925,1,0,0:0:0:0:
145,152,58567,1,0,0:0:0:0:
145,152,58887,1,8,0:0:0:0:
180,166,59208,1,8,0:0:0:0:
158,157,59529,1,8,0:0:0:0:
100,133,59850,1,4,0:0:0:0:
162,162,60973,1,12,0:0:0:0:
308,101,62256,1,12,0:0:0:0:
154,144,62738,1,0,0:0:0:0:
154,144,63058,1,0,0:0:0:0:
189,204,63700,1,0,0:0:0:0:
189,204,64021,1,0,0:0:0:0:
263,114,64342,1,8,0:0:0:0:
164,188,64663,1,8,0:0:0:0:
257,131,64984,1,0,0:0:0:0:
226,132,70117,5,8,0:0:0:0:
360,135,70759,1,8,0:0:0:0:
360,135,71401,1,8,0:0:0:0:
360,135,72684,1,8,0:0:0:0:
362,132,73326,1,8,0:0:0:0:
360,138,73968,1,8,0:0:0:0:
268,222,74609,1,8,0:0:0:0:
268,222,75251,1,4,0:0:0:0:
146,180,75893,1,8,0:0:0:0:
146,180,76534,1,8,0:0:0:0:
146,180,77176,1,0,0:0:0:0:
146,180,77497,1,8,0:0:0:0:
146,180,77818,1,8,0:0:0:0:
146,180,78460,1,8,0:0:0:0:
199,34,79101,1,8,0:0:0:0:
141,113,79422,1,0,0:0:0:0:
123,138,79743,1,8,0:0:0:0:
129,148,80385,1,8,0:0:0:0:
199,265,81026,1,8,0:0:0:0:
199,265,81668,1,8,0:0:0:0:
199,265,82310,1,0,0:0:0:0:
199,265,82631,1,8,0:0:0:0:
199,265,82952,1,8,0:0:0:0:
431,168,83593,1,8,0:0:0:0:
429,171,84235,1,8,0:0:0:0:
322,213,85198,1,8,0:0:0:0:
322,213,85518,1,0,0:0:0:0:
123,75,86160,1,8,0:0:0:0:
238,213,86641,1,0,0:0:0:0:
291,199,87123,1,8,0:0:0:0:
337,174,87444,1,0,0:0:0:0:
291,199,87925,1,0,0:0:0:0:
112,119,88406,1,8,0:0:0:0:
289,113,88727,1,8,0:0:0:0:
289,113,89208,1,0,0:0:0:0:
296,124,89690,1,0,0:0:0:0:
232,143,90010,1,0,0:0:0:0:
100,94,90652,1,8,0:0:0:0:
206,173,90973,1,0,0:0:0:0:
298,242,91294,1,8,0:0:0:0:
105,137,92256,1,0,0:0:0:0:
105,137,92577,1,8,0:0:0:0:
168,144,93219,1,8,0:0:0:0:
288,185,93540,1,8,0:0:0:0:
288,185,93861,1,8,0:0:0:0:
153,127,94823,1,0,0:0:0:0:
153,127,95144,1,8,0:0:0:0:
94,147,95786,1,8,0:0:0:0:
289,95,96427,1,8,0:0:0:0:
238,213,96908,1,0,0:0:0:0:
291,199,97390,1,8,0:0:0:0:
285,140,97711,1,8,0:0:0:0:
291,199,98192,1,0,0:0:0:0:
112,119,98673,1,8,0:0:0:0:
294,132,98994,1,0,0:0:0:0:
295,132,99476,1,0,0:0:0:0:
289,121,99957,1,0,0:0:0:0:
232,143,100277,1,8,0:0:0:0:
100,94,100919,1,8,0:0:0:0:
206,173,101240,1,0,0:0:0:0:
298,242,101561,1,8,0:0:0:0:
105,137,102523,1,0,0:0:0:0:
105,137,102844,1,8,0:0:0:0:
168,144,103486,1,8,0:0:0:0:
288,185,103807,1,8,0:0:0:0:
288,185,104128,1,8,0:0:0:0:
153,127,105090,1,0,0:0:0:0:
153,127,105411,1,8,0:0:0:0:
157,160,106053,5,4,0:0:0:0:
157,160,106534,1,0,0:0:0:0:
157,160,107016,1,0,0:0:0:0:
157,160,107337,1,0,0:0:0:0:
157,160,107818,1,0,0:0:0:0:
157,160,108299,1,8,0:0:0:0:
98,126,108620,1,0,0:0:0:0:
161,121,109101,1,0,0:0:0:0:
161,121,109583,1,0,0:0:0:0:
161,121,109903,1,0,0:0:0:0:
109,78,110866,1,0,0:0:0:0:
109,78,111187,1,8,0:0:0:0:
298,242,111829,1,0,0:0:0:0:
157,169,112310,1,8,0:0:0:0:
105,137,112791,1,0,0:0:0:0:
105,137,113112,1,8,0:0:0:0:
168,144,113754,1,8,0:0:0:0:
288,185,114395,1,0,0:0:0:0:
168,144,114877,1,8,0:0:0:0:
153,127,115358,1,0,0:0:0:0:
153,127,115679,1,8,0:0:0:0:
94,147,116000,1,8,0:0:0:0:
153,127,116321,1,0,0:0:0:0:
153,127,117604,1,0,0:0:0:0:
153,127,118887,1,8,0:0:0:0:
153,127,120171,1,8,0:0:0:0:
289,95,120812,1,0,0:0:0:0:
289,95,121454,1,8,0:0:0:0:
384,122,121775,1,8,0:0:0:0:
436,247,122096,1,8,0:0:0:0:
321,197,122738,1,8,0:0:0:0:
200,144,123700,1,0,0:0:0:0:
264,220,124021,1,8,0:0:0:0:
264,220,124342,1,8,0:0:0:0:
158,147,124663,1,8,0:0:0:0:
125,116,125625,1,12,0:0:0:0:
248,152,125946,1,4,0:0:0:0:
144,134,126588,1,12,0:0:0:0:
144,134,127230,1,8,0:0:0:0:
144,134,127711,1,0,0:0:0:0:
299,190,128192,1,8,0:0:0:0:
299,190,128513,1,8,0:0:0:0:
246,194,128994,1,0,0:0:0:0:
315,132,129796,1,8,0:0:0:0:
315,132,130278,1,8,0:0:0:0:
308,189,131080,1,0,0:0:0:0:
265,176,131401,1,8,0:0:0:0:
132,208,131722,1,8,0:0:0:0:
144,134,132364,1,8,0:0:0:0:
144,134,132845,1,0,0:0:0:0:
299,190,133326,1,8,0:0:0:0:
299,190,133647,1,8,0:0:0:0:
299,190,134128,1,0,0:0:0:0:
413,252,135251,1,8,0:0:0:0:
413,252,135572,1,8,0:0:0:0:
293,226,135893,1,0,0:0:0:0:
206,145,136214,1,8,0:0:0:0:
284,185,136855,1,12,0:0:0:0:
144,134,137497,1,8,0:0:0:0:
144,134,137978,1,0,0:0:0:0:
299,190,138459,1,8,0:0:0:0:
299,190,138780,1,8,0:0:0:0:
299,190,139261,1,0,0:0:0:0:
308,111,139743,1,0,0:0:0:0:
319,165,140064,1,8,0:0:0:0:
319,165,140545,1,8,0:0:0:0:
308,189,141347,1,8,0:0:0:0:
265,176,141668,1,8,0:0:0:0:
177,44,141989,1,4,0:0:0:0:
242,220,142631,1,8,0:0:0:0:
192,179,143112,1,4,0:0:0:0:
200,50,143914,1,8,0:0:0:0:
153,134,144556,1,4,0:0:0:0:
339,171,145198,1,8,0:0:0:0:
339,171,145518,1,8,0:0:0:0:
339,171,145839,1,8,0:0:0:0:
339,171,146160,1,8,0:0:0:0:
339,171,146481,1,8,0:0:0:0:
339,171,146802,1,8,0:0:0:0:
