osu file format v14

[General]
AudioFilename: audio.mp3
AudioLeadIn: 0
PreviewTime: 65306
Countdown: 0
SampleSet: Soft
StackLeniency: 0.7
Mode: 3
LetterboxInBreaks: 0
EpilepsyWarning: 1
SpecialStyle: 0
WidescreenStoryboard: 1

[Editor]
DistanceSpacing: 0.95
BeatDivisor: 4
GridSize: 32
TimelineZoom: 2.999999

[Metadata]
Title:Four Veiled Stars
TitleUnicode:Four Veiled Stars
Artist:BilliumMoto
ArtistUnicode:BilliumMoto
Creator:- Aries -
Version:Scotty's Normal
Source:osu!
Tags:electronic instrumental fa featured artist mg mappers' guild FAMoss Scotty KeppSado Peter petereu -_Aries_- touhou zun 摩多羅 隠岐奈 okina matara 東方天空璋 ~ Hidden Star in Four Seasons 秘匿されたフォーシーズンズ The Concealed Gimme More speedcore drum and bass gabber
BeatmapID:2150650
BeatmapSetID:1008419

[Difficulty]
HPDrainRate:7.5
CircleSize:4
OverallDifficulty:7.5
ApproachRate:5
SliderMultiplier:1.4
SliderTickRate:1

[Events]
//Background and Video events
0,0,"astronomy-1867616_1920.jpg",0,0
//Break Periods
//Storyboard Layer 0 (Background)
//Storyboard Layer 1 (Fail)
//Storyboard Layer 2 (Pass)
//Storyboard Layer 3 (Foreground)
//Storyboard Layer 4 (Overlay)
//Storyboard Sound Samples

[TimingPoints]
3381,320.855614973262,4,2,1,20,1,0
13648,-100,4,2,1,30,0,0
23915,-100,4,2,1,40,0,0
44450,-100,4,2,1,50,0,0
65145,-100,4,2,1,20,0,0
70118,-100,4,2,1,30,0,0
75252,-100,4,2,1,40,0,0
86001,-100,4,2,1,50,0,0
126589,-100,4,2,1,50,0,1
141990,-100,4,2,1,50,0,0

[HitObjects]
320,192,3380,5,2,0:0:0:0:
448,192,3380,1,0,0:0:0:0:
64,192,3541,128,0,3862:0:0:0:0:
64,192,4022,128,0,4343:0:0:0:0:
448,192,4503,1,0,0:0:0:0:
448,192,4824,128,0,5145:0:0:0:0:
448,192,5306,128,0,5626:0:0:0:0:
192,192,5787,1,0,0:0:0:0:
192,192,6108,128,0,6429:0:0:0:0:
192,192,6589,128,0,6910:0:0:0:0:
320,192,7070,1,0,0:0:0:0:
320,192,7391,128,0,7712:0:0:0:0:
320,192,7872,128,0,8193:0:0:0:0:
64,192,8354,1,0,0:0:0:0:
64,192,8675,128,0,8995:0:0:0:100:38Arp_003.wav
64,192,9156,128,0,9477:0:0:0:100:38Arp_017.wav
448,192,9637,1,0,0:0:0:100:38Arp_012.wav
448,192,9958,128,0,10279:0:0:0:0:
448,192,10439,128,0,10760:0:0:0:100:38Arp_017.wav
192,192,10921,1,0,0:0:0:100:38Arp_012.wav
192,192,11241,128,0,11562:0:0:0:0:
192,192,11723,128,0,12044:0:0:0:0:
448,192,12204,1,0,0:0:0:0:
448,192,12525,128,0,12846:0:0:0:0:
448,192,13006,128,0,13327:0:0:0:100:38Arp_017.wav
448,192,13487,1,0,0:0:0:100:38Arp_006.wav
64,192,13648,1,2,0:0:0:0:
320,192,13808,128,0,14129:0:0:0:0:
64,192,14129,1,2,0:0:0:0:
320,192,14290,128,0,14610:0:0:0:50:Clap1.wav
64,192,14610,1,2,0:0:0:0:
192,192,14691,1,2,0:0:0:0:
320,192,14771,1,0,0:0:0:0:
448,192,14931,1,2,0:0:0:0:
64,192,15092,128,0,15413:0:0:0:0:
448,192,15413,1,2,0:0:0:0:
64,192,15573,128,0,15894:0:0:0:50:Clap1.wav
448,192,15894,1,2,0:0:0:0:
192,192,16054,1,0,0:0:0:0:
320,192,16215,1,2,0:0:0:0:
192,192,16375,128,0,16696:0:0:0:0:
320,192,16696,1,2,0:0:0:0:
192,192,16856,128,0,17177:0:0:0:50:Clap1.wav
448,192,17177,1,2,0:0:0:0:
320,192,17258,1,2,0:0:0:0:
192,192,17338,1,0,0:0:0:0:
64,192,17498,1,2,0:0:0:0:
320,192,17659,128,0,17979:0:0:0:0:
64,192,17979,1,2,0:0:0:0:
448,192,18140,128,0,18461:0:0:0:50:Clap1.wav
64,192,18461,1,2,0:0:0:0:
320,192,18621,1,0,0:0:0:50:Clap1.wav
448,192,18782,1,2,0:0:0:0:
192,192,18942,128,0,19263:0:0:0:100:38Arp_003.wav
448,192,19263,1,2,0:0:0:0:
192,192,19423,128,0,19744:0:0:0:100:38Arp_017.wav
448,192,19744,1,2,0:0:0:0:
320,192,19824,1,2,0:0:0:0:
192,192,19905,1,0,0:0:0:100:38Arp_012.wav
448,192,20065,1,2,0:0:0:0:
64,192,20225,128,0,20546:0:0:0:0:
320,192,20546,1,2,0:0:0:0:
64,192,20707,128,0,21028:0:0:0:100:38Arp_017.wav
320,192,21028,1,2,0:0:0:0:
448,192,21188,1,0,0:0:0:100:38Arp_012.wav
64,192,21348,1,2,0:0:0:0:
192,192,21509,128,0,21830:0:0:0:0:
320,192,21830,1,2,0:0:0:0:
448,192,21990,128,0,22311:0:0:0:50:Clap1.wav
64,192,22311,1,2,0:0:0:0:
192,192,22391,1,2,0:0:0:0:
320,192,22471,1,0,0:0:0:0:
64,192,22632,1,2,0:0:0:0:
320,192,22792,128,0,23113:0:0:0:0:
64,192,23113,1,2,0:0:0:0:
320,192,23274,128,0,23594:0:0:0:50:Clap1.wav
64,192,23594,1,2,0:0:0:0:
192,192,23755,1,0,0:0:0:0:
64,192,23915,128,2,24076:0:0:0:0:
448,192,23915,1,0,0:0:0:0:
448,192,24236,1,0,0:0:0:0:
64,192,24397,128,2,24557:0:0:0:0:
448,192,24557,1,0,0:0:0:0:
64,192,24878,128,2,25038:0:0:0:0:
448,192,24878,1,0,0:0:0:0:
64,192,25199,128,2,25359:0:0:0:0:
448,192,25199,1,0,0:0:0:0:
448,192,25520,1,0,0:0:0:0:
64,192,25680,128,2,25840:0:0:0:0:
448,192,25840,1,0,0:0:0:0:
64,192,26161,128,2,26322:0:0:0:0:
448,192,26161,1,0,0:0:0:0:
64,192,26482,128,2,26643:0:0:0:0:
448,192,26482,1,0,0:0:0:0:
448,192,26803,1,0,0:0:0:0:
64,192,26963,128,2,27124:0:0:0:0:
448,192,27124,1,0,0:0:0:0:
64,192,27445,128,2,27605:0:0:0:0:
448,192,27445,1,0,0:0:0:0:
320,192,27605,1,0,0:0:0:0:
64,192,27766,128,2,27926:0:0:0:0:
192,192,27766,1,0,0:0:0:0:
448,192,27926,1,0,0:0:0:0:
320,192,28086,1,0,0:0:0:0:
64,192,28247,128,2,28407:0:0:0:0:
192,192,28407,1,0,0:0:0:0:
320,192,28568,1,0,0:0:0:0:
64,192,28728,128,2,28889:0:0:0:0:
448,192,28728,1,0,0:0:0:0:
64,192,29049,128,2,29209:0:0:0:0:
448,192,29049,1,0,0:0:0:0:
448,192,29370,1,0,0:0:0:0:
64,192,29530,128,2,29691:0:0:0:0:
448,192,29691,1,0,0:0:0:0:
64,192,30012,128,2,30172:0:0:0:0:
448,192,30012,1,0,0:0:0:0:
64,192,30332,128,2,30493:0:0:0:0:
448,192,30332,1,0,0:0:0:0:
448,192,30653,1,0,0:0:0:0:
64,192,30814,128,2,30974:0:0:0:0:
448,192,30974,1,0,0:0:0:0:
64,192,31295,128,2,31455:0:0:0:0:
448,192,31295,1,0,0:0:0:0:
64,192,31616,128,2,31776:0:0:0:0:
448,192,31616,1,0,0:0:0:0:
448,192,31937,1,0,0:0:0:0:
192,192,32097,1,2,0:0:0:0:
320,192,32258,1,0,0:0:0:0:
64,192,32418,1,0,0:0:0:0:
320,192,32578,1,2,0:0:0:0:
64,192,32739,1,0,0:0:0:0:
192,192,32899,1,2,0:0:0:0:
320,192,33060,1,0,0:0:0:0:
192,192,33220,1,0,0:0:0:0:
448,192,33381,1,2,0:0:0:0:
64,192,33541,1,0,0:0:0:0:
448,192,33701,1,0,0:0:0:0:
192,192,33862,1,2,0:0:0:0:
320,192,34022,1,0,0:0:0:100:LR_TomR1.wav
64,192,34183,128,2,34343:0:0:0:0:
448,192,34183,1,0,0:0:0:0:
448,192,34503,1,0,0:0:0:0:
64,192,34664,128,2,34824:0:0:0:0:
448,192,34824,1,0,0:0:0:0:
64,192,35145,128,2,35306:0:0:0:0:
448,192,35145,1,0,0:0:0:0:
64,192,35466,128,2,35626:0:0:0:0:
448,192,35466,1,0,0:0:0:0:
448,192,35787,1,0,0:0:0:0:
64,192,35947,128,2,36108:0:0:0:0:
448,192,36108,1,0,0:0:0:0:
64,192,36429,128,2,36589:0:0:0:0:
448,192,36429,1,0,0:0:0:0:
64,192,36749,128,2,36910:0:0:0:0:
448,192,36749,1,0,0:0:0:0:
448,192,37070,1,0,0:0:0:0:
64,192,37231,128,2,37391:0:0:0:0:
448,192,37391,1,0,0:0:0:0:
64,192,37712,128,2,37872:0:0:0:0:
448,192,37712,1,0,0:0:0:0:
192,192,37872,1,0,0:0:0:0:
64,192,38033,128,2,38193:0:0:0:0:
448,192,38033,1,0,0:0:0:0:
448,192,38354,1,0,0:0:0:0:
64,192,38514,128,2,38675:0:0:0:0:
448,192,38675,1,0,0:0:0:0:
64,192,38995,128,2,39156:0:0:0:0:
448,192,38995,1,0,0:0:0:0:
64,192,39316,1,2,0:0:0:0:
320,192,39316,128,0,39477:0:0:0:0:
64,192,39637,1,0,0:0:0:0:
320,192,39798,128,2,39958:0:0:0:0:
64,192,39958,1,0,0:0:0:0:
64,192,40279,1,2,0:0:0:0:
320,192,40279,128,0,40439:0:0:0:0:
64,192,40600,1,2,0:0:0:0:
448,192,40600,128,0,40760:0:0:0:0:
64,192,40921,1,0,0:0:0:0:
448,192,41081,128,2,41241:0:0:0:0:
64,192,41241,1,0,0:0:0:0:
64,192,41562,1,2,0:0:0:0:
448,192,41562,128,0,41723:0:0:0:0:
192,192,41723,1,0,0:0:0:0:
320,192,41883,1,2,0:0:0:0:
320,192,42044,1,2,0:0:0:0:
64,192,42204,1,2,0:0:0:0:
64,192,42364,1,2,0:0:0:0:
448,192,42525,1,2,0:0:0:0:
448,192,42685,1,2,0:0:0:0:
64,192,42846,1,2,0:0:0:0:
320,192,43006,1,2,0:0:0:0:
64,192,43167,1,2,0:0:0:0:
320,192,43327,1,2,0:0:0:0:
192,192,43487,1,2,0:0:0:0:
448,192,43648,1,2,0:0:0:0:
64,192,43808,128,0,44450:0:0:0:70:LS-HKI Sqeeze Kick 20 H.wav
192,192,43808,1,0,0:0:0:0:
320,192,44450,1,2,0:0:0:0:
448,192,44450,128,4,45092:0:0:0:0:
64,192,45573,128,2,46375:0:0:0:0:
320,192,45573,1,4,0:0:0:0:
448,192,47017,1,6,0:0:0:0:
192,192,47177,1,2,0:0:0:0:
448,192,47338,1,2,0:0:0:0:
64,192,47498,1,8,0:0:0:0:
192,192,47498,1,2,0:0:0:0:
320,192,47659,1,2,0:0:0:0:
192,192,47819,1,2,0:0:0:0:
320,192,47979,1,8,0:0:0:0:
448,192,47979,1,2,0:0:0:0:
64,192,48300,1,2,0:0:0:0:
448,192,48461,1,2,0:0:0:0:
64,192,48621,1,2,0:0:0:0:
192,192,48782,1,8,0:0:0:0:
448,192,48782,1,2,0:0:0:0:
320,192,48942,1,2,0:0:0:0:
192,192,49102,1,2,0:0:0:0:
64,192,49263,1,8,0:0:0:0:
320,192,49263,1,2,0:0:0:0:
192,192,49584,1,2,0:0:0:0:
448,192,49584,128,4,50225:0:0:0:0:
64,192,50707,128,2,51348:0:0:0:0:
320,192,50707,1,4,0:0:0:0:
192,192,51509,1,2,0:0:0:0:
320,192,51509,128,4,52151:0:0:0:0:
64,192,52151,1,6,0:0:0:0:
448,192,52311,1,2,0:0:0:0:
64,192,52471,1,2,0:0:0:0:
192,192,52632,1,8,0:0:0:0:
448,192,52632,1,2,0:0:0:0:
320,192,52792,1,2,0:0:0:0:
64,192,52953,1,2,0:0:0:0:
320,192,53113,1,8,0:0:0:0:
448,192,53113,1,2,0:0:0:0:
64,192,53434,1,2,0:0:0:0:
320,192,53594,1,2,0:0:0:0:
64,192,53755,1,0,0:0:0:0:
320,192,53915,1,8,0:0:0:0:
448,192,53915,1,2,0:0:0:0:
192,192,54076,1,2,0:0:0:0:
320,192,54236,1,2,0:0:0:0:
64,192,54397,1,2,0:0:0:0:
192,192,54397,1,8,0:0:0:0:
320,192,54717,1,4,0:0:0:0:
448,192,54717,128,2,55038:0:0:0:0:
192,192,55038,1,0,0:0:0:100:WB3.wav
64,192,55359,128,2,55520:0:0:0:0:
320,192,55359,1,4,0:0:0:0:
192,192,55600,128,4,55760:0:0:0:0:
448,192,55600,1,2,0:0:0:0:
64,192,55840,1,4,0:0:0:0:
320,192,55840,128,2,56322:0:0:0:0:
192,192,56643,128,2,56803:0:0:0:0:
448,192,56643,1,4,0:0:0:0:
64,192,56883,1,4,0:0:0:0:
320,192,56883,128,2,57044:0:0:0:0:
192,192,57124,1,2,0:0:0:0:
448,192,57124,128,4,57445:0:0:0:0:
64,192,57445,1,2,0:0:0:0:
320,192,57525,1,10,0:0:0:0:
320,192,57766,1,10,0:0:0:0:
64,192,57926,1,2,0:0:0:0:
448,192,58086,1,2,0:0:0:0:
192,192,58167,1,10,0:0:0:0:
320,192,58407,1,0,0:0:0:0:
448,192,58568,1,2,0:0:0:0:
64,192,58728,1,2,0:0:0:0:
320,192,58808,1,10,0:0:0:0:
192,192,59049,1,10,0:0:0:0:
448,192,59129,1,2,0:0:0:0:
64,192,59290,1,2,0:0:0:0:
320,192,59450,1,10,0:0:0:0:
192,192,59530,1,2,0:0:0:0:
320,192,59691,1,8,0:0:0:0:
64,192,59851,128,4,60172:0:0:0:0:
192,192,59851,1,2,0:0:0:0:
448,192,60172,128,0,60493:0:0:0:30:WB6.wav
64,192,60493,1,2,0:0:0:0:
192,192,60493,1,4,0:0:0:0:
64,192,60733,1,4,0:0:0:0:
448,192,60733,1,2,0:0:0:0:
192,192,60894,1,6,0:0:0:0:
320,192,60974,1,2,0:0:0:0:
448,192,60974,128,4,61455:0:0:0:0:
192,192,61455,128,0,61776:0:0:0:30:WB7.wav
64,192,61776,1,6,0:0:0:0:
320,192,61937,1,6,0:0:0:0:
192,192,62097,1,6,0:0:0:0:
448,192,62258,1,6,0:0:0:0:
448,192,62418,1,6,0:0:0:0:
64,192,62578,1,2,0:0:0:0:
192,192,62739,1,2,0:0:0:0:
448,192,62899,1,10,0:0:0:0:
64,192,63060,1,2,0:0:0:0:
448,192,63220,1,2,0:0:0:0:
192,192,63300,1,10,0:0:0:0:
192,192,63541,1,0,0:0:0:0:
448,192,63701,1,2,0:0:0:0:
64,192,63862,1,2,0:0:0:0:
320,192,63942,1,10,0:0:0:0:
192,192,64022,1,2,0:0:0:0:
448,192,64183,1,10,0:0:0:0:
64,192,64263,1,2,0:0:0:0:
320,192,64423,1,2,0:0:0:0:
448,192,64503,1,2,0:0:0:0:
192,192,64584,128,10,64985:0:0:0:0:
448,192,64985,1,6,0:0:0:0:
64,192,65493,1,0,0:0:0:0:
192,192,65680,1,0,0:0:0:0:
320,192,65894,1,0,0:0:0:0:
448,192,66108,1,0,0:0:0:0:
192,192,66295,1,0,0:0:0:0:
320,192,66536,1,0,0:0:0:0:
64,192,66776,1,0,0:0:0:0:
320,192,66937,1,0,0:0:0:0:
448,192,67124,1,0,0:0:0:0:
64,192,67258,1,0,0:0:0:0:
192,192,67418,1,0,0:0:0:0:
320,192,67578,128,0,68033:0:0:0:0:
64,192,68033,1,0,0:0:0:0:
192,192,68220,1,0,0:0:0:0:
448,192,68461,1,0,0:0:0:0:
64,192,68701,1,0,0:0:0:0:
320,192,68862,1,0,0:0:0:0:
192,192,69102,1,0,0:0:0:0:
448,192,69343,1,0,0:0:0:0:
64,192,69503,1,0,0:0:0:0:
192,192,69824,1,0,0:0:0:0:
320,192,69985,1,0,0:0:0:0:
448,192,70118,1,0,0:0:0:70:Clap yh.wav
448,192,70439,1,0,0:0:0:70:Clap yh.wav
448,192,70760,1,0,0:0:0:70:Clap yh.wav
448,192,71081,1,0,0:0:0:70:Clap yh.wav
64,192,71402,1,0,0:0:0:70:Clap yh.wav
64,192,71723,1,0,0:0:0:70:Clap yh.wav
64,192,72044,1,0,0:0:0:70:Clap yh.wav
64,192,72364,1,0,0:0:0:70:Clap yh.wav
320,192,72525,1,0,0:0:0:0:
448,192,72685,1,0,0:0:0:70:Clap yh.wav
448,192,73006,1,0,0:0:0:70:Clap yh.wav
448,192,73327,1,0,0:0:0:70:Clap yh.wav
448,192,73648,1,0,0:0:0:70:Clap yh.wav
64,192,73969,1,0,0:0:0:70:Clap yh.wav
64,192,74290,1,0,0:0:0:70:Clap yh.wav
64,192,74610,1,0,0:0:0:70:Clap yh.wav
64,192,74931,1,0,0:0:0:70:Clap yh.wav
320,192,75092,1,0,0:0:0:0:
64,192,75252,1,2,0:0:0:0:
448,192,75252,1,0,0:0:0:70:Clap yh.wav
192,192,75413,1,0,0:0:0:50:S3.wav
448,192,75573,1,0,0:0:0:70:Clap yh.wav
64,192,75733,1,0,0:0:0:50:S2.wav
448,192,75894,1,0,0:0:0:70:Clap yh.wav
192,192,76054,1,0,0:0:0:50:S1.wav
448,192,76215,1,0,0:0:0:70:Clap yh.wav
64,192,76375,1,0,0:0:0:50:S1.wav
448,192,76536,1,0,0:0:0:70:Clap yh.wav
192,192,76696,1,0,0:0:0:50:S3.wav
448,192,76856,1,0,0:0:0:70:Clap yh.wav
64,192,77017,1,0,0:0:0:50:S2.wav
448,192,77177,1,0,0:0:0:70:Clap yh.wav
192,192,77338,1,0,0:0:0:50:S1.wav
448,192,77498,1,0,0:0:0:70:Clap yh.wav
320,192,77659,1,0,0:0:0:50:S1.wav
64,192,77819,1,0,0:0:0:70:Clap yh.wav
448,192,77979,1,0,0:0:0:50:S3.wav
64,192,78140,1,0,0:0:0:70:Clap yh.wav
320,192,78300,1,0,0:0:0:50:S2.wav
64,192,78461,1,0,0:0:0:70:Clap yh.wav
448,192,78621,1,0,0:0:0:50:S1.wav
64,192,78782,1,0,0:0:0:70:Clap yh.wav
320,192,78942,1,0,0:0:0:50:S1.wav
64,192,79102,1,0,0:0:0:70:Clap yh.wav
448,192,79263,1,0,0:0:0:50:S3.wav
64,192,79423,1,0,0:0:0:70:Clap yh.wav
320,192,79584,1,0,0:0:0:50:S2.wav
64,192,79744,1,0,0:0:0:70:Clap yh.wav
448,192,79905,1,0,0:0:0:50:S1.wav
64,192,80065,1,0,0:0:0:100:LR_TomR.wav
192,192,80225,1,0,0:0:0:100:LR_TomR2.wav
64,192,80386,128,0,82953:0:0:0:70:Clap yh.wav
320,192,80386,1,0,0:0:0:0:
320,192,80707,1,0,0:0:0:70:Clap yh.wav
320,192,81028,1,0,0:0:0:70:Clap yh.wav
320,192,81348,1,0,0:0:0:70:Clap yh.wav
320,192,81669,1,0,0:0:0:70:Clap yh.wav
320,192,81990,1,0,0:0:0:70:Clap yh.wav
320,192,82311,1,0,0:0:0:70:Clap yh.wav
320,192,82632,128,0,82953:0:0:0:70:Clap yh.wav
192,192,82953,1,0,0:0:0:70:Clap yh.wav
448,192,82953,128,0,83434:0:0:0:0:
192,192,83274,1,0,0:0:0:70:Clap yh.wav
320,192,83434,128,0,83755:0:0:0:0:
192,192,83594,1,0,0:0:0:70:Clap yh.wav
64,192,83755,128,0,84076:0:0:0:0:
448,192,83915,1,0,0:0:0:70:Clap yh.wav
192,192,84076,128,0,84878:0:0:0:0:
448,192,84236,1,0,0:0:0:70:Clap yh.wav
448,192,84557,1,0,0:0:0:70:Clap yh.wav
448,192,84878,1,0,0:0:0:70:Clap yh.wav
64,192,85038,1,0,0:0:0:0:
448,192,85199,1,0,0:0:0:70:Clap yh.wav
192,192,85359,1,0,0:0:0:0:
320,192,85520,1,0,0:0:0:70:Clap yh.wav
192,192,85840,1,0,0:0:0:0:
64,192,86001,1,2,0:0:0:0:
448,192,86001,128,0,86322:0:0:0:0:
192,192,86482,1,2,0:0:0:0:
448,192,86482,128,0,86643:0:0:0:0:
320,192,86803,1,2,0:0:0:0:
448,192,86803,128,0,87284:0:0:0:0:
64,192,87284,1,2,0:0:0:0:
192,192,87284,128,0,87766:0:0:0:0:
320,192,87766,128,2,88086:0:0:0:0:
448,192,87766,1,0,0:0:0:0:
64,192,88086,128,2,88407:0:0:0:0:
192,192,88086,1,0,0:0:0:0:
64,192,88568,128,2,88889:0:0:0:0:
448,192,88568,1,0,0:0:0:0:
64,192,89049,128,2,89209:0:0:0:0:
320,192,89049,1,0,0:0:0:0:
64,192,89370,128,2,89530:0:0:0:0:
192,192,89370,1,0,0:0:0:0:
64,192,89691,128,2,89851:0:0:0:0:
320,192,89691,1,0,0:0:0:70:Clap.wav
192,192,90012,128,2,90172:0:0:0:0:
448,192,90012,1,0,0:0:0:0:
64,192,90332,1,2,0:0:0:0:
320,192,90332,128,0,90493:0:0:0:0:
192,192,90653,1,2,0:0:0:0:
448,192,90653,128,0,90974:0:0:0:70:Clap.wav
64,192,90974,1,2,0:0:0:0:
448,192,91135,1,2,0:0:0:0:
320,192,91215,1,2,0:0:0:0:
64,192,91295,1,2,0:0:0:0:
192,192,91295,1,0,0:0:0:70:Clap.wav
448,192,91616,1,0,0:0:0:100:LR_TomR.wav
64,192,91776,1,2,0:0:0:0:
192,192,91776,1,0,0:0:0:70:Clap.wav
64,192,92258,1,2,0:0:0:0:
192,192,92258,1,0,0:0:0:70:Clap.wav
64,192,92578,1,0,0:0:0:100:WB5.wav
320,192,92578,1,0,0:0:0:0:
448,192,92739,1,2,0:0:0:0:
448,192,92899,1,2,0:0:0:0:
64,192,93060,1,2,0:0:0:0:
320,192,93220,1,2,0:0:0:0:
64,192,93380,1,2,0:0:0:0:
448,192,93541,1,0,0:0:0:70:Clap.wav
64,192,93701,1,2,0:0:0:0:
192,192,93782,1,2,0:0:0:0:
320,192,93862,1,2,0:0:0:0:
448,192,93862,1,0,0:0:0:70:Clap.wav
320,192,94343,1,2,0:0:0:0:
448,192,94343,1,0,0:0:0:70:Clap.wav
64,192,94664,1,0,0:0:0:70:Clap.wav
320,192,94824,1,2,0:0:0:0:
64,192,95145,1,0,0:0:0:100:WB5.wav
448,192,95145,1,0,0:0:0:0:
448,192,95306,1,2,0:0:0:0:
192,192,95466,1,2,0:0:0:0:
192,192,95626,1,2,0:0:0:0:
64,192,95787,1,0,0:0:0:0:
448,192,95787,128,0,96108:0:0:0:0:
192,192,96268,1,2,0:0:0:0:
448,192,96268,128,0,96589:0:0:0:0:
320,192,96749,1,2,0:0:0:0:
448,192,96749,128,0,97070:0:0:0:0:
64,192,97070,1,2,0:0:0:0:
192,192,97070,128,0,97552:0:0:0:0:
320,192,97552,128,2,98033:0:0:0:0:
448,192,97552,1,0,0:0:0:0:
64,192,98033,128,2,98193:0:0:0:0:
192,192,98033,1,0,0:0:0:0:
64,192,98354,128,2,98675:0:0:0:0:
448,192,98354,1,0,0:0:0:0:
64,192,98835,128,2,99156:0:0:0:0:
320,192,98835,1,0,0:0:0:0:
64,192,99316,128,2,99477:0:0:0:0:
192,192,99316,1,0,0:0:0:0:
64,192,99637,128,2,99798:0:0:0:0:
320,192,99637,1,0,0:0:0:0:
192,192,99958,128,2,100118:0:0:0:0:
448,192,99958,1,0,0:0:0:70:Clap.wav
64,192,100279,1,2,0:0:0:0:
320,192,100279,128,0,100439:0:0:0:0:
192,192,100600,1,2,0:0:0:0:
448,192,100600,128,0,100760:0:0:0:0:
64,192,100921,1,2,0:0:0:0:
64,192,101081,1,2,0:0:0:0:
320,192,101241,1,2,0:0:0:0:
448,192,101402,1,2,0:0:0:0:
320,192,101482,1,2,0:0:0:0:
64,192,101562,1,2,0:0:0:0:
192,192,101562,1,0,0:0:0:70:Clap.wav
64,192,102044,1,2,0:0:0:0:
192,192,102044,1,0,0:0:0:70:Clap.wav
64,192,102525,1,2,0:0:0:0:
192,192,102525,1,0,0:0:0:70:Clap.wav
64,192,102846,1,0,0:0:0:100:WB5.wav
448,192,102846,1,0,0:0:0:0:
320,192,103006,1,2,0:0:0:0:
320,192,103167,1,2,0:0:0:0:
192,192,103327,1,2,0:0:0:0:
448,192,103487,1,2,0:0:0:0:
64,192,103648,1,2,0:0:0:0:
320,192,103808,1,0,0:0:0:70:Clap.wav
64,192,103969,1,2,0:0:0:0:
192,192,104049,1,2,0:0:0:0:
320,192,104129,1,2,0:0:0:0:
448,192,104129,1,0,0:0:0:70:Clap.wav
64,192,104450,1,0,0:0:0:100:LR_TomR.wav
320,192,104610,1,2,0:0:0:0:
448,192,104610,1,0,0:0:0:70:Clap.wav
64,192,104931,1,0,0:0:0:70:Clap.wav
448,192,105092,1,2,0:0:0:0:
192,192,105252,1,0,0:0:0:0:
64,192,105413,1,0,0:0:0:100:WB5.wav
448,192,105413,1,0,0:0:0:0:
320,192,105573,1,2,0:0:0:0:
320,192,105733,1,2,0:0:0:0:
192,192,105894,1,2,0:0:0:0:
64,192,106054,1,2,0:0:0:0:
448,192,106054,128,0,106375:0:0:0:70:Clap.wav
192,192,106536,1,2,0:0:0:0:
448,192,106536,128,0,106856:0:0:0:0:
320,192,107017,1,2,0:0:0:0:
448,192,107017,128,0,107177:0:0:0:70:Clap.wav
64,192,107338,1,2,0:0:0:0:
448,192,107338,128,0,107659:0:0:0:70:Clap.wav
64,192,107819,1,2,0:0:0:0:
448,192,107819,128,0,107979:0:0:0:0:
192,192,107979,128,0,108140:0:0:0:0:
320,192,108140,128,0,108300:0:0:0:0:
64,192,108300,1,2,0:0:0:0:
64,192,108621,128,2,108942:0:0:0:0:
448,192,108621,1,0,0:0:0:70:Clap.wav
64,192,109102,128,2,109423:0:0:0:0:
320,192,109102,1,0,0:0:0:0:
64,192,109584,128,2,109744:0:0:0:0:
192,192,109584,1,0,0:0:0:70:Clap.wav
64,192,109905,128,2,110225:0:0:0:0:
320,192,109905,1,0,0:0:0:70:Clap.wav
448,192,110225,1,2,0:0:0:0:
448,192,110386,1,2,0:0:0:0:
64,192,110546,1,2,0:0:0:0:
320,192,110546,128,0,110867:0:0:0:70:Clap.wav
64,192,110867,128,2,111028:0:0:0:0:
448,192,111028,128,0,111188:0:0:0:0:
192,192,111188,1,2,0:0:0:0:
192,192,111348,1,2,0:0:0:0:
320,192,111509,1,2,0:0:0:0:
320,192,111669,1,2,0:0:0:0:
192,192,111749,1,2,0:0:0:0:
64,192,111830,128,2,112151:0:0:0:0:
448,192,111830,1,0,0:0:0:70:Clap.wav
64,192,112311,1,2,0:0:0:0:
448,192,112311,1,0,0:0:0:70:Clap.wav
64,192,112792,1,2,0:0:0:0:
448,192,112792,1,0,0:0:0:70:Clap.wav
320,192,113113,1,0,0:0:0:100:WB5.wav
448,192,113113,1,0,0:0:0:0:
192,192,113274,1,2,0:0:0:0:
192,192,113434,1,2,0:0:0:0:
64,192,113594,1,2,0:0:0:0:
448,192,113755,1,2,0:0:0:0:
448,192,113915,1,2,0:0:0:0:
192,192,114076,1,0,0:0:0:70:Clap.wav
320,192,114236,1,2,0:0:0:0:
192,192,114316,1,2,0:0:0:0:
64,192,114397,1,2,0:0:0:0:
448,192,114397,128,0,114717:0:0:0:70:Clap.wav
64,192,114878,1,2,0:0:0:0:
192,192,114878,1,0,0:0:0:70:Clap.wav
64,192,115199,1,0,0:0:0:0:
320,192,115359,1,2,0:0:0:0:
192,192,115439,1,2,0:0:0:0:
448,192,115600,1,2,0:0:0:0:
64,192,115680,1,0,0:0:0:100:WB5.wav
192,192,115680,1,0,0:0:0:0:
320,192,115760,1,2,0:0:0:0:
192,192,115921,1,2,0:0:0:0:
448,192,116001,1,2,0:0:0:0:
320,192,116161,128,0,116322:0:0:0:0:
64,192,116322,1,0,0:0:0:70:Clap.wav
64,192,116803,1,0,0:0:0:0:
64,192,117284,1,0,0:0:0:70:Clap.wav
64,192,117605,1,0,0:0:0:70:Clap.wav
64,192,118086,1,0,0:0:0:0:
64,192,118568,1,0,0:0:0:70:Clap.wav
192,192,118889,1,0,0:0:0:70:Clap.wav
192,192,119370,1,0,0:0:0:0:
192,192,119851,1,0,0:0:0:70:Clap.wav
192,192,120172,1,0,0:0:0:70:Clap.wav
320,192,120814,1,0,0:0:0:70:Clap.wav
448,192,121135,1,0,0:0:0:70:Clap.wav
64,192,121455,1,0,0:0:0:70:Clap.wav
64,192,121937,1,0,0:0:0:0:
64,192,122418,1,0,0:0:0:70:Clap.wav
64,192,122739,1,0,0:0:0:70:Clap.wav
64,192,123380,1,0,0:0:0:0:
448,192,123380,1,0,0:0:0:0:
320,192,123701,1,0,0:0:0:70:Clap.wav
192,192,124022,1,0,0:0:0:70:Clap.wav
448,192,124183,1,0,0:0:0:0:
192,192,124343,1,0,0:0:0:70:Clap.wav
320,192,124503,1,0,0:0:0:0:
64,192,124664,1,0,0:0:0:70:Clap.wav
448,192,124824,1,0,0:0:0:0:
64,192,124985,1,0,0:0:0:70:Clap.wav
448,192,125145,128,0,125306:0:0:0:0:
448,192,125466,128,0,125626:0:0:0:0:
64,192,125626,128,0,125947:0:0:0:70:WB3.wav
192,192,125787,128,0,125947:0:0:0:0:
448,192,125947,128,0,126589:0:0:0:70:LS-HKI Sqeeze Kick 20 H.wav
64,192,126589,1,12,0:0:0:0:
192,192,126589,1,2,0:0:0:0:
320,192,126749,1,2,0:0:0:0:
192,192,126910,1,2,0:0:0:0:
192,192,127070,1,2,0:0:0:0:
448,192,127231,1,10,0:0:0:0:
64,192,127391,1,2,0:0:0:0:
320,192,127552,1,2,0:0:0:0:
320,192,127712,1,2,0:0:0:0:
64,192,127872,1,8,0:0:0:0:
192,192,127872,1,2,0:0:0:0:
448,192,128033,1,2,0:0:0:0:
64,192,128193,1,2,0:0:0:0:
64,192,128354,1,2,0:0:0:0:
320,192,128514,1,10,0:0:0:0:
192,192,128675,1,2,0:0:0:0:
448,192,128835,1,2,0:0:0:0:
448,192,128995,1,2,0:0:0:0:
64,192,129156,1,2,0:0:0:0:
192,192,129156,1,8,0:0:0:0:
320,192,129316,1,2,0:0:0:0:
192,192,129477,1,2,0:0:0:0:
192,192,129637,1,2,0:0:0:0:
448,192,129798,128,10,129958:0:0:0:0:
64,192,129958,1,2,0:0:0:0:
448,192,130118,1,2,0:0:0:0:
320,192,130279,128,2,130439:0:0:0:0:
64,192,130439,1,8,0:0:0:0:
192,192,130439,1,2,0:0:0:0:
448,192,130600,1,2,0:0:0:0:
192,192,130760,1,2,0:0:0:0:
192,192,130921,1,2,0:0:0:0:
448,192,131081,128,10,131241:0:0:0:0:
64,192,131241,1,2,0:0:0:0:
320,192,131402,1,2,0:0:0:0:
320,192,131562,1,2,0:0:0:0:
64,192,131723,1,2,0:0:0:0:
192,192,131723,1,8,0:0:0:0:
448,192,131883,1,2,0:0:0:0:
64,192,132044,1,2,0:0:0:0:
64,192,132204,1,2,0:0:0:0:
320,192,132364,1,10,0:0:0:0:
192,192,132525,1,2,0:0:0:0:
448,192,132685,1,2,0:0:0:0:
448,192,132846,1,2,0:0:0:0:
64,192,133006,1,2,0:0:0:0:
192,192,133006,1,8,0:0:0:0:
320,192,133167,1,2,0:0:0:0:
192,192,133327,1,2,0:0:0:0:
192,192,133487,1,2,0:0:0:0:
448,192,133648,1,10,0:0:0:0:
64,192,133808,1,2,0:0:0:0:
320,192,133969,1,2,0:0:0:0:
320,192,134129,1,2,0:0:0:0:
64,192,134290,1,8,0:0:0:0:
192,192,134290,1,2,0:0:0:0:
448,192,134450,1,2,0:0:0:0:
192,192,134610,1,2,0:0:0:0:
320,192,134771,1,2,0:0:0:0:
320,192,134931,1,10,0:0:0:0:
64,192,135092,1,2,0:0:0:0:
448,192,135252,1,2,0:0:0:0:
64,192,135413,1,2,0:0:0:0:
192,192,135573,128,10,135733:0:0:0:0:
320,192,135733,1,2,0:0:0:0:
448,192,135894,128,2,136054:0:0:0:0:
64,192,136054,1,2,0:0:0:0:
192,192,136215,128,10,136536:0:0:0:0:
320,192,136375,128,2,136536:0:0:0:0:
64,192,136536,128,2,136856:0:0:0:0:
320,192,136856,1,12,0:0:0:0:
448,192,136856,1,2,0:0:0:0:
192,192,137017,1,2,0:0:0:0:
320,192,137177,1,2,0:0:0:0:
320,192,137338,1,2,0:0:0:0:
64,192,137498,1,10,0:0:0:0:
448,192,137659,1,2,0:0:0:0:
192,192,137819,1,2,0:0:0:0:
192,192,137979,1,2,0:0:0:0:
320,192,138140,1,8,0:0:0:0:
448,192,138140,1,2,0:0:0:0:
64,192,138300,1,2,0:0:0:0:
320,192,138461,1,2,0:0:0:0:
320,192,138621,1,2,0:0:0:0:
64,192,138782,1,10,0:0:0:0:
448,192,138942,1,2,0:0:0:0:
192,192,139102,1,2,0:0:0:0:
192,192,139263,1,2,0:0:0:0:
320,192,139423,1,2,0:0:0:0:
448,192,139423,1,8,0:0:0:0:
64,192,139584,1,2,0:0:0:0:
448,192,139744,1,2,0:0:0:0:
448,192,139905,1,2,0:0:0:0:
64,192,140065,128,10,140225:0:0:0:0:
320,192,140225,1,2,0:0:0:0:
64,192,140386,1,2,0:0:0:0:
192,192,140546,128,2,140707:0:0:0:0:
320,192,140707,1,8,0:0:0:0:
448,192,140707,1,2,0:0:0:0:
64,192,140867,1,2,0:0:0:0:
320,192,141028,1,2,0:0:0:0:
320,192,141188,1,2,0:0:0:0:
448,192,141348,128,10,141509:0:0:0:0:
64,192,141509,1,2,0:0:0:0:
192,192,141669,128,2,141830:0:0:0:0:
320,192,141830,1,2,0:0:0:0:
448,192,141990,1,6,0:0:0:0:
448,192,142151,128,6,142552:0:0:0:0:
64,192,142552,1,8,0:0:0:0:
320,192,142632,1,8,0:0:0:0:
192,192,142792,1,2,0:0:0:0:
448,192,142953,1,8,0:0:0:0:
192,192,143033,1,8,0:0:0:0:
64,192,143113,1,6,0:0:0:0:
64,192,143434,1,6,0:0:0:0:
64,192,143594,128,6,143915:0:0:0:0:
448,192,143915,1,8,0:0:0:0:
192,192,144156,128,8,144397:0:0:0:0:
320,192,144397,1,2,0:0:0:0:
64,192,144557,1,2,0:0:0:0:
448,192,144557,1,4,0:0:0:0:
192,192,144878,1,0,0:0:0:0:
320,192,145038,1,0,0:0:0:0:
192,192,145199,1,0,0:0:0:0:
320,192,145359,1,0,0:0:0:0:
64,192,145520,1,0,0:0:0:0:
448,192,145680,1,0,0:0:0:0:
64,192,145840,1,0,0:0:0:0:
448,192,146001,1,0,0:0:0:0:
64,192,146161,128,0,146322:0:0:0:0:
448,192,146322,128,0,146482:0:0:0:0:
64,192,146482,128,0,146643:0:0:0:0:
448,192,146643,128,0,146803:0:0:0:0:
64,192,146803,128,0,146963:0:0:0:0:
448,192,146963,1,0,0:0:0:0:
