osu file format v14

[General]
AudioFilename: audio.mp3
AudioLeadIn: 0
PreviewTime: 65306
Countdown: 0
SampleSet: Soft
StackLeniency: 0.7
Mode: 3
LetterboxInBreaks: 0
EpilepsyWarning: 1
SpecialStyle: 0
WidescreenStoryboard: 1

[Editor]
DistanceSpacing: 0.95
BeatDivisor: 12
GridSize: 32
TimelineZoom: 2.299999

[Metadata]
Title:Four Veiled Stars
TitleUnicode:Four Veiled Stars
Artist:BilliumMoto
ArtistUnicode:BilliumMoto
Creator:- Aries -
Version:Easy
Source:osu!
Tags:electronic instrumental fa featured artist mg mappers' guild FAMoss Scotty KeppSado Peter petereu -_Aries_- touhou zun 摩多羅 隠岐奈 okina matara 東方天空璋 ~ Hidden Star in Four Seasons 秘匿されたフォーシーズンズ The Concealed Gimme More speedcore drum and bass gabber
BeatmapID:2146536
BeatmapSetID:1008419

[Difficulty]
HPDrainRate:7
CircleSize:4
OverallDifficulty:7
ApproachRate:5
SliderMultiplier:1.4
SliderTickRate:1

[Events]
//Background and Video events
0,0,"astronomy-1867616_1920.jpg",0,0
//Break Periods
//Storyboard Layer 0 (Background)
//Storyboard Layer 1 (Fail)
//Storyboard Layer 2 (Pass)
//Storyboard Layer 3 (Foreground)
//Storyboard Layer 4 (Overlay)
//Storyboard Sound Samples

[TimingPoints]
3381,320.855614973262,4,2,1,20,1,0
13648,-100,4,2,1,30,0,0
23915,-100,4,2,1,40,0,0
44450,-100,4,2,1,50,0,0
65145,-100,4,2,1,20,0,0
70118,-100,4,2,1,30,0,0
75252,-100,4,2,1,40,0,0
86001,-100,4,2,1,50,0,0
126589,-100,4,2,1,50,0,1
141990,-100,4,2,1,50,0,0

[HitObjects]
64,192,3380,5,2,0:0:0:0:
320,192,3541,1,0,0:0:0:0:
320,192,4022,1,0,0:0:0:0:
320,192,4503,1,0,0:0:0:0:
448,192,4824,1,0,0:0:0:0:
448,192,5306,1,0,0:0:0:0:
448,192,5787,1,0,0:0:0:0:
192,192,6108,1,0,0:0:0:0:
192,192,6589,1,0,0:0:0:0:
192,192,7070,1,0,0:0:0:0:
64,192,7391,1,0,0:0:0:0:
64,192,7872,1,0,0:0:0:0:
64,192,8354,1,0,0:0:0:0:
320,192,8675,1,0,0:0:0:100:38Arp_003.wav
320,192,9156,1,0,0:0:0:100:38Arp_017.wav
320,192,9637,1,0,0:0:0:100:38Arp_012.wav
64,192,9958,1,0,0:0:0:0:
64,192,10439,1,0,0:0:0:100:38Arp_017.wav
64,192,10921,1,0,0:0:0:100:38Arp_012.wav
448,192,11241,1,0,0:0:0:0:
448,192,11723,1,0,0:0:0:0:
448,192,12204,1,0,0:0:0:0:
192,192,12525,1,0,0:0:0:0:
192,192,13006,1,0,0:0:0:100:38Arp_017.wav
192,192,13487,1,0,0:0:0:100:38Arp_006.wav
448,192,13648,1,2,0:0:0:0:
64,192,13808,1,0,0:0:0:0:
448,192,14129,1,2,0:0:0:0:
64,192,14290,1,0,0:0:0:50:Clap1.wav
448,192,14610,1,2,0:0:0:0:
320,192,14931,1,2,0:0:0:0:
192,192,15092,1,0,0:0:0:0:
320,192,15413,1,2,0:0:0:0:
192,192,15573,1,0,0:0:0:50:Clap1.wav
320,192,15894,1,2,0:0:0:0:
64,192,16215,1,2,0:0:0:0:
448,192,16375,1,0,0:0:0:0:
64,192,16696,1,2,0:0:0:0:
448,192,16856,1,0,0:0:0:50:Clap1.wav
64,192,17177,1,2,0:0:0:0:
192,192,17498,1,2,0:0:0:0:
320,192,17659,1,0,0:0:0:0:
192,192,17979,1,2,0:0:0:0:
320,192,18140,1,0,0:0:0:50:Clap1.wav
192,192,18461,1,2,0:0:0:0:
448,192,18782,1,2,0:0:0:0:
192,192,18942,1,0,0:0:0:100:38Arp_003.wav
448,192,19263,1,2,0:0:0:0:
192,192,19423,1,0,0:0:0:100:38Arp_017.wav
448,192,19744,1,2,0:0:0:0:
64,192,20065,1,2,0:0:0:0:
320,192,20225,1,0,0:0:0:0:
64,192,20546,1,2,0:0:0:0:
320,192,20707,1,0,0:0:0:100:38Arp_017.wav
64,192,21028,1,2,0:0:0:0:
448,192,21348,1,2,0:0:0:0:
64,192,21509,1,0,0:0:0:0:
448,192,21830,1,2,0:0:0:0:
64,192,21990,1,0,0:0:0:50:Clap1.wav
448,192,22311,1,2,0:0:0:0:
192,192,22632,1,2,0:0:0:0:
320,192,22792,1,0,0:0:0:0:
192,192,23113,1,2,0:0:0:0:
320,192,23274,1,0,0:0:0:50:Clap1.wav
448,192,23594,128,2,23915:0:0:0:0:
64,192,23915,1,2,0:0:0:0:
320,192,24236,1,0,0:0:0:0:
448,192,24557,1,0,0:0:0:0:
64,192,24878,1,2,0:0:0:0:
192,192,25038,1,0,0:0:0:0:
320,192,25199,128,2,25520:0:0:0:0:
64,192,25520,1,0,0:0:0:0:
192,192,25840,1,0,0:0:0:0:
448,192,26161,1,2,0:0:0:0:
320,192,26322,1,0,0:0:0:0:
192,192,26482,128,2,27766:0:0:0:0:
448,192,27766,1,2,0:0:0:0:
320,192,28086,1,0,0:0:0:0:
64,192,28407,1,0,0:0:0:0:
320,192,28568,1,0,0:0:0:0:
192,192,28728,128,2,29049:0:0:0:0:
448,192,29049,1,2,0:0:0:0:
64,192,29370,1,0,0:0:0:0:
320,192,29691,1,0,0:0:0:0:
192,192,30012,1,2,0:0:0:0:
320,192,30172,1,0,0:0:0:0:
448,192,30332,128,2,30653:0:0:0:0:
64,192,30653,1,0,0:0:0:0:
192,192,30974,1,0,0:0:0:0:
320,192,31295,1,2,0:0:0:0:
192,192,31455,1,0,0:0:0:0:
64,192,31616,128,2,31937:0:0:0:0:
448,192,31937,1,0,0:0:0:0:
320,192,32258,1,0,0:0:0:0:
192,192,32578,1,2,0:0:0:0:
64,192,32899,1,2,0:0:0:0:
320,192,33220,1,0,0:0:0:0:
448,192,33541,1,0,0:0:0:0:
320,192,33701,1,0,0:0:0:0:
192,192,33862,1,2,0:0:0:0:
64,192,34183,1,2,0:0:0:0:
320,192,34503,1,0,0:0:0:0:
192,192,34824,1,0,0:0:0:0:
448,192,35145,1,2,0:0:0:0:
320,192,35306,1,0,0:0:0:0:
192,192,35466,128,2,35787:0:0:0:0:
448,192,35787,1,0,0:0:0:0:
320,192,36108,1,0,0:0:0:0:
64,192,36429,1,2,0:0:0:0:
320,192,36589,1,0,0:0:0:0:
192,192,36910,1,0,0:0:0:0:
448,192,37070,128,0,38033:0:0:0:0:
64,192,38033,1,2,0:0:0:0:
192,192,38354,1,0,0:0:0:0:
448,192,38675,1,0,0:0:0:0:
320,192,38835,1,0,0:0:0:0:
64,192,38995,128,2,39316:0:0:0:0:
448,192,39316,1,2,0:0:0:0:
192,192,39637,1,0,0:0:0:0:
320,192,39958,1,0,0:0:0:0:
64,192,40279,1,2,0:0:0:0:
192,192,40439,1,0,0:0:0:0:
320,192,40600,128,2,40921:0:0:0:0:
64,192,40921,1,0,0:0:0:0:
192,192,41241,1,0,0:0:0:0:
448,192,41562,1,2,0:0:0:0:
320,192,41723,1,0,0:0:0:0:
64,192,41883,128,2,42204:0:0:0:0:
448,192,42204,1,2,0:0:0:0:
320,192,42525,1,2,0:0:0:0:
64,192,42846,128,2,43167:0:0:0:0:
192,192,43167,128,2,43487:0:0:0:0:
320,192,43487,128,2,43808:0:0:0:0:
448,192,43808,128,0,44450:0:0:0:70:LS-HKI Sqeeze Kick 20 H.wav
64,192,44450,128,6,45092:0:0:0:0:
320,192,45573,128,6,46375:0:0:0:0:
64,192,47017,1,6,0:0:0:0:
320,192,47177,1,2,0:0:0:0:
64,192,47498,1,10,0:0:0:0:
320,192,47659,128,2,47979:0:0:0:0:
192,192,47979,1,10,0:0:0:0:
448,192,48300,1,2,0:0:0:0:
192,192,48461,1,2,0:0:0:0:
448,192,48782,1,10,0:0:0:0:
192,192,48942,128,2,49263:0:0:0:0:
320,192,49263,1,10,0:0:0:0:
448,192,49584,128,6,50225:0:0:0:0:
320,192,50707,128,6,51348:0:0:0:0:
64,192,51509,128,6,52151:0:0:0:0:
448,192,52151,1,6,0:0:0:0:
192,192,52311,1,2,0:0:0:0:
448,192,52632,1,10,0:0:0:0:
192,192,52792,128,2,53113:0:0:0:0:
320,192,53113,1,10,0:0:0:0:
64,192,53434,1,2,0:0:0:0:
320,192,53594,1,2,0:0:0:0:
64,192,53915,1,10,0:0:0:0:
320,192,54076,128,2,54397:0:0:0:0:
192,192,54397,1,10,0:0:0:0:
64,192,54717,128,6,55038:0:0:0:0:
192,192,55038,1,0,0:0:0:100:WB3.wav
448,192,55359,1,6,0:0:0:0:
192,192,55600,1,6,0:0:0:0:
320,192,55840,1,6,0:0:0:0:
64,192,56322,128,0,56643:0:0:0:70:LR3_GrowlQBRF.wav
448,192,56643,1,6,0:0:0:0:
192,192,56883,1,6,0:0:0:0:
320,192,57124,1,6,0:0:0:0:
64,192,57445,1,2,0:0:0:0:
448,192,57605,1,2,0:0:0:0:
320,192,57766,1,10,0:0:0:0:
192,192,57926,128,2,58247:0:0:0:0:
448,192,58568,1,2,0:0:0:0:
192,192,58728,1,2,0:0:0:0:
320,192,58889,1,2,0:0:0:0:
64,192,59049,1,10,0:0:0:0:
320,192,59290,1,2,0:0:0:0:
192,192,59530,1,2,0:0:0:0:
448,192,59851,128,6,60172:0:0:0:0:
320,192,60172,1,0,0:0:0:30:WB6.wav
64,192,60493,1,6,0:0:0:0:
192,192,60733,1,6,0:0:0:0:
320,192,60974,128,6,61455:0:0:0:0:
64,192,61455,128,0,61776:0:0:0:30:WB7.wav
448,192,61776,1,6,0:0:0:0:
192,192,62097,1,6,0:0:0:0:
320,192,62258,1,6,0:0:0:0:
448,192,62418,128,6,62739:0:0:0:0:
64,192,62739,1,2,0:0:0:0:
192,192,62899,1,10,0:0:0:0:
320,192,63060,128,2,63380:0:0:0:0:
64,192,63380,1,2,0:0:0:0:
448,192,63701,1,2,0:0:0:0:
64,192,64022,1,2,0:0:0:0:
192,192,64263,1,2,0:0:0:0:
320,192,64584,128,10,64985:0:0:0:0:
64,192,64985,1,6,0:0:0:0:
192,192,65680,1,0,0:0:0:0:
320,192,65894,1,0,0:0:0:0:
64,192,66295,1,0,0:0:0:0:
192,192,66536,1,0,0:0:0:0:
448,192,66937,1,0,0:0:0:0:
320,192,67124,1,0,0:0:0:0:
64,192,67258,128,0,67578:0:0:0:0:
192,192,67578,128,0,68060:0:0:0:0:
448,192,68220,1,0,0:0:0:0:
192,192,68461,1,0,0:0:0:0:
64,192,68862,1,0,0:0:0:0:
320,192,69102,1,0,0:0:0:0:
192,192,69343,1,0,0:0:0:0:
448,192,69503,1,0,0:0:0:0:
64,192,69824,128,0,70118:0:0:0:0:
448,192,70118,1,0,0:0:0:70:Clap yh.wav
448,192,70439,1,0,0:0:0:70:Clap yh.wav
320,192,70760,1,0,0:0:0:70:Clap yh.wav
320,192,71081,1,0,0:0:0:70:Clap yh.wav
192,192,71402,1,0,0:0:0:70:Clap yh.wav
192,192,71723,1,0,0:0:0:70:Clap yh.wav
64,192,72044,1,0,0:0:0:70:Clap yh.wav
64,192,72364,1,0,0:0:0:70:Clap yh.wav
448,192,72685,1,0,0:0:0:70:Clap yh.wav
448,192,73006,1,0,0:0:0:70:Clap yh.wav
320,192,73327,1,0,0:0:0:70:Clap yh.wav
320,192,73648,1,0,0:0:0:70:Clap yh.wav
192,192,73969,1,0,0:0:0:70:Clap yh.wav
192,192,74290,1,0,0:0:0:70:Clap yh.wav
64,192,74610,1,0,0:0:0:70:Clap yh.wav
64,192,74931,1,0,0:0:0:70:Clap yh.wav
448,192,75252,1,2,0:0:0:0:
320,192,75573,1,0,0:0:0:70:Clap yh.wav
64,192,75894,1,0,0:0:0:70:Clap yh.wav
192,192,76215,1,0,0:0:0:70:Clap yh.wav
320,192,76536,1,0,0:0:0:70:Clap yh.wav
448,192,76856,1,0,0:0:0:70:Clap yh.wav
64,192,77177,1,0,0:0:0:70:Clap yh.wav
192,192,77498,1,0,0:0:0:70:Clap yh.wav
448,192,77819,1,0,0:0:0:70:Clap yh.wav
64,192,78140,1,0,0:0:0:70:Clap yh.wav
320,192,78461,1,0,0:0:0:70:Clap yh.wav
192,192,78782,1,0,0:0:0:70:Clap yh.wav
448,192,79102,1,0,0:0:0:70:Clap yh.wav
320,192,79423,1,0,0:0:0:70:Clap yh.wav
192,192,79744,1,0,0:0:0:70:Clap yh.wav
64,192,80065,1,0,0:0:0:100:LR_TomR.wav
448,192,80386,1,0,0:0:0:70:Clap yh.wav
320,192,80707,1,0,0:0:0:70:Clap yh.wav
64,192,81028,1,0,0:0:0:70:Clap yh.wav
192,192,81348,1,0,0:0:0:70:Clap yh.wav
320,192,81669,1,0,0:0:0:70:Clap yh.wav
448,192,81990,1,0,0:0:0:70:Clap yh.wav
64,192,82311,1,0,0:0:0:70:Clap yh.wav
192,192,82632,1,0,0:0:0:70:Clap yh.wav
448,192,82953,1,0,0:0:0:70:Clap yh.wav
64,192,83274,1,0,0:0:0:70:Clap yh.wav
320,192,83594,1,0,0:0:0:70:Clap yh.wav
192,192,83915,1,0,0:0:0:70:Clap yh.wav
448,192,84236,1,0,0:0:0:70:Clap yh.wav
320,192,84557,1,0,0:0:0:70:Clap yh.wav
192,192,84878,1,0,0:0:0:70:Clap yh.wav
448,192,85038,1,0,0:0:0:0:
64,192,85199,1,0,0:0:0:70:Clap yh.wav
320,192,85359,1,0,0:0:0:0:
64,192,85520,1,0,0:0:0:70:Clap yh.wav
192,192,85840,1,0,0:0:0:0:
448,192,86161,1,0,0:0:0:0:
320,192,86322,1,0,0:0:0:0:
64,192,86643,1,0,0:0:0:0:
192,192,87124,1,0,0:0:0:0:
448,192,87445,1,0,0:0:0:0:
320,192,87605,1,0,0:0:0:0:
64,192,87926,1,0,0:0:0:0:
192,192,88407,1,0,0:0:0:0:
448,192,88728,1,0,0:0:0:0:
320,192,88889,1,0,0:0:0:0:
192,192,89049,1,2,0:0:0:0:
64,192,89209,1,0,0:0:0:0:
448,192,89530,1,0,0:0:0:0:
192,192,89691,1,2,0:0:0:0:
64,192,90012,1,2,0:0:0:0:
320,192,90172,1,0,0:0:0:0:
192,192,90493,1,0,0:0:0:0:
448,192,90653,1,2,0:0:0:0:
320,192,90974,1,2,0:0:0:0:
64,192,91135,1,2,0:0:0:0:
192,192,91295,1,2,0:0:0:0:
448,192,91616,1,0,0:0:0:100:LR_TomR.wav
320,192,91776,1,2,0:0:0:0:
64,192,92258,1,2,0:0:0:0:
192,192,92578,1,0,0:0:0:100:WB5.wav
448,192,92899,1,2,0:0:0:0:
64,192,93220,1,2,0:0:0:0:
448,192,93701,1,2,0:0:0:0:
192,192,93862,1,2,0:0:0:0:
320,192,94183,1,0,0:0:0:100:LR_TomR.wav
64,192,94343,1,2,0:0:0:0:
192,192,94824,1,2,0:0:0:0:
448,192,95145,1,0,0:0:0:100:WB5.wav
320,192,95466,1,2,0:0:0:0:
192,192,95787,1,0,0:0:0:0:
448,192,96108,1,0,0:0:0:0:
64,192,96429,1,0,0:0:0:0:
320,192,96589,1,0,0:0:0:0:
448,192,96910,1,0,0:0:0:0:
192,192,97391,1,0,0:0:0:0:
64,192,97712,1,0,0:0:0:0:
320,192,97872,1,0,0:0:0:0:
448,192,98193,1,0,0:0:0:0:
192,192,98675,1,0,0:0:0:0:
64,192,98995,1,0,0:0:0:0:
192,192,99156,1,0,0:0:0:0:
320,192,99316,1,2,0:0:0:0:
448,192,99477,1,0,0:0:0:0:
64,192,99798,1,0,0:0:0:0:
320,192,99958,1,2,0:0:0:0:
448,192,100279,1,2,0:0:0:0:
64,192,100439,1,0,0:0:0:0:
192,192,100760,1,0,0:0:0:0:
448,192,100921,1,2,0:0:0:0:
64,192,101241,1,2,0:0:0:0:
448,192,101402,1,2,0:0:0:0:
320,192,101562,1,2,0:0:0:0:
192,192,101883,1,0,0:0:0:100:LR_TomR.wav
64,192,102044,1,2,0:0:0:0:
320,192,102525,1,2,0:0:0:0:
64,192,102846,1,0,0:0:0:100:WB5.wav
320,192,103167,1,2,0:0:0:0:
448,192,103487,1,2,0:0:0:0:
64,192,103969,1,2,0:0:0:0:
192,192,104129,1,2,0:0:0:0:
320,192,104450,1,0,0:0:0:100:LR_TomR.wav
448,192,104610,1,2,0:0:0:0:
64,192,105092,1,2,0:0:0:0:
192,192,105413,1,0,0:0:0:100:WB5.wav
320,192,105733,1,2,0:0:0:0:
64,192,106054,1,2,0:0:0:0:
64,192,106536,1,2,0:0:0:0:
64,192,107017,1,2,0:0:0:0:
320,192,107338,1,2,0:0:0:0:
320,192,107819,1,2,0:0:0:0:
320,192,108300,1,2,0:0:0:0:
192,192,108621,1,2,0:0:0:0:
192,192,109102,1,2,0:0:0:0:
192,192,109584,1,2,0:0:0:0:
448,192,109905,1,2,0:0:0:0:
192,192,110225,1,2,0:0:0:0:
448,192,110386,1,2,0:0:0:0:
192,192,110546,1,2,0:0:0:0:
448,192,110867,1,2,0:0:0:0:
64,192,111188,1,2,0:0:0:0:
192,192,111509,1,2,0:0:0:0:
448,192,111830,128,2,112151:0:0:0:0:
64,192,112151,1,0,0:0:0:100:LR_TomR.wav
192,192,112311,1,2,0:0:0:0:
320,192,112792,1,2,0:0:0:0:
448,192,113113,1,0,0:0:0:100:WB5.wav
64,192,113434,1,2,0:0:0:0:
320,192,113755,1,2,0:0:0:0:
448,192,114076,1,0,0:0:0:70:Clap.wav
192,192,114397,128,2,114717:0:0:0:0:
448,192,114717,1,0,0:0:0:100:LR_TomR.wav
320,192,114878,1,2,0:0:0:0:
64,192,115199,1,0,0:0:0:0:
192,192,115680,1,0,0:0:0:100:WB5.wav
320,192,116001,1,2,0:0:0:0:
64,192,116322,128,0,116803:0:0:0:70:Clap.wav
192,192,116803,128,0,117284:0:0:0:0:
320,192,117284,1,0,0:0:0:70:Clap.wav
448,192,117605,128,0,118086:0:0:0:70:Clap.wav
320,192,118086,128,0,118568:0:0:0:0:
192,192,118568,1,0,0:0:0:70:Clap.wav
64,192,118889,128,0,119370:0:0:0:70:Clap.wav
192,192,119370,128,0,119851:0:0:0:0:
320,192,119851,1,0,0:0:0:70:Clap.wav
448,192,120172,128,0,120814:0:0:0:70:Clap.wav
64,192,120814,1,0,0:0:0:70:Clap.wav
192,192,121135,1,0,0:0:0:70:Clap.wav
448,192,121455,128,0,121937:0:0:0:70:Clap.wav
64,192,122097,128,0,122418:0:0:0:70:Clap.wav
320,192,122578,128,0,123380:0:0:0:0:
64,192,123380,1,0,0:0:0:0:
320,192,123701,1,0,0:0:0:70:Clap.wav
64,192,124022,128,0,124503:0:0:0:70:Clap.wav
320,192,124664,128,0,124985:0:0:0:70:Clap.wav
64,192,125145,1,0,0:0:0:0:
448,192,125466,1,0,0:0:0:0:
320,192,125626,128,0,125947:0:0:0:70:WB3.wav
64,192,125947,128,0,126589:0:0:0:70:LS-HKI Sqeeze Kick 20 H.wav
448,192,126589,1,14,0:0:0:0:
192,192,126910,1,2,0:0:0:0:
320,192,127231,1,10,0:0:0:0:
64,192,127552,1,2,0:0:0:0:
192,192,127712,128,2,128193:0:0:0:0:
448,192,128193,1,2,0:0:0:0:
320,192,128514,1,10,0:0:0:0:
64,192,128835,1,2,0:0:0:0:
192,192,128995,128,2,130118:0:0:0:0:
320,192,130118,1,2,0:0:0:0:
448,192,130439,1,10,0:0:0:0:
320,192,130760,1,2,0:0:0:0:
64,192,131081,1,10,0:0:0:0:
320,192,131241,1,2,0:0:0:0:
448,192,131402,128,2,131723:0:0:0:0:
64,192,131723,1,10,0:0:0:0:
320,192,132044,1,2,0:0:0:0:
192,192,132364,1,10,0:0:0:0:
448,192,132685,1,2,0:0:0:0:
320,192,132846,128,2,133327:0:0:0:0:
64,192,133327,1,2,0:0:0:0:
192,192,133648,1,10,0:0:0:0:
448,192,133969,1,2,0:0:0:0:
192,192,134129,128,2,134610:0:0:0:0:
448,192,134610,1,2,0:0:0:0:
64,192,134931,1,10,0:0:0:0:
320,192,135252,1,2,0:0:0:0:
448,192,135573,128,10,135894:0:0:0:0:
320,192,135894,128,2,136215:0:0:0:0:
64,192,136215,128,10,136536:0:0:0:0:
192,192,136536,1,2,0:0:0:0:
448,192,136856,1,14,0:0:0:0:
320,192,137177,1,2,0:0:0:0:
64,192,137498,1,10,0:0:0:0:
448,192,137819,1,2,0:0:0:0:
192,192,137979,128,2,138461:0:0:0:0:
448,192,138461,1,2,0:0:0:0:
64,192,138782,1,10,0:0:0:0:
448,192,139102,1,2,0:0:0:0:
320,192,139263,1,2,0:0:0:0:
192,192,139584,1,2,0:0:0:0:
64,192,139744,128,2,140707:0:0:0:0:
448,192,140707,1,10,0:0:0:0:
192,192,141028,1,2,0:0:0:0:
320,192,141348,1,10,0:0:0:0:
192,192,141509,1,2,0:0:0:0:
64,192,141669,128,2,141990:0:0:0:0:
448,192,141990,1,6,0:0:0:0:
192,192,142311,1,0,0:0:0:0:
320,192,142632,1,8,0:0:0:0:
64,192,142953,1,8,0:0:0:0:
192,192,143113,128,6,143594:0:0:0:0:
448,192,143594,1,6,0:0:0:0:
320,192,143915,1,8,0:0:0:0:
64,192,144236,1,8,0:0:0:0:
448,192,144397,1,2,0:0:0:0:
320,192,144557,1,6,0:0:0:0:
64,192,144878,1,0,0:0:0:0:
320,192,145199,1,0,0:0:0:0:
64,192,145520,1,0,0:0:0:0:
448,192,145840,1,0,0:0:0:0:
192,192,146161,1,0,0:0:0:0:
448,192,146482,1,0,0:0:0:0:
192,192,146803,1,0,0:0:0:0:
320,192,146963,1,0,0:0:0:0:
