osu file format v14

[General]
AudioFilename: audio.mp3
AudioLeadIn: 0
PreviewTime: 46362
Countdown: 0
SampleSet: Normal
StackLeniency: 0.7
Mode: 1
LetterboxInBreaks: 0
WidescreenStoryboard: 1

[Editor]
Bookmarks: 284,11850,20524,34982,43657,69681,92814,104380
DistanceSpacing: 0.5
BeatDivisor: 8
GridSize: 32
TimelineZoom: 2.700006

[Metadata]
Title:LINK[INIT]
TitleUnicode:LINK[INIT]
Artist:BilliumMoto
ArtistUnicode:BilliumMoto
Creator:Capu
Version:Oni
Source:
Tags:electronic instrumental sv tech complextro trap dubstep future bass neurotic experimental bm fa featured artist linkinit cychloryn vulkin
BeatmapID:3051562
BeatmapSetID:1483609

[Difficulty]
HPDrainRate:5
CircleSize:2
OverallDifficulty:6
ApproachRate:10
SliderMultiplier:1.4
SliderTickRate:1

[Events]
//Background and Video events
0,0,"1100871.jpg",0,-30
//Break Periods
2,69875,75008
//Storyboard Layer 0 (Background)
//Storyboard Layer 1 (Fail)
//Storyboard Layer 2 (Pass)
//Storyboard Layer 3 (Foreground)
//Storyboard Layer 4 (Overlay)
//Storyboard Sound Samples

[TimingPoints]
278,361.44578313253,4,1,0,40,1,0
278,-125,4,1,0,40,0,0
5965,-117.647058823529,4,1,0,50,0,0
8857,-114.285714285714,4,1,0,50,0,0
8947,-111.111111111111,4,1,0,50,0,0
11026,-100,4,1,0,72,0,0
23315,-125,4,1,0,72,0,0
24128,-125,4,1,0,72,0,0
24309,-121.250039406263,4,1,0,72,0,0
24399,-119.458185454055,4,1,0,72,0,0
24489,-117.71838231399,4,1,0,72,0,0
24670,-114.38676682372,4,1,0,72,0,0
24851,-111.238541039791,4,1,0,72,0,0
25574,-111.111111111111,4,1,0,72,0,0
25664,-109.604535874113,4,1,0,72,0,0
25754,-108.138269917447,4,1,0,72,0,0
25935,-105.320252557966,4,1,0,72,0,0
26116,-102.645482007787,4,1,0,72,0,0
26297,-100.103206405804,4,1,0,72,0,0
27562,-100,4,1,0,72,0,0
27652,-99.009900990099,4,1,0,72,0,0
27742,-98.0392156862745,4,1,0,72,0,0
27833,-97.0873786407767,4,1,0,72,0,0
28013,-95.2380952380952,4,1,0,72,0,0
28104,-94.3396226415094,4,1,0,72,0,0
28194,-93.4579439252336,4,1,0,72,0,0
28285,-92.5925925925926,4,1,0,72,0,0
28465,-90.9090909090909,4,1,0,72,0,0
29098,-111.111111111111,4,1,0,72,0,0
29911,-111.111111111111,4,1,0,72,0,0
30001,-109.89010989011,4,1,0,72,0,0
30092,-108.138269917447,4,1,0,72,0,0
30272,-106.382978723404,4,1,0,72,0,0
30453,-104.166666666667,4,1,0,72,0,0
30544,-102.040816326531,4,1,0,72,0,0
30634,-100.103206405804,4,1,0,72,0,0
31357,-105.263157894737,4,1,0,72,0,0
31447,-107.52688172043,4,1,0,72,0,0
31537,-109.89010989011,4,1,0,72,0,0
31718,-105.320252557966,4,1,0,72,0,0
31899,-102.645482007787,4,1,0,72,0,0
32080,-100.103206405804,4,1,0,72,0,0
32803,-98.0392156862745,4,1,0,72,0,0
32893,-96.1538461538461,4,1,0,72,0,0
32983,-94.3396226415094,4,1,0,72,0,0
33164,-96.1538461538461,4,1,0,72,0,0
33254,-98.0392156862745,4,1,0,72,0,0
33345,-100,4,1,0,72,0,0
33525,-98.0392156862745,4,1,0,72,0,0
33706,-97.0873786407767,4,1,0,72,0,0
33796,-95.2380952380952,4,1,0,72,0,0
33977,-93.4579439252336,4,1,0,72,0,0
34068,-92.5925925925926,4,1,0,72,0,0
34248,-90.9090909090909,4,1,0,72,0,0
34339,-100,4,1,0,72,0,0
34881,-95.2380952380952,4,1,0,72,0,0
35604,-100,4,1,0,72,0,0
36327,-95.2380952380952,4,1,0,72,0,0
37050,-100,4,1,0,72,0,0
37727,-97.5609756097561,4,1,0,72,0,0
37818,-95.2380952380952,4,1,0,72,0,0
38541,-100,4,1,0,72,0,0
39263,-95.2380952380952,4,1,0,72,0,0
39986,-100,4,1,0,72,0,0
42200,-100,4,1,0,72,0,0
42381,-98.1688563230069,4,1,0,72,0,0
42562,-96.4035684744906,4,1,0,72,0,0
42742,-94.7006465213138,4,1,0,72,0,0
42923,-93.0569294377221,4,1,0,72,0,0
43013,-92.2561991553022,4,1,0,72,0,0
43104,-91.4692151209589,4,1,0,72,0,0
43194,-90.6954618711743,4,1,0,72,0,0
43285,-89.9347703110934,4,1,0,72,0,0
43465,-88.4509583661339,4,1,0,72,0,0
43556,-87.7273014380259,4,1,0,72,0,0
43646,-87.0153138250801,4,1,0,72,0,0
44007,-100,4,1,0,72,0,0
46543,-83.3333333333333,4,1,0,72,0,1
46718,-100,4,1,0,72,0,1
51964,-100,4,1,0,72,0,0
52326,-83.3333333333333,4,1,0,72,0,1
52501,-100,4,1,0,72,0,1
56297,-100,4,1,0,72,0,1
56387,-101.010101010101,4,1,0,72,0,1
56482,-102.040816326531,4,1,0,72,0,0
56839,-106.382978723404,4,1,0,72,0,0
57200,-111.111111111111,4,1,0,72,0,0
57562,-99.9999999999999,4,1,0,72,0,0
57742,-90.9090909090909,4,1,0,72,0,0
58109,-83.3333333333333,4,1,0,72,0,1
58285,-100,4,1,0,72,0,1
60634,-100,4,1,0,72,0,1
60724,-97.5609756097561,4,1,0,72,0,1
60815,-95.2380952380952,4,1,0,72,0,1
60995,-90.9090909090909,4,1,0,72,0,1
61176,-100,4,1,0,72,0,1
63531,-100,4,1,0,72,0,0
63892,-83.3333333333333,4,1,0,72,0,1
64068,-100,4,1,0,72,0,1
66417,-100,4,1,0,72,0,1
66507,-97.6095423088561,4,1,0,72,0,1
66598,-95.3307022059524,4,1,0,72,0,1
66779,-91.0780821506086,4,1,0,72,0,1
66959,-100,4,1,0,72,0,1
68044,-100,4,1,0,72,0,1
68224,-97.826108223067,4,1,0,72,0,1
68405,-95.7447215934986,4,1,0,72,0,1
68586,-93.7499707031342,4,1,0,72,0,1
68676,-92.7834860240235,4,1,0,72,0,1
68766,-91.8367253227831,4,1,0,72,0,1
68947,-90.0000090000009,4,1,0,72,0,1
69128,-88.2353200692118,4,1,0,72,0,1
69309,-86.5384282544507,4,1,0,72,0,1
69399,-85.7142612244968,4,1,0,72,0,1
69489,-84.9056443574256,4,1,0,72,0,1
69580,-84.1121416717625,4,1,0,72,0,1
69675,-83.3333333333333,4,1,0,72,0,0
75363,-100,4,1,0,48,0,0
87019,-100,4,1,0,53,0,0
88420,-100,4,1,0,58,0,0
89866,-100,4,1,0,63,0,0
91312,-100,4,1,0,72,0,0
92260,-100,4,1,0,72,0,0
92351,-99.4550855860739,4,1,0,72,0,0
92441,-98.3827837998973,4,1,0,72,0,0
92532,-97.5935385270012,4,1,0,72,0,0
92622,-96.8169491623882,4,1,0,72,0,0
92803,-95.2380952380952,4,1,0,72,0,0
93480,-100,4,1,0,72,0,0
94203,-95.2380952380952,4,1,0,72,0,0
94926,-100,4,1,0,72,0,0
95603,-97.5609756097561,4,1,0,72,0,0
95694,-95.2380952380952,4,1,0,72,0,0
96417,-100,4,1,0,72,0,0
97139,-95.2380952380952,4,1,0,72,0,0
97862,-100,4,1,0,72,0,0
98495,-100,4,1,0,72,0,0
100032,-100,4,1,0,72,0,0
100213,-98.1688563230069,4,1,0,72,0,0
100394,-96.4035684744906,4,1,0,72,0,0
100574,-94.7006465213138,4,1,0,72,0,0
100755,-93.0569294377221,4,1,0,72,0,0
100845,-92.2561991553022,4,1,0,72,0,0
100936,-91.4692151209589,4,1,0,72,0,0
101026,-90.6954618711743,4,1,0,72,0,0
101117,-89.9347703110934,4,1,0,72,0,0
101297,-88.4509583661339,4,1,0,72,0,0
101388,-87.7273014380259,4,1,0,72,0,0
101478,-87.0153138250801,4,1,0,72,0,0
101658,-100,4,1,0,72,0,0
104374,-90.9090909090909,4,1,0,72,0,1
104730,-100,4,1,0,72,0,1
104821,-99.2586372384659,4,1,0,72,0,1
104911,-98.5281859581571,4,1,0,72,0,1
105001,-97.8084070238173,4,1,0,72,0,1
105092,-97.0990682373412,4,1,0,72,0,1
105272,-95.7109071192644,4,1,0,72,0,1
105363,-95.0315599810697,4,1,0,72,0,1
105544,-93.7013924026911,4,1,0,72,0,1
105634,-93.0501754461058,4,1,0,72,0,1
105724,-92.4079478227764,4,1,0,72,0,1
105815,-91.7745246767931,4,1,0,72,0,1
105995,-90.5334593559087,4,1,0,72,0,1
106086,-89.9253889048257,4,1,0,72,0,1
106266,-88.7334279231675,4,1,0,72,0,1
106357,-88.1492189979197,4,1,0,72,0,1
106538,-87.0035793272535,4,1,0,72,0,1
106718,-90.9090909090909,4,1,0,72,0,1
106809,-92.3077207100679,4,1,0,72,0,1
106899,-93.7499707031342,4,1,0,72,0,1
107080,-96.774224765879,4,1,0,72,0,1
107260,-100,4,1,0,72,0,1
107622,-100,4,1,0,72,0,1
107712,-99.2555831265509,4,1,0,72,0,1
107803,-98.5221674876847,4,1,0,72,0,1
107983,-97.0873786407767,4,1,0,72,0,1
108164,-95.6937799043062,4,1,0,72,0,1
108254,-95.0118764845606,4,1,0,72,0,1
108435,-93.6768149882904,4,1,0,72,0,1
108526,-93.0232558139535,4,1,0,72,0,1
108616,-92.378752886836,4,1,0,72,0,1
108706,-91.743119266055,4,1,0,72,0,1
108887,-90.4977375565611,4,1,0,72,0,1
108977,-89.8876404494382,4,1,0,72,0,1
109158,-88.6917960088692,4,1,0,72,0,1
109248,-88.1057268722467,4,1,0,72,0,1
109429,-86.9565217391304,4,1,0,72,0,1
109610,-90.9090909090909,4,1,0,72,0,1
109655,-91.6030254647251,4,1,0,72,0,1
109791,-93.7499707031342,4,1,0,72,0,1
109971,-96.774224765879,4,1,0,72,0,1
110152,-100,4,1,0,72,0,1
113405,-100,4,1,0,72,0,1
113586,-98.5915215235151,4,1,0,72,0,1
113676,-97.9020568243118,4,1,0,72,0,1
113857,-96.5517507728968,4,1,0,72,0,1
113947,-95.8904240945786,4,1,0,72,0,1
114128,-94.594581811543,4,1,0,72,0,1
114218,-93.9597063195419,4,1,0,72,0,1
114404,-91.743119266055,4,1,0,72,0,1
114489,-90.9090909090909,4,1,0,72,0,1
114851,-89.7435667324188,4,1,0,72,0,1
115032,-88.6076285851754,4,1,0,72,0,1
115122,-88.0503366164369,4,1,0,72,0,1
115212,-87.5000109375014,4,1,0,72,0,1
115303,-86.9565217391304,4,1,0,72,0,1
115393,-86.4197424173157,4,1,0,72,0,1
115574,-85.3658224271381,4,1,0,72,0,1
115754,-84.3373697198481,4,1,0,72,0,1
115845,-83.8323453691432,4,1,0,72,0,1
115935,-83.3333333333333,4,1,0,72,0,1
116116,-100,4,1,0,72,0,1
116658,-90.9090909090909,4,1,0,72,0,1
116748,-100,4,1,0,72,0,1
116839,-100,4,1,0,72,0,1
117019,-97.0873786407767,4,1,0,72,0,1
117110,-95.6937799043062,4,1,0,72,0,1
117200,-94.3396226415094,4,1,0,72,0,1
117381,-100,4,1,0,72,0,1
117562,-96.774224765879,4,1,0,72,0,1
117652,-95.2380952380952,4,1,0,72,0,1
117742,-93.7499707031342,4,1,0,72,0,1
117923,-90.9090909090909,4,1,0,72,0,1
118104,-90.9090909090909,4,1,0,72,0,1
118194,-100,4,1,0,72,0,1
119550,-90.9090909090909,4,1,0,72,0,1
119640,-100,4,1,0,72,0,1
119730,-94.3396226415094,4,1,0,72,0,1
119911,-97.0297260268656,4,1,0,72,0,1
120001,-98.4331412574637,4,1,0,72,0,1
120092,-99.8777496344474,4,1,0,72,0,1
120272,-90.9090909090909,4,1,0,72,0,1
120453,-93.709909729244,4,1,0,72,0,1
120544,-95.1760042258146,4,1,0,72,0,1
120634,-96.6887020218575,4,1,0,72,0,1
120815,-99.8631874332165,4,1,0,72,0,1
120995,-90.9090909090909,4,1,0,72,0,1
121085,-100,4,1,0,72,0,1
121357,-90.9090909090909,4,1,0,72,0,1
121538,-93.000935589412,4,1,0,72,0,1
121723,-95.1914061198555,4,1,0,72,0,0
121899,-97.4874558016247,4,1,0,72,0,0
122085,-83.2617975722525,4,1,0,72,0,1
122260,-86.9565217391304,4,1,0,72,0,1
122351,-88.3827112810809,4,1,0,72,0,1
122441,-89.8563825437803,4,1,0,72,0,1
122622,-92.9564136671956,4,1,0,72,0,1
122803,-96.2778965205168,4,1,0,72,0,1
122893,-98.0293166474366,4,1,0,72,0,1
122983,-99.8456386426584,4,1,0,72,0,1
123164,-90.7815016349748,4,1,0,72,0,1
123526,-92.5925925925926,4,1,0,72,0,1
123797,-94.3396226415094,4,1,0,72,0,1
124068,-96.1538461538461,4,1,0,72,0,1
124248,-98.0392156862745,4,1,0,72,0,1
124429,-94.3396226415094,4,1,0,72,0,1
124519,-92.5925925925926,4,1,0,72,0,1
124610,-90.9090909090909,4,1,0,72,0,1
124791,-100,4,1,0,72,0,1
126056,-100,4,1,0,72,0,1
126236,-97.2222627314984,4,1,0,72,0,1
126417,-94.594581811543,4,1,0,72,0,1
126598,-92.1052873961283,4,1,0,72,0,1
126779,-89.7435667324188,4,1,0,72,0,1
126959,-87.5000109375014,4,1,0,72,0,1
127140,-85.3658224271381,4,1,0,72,0,1
127326,-83.3333333333333,4,1,0,72,0,0

[HitObjects]
256,192,278,5,0,0:0:0:0:
256,192,1181,1,0,0:0:0:0:
256,192,1723,1,0,0:0:0:0:
256,192,2627,1,0,0:0:0:0:
256,192,3169,1,0,0:0:0:0:
256,192,4073,1,0,0:0:0:0:
256,192,4615,1,8,0:0:0:0:
256,192,5518,1,8,0:0:0:0:
256,192,6061,1,0,0:0:0:0:
256,192,6241,1,0,0:0:0:0:
256,192,6422,1,8,0:0:0:0:
256,192,6603,1,8,0:0:0:0:
256,192,6693,1,8,0:0:0:0:
256,192,6784,1,0,0:0:0:0:
256,192,6964,1,0,0:0:0:0:
256,192,7145,1,8,0:0:0:0:
256,192,7235,1,8,0:0:0:0:
256,192,7326,1,8,0:0:0:0:
256,192,7416,1,8,0:0:0:0:
256,192,7687,1,0,0:0:0:0:
256,192,7868,1,8,0:0:0:0:
256,192,8049,1,0,0:0:0:0:
256,192,8139,1,0,0:0:0:0:
256,192,8410,1,0,0:0:0:0:
256,192,8591,1,8,0:0:0:0:
256,192,8681,1,8,0:0:0:0:
256,192,8862,1,8,0:0:0:0:
256,192,8952,1,0,0:0:0:0:
256,192,9133,1,8,0:0:0:0:
256,192,9314,1,8,0:0:0:0:
256,192,9404,1,8,0:0:0:0:
256,192,9494,1,0,0:0:0:0:
256,192,9675,1,8,0:0:0:0:
256,192,9856,1,0,0:0:0:0:
256,192,10037,1,8,0:0:0:0:
256,192,10127,1,8,0:0:0:0:
256,192,10217,1,8,0:0:0:0:
256,192,10398,1,0,0:0:0:0:
256,192,10579,1,8,0:0:0:0:
256,192,10759,1,0,0:0:0:0:
256,192,11121,1,8,0:0:0:0:
256,192,11211,1,8,0:0:0:0:
256,192,11392,1,8,0:0:0:0:
256,192,11482,1,8,0:0:0:0:
256,192,11663,1,0,0:0:0:0:
256,192,11844,1,4,0:0:0:0:
256,192,12024,1,8,0:0:0:0:
256,192,12205,1,8,0:0:0:0:
256,192,12386,1,8,0:0:0:0:
256,192,12567,1,0,0:0:0:0:
256,192,12657,1,0,0:0:0:0:
256,192,12747,1,8,0:0:0:0:
256,192,12928,1,8,0:0:0:0:
256,192,13018,1,0,0:0:0:0:
256,192,13109,1,8,0:0:0:0:
256,192,13290,1,0,0:0:0:0:
256,192,13470,1,8,0:0:0:0:
256,192,13651,1,8,0:0:0:0:
256,192,13832,1,0,0:0:0:0:
256,192,14012,1,8,0:0:0:0:
256,192,14103,1,0,0:0:0:0:
256,192,14193,1,8,0:0:0:0:
256,192,14374,1,8,0:0:0:0:
256,192,14555,1,0,0:0:0:0:
256,192,14735,1,0,0:0:0:0:
256,192,14916,1,8,0:0:0:0:
256,192,15097,1,8,0:0:0:0:
256,192,15277,1,8,0:0:0:0:
256,192,15458,1,0,0:0:0:0:
256,192,15549,1,0,0:0:0:0:
256,192,15639,1,8,0:0:0:0:
256,192,15820,1,8,0:0:0:0:
256,192,15910,1,0,0:0:0:0:
256,192,16000,1,8,0:0:0:0:
256,192,16181,1,0,0:0:0:0:
256,192,16362,1,8,0:0:0:0:
256,192,16452,1,8,0:0:0:0:
256,192,16543,1,0,0:0:0:0:
256,192,16723,1,8,0:0:0:0:
256,192,17085,1,0,0:0:0:0:
256,192,17265,1,8,0:0:0:0:
256,192,17627,1,8,0:0:0:0:
256,192,17808,1,0,0:0:0:0:
256,192,17898,1,0,0:0:0:0:
256,192,17988,1,8,0:0:0:0:
256,192,18169,1,0,0:0:0:0:
256,192,18350,1,8,0:0:0:0:
256,192,18531,1,8,0:0:0:0:
256,192,18711,1,8,0:0:0:0:
256,192,18802,1,0,0:0:0:0:
256,192,18892,1,8,0:0:0:0:
256,192,19073,1,0,0:0:0:0:
256,192,19253,1,0,0:0:0:0:
256,192,19344,1,0,0:0:0:0:
256,192,19434,1,8,0:0:0:0:
256,192,19615,1,0,0:0:0:0:
256,192,19976,1,0,0:0:0:0:
256,192,20157,1,8,0:0:0:0:
256,192,20247,1,8,0:0:0:0:
256,192,20338,1,0,0:0:0:0:
256,192,20518,1,0,0:0:0:0:
256,192,20880,1,8,0:0:0:0:
256,192,20970,1,8,0:0:0:0:
256,192,21061,1,8,0:0:0:0:
256,192,21241,1,8,0:0:0:0:
256,192,21422,1,0,0:0:0:0:
256,192,21603,1,8,0:0:0:0:
256,192,21784,1,0,0:0:0:0:
256,192,21874,1,0,0:0:0:0:
256,192,21964,1,8,0:0:0:0:
256,192,22145,1,8,0:0:0:0:
256,192,22235,1,0,0:0:0:0:
256,192,22326,1,8,0:0:0:0:
256,192,22506,1,0,0:0:0:0:
256,192,22597,1,0,0:0:0:0:
256,192,22687,1,8,0:0:0:0:
256,192,23410,1,0,0:0:0:0:
256,192,23591,1,0,0:0:0:0:
256,192,23771,1,0,0:0:0:0:
256,192,23952,1,0,0:0:0:0:
256,192,24133,5,8,0:0:0:0:
256,192,24314,1,8,0:0:0:0:
256,192,24404,1,8,0:0:0:0:
256,192,24494,1,8,0:0:0:0:
256,192,24675,1,0,0:0:0:0:
256,192,24856,1,8,0:0:0:0:
256,192,25037,1,0,0:0:0:0:
256,192,25217,1,8,0:0:0:0:
256,192,25398,1,0,0:0:0:0:
256,192,25579,5,0,0:0:0:0:
256,192,25669,1,0,0:0:0:0:
256,192,25759,1,8,0:0:0:0:
256,192,25940,1,0,0:0:0:0:
256,192,26121,1,8,0:0:0:0:
256,192,26302,1,0,0:0:0:0:
256,192,26482,1,0,0:0:0:0:
256,192,26663,1,8,0:0:0:0:
256,192,26753,1,8,0:0:0:0:
256,192,26844,1,0,0:0:0:0:
256,192,27024,1,8,0:0:0:0:
256,192,27115,1,0,0:0:0:0:
256,192,27205,1,8,0:0:0:0:
256,192,27386,1,8,0:0:0:0:
256,192,27567,5,8,0:0:0:0:
256,192,27657,1,8,0:0:0:0:
256,192,27747,1,0,0:0:0:0:
256,192,27838,1,0,0:0:0:0:
256,192,28018,1,8,0:0:0:0:
256,192,28109,1,0,0:0:0:0:
256,192,28199,1,0,0:0:0:0:
256,192,28290,1,8,0:0:0:0:
256,192,28470,1,0,0:0:0:0:
256,192,29193,1,8,0:0:0:0:
256,192,29374,1,8,0:0:0:0:
256,192,29555,1,8,0:0:0:0:
256,192,29735,1,8,0:0:0:0:
256,192,29916,1,0,0:0:0:0:
256,192,30006,1,0,0:0:0:0:
256,192,30097,1,8,0:0:0:0:
256,192,30277,1,0,0:0:0:0:
256,192,30458,1,8,0:0:0:0:
256,192,30549,1,0,0:0:0:0:
256,192,30639,1,8,0:0:0:0:
256,192,30820,1,0,0:0:0:0:
256,192,31000,1,8,0:0:0:0:
256,192,31181,1,0,0:0:0:0:
256,192,31362,1,8,0:0:0:0:
256,192,31452,1,8,0:0:0:0:
256,192,31543,1,0,0:0:0:0:
256,192,31723,1,8,0:0:0:0:
256,192,32085,1,8,0:0:0:0:
256,192,32265,1,0,0:0:0:0:
256,192,32446,1,8,0:0:0:0:
256,192,32627,1,8,0:0:0:0:
256,192,32808,1,0,0:0:0:0:
256,192,32898,1,0,0:0:0:0:
256,192,32988,1,0,0:0:0:0:
256,192,33169,1,8,0:0:0:0:
256,192,33259,1,0,0:0:0:0:
256,192,33350,1,8,0:0:0:0:
256,192,33531,1,0,0:0:0:0:
256,192,33711,1,0,0:0:0:0:
256,192,33802,1,8,0:0:0:0:
256,192,33982,1,8,0:0:0:0:
256,192,34073,1,0,0:0:0:0:
256,192,34253,1,12,0:0:0:0:
256,192,34976,1,0,0:0:0:0:
256,192,35157,1,0,0:0:0:0:
256,192,35338,1,0,0:0:0:0:
256,192,35518,1,0,0:0:0:0:
256,192,35699,1,8,0:0:0:0:
256,192,35880,1,0,0:0:0:0:
256,192,35970,1,8,0:0:0:0:
256,192,36061,1,0,0:0:0:0:
256,192,36241,1,8,0:0:0:0:
256,192,36422,1,0,0:0:0:0:
256,192,36603,1,0,0:0:0:0:
256,192,36784,1,0,0:0:0:0:
256,192,36964,1,0,0:0:0:0:
256,192,37145,1,8,0:0:0:0:
256,192,37326,1,8,0:0:0:0:
256,192,37416,1,0,0:0:0:0:
256,192,37506,1,8,0:0:0:0:
256,192,37868,1,0,0:0:0:0:
256,192,38049,1,0,0:0:0:0:
256,192,38229,1,0,0:0:0:0:
256,192,38410,1,0,0:0:0:0:
256,192,38591,1,8,0:0:0:0:
256,192,38771,1,0,0:0:0:0:
256,192,38862,1,8,0:0:0:0:
256,192,38952,1,8,0:0:0:0:
256,192,39133,1,0,0:0:0:0:
256,192,39314,1,8,0:0:0:0:
256,192,39494,1,0,0:0:0:0:
256,192,39585,1,0,0:0:0:0:
256,192,39675,1,8,0:0:0:0:
256,192,39856,1,0,0:0:0:0:
256,192,40217,1,8,0:0:0:0:
256,192,40398,1,8,0:0:0:0:
256,192,40579,1,8,0:0:0:0:
256,192,40759,5,0,0:0:0:0:
256,192,40940,1,0,0:0:0:0:
256,192,41121,1,8,0:0:0:0:
256,192,41302,1,0,0:0:0:0:
256,192,41482,1,8,0:0:0:0:
256,192,41663,1,8,0:0:0:0:
256,192,41844,1,0,0:0:0:0:
256,192,42024,1,0,0:0:0:0:
256,192,42205,1,8,0:0:0:0:
256,192,42386,1,0,0:0:0:0:
256,192,42567,1,8,0:0:0:0:
256,192,42747,1,8,0:0:0:0:
256,192,42928,1,0,0:0:0:0:
256,192,43018,1,0,0:0:0:0:
256,192,43109,1,8,0:0:0:0:
256,192,43199,1,8,0:0:0:0:
256,192,43290,1,0,0:0:0:0:
256,192,43470,1,8,0:0:0:0:
256,192,43561,1,0,0:0:0:0:
256,192,43651,1,8,0:0:0:0:
256,192,44012,1,0,0:0:0:0:
256,192,44193,1,8,0:0:0:0:
256,192,44374,1,8,0:0:0:0:
256,192,44555,1,0,0:0:0:0:
256,192,44735,1,8,0:0:0:0:
256,192,44916,1,0,0:0:0:0:
256,192,45097,1,8,0:0:0:0:
256,192,45277,1,8,0:0:0:0:
256,192,45458,1,0,0:0:0:0:
256,192,45639,1,0,0:0:0:0:
256,192,45820,1,8,0:0:0:0:
256,192,46000,1,8,0:0:0:0:
256,192,46181,1,0,0:0:0:0:
256,192,46362,1,0,0:0:0:0:
256,192,46543,1,12,0:0:0:0:
256,192,46904,1,8,0:0:0:0:
256,192,46994,1,8,0:0:0:0:
256,192,47085,1,0,0:0:0:0:
256,192,47175,1,0,0:0:0:0:
256,192,47265,1,0,0:0:0:0:
256,192,47446,1,8,0:0:0:0:
256,192,47627,1,8,0:0:0:0:
256,192,47717,1,8,0:0:0:0:
256,192,47808,1,0,0:0:0:0:
256,192,47988,1,8,0:0:0:0:
256,192,48169,1,0,0:0:0:0:
256,192,48350,1,8,0:0:0:0:
256,192,48440,1,0,0:0:0:0:
256,192,48531,1,8,0:0:0:0:
256,192,48711,1,0,0:0:0:0:
256,192,48892,1,8,0:0:0:0:
256,192,49073,1,8,0:0:0:0:
256,192,49253,1,8,0:0:0:0:
256,192,49434,1,4,0:0:0:0:
256,192,49796,1,8,0:0:0:0:
256,192,49886,1,0,0:0:0:0:
256,192,49976,1,8,0:0:0:0:
256,192,50067,1,8,0:0:0:0:
256,192,50157,1,0,0:0:0:0:
256,192,50338,1,8,0:0:0:0:
256,192,50518,1,0,0:0:0:0:
256,192,50609,1,8,0:0:0:0:
192,160,50699,1,0,0:0:0:0:
256,192,50820,1,0,0:0:0:0:
256,192,51000,1,0,0:0:0:0:
160,192,51181,1,0,0:0:0:0:
192,224,51422,1,0,0:0:0:0:
256,192,51543,1,8,0:0:0:0:
192,192,51723,1,0,0:0:0:0:
256,192,51874,1,8,0:0:0:0:
238,197,51964,1,8,0:0:0:0:
256,192,52326,1,4,0:0:0:0:
256,192,52687,1,8,0:0:0:0:
256,192,52777,1,0,0:0:0:0:
256,192,52868,1,0,0:0:0:0:
256,192,52958,1,0,0:0:0:0:
256,192,53049,1,8,0:0:0:0:
256,192,53229,1,8,0:0:0:0:
256,192,53410,1,0,0:0:0:0:
256,192,53500,1,8,0:0:0:0:
256,192,53591,1,0,0:0:0:0:
256,192,53771,1,8,0:0:0:0:
256,192,53952,1,0,0:0:0:0:
256,192,54133,1,8,0:0:0:0:
256,192,54223,1,0,0:0:0:0:
256,192,54314,1,8,0:0:0:0:
256,192,54494,1,8,0:0:0:0:
256,192,54675,1,0,0:0:0:0:
256,192,54856,1,0,0:0:0:0:
256,192,54946,1,0,0:0:0:0:
256,192,55037,1,8,0:0:0:0:
256,192,55127,1,8,0:0:0:0:
256,192,55217,1,0,0:0:0:0:
256,192,55579,1,8,0:0:0:0:
256,192,55669,1,8,0:0:0:0:
256,192,55759,1,0,0:0:0:0:
256,192,55850,1,0,0:0:0:0:
256,192,55940,1,8,0:0:0:0:
256,192,56121,1,8,0:0:0:0:
256,192,56302,5,0,0:0:0:0:
256,192,56392,1,8,0:0:0:0:
256,192,56482,1,0,0:0:0:0:
256,192,56844,1,0,0:0:0:0:
256,192,57205,1,0,0:0:0:0:
256,192,57567,1,8,0:0:0:0:
256,192,57747,1,8,0:0:0:0:
256,192,58109,1,12,0:0:0:0:
256,192,58470,1,8,0:0:0:0:
256,192,58561,1,0,0:0:0:0:
256,192,58741,1,0,0:0:0:0:
256,192,58832,1,0,0:0:0:0:
256,192,59012,1,8,0:0:0:0:
256,192,59103,1,0,0:0:0:0:
256,192,59193,1,8,0:0:0:0:
256,192,59374,1,0,0:0:0:0:
256,192,59555,1,8,0:0:0:0:
256,192,59735,1,0,0:0:0:0:
256,192,59916,1,0,0:0:0:0:
256,192,60006,1,0,0:0:0:0:
256,192,60097,1,8,0:0:0:0:
256,192,60277,1,8,0:0:0:0:
256,192,60458,1,0,0:0:0:0:
256,192,60639,5,8,0:0:0:0:
256,192,60729,1,8,0:0:0:0:
256,192,60820,1,0,0:0:0:0:
256,192,61000,1,4,0:0:0:0:
256,192,61362,1,8,0:0:0:0:
256,192,61452,1,8,0:0:0:0:
256,192,61633,1,0,0:0:0:0:
256,192,61723,1,0,0:0:0:0:
256,192,61904,1,8,0:0:0:0:
256,192,61994,1,0,0:0:0:0:
256,192,62085,1,8,0:0:0:0:
256,192,62175,1,8,0:0:0:0:
256,192,62265,1,0,0:0:0:0:
256,192,62386,1,0,0:0:0:0:
256,192,62567,1,0,0:0:0:0:
256,192,62747,1,0,0:0:0:0:
256,192,62988,1,0,0:0:0:0:
256,192,63109,1,8,0:0:0:0:
256,192,63290,1,0,0:0:0:0:
256,192,63440,1,8,0:0:0:0:
256,192,63531,1,8,0:0:0:0:
256,192,63892,1,12,0:0:0:0:
256,192,64253,1,8,0:0:0:0:
256,192,64344,1,0,0:0:0:0:
256,192,64524,1,0,0:0:0:0:
256,192,64615,1,0,0:0:0:0:
256,192,64796,1,8,0:0:0:0:
256,192,64886,1,0,0:0:0:0:
256,192,64976,1,0,0:0:0:0:
256,192,65067,1,0,0:0:0:0:
256,192,65157,1,8,0:0:0:0:
256,192,65338,1,8,0:0:0:0:
256,192,65518,1,0,0:0:0:0:
256,192,65699,1,8,0:0:0:0:
256,192,65790,1,0,0:0:0:0:
256,192,65880,1,8,0:0:0:0:
256,192,66061,1,0,0:0:0:0:
256,192,66241,1,0,0:0:0:0:
256,192,66422,5,8,0:0:0:0:
256,192,66512,1,8,0:0:0:0:
256,192,66603,1,8,0:0:0:0:
256,192,66784,1,4,0:0:0:0:
256,192,67145,1,8,0:0:0:0:
256,192,67235,1,0,0:0:0:0:
256,192,67416,1,0,0:0:0:0:
256,192,67506,1,0,0:0:0:0:
256,192,67687,1,8,0:0:0:0:
256,192,67777,1,0,0:0:0:0:
256,192,67868,1,8,0:0:0:0:
256,192,68049,5,8,0:0:0:0:
256,192,68229,1,0,0:0:0:0:
256,192,68410,1,8,0:0:0:0:
256,192,68591,1,0,0:0:0:0:
256,192,68681,1,0,0:0:0:0:
256,192,68771,1,8,0:0:0:0:
256,192,68952,1,0,0:0:0:0:
256,192,69133,1,8,0:0:0:0:
256,192,69314,1,0,0:0:0:0:
256,192,69404,1,0,0:0:0:0:
256,192,69494,1,0,0:0:0:0:
256,192,69585,1,0,0:0:0:0:
256,192,69675,1,0,0:0:0:0:
256,192,75458,5,8,0:0:0:0:
256,192,75639,1,0,0:0:0:0:
256,192,75820,1,8,0:0:0:0:
256,192,75910,1,0,0:0:0:0:
256,192,76091,1,0,0:0:0:0:
256,192,76181,1,8,0:0:0:0:
256,192,76362,1,0,0:0:0:0:
256,192,76543,1,8,0:0:0:0:
256,192,76723,1,8,0:0:0:0:
256,192,76814,1,8,0:0:0:0:
256,192,76904,1,0,0:0:0:0:
256,192,77085,1,0,0:0:0:0:
256,192,77356,1,8,0:0:0:0:
256,192,77537,1,8,0:0:0:0:
256,192,77808,1,0,0:0:0:0:
256,192,77988,1,8,0:0:0:0:
256,192,78079,1,8,0:0:0:0:
256,192,78169,1,8,0:0:0:0:
256,192,78350,1,0,0:0:0:0:
256,192,78531,1,8,0:0:0:0:
256,192,78621,1,0,0:0:0:0:
256,192,78711,1,8,0:0:0:0:
256,192,78892,1,0,0:0:0:0:
256,192,79073,1,0,0:0:0:0:
256,192,79253,1,8,0:0:0:0:
256,192,79434,1,8,0:0:0:0:
256,192,79615,1,0,0:0:0:0:
256,192,79796,1,8,0:0:0:0:
256,192,79976,1,0,0:0:0:0:
256,192,80067,1,0,0:0:0:0:
256,192,80157,1,8,0:0:0:0:
256,192,80338,1,0,0:0:0:0:
256,192,80518,1,8,0:0:0:0:
256,192,80699,1,8,0:0:0:0:
256,192,80790,1,8,0:0:0:0:
256,192,80880,1,8,0:0:0:0:
256,192,81061,1,8,0:0:0:0:
256,192,82145,1,8,0:0:0:0:
256,192,82235,1,8,0:0:0:0:
256,192,82326,1,0,0:0:0:0:
256,192,82416,1,0,0:0:0:0:
256,192,82506,1,8,0:0:0:0:
256,192,82687,1,0,0:0:0:0:
256,192,82958,1,8,0:0:0:0:
256,192,83049,1,0,0:0:0:0:
256,192,83320,1,8,0:0:0:0:
256,192,83410,1,0,0:0:0:0:
256,192,83681,1,8,0:0:0:0:
256,192,83771,1,8,0:0:0:0:
256,192,84043,1,8,0:0:0:0:
256,192,84133,1,0,0:0:0:0:
256,192,84494,1,8,0:0:0:0:
256,192,84675,1,0,0:0:0:0:
256,192,85037,1,0,0:0:0:0:
256,192,85217,1,8,0:0:0:0:
256,192,85308,1,8,0:0:0:0:
256,192,85398,1,0,0:0:0:0:
256,192,85579,1,8,0:0:0:0:
256,192,85850,1,0,0:0:0:0:
256,192,85940,1,0,0:0:0:0:
256,192,86121,1,0,0:0:0:0:
256,192,86302,1,8,0:0:0:0:
256,192,86392,1,0,0:0:0:0:
256,192,86482,1,0,0:0:0:0:
256,192,86573,1,0,0:0:0:0:
256,192,86663,1,8,0:0:0:0:
256,192,86844,1,8,0:0:0:0:
256,192,87024,1,0,0:0:0:0:
256,192,87205,1,0,0:0:0:0:
256,192,87386,1,0,0:0:0:0:
256,192,87567,1,0,0:0:0:0:
256,192,88470,1,0,0:0:0:0:
256,192,88651,1,0,0:0:0:0:
256,192,88832,1,0,0:0:0:0:
256,192,89012,1,0,0:0:0:0:
256,192,89916,1,0,0:0:0:0:
256,192,90097,1,0,0:0:0:0:
256,192,90277,1,0,0:0:0:0:
256,192,90458,1,0,0:0:0:0:
256,192,91362,1,0,0:0:0:0:
256,192,91543,1,0,0:0:0:0:
256,192,91633,1,0,0:0:0:0:
256,192,91814,1,0,0:0:0:0:
256,192,91904,1,0,0:0:0:0:
256,192,92265,1,0,0:0:0:0:
256,192,92356,1,0,0:0:0:0:
256,192,92446,1,8,0:0:0:0:
256,192,92537,1,0,0:0:0:0:
256,192,92627,1,8,0:0:0:0:
256,192,92808,1,0,0:0:0:0:
256,192,92989,1,0,0:0:0:0:
256,192,93170,1,0,0:0:0:0:
256,192,93350,1,0,0:0:0:0:
256,192,93531,1,8,0:0:0:0:
256,192,93712,1,0,0:0:0:0:
256,192,93802,1,8,0:0:0:0:
256,192,93893,1,0,0:0:0:0:
256,192,94073,1,8,0:0:0:0:
256,192,94254,1,0,0:0:0:0:
256,192,94435,1,0,0:0:0:0:
256,192,94616,1,0,0:0:0:0:
256,192,94796,1,0,0:0:0:0:
256,192,94977,1,8,0:0:0:0:
256,192,95158,1,8,0:0:0:0:
256,192,95248,1,0,0:0:0:0:
256,192,95338,1,8,0:0:0:0:
256,192,95700,1,0,0:0:0:0:
256,192,95881,1,0,0:0:0:0:
256,192,96061,1,0,0:0:0:0:
256,192,96242,1,0,0:0:0:0:
256,192,96423,1,8,0:0:0:0:
256,192,96603,1,0,0:0:0:0:
256,192,96694,1,8,0:0:0:0:
256,192,96784,1,8,0:0:0:0:
256,192,96965,1,0,0:0:0:0:
256,192,97146,1,8,0:0:0:0:
256,192,97326,1,0,0:0:0:0:
256,192,97417,1,0,0:0:0:0:
256,192,97507,1,8,0:0:0:0:
256,192,97688,1,0,0:0:0:0:
256,192,98049,1,8,0:0:0:0:
256,192,98139,1,0,0:0:0:0:
256,192,98230,1,8,0:0:0:0:
256,192,98411,1,8,0:0:0:0:
256,192,98591,1,0,0:0:0:0:
256,192,98772,1,0,0:0:0:0:
256,192,98953,1,8,0:0:0:0:
256,192,99134,1,0,0:0:0:0:
256,192,99314,1,8,0:0:0:0:
256,192,99495,1,8,0:0:0:0:
256,192,99676,1,0,0:0:0:0:
256,192,99856,1,0,0:0:0:0:
256,192,100037,1,8,0:0:0:0:
256,192,100218,1,0,0:0:0:0:
256,192,100399,1,8,0:0:0:0:
256,192,100579,1,8,0:0:0:0:
256,192,100760,1,0,0:0:0:0:
256,192,100850,1,0,0:0:0:0:
256,192,100941,1,8,0:0:0:0:
256,192,101031,1,8,0:0:0:0:
256,192,101122,1,0,0:0:0:0:
256,192,101302,1,8,0:0:0:0:
256,192,101393,1,0,0:0:0:0:
256,192,101483,1,8,0:0:0:0:
256,192,101844,1,8,0:0:0:0:
256,192,101934,1,8,0:0:0:0:
256,192,102024,1,0,0:0:0:0:
256,192,102115,1,0,0:0:0:0:
256,192,102205,1,8,0:0:0:0:
256,192,102386,1,8,0:0:0:0:
256,192,102476,1,0,0:0:0:0:
256,192,102567,1,0,0:0:0:0:
256,192,102747,1,0,0:0:0:0:
256,192,102928,1,8,0:0:0:0:
256,192,103109,1,0,0:0:0:0:
256,192,103290,1,0,0:0:0:0:
256,192,103561,1,0,0:0:0:0:
256,192,103651,1,8,0:0:0:0:
256,192,104374,1,4,0:0:0:0:
256,192,104735,5,0,0:0:0:0:
256,192,104826,1,0,0:0:0:0:
256,192,104916,1,0,0:0:0:0:
256,192,105006,1,0,0:0:0:0:
256,192,105097,1,8,0:0:0:0:
256,192,105277,1,0,0:0:0:0:
256,192,105368,1,0,0:0:0:0:
256,192,105549,1,0,0:0:0:0:
256,192,105639,1,8,0:0:0:0:
256,192,105729,1,8,0:0:0:0:
256,192,105820,1,0,0:0:0:0:
256,192,106000,1,8,0:0:0:0:
256,192,106091,1,0,0:0:0:0:
256,192,106271,1,0,0:0:0:0:
256,192,106362,1,0,0:0:0:0:
256,192,106543,1,8,0:0:0:0:
256,192,106723,5,0,0:0:0:0:
256,192,106814,1,0,0:0:0:0:
256,192,106904,1,8,0:0:0:0:
256,192,107085,1,8,0:0:0:0:
256,192,107265,1,4,0:0:0:0:
256,192,107627,5,8,0:0:0:0:
256,192,107717,1,0,0:0:0:0:
256,192,107808,1,0,0:0:0:0:
256,192,107988,1,8,0:0:0:0:
256,192,108169,1,0,0:0:0:0:
256,192,108259,1,8,0:0:0:0:
256,192,108440,1,0,0:0:0:0:
256,192,108531,1,8,0:0:0:0:
256,192,108621,1,8,0:0:0:0:
256,192,108711,1,0,0:0:0:0:
256,192,108892,1,8,0:0:0:0:
256,192,108982,1,8,0:0:0:0:
256,192,109163,1,8,0:0:0:0:
256,192,109253,1,0,0:0:0:0:
256,192,109434,1,8,0:0:0:0:
256,192,109615,5,0,0:0:0:0:
256,192,109660,1,0,0:0:0:0:
256,192,109796,1,8,0:0:0:0:
256,192,109976,1,0,0:0:0:0:
256,192,110157,1,0,0:0:0:0:
256,192,110338,1,0,0:0:0:0:
256,192,110518,1,8,0:0:0:0:
256,192,110790,1,8,0:0:0:0:
256,192,110880,1,0,0:0:0:0:
256,192,111061,1,8,0:0:0:0:
256,192,111241,1,0,0:0:0:0:
256,192,111332,1,8,0:0:0:0:
256,192,111422,1,8,0:0:0:0:
256,192,111512,1,0,0:0:0:0:
256,192,111603,1,8,0:0:0:0:
256,192,111964,1,8,0:0:0:0:
256,192,112145,1,0,0:0:0:0:
256,192,112235,1,0,0:0:0:0:
256,192,112326,1,8,0:0:0:0:
256,192,112506,1,8,0:0:0:0:
256,192,112687,1,0,0:0:0:0:
256,192,112868,1,8,0:0:0:0:
256,192,113049,1,12,0:0:0:0:
256,192,113410,5,8,0:0:0:0:
256,192,113591,1,0,0:0:0:0:
256,192,113681,1,8,0:0:0:0:
256,192,113862,1,8,0:0:0:0:
256,192,113952,1,0,0:0:0:0:
256,192,114133,1,8,0:0:0:0:
256,192,114223,1,8,0:0:0:0:
256,192,114404,1,8,0:0:0:0:
256,192,114494,1,0,0:0:0:0:
256,192,114856,1,8,0:0:0:0:
256,192,115037,1,0,0:0:0:0:
256,192,115127,1,8,0:0:0:0:
256,192,115217,1,8,0:0:0:0:
256,192,115308,1,0,0:0:0:0:
256,192,115398,1,8,0:0:0:0:
256,192,115579,1,8,0:0:0:0:
256,192,115759,1,0,0:0:0:0:
256,192,115850,1,0,0:0:0:0:
256,192,115940,1,12,0:0:0:0:
256,192,116302,1,0,0:0:0:0:
256,192,116392,1,0,0:0:0:0:
256,192,116482,1,0,0:0:0:0:
256,192,116663,1,12,0:0:0:0:
256,192,116844,5,0,0:0:0:0:
256,192,117024,1,8,0:0:0:0:
256,192,117115,1,8,0:0:0:0:
256,192,117205,1,0,0:0:0:0:
256,192,117386,5,8,0:0:0:0:
256,192,117567,1,0,0:0:0:0:
256,192,117657,1,8,0:0:0:0:
256,192,117747,1,8,0:0:0:0:
256,192,117928,1,0,0:0:0:0:
256,192,118109,1,12,0:0:0:0:
256,192,118290,12,0,118651,0:0:0:0:
256,192,118832,5,4,0:0:0:0:
256,192,119193,5,0,0:0:0:0:
256,192,119284,1,0,0:0:0:0:
256,192,119374,1,0,0:0:0:0:
256,192,119555,1,12,0:0:0:0:
256,192,119735,5,0,0:0:0:0:
256,192,119916,1,8,0:0:0:0:
256,192,120006,1,8,0:0:0:0:
256,192,120097,1,0,0:0:0:0:
256,192,120277,1,8,0:0:0:0:
256,192,120458,1,0,0:0:0:0:
256,192,120549,1,0,0:0:0:0:
256,192,120639,1,8,0:0:0:0:
256,192,120820,1,0,0:0:0:0:
256,192,121000,1,12,0:0:0:0:
256,192,121362,5,8,0:0:0:0:
256,192,121543,1,0,0:0:0:0:
256,192,121723,1,0,0:0:0:0:
256,192,121904,1,0,0:0:0:0:
256,192,122085,1,12,0:0:0:0:
256,192,122265,5,0,0:0:0:0:
256,192,122356,1,8,0:0:0:0:
256,192,122446,1,0,0:0:0:0:
256,192,122627,1,8,0:0:0:0:
256,192,122808,1,0,0:0:0:0:
256,192,122898,1,0,0:0:0:0:
256,192,122988,1,8,0:0:0:0:
256,192,123169,1,4,0:0:0:0:
256,192,123531,5,8,0:0:0:0:
256,192,123621,1,8,0:0:0:0:
256,192,123802,1,8,0:0:0:0:
256,192,123892,1,0,0:0:0:0:
256,192,124073,1,8,0:0:0:0:
256,192,124253,1,0,0:0:0:0:
256,192,124434,5,8,0:0:0:0:
256,192,124524,1,8,0:0:0:0:
256,192,124615,1,4,0:0:0:0:
256,192,124976,1,8,0:0:0:0:
256,192,125067,1,0,0:0:0:0:
256,192,125247,1,8,0:0:0:0:
256,192,125338,1,0,0:0:0:0:
256,192,125518,1,8,0:0:0:0:
256,192,125609,1,0,0:0:0:0:
256,192,125699,1,8,0:0:0:0:
256,192,125790,1,8,0:0:0:0:
256,192,125880,1,0,0:0:0:0:
256,192,126061,5,0,0:0:0:0:
256,192,126241,1,0,0:0:0:0:
256,192,126422,1,8,0:0:0:0:
256,192,126603,1,0,0:0:0:0:
256,192,126784,1,8,0:0:0:0:
256,192,126964,1,0,0:0:0:0:
256,192,127145,1,8,0:0:0:0:
256,192,127326,1,0,0:0:0:0:
256,192,127371,1,0,0:0:0:0:
