osu file format v14

[General]
AudioFilename: audio.mp3
AudioLeadIn: 0
PreviewTime: 46362
Countdown: 0
SampleSet: Normal
StackLeniency: 0.7
Mode: 1
LetterboxInBreaks: 0
WidescreenStoryboard: 1

[Editor]
Bookmarks: 284,11850,20524,34982,43657,69681,92814,104380
DistanceSpacing: 0.5
BeatDivisor: 4
GridSize: 32
TimelineZoom: 2.700006

[Metadata]
Title:LINK[INIT]
TitleUnicode:LINK[INIT]
Artist:BilliumMoto
ArtistUnicode:BilliumMoto
Creator:Capu
Version:Inner Oni
Source:
Tags:electronic instrumental sv tech complextro trap dubstep future bass neurotic experimental bm fa featured artist linkinit cychloryn vulkin
BeatmapID:3054949
BeatmapSetID:1483609

[Difficulty]
HPDrainRate:6
CircleSize:2
OverallDifficulty:6.5
ApproachRate:10
SliderMultiplier:1.4
SliderTickRate:1

[Events]
//Background and Video events
0,0,"1100871.jpg",0,-30
//Break Periods
2,69875,75008
//Storyboard Layer 0 (Background)
//Storyboard Layer 1 (Fail)
//Storyboard Layer 2 (Pass)
//Storyboard Layer 3 (Foreground)
//Storyboard Layer 4 (Overlay)
//Storyboard Sound Samples

[TimingPoints]
278,361.44578313253,4,1,0,40,1,0
278,-142.857142857143,4,1,0,40,0,0
5970,-125,4,1,0,50,0,0
8862,-113.636363636364,4,1,0,50,0,0
8952,-111.111111111111,4,1,0,50,0,0
11031,-100,4,1,0,72,0,0
20428,-90.9090909090909,4,1,0,72,0,0
20609,-100,4,1,0,72,0,0
23320,-125,4,1,0,72,0,0
24133,-125,4,1,0,72,0,0
24223,-123.086770018525,4,1,0,72,0,0
24314,-121.231224314134,4,1,0,72,0,0
24494,-117.682917500744,4,1,0,72,0,0
24585,-115.985599228,4,1,0,72,0,0
24675,-114.336545046884,4,1,0,72,0,0
24765,-112.733598106977,4,1,0,72,0,0
24856,-111.175098556725,4,1,0,72,0,0
25037,-113.636363636364,4,1,0,72,0,0
25217,-116.279069767442,4,1,0,72,0,0
25398,-119.047619047619,4,1,0,72,0,0
25579,-111.111111111111,4,1,0,72,0,0
25669,-109.604535874113,4,1,0,72,0,0
25759,-108.138269917447,4,1,0,72,0,0
25850,-106.710716850583,4,1,0,72,0,0
25940,-105.320252557966,4,1,0,72,0,0
26031,-103.965666378335,4,1,0,72,0,0
26121,-102.645482007787,4,1,0,72,0,0
26211,-101.35840534848,4,1,0,72,0,0
26302,-100,4,1,0,72,0,0
26482,-103.448240190262,4,1,0,72,0,0
26663,-107.142895408177,4,1,0,72,0,0
26723,-108.433761068376,4,1,0,72,0,0
26784,-109.756110945867,4,1,0,72,0,0
26844,-111.111111111111,4,1,0,72,0,0
27024,-111.111111111111,4,1,0,72,0,0
27085,-110.096995452994,4,1,0,72,0,0
27145,-109.101224115735,4,1,0,72,0,0
27205,-108.123303815671,4,1,0,72,0,0
27296,-106.688744124117,4,1,0,72,0,0
27386,-105.29186378181,4,1,0,72,0,0
27567,-102.605039343902,4,1,0,72,0,0
27657,-101.312298198566,4,1,0,72,0,0
27747,-100.051826846306,4,1,0,72,0,0
27838,-98.8223342428282,4,1,0,72,0,0
27928,-97.6226921995564,4,1,0,72,0,0
28018,-96.4517336234601,4,1,0,72,0,0
28109,-95.3086236195737,4,1,0,72,0,0
28199,-94.1922916796181,4,1,0,72,0,0
28290,-93.1018077578012,4,1,0,72,0,0
28380,-92.0362843847558,4,1,0,72,0,0
28470,-90.9947914581369,4,1,0,72,0,0
29103,-111.239159743883,4,1,0,72,0,0
29916,-111.111111111111,4,1,0,72,0,0
30006,-109.604535874113,4,1,0,72,0,0
30097,-108.138269917447,4,1,0,72,0,0
30187,-106.710716850583,4,1,0,72,0,0
30277,-105.320252557966,4,1,0,72,0,0
30368,-103.965666378335,4,1,0,72,0,0
30458,-102.645482007787,4,1,0,72,0,0
30549,-101.35840534848,4,1,0,72,0,0
30639,-100.103206405804,4,1,0,72,0,0
30820,-102.040816326531,4,1,0,72,0,0
31000,-104.166666666667,4,1,0,72,0,0
31181,-106.382978723404,4,1,0,72,0,0
31362,-100,4,1,0,72,0,0
31452,-97.5609756097561,4,1,0,72,0,0
31543,-95.2380952380952,4,1,0,72,0,0
31603,-93.7499707031342,4,1,0,72,0,0
31663,-92.3077207100679,4,1,0,72,0,0
31723,-90.9090909090909,4,1,0,72,0,0
31994,-100,4,1,0,72,0,0
32808,-100,4,1,0,72,0,0
32868,-99.2907660580474,4,1,0,72,0,0
32928,-98.5915215235151,4,1,0,72,0,0
32988,-97.9020568243118,4,1,0,72,0,0
33079,-96.8857997389896,4,1,0,72,0,0
33169,-95.8904240945786,4,1,0,72,0,0
33259,-94.9152928468988,4,1,0,72,0,0
33350,-93.9597063195419,4,1,0,72,0,0
33410,-93.3332960000149,4,1,0,72,0,0
33470,-92.7152686285836,4,1,0,72,0,0
33531,-92.1052873961283,4,1,0,72,0,0
33711,-90.3225689906363,4,1,0,72,0,0
33802,-89.4568804417738,4,1,0,72,0,0
33982,-87.7742726584896,4,1,0,72,0,0
34073,-86.9565217391304,4,1,0,72,0,0
34163,-74.0740740740741,4,1,0,72,0,0
34344,-100,4,1,0,72,0,0
34886,-95.2380952380952,4,1,0,72,0,0
35609,-100,4,1,0,72,0,0
36332,-95.2380952380952,4,1,0,72,0,0
37055,-100,4,1,0,72,0,0
37732,-97.5609756097561,4,1,0,72,0,0
37823,-95.2380952380952,4,1,0,72,0,0
38546,-100,4,1,0,72,0,0
39268,-95.2380952380952,4,1,0,72,0,0
39991,-100,4,1,0,72,0,0
42205,-100,4,1,0,72,0,0
42296,-98.7717730027113,4,1,0,72,0,0
42386,-97.5733507664387,4,1,0,72,0,0
42476,-96.4035684744906,4,1,0,72,0,0
42567,-95.261593097726,4,1,0,72,0,0
42657,-94.1463561594312,4,1,0,72,0,0
42747,-93.0569294377221,4,1,0,72,0,0
42838,-91.9923425574055,4,1,0,72,0,0
42928,-90.9519209955233,4,1,0,72,0,0
42988,-90.2712832604543,4,1,0,72,0,0
43049,-89.6007569471947,4,1,0,72,0,0
43109,-88.9401183970856,4,1,0,72,0,0
43199,-87.9671495476729,4,1,0,72,0,0
43290,-87.0153138250801,4,1,0,72,0,0
43350,-86.3921182742656,4,1,0,72,0,0
43410,-85.7777857837045,4,1,0,72,0,0
43470,-85.1721286133211,4,1,0,72,0,0
43561,-84.2795113136816,4,1,0,72,0,0
43651,-83.4053399434845,4,1,0,72,0,0
43922,-100,4,1,0,72,0,0
44012,-111.111111111111,4,1,0,72,0,0
44193,-109.380110102019,4,1,0,72,0,0
44374,-107.702100298658,4,1,0,72,0,0
44555,-106.074910101514,4,1,0,72,0,0
44735,-104.496156108898,4,1,0,72,0,0
44916,-102.963601337291,4,1,0,72,0,0
45097,-101.475453087898,4,1,0,72,0,0
45277,-100.029708823521,4,1,0,72,0,0
45458,-98.6244843172276,4,1,0,72,0,0
45639,-97.2582888376662,4,1,0,72,0,0
45820,-95.9294266394099,4,1,0,72,0,0
46000,-94.6362985093837,4,1,0,72,0,0
46181,-93.3776565943301,4,1,0,72,0,0
46271,-92.7607644229075,4,1,0,72,0,0
46362,-92.1520545761328,4,1,0,72,0,0
46452,-91.5511977185442,4,1,0,72,0,0
46543,-83.3745342490081,4,1,0,72,0,1
46723,-100,4,1,0,72,0,1
46904,-86.9565217391304,4,1,0,72,0,1
46994,-87.9120879120879,4,1,0,72,0,1
47085,-88.8888888888889,4,1,0,72,0,1
47175,-89.8876404494382,4,1,0,72,0,1
47265,-90.9090909090909,4,1,0,72,0,1
47356,-91.9540229885058,4,1,0,72,0,1
47446,-93.0232558139535,4,1,0,72,0,1
47537,-94.1176470588235,4,1,0,72,0,1
47627,-95.2380952380952,4,1,0,72,0,1
47717,-96.3855421686747,4,1,0,72,0,1
47808,-97.5609756097561,4,1,0,72,0,1
47988,-100,4,1,0,72,0,1
49434,-83.3333333333333,4,1,0,72,0,1
49794,-86.9565217391304,4,1,0,72,0,1
49884,-87.9120879120879,4,1,0,72,0,1
49975,-88.8888888888889,4,1,0,72,0,1
50065,-89.8876404494382,4,1,0,72,0,1
50155,-90.9090909090909,4,1,0,72,0,1
50246,-91.9540229885058,4,1,0,72,0,1
50336,-93.0232558139535,4,1,0,72,0,1
50427,-94.1176470588235,4,1,0,72,0,1
50517,-95.2380952380952,4,1,0,72,0,1
50607,-96.3855421686747,4,1,0,72,0,1
50698,-97.5609756097561,4,1,0,72,0,1
50788,-100,4,1,0,72,0,1
51964,-100,4,1,0,72,0,0
52233,-83.3333333333333,4,1,0,72,0,0
52326,-83.3333333333333,4,1,0,72,0,1
52414,-100,4,1,0,72,0,1
52685,-86.9565217391304,4,1,0,72,0,1
52775,-87.9120879120879,4,1,0,72,0,1
52866,-88.8888888888889,4,1,0,72,0,1
52956,-89.8876404494382,4,1,0,72,0,1
53046,-90.9090909090909,4,1,0,72,0,1
53137,-91.9540229885058,4,1,0,72,0,1
53227,-93.0232558139535,4,1,0,72,0,1
53318,-94.1176470588235,4,1,0,72,0,1
53408,-95.2380952380952,4,1,0,72,0,1
53498,-96.3855421686747,4,1,0,72,0,1
53589,-97.5609756097561,4,1,0,72,0,1
53769,-100,4,1,0,72,0,1
54673,-100,4,1,0,72,0,1
54854,-95.2380952380952,4,1,0,72,0,1
54944,-93.0232558139535,4,1,0,72,0,1
55035,-90.9090909090909,4,1,0,72,0,1
55095,-89.5522120739665,4,1,0,72,0,1
55155,-88.2353200692118,4,1,0,72,0,1
55215,-86.9565217391304,4,1,0,72,0,1
55396,-90.9090909090909,4,1,0,72,0,1
55577,-86.9565217391304,4,1,0,72,0,1
55667,-87.9120879120879,4,1,0,72,0,1
55758,-88.8888888888889,4,1,0,72,0,1
55848,-89.8876404494382,4,1,0,72,0,1
55938,-90.9090909090909,4,1,0,72,0,1
56029,-91.9540229885058,4,1,0,72,0,1
56119,-93.0232558139535,4,1,0,72,0,1
56210,-94.1176470588235,4,1,0,72,0,1
56300,-95.2380952380952,4,1,0,72,0,1
56481,-90.9090909090909,4,1,0,72,0,1
57747,-90.9090909090909,4,1,0,72,0,0
58109,-83.3333333333333,4,1,0,72,0,1
58468,-86.9565217391304,4,1,0,72,0,1
58558,-87.9120879120879,4,1,0,72,0,1
58739,-89.8876404494382,4,1,0,72,0,1
58829,-90.9090909090909,4,1,0,72,0,1
59010,-93.0232558139535,4,1,0,72,0,1
59101,-94.1176470588235,4,1,0,72,0,1
59191,-95.2380952380952,4,1,0,72,0,1
59281,-96.3855421686747,4,1,0,72,0,1
59372,-97.5609756097561,4,1,0,72,0,1
59552,-100,4,1,0,72,0,1
60637,-98.0392156862745,4,1,0,72,0,1
60727,-96.1538461538461,4,1,0,72,0,1
60818,-94.3396226415094,4,1,0,72,0,1
60908,-92.5925925925926,4,1,0,72,0,1
60998,-90.9090909090909,4,1,0,72,0,1
61179,-95.2380952380952,4,1,0,72,0,1
61360,-86.9565217391304,4,1,0,72,0,1
61450,-87.9120879120879,4,1,0,72,0,1
61541,-88.8888888888889,4,1,0,72,0,1
61631,-89.8876404494382,4,1,0,72,0,1
61721,-90.9090909090909,4,1,0,72,0,1
61902,-93.0232558139535,4,1,0,72,0,1
61993,-94.1176470588235,4,1,0,72,0,1
62083,-95.2380952380952,4,1,0,72,0,1
62173,-96.3855421686747,4,1,0,72,0,1
62264,-97.5609756097561,4,1,0,72,0,1
62354,-100,4,1,0,72,0,1
63802,-83.3333333333333,4,1,0,72,0,1
63982,-100,4,1,0,72,0,1
64073,-84.7457627118644,4,1,0,72,0,1
64253,-86.9565217391304,4,1,0,72,0,1
64343,-87.9120879120879,4,1,0,72,0,1
64524,-89.8876404494382,4,1,0,72,0,1
64614,-90.9090909090909,4,1,0,72,0,1
64795,-93.0232558139535,4,1,0,72,0,1
64886,-94.1176470588235,4,1,0,72,0,1
64976,-95.2380952380952,4,1,0,72,0,1
65066,-96.3855421686747,4,1,0,72,0,1
65157,-97.5609756097561,4,1,0,72,0,1
65337,-100,4,1,0,72,0,1
66241,-100,4,1,0,72,0,1
66422,-95.2380952380952,4,1,0,72,0,1
66512,-93.0232558139535,4,1,0,72,0,1
66603,-90.9090909090909,4,1,0,72,0,1
66663,-89.5522120739665,4,1,0,72,0,1
66723,-88.2353200692118,4,1,0,72,0,1
66783,-86.9565217391304,4,1,0,72,0,1
66964,-90.9090909090909,4,1,0,72,0,1
67145,-86.9565217391304,4,1,0,72,0,1
67235,-87.9120879120879,4,1,0,72,0,1
67326,-88.8888888888889,4,1,0,72,0,1
67416,-89.8876404494382,4,1,0,72,0,1
67506,-90.9090909090909,4,1,0,72,0,1
67685,-93.0232558139535,4,1,0,72,0,1
67776,-94.1176470588235,4,1,0,72,0,1
67868,-95.2380952380952,4,1,0,72,0,1
68049,-90.9090909090909,4,1,0,72,0,1
68229,-89.1089285364215,4,1,0,72,0,1
68290,-88.5245611394882,4,1,0,72,0,1
68350,-87.9478856009083,4,1,0,72,0,1
68410,-87.3786747101649,4,1,0,72,0,1
68591,-85.7142612244968,4,1,0,72,0,1
68636,-85.3080730441845,4,1,0,72,0,1
68681,-84.9056443574256,4,1,0,72,0,1
68771,-84.1121416717625,4,1,0,72,0,1
68952,-82.5688149145702,4,1,0,72,0,1
69133,-81.0811029948927,4,1,0,72,0,1
69314,-79.6459895058444,4,1,0,72,0,1
69374,-79.1788833085371,4,1,0,72,0,1
69434,-78.7172241158088,4,1,0,72,0,1
69494,-78.2608559546337,4,1,0,72,0,1
69555,-77.8098094826815,4,1,0,72,0,1
69615,-77.363872464109,4,1,0,72,0,1
69675,-76.9230769230769,4,1,0,72,0,0
69856,-100,4,1,0,32,0,0
75368,-100,4,1,0,48,0,0
87024,-100,4,1,0,53,0,0
88425,-100,4,1,0,58,0,0
89871,-100,4,1,0,63,0,0
91317,-100,4,1,0,72,0,0
92265,-100,4,1,0,72,0,0
92326,-99.4550855860739,4,1,0,72,0,0
92386,-98.9159797776171,4,1,0,72,0,0
92446,-98.3827837998973,4,1,0,72,0,0
92537,-97.5935385270012,4,1,0,72,0,0
92627,-96.8169491623882,4,1,0,72,0,0
92687,-96.3060838479288,4,1,0,72,0,0
92747,-95.8004897321035,4,1,0,72,0,0
92762,-95.2380952380952,4,1,0,72,0,0
93485,-100,4,1,0,72,0,0
94208,-95.2380952380952,4,1,0,72,0,0
94931,-100,4,1,0,72,0,0
95608,-97.5609756097561,4,1,0,72,0,0
95699,-95.2380952380952,4,1,0,72,0,0
96422,-100,4,1,0,72,0,0
97144,-95.2380952380952,4,1,0,72,0,0
97867,-100,4,1,0,72,0,0
98500,-100,4,1,0,72,0,0
100037,-100,4,1,0,72,0,0
100128,-98.7717730027113,4,1,0,72,0,0
100218,-97.5733507664387,4,1,0,72,0,0
100308,-96.4035684744906,4,1,0,72,0,0
100399,-95.261593097726,4,1,0,72,0,0
100489,-94.1463561594312,4,1,0,72,0,0
100579,-93.0569294377221,4,1,0,72,0,0
100670,-91.9923425574055,4,1,0,72,0,0
100760,-90.9519209955233,4,1,0,72,0,0
100820,-90.2712832604543,4,1,0,72,0,0
100881,-89.6007569471947,4,1,0,72,0,0
100941,-88.9401183970856,4,1,0,72,0,0
101031,-87.9671495476729,4,1,0,72,0,0
101122,-87.0153138250801,4,1,0,72,0,0
101182,-86.3921182742656,4,1,0,72,0,0
101242,-85.7777857837045,4,1,0,72,0,0
101302,-85.1721286133211,4,1,0,72,0,0
101393,-84.2795113136816,4,1,0,72,0,0
101483,-83.4053399434845,4,1,0,72,0,0
101753,-100,4,1,0,72,0,0
102928,-105.263157894737,4,1,0,72,0,0
103109,-111.111111111111,4,1,0,72,0,0
103290,-117.647058823529,4,1,0,72,0,0
103515,-133.333333333333,4,1,0,72,0,0
104374,-83.3333333333333,4,1,0,72,0,1
104555,-100,4,1,0,72,0,1
105097,-100,4,1,0,72,0,1
105277,-96.4035684744906,4,1,0,72,0,1
105368,-94.7006465213138,4,1,0,72,0,1
105549,-91.4692151209589,4,1,0,72,0,1
105639,-89.9347703110934,4,1,0,72,0,1
105729,-88.4509583661339,4,1,0,72,0,1
105820,-87.0153138250801,4,1,0,72,0,1
105910,-85.62552873764,4,1,0,72,0,1
106000,-84.2795113136816,4,1,0,72,0,1
106091,-82.9750883892129,4,1,0,72,0,1
106181,-81.7104280482484,4,1,0,72,0,1
106271,-80.4837394676967,4,1,0,72,0,1
106362,-79.2933377737603,4,1,0,72,0,1
106452,-78.1376363208738,4,1,0,72,0,1
106543,-76.9230769230769,4,1,0,72,0,1
106723,-79.5454455061994,4,1,0,72,0,1
106814,-80.9248742022831,4,1,0,72,0,1
106904,-82.3529217993125,4,1,0,72,0,1
107085,-85.3658224271381,4,1,0,72,0,1
107265,-88.6076285851754,4,1,0,72,0,1
107446,-92.1052873961283,4,1,0,72,0,1
107627,-95.8904240945786,4,1,0,72,0,1
107717,-97.9020568243118,4,1,0,72,0,1
107808,-100,4,1,0,72,0,1
107988,-100,4,1,0,72,0,1
108169,-96.4035684744906,4,1,0,72,0,1
108259,-94.7006465213138,4,1,0,72,0,1
108440,-91.4692151209589,4,1,0,72,0,1
108531,-89.9347703110934,4,1,0,72,0,1
108621,-88.4509583661339,4,1,0,72,0,1
108711,-87.0153138250801,4,1,0,72,0,1
108802,-85.62552873764,4,1,0,72,0,1
108892,-84.2795113136816,4,1,0,72,0,1
108982,-82.9750883892129,4,1,0,72,0,1
109163,-80.4837394676967,4,1,0,72,0,1
109253,-79.2933377737603,4,1,0,72,0,1
109344,-78.1376363208738,4,1,0,72,0,1
109434,-77.0151396361497,4,1,0,72,0,1
109615,-76.9230769230769,4,1,0,72,0,1
109660,-77.8210116731518,4,1,0,72,0,1
109735,-79.3650793650794,4,1,0,72,0,1
109796,-80.6451612903226,4,1,0,72,0,1
109976,-84.7457627118644,4,1,0,72,0,1
110157,-89.2857142857143,4,1,0,72,0,1
110338,-94.3396226415094,4,1,0,72,0,1
110518,-100,4,1,0,72,0,1
113410,-100,4,1,0,72,0,1
113500,-98.3606234883202,4,1,0,72,0,1
113591,-96.774224765879,4,1,0,72,0,1
113681,-95.2380952380952,4,1,0,72,0,1
113862,-92.3077207100679,4,1,0,72,0,1
113952,-90.9090909090909,4,1,0,72,0,1
114133,-88.2353200692118,4,1,0,72,0,1
114223,-86.9565217391304,4,1,0,72,0,1
114404,-84.5070660583285,4,1,0,72,0,1
114494,-83.3333333333333,4,1,0,72,0,1
114675,-86.9565217391304,4,1,0,72,0,1
114856,-90.9090909090909,4,1,0,72,0,1
114946,-88.9092787501489,4,1,0,72,0,1
115037,-86.9954805847836,4,1,0,72,0,1
115127,-85.1624089720301,4,1,0,72,0,1
115217,-83.4049921223985,4,1,0,72,0,1
115308,-81.7186410843737,4,1,0,72,0,1
115398,-80.0990665254787,4,1,0,72,0,1
115579,-77.045282594392,4,1,0,72,0,1
115759,-83.4767742570985,4,1,0,72,0,1
116256,-91.0798241795074,4,1,0,72,0,1
116618,-77.045282594392,4,1,0,72,0,1
116708,-91.0798241795074,4,1,0,72,0,1
116844,-83.3333333333333,4,1,0,72,0,1
116934,-83.91606044306,4,1,0,72,0,1
117024,-84.5070660583285,4,1,0,72,0,1
117115,-85.1063829787234,4,1,0,72,0,1
117205,-85.7142612244968,4,1,0,72,0,1
117386,-86.9565217391304,4,1,0,72,0,1
117567,-88.2353200692118,4,1,0,72,0,1
117657,-88.8888888888889,4,1,0,72,0,1
117747,-89.5522120739665,4,1,0,72,0,1
117838,-90.2255910452905,4,1,0,72,0,1
117928,-90.9090909090909,4,1,0,72,0,1
118064,-77.045282594392,4,1,0,72,0,1
118154,-91.0798241795074,4,1,0,72,0,1
118290,-90.9090909090909,4,1,0,72,0,1
118350,-90.0000090000009,4,1,0,72,0,1
118410,-89.1089285364215,4,1,0,72,0,1
118470,-88.2353200692118,4,1,0,72,0,1
118561,-86.9565217391304,4,1,0,72,0,1
118651,-85.7142612244968,4,1,0,72,0,1
118741,-84.5070660583285,4,1,0,72,0,1
118832,-83.3333333333333,4,1,0,72,0,1
119012,-84.7457627118644,4,1,0,72,0,1
119193,-86.2068965517241,4,1,0,72,0,1
119284,-87.719298245614,4,1,0,72,0,1
119374,-89.2857142857143,4,1,0,72,0,1
119509,-77.045282594392,4,1,0,72,0,1
119600,-91.0798241795074,4,1,0,72,0,1
119735,-89.2857142857143,4,1,0,72,0,1
119826,-87.719298245614,4,1,0,72,0,1
119916,-86.2068965517241,4,1,0,72,0,1
120006,-84.7457627118644,4,1,0,72,0,1
120097,-83.3333333333333,4,1,0,72,0,1
120277,-81.9672131147541,4,1,0,72,0,1
120368,-83.3143098992397,4,1,0,72,0,1
120458,-84.7064244740578,4,1,0,72,0,1
120549,-86.1458518187974,4,1,0,72,0,1
120639,-87.6350456052777,4,1,0,72,0,1
120729,-89.17663215531,4,1,0,72,0,1
120820,-90.7734258980215,4,1,0,72,0,1
120955,-77.045282594392,4,1,0,72,0,1
121046,-91.0798241795074,4,1,0,72,0,1
121543,-100.206626062942,4,1,0,72,0,1
121723,-111.366263595037,4,1,0,72,0,0
122085,-77.0452825943922,4,1,0,72,0,1
122265,-89.2857142857143,4,1,0,72,0,1
122401,-87.719298245614,4,1,0,72,0,1
122627,-84.7457627118644,4,1,0,72,0,1
122808,-86.2068965517241,4,1,0,72,0,1
122898,-87.719298245614,4,1,0,72,0,1
122988,-89.2857142857143,4,1,0,72,0,1
123124,-94.3396226415094,4,1,0,72,0,1
123531,-90.9090909090909,4,1,0,72,0,1
123621,-89.8876404494382,4,1,0,72,0,1
123802,-87.9120879120879,4,1,0,72,0,1
123892,-86.9565217391304,4,1,0,72,0,1
123982,-86.0215053763441,4,1,0,72,0,1
124073,-85.1063829787234,4,1,0,72,0,1
124253,-83.3333333333333,4,1,0,72,0,1
124434,-80.6451612903226,4,1,0,72,0,1
124494,-81.9672131147541,4,1,0,72,0,1
124555,-83.3333333333333,4,1,0,72,0,1
124615,-84.7457627118644,4,1,0,72,0,1
124976,-90.9090909090909,4,1,0,72,0,1
126061,-100,4,1,0,72,0,1
126241,-94.9367389040313,4,1,0,72,0,1
126422,-90.3614185658378,4,1,0,72,0,1
126603,-86.2068965517241,4,1,0,72,0,1
126784,-82.4176050597816,4,1,0,72,0,1
126964,-78.9473476454348,4,1,0,72,0,1
127145,-75.7575757575758,4,1,0,72,0,1
127326,-72.8155516542601,4,1,0,72,0,0
127371,-72.1153672799598,4,1,0,72,0,0
127416,-71.4285714285714,4,1,0,72,0,0

[HitObjects]
256,192,278,5,0,0:0:0:0:
256,192,1181,1,0,0:0:0:0:
256,192,1723,1,0,0:0:0:0:
256,192,2627,1,0,0:0:0:0:
256,192,3169,1,0,0:0:0:0:
256,192,4073,1,0,0:0:0:0:
256,192,4615,1,8,0:0:0:0:
256,192,5518,1,8,0:0:0:0:
256,192,6061,1,0,0:0:0:0:
256,192,6241,1,8,0:0:0:0:
256,192,6422,1,8,0:0:0:0:
256,192,6512,1,0,0:0:0:0:
256,192,6603,1,0,0:0:0:0:
256,192,6693,1,8,0:0:0:0:
256,192,6874,1,0,0:0:0:0:
256,192,6964,1,8,0:0:0:0:
256,192,7145,1,8,0:0:0:0:
256,192,7235,1,0,0:0:0:0:
256,192,7326,1,0,0:0:0:0:
256,192,7416,1,0,0:0:0:0:
256,192,7506,1,0,0:0:0:0:
256,192,7687,1,8,0:0:0:0:
256,192,7868,1,8,0:0:0:0:
256,192,7958,1,0,0:0:0:0:
256,192,8049,1,0,0:0:0:0:
256,192,8139,1,8,0:0:0:0:
256,192,8320,1,8,0:0:0:0:
256,192,8410,1,0,0:0:0:0:
256,192,8591,1,0,0:0:0:0:
256,192,8681,1,8,0:0:0:0:
256,192,8862,1,8,0:0:0:0:
256,192,8952,1,0,0:0:0:0:
256,192,9133,1,8,0:0:0:0:
256,192,9314,1,8,0:0:0:0:
256,192,9404,1,8,0:0:0:0:
256,192,9494,1,0,0:0:0:0:
256,192,9585,1,0,0:0:0:0:
256,192,9675,1,8,0:0:0:0:
256,192,9856,1,0,0:0:0:0:
256,192,10037,1,0,0:0:0:0:
256,192,10127,1,8,0:0:0:0:
256,192,10217,1,8,0:0:0:0:
256,192,10308,1,8,0:0:0:0:
256,192,10398,1,0,0:0:0:0:
256,192,10579,1,8,0:0:0:0:
256,192,10669,1,0,0:0:0:0:
256,192,10759,1,8,0:0:0:0:
256,192,10940,1,0,0:0:0:0:
256,192,11121,1,8,0:0:0:0:
256,192,11211,1,8,0:0:0:0:
256,192,11392,1,8,0:0:0:0:
256,192,11482,1,8,0:0:0:0:
256,192,11663,1,0,0:0:0:0:
256,192,11723,1,0,0:0:0:0:
256,192,11784,1,0,0:0:0:0:
256,192,11844,1,8,0:0:0:0:
256,192,12024,1,0,0:0:0:0:
256,192,12205,1,8,0:0:0:0:
256,192,12386,1,8,0:0:0:0:
256,192,12567,1,0,0:0:0:0:
256,192,12657,1,0,0:0:0:0:
256,192,12747,1,8,0:0:0:0:
256,192,12838,1,0,0:0:0:0:
256,192,12928,1,8,0:0:0:0:
256,192,13018,1,8,0:0:0:0:
256,192,13109,1,0,0:0:0:0:
256,192,13290,1,8,0:0:0:0:
256,192,13470,1,0,0:0:0:0:
256,192,13561,1,0,0:0:0:0:
256,192,13651,1,8,0:0:0:0:
256,192,13832,1,0,0:0:0:0:
256,192,14012,1,8,0:0:0:0:
256,192,14103,1,0,0:0:0:0:
256,192,14193,1,8,0:0:0:0:
256,192,14284,1,0,0:0:0:0:
256,192,14374,1,8,0:0:0:0:
256,192,14555,1,0,0:0:0:0:
256,192,14645,1,0,0:0:0:0:
256,192,14735,1,8,0:0:0:0:
256,192,14916,1,8,0:0:0:0:
256,192,15097,1,0,0:0:0:0:
256,192,15277,1,8,0:0:0:0:
256,192,15458,1,0,0:0:0:0:
256,192,15549,1,8,0:0:0:0:
256,192,15639,1,0,0:0:0:0:
256,192,15820,1,8,0:0:0:0:
256,192,15910,1,0,0:0:0:0:
256,192,16000,1,0,0:0:0:0:
256,192,16181,1,8,0:0:0:0:
256,192,16362,1,8,0:0:0:0:
256,192,16452,1,0,0:0:0:0:
256,192,16543,1,8,0:0:0:0:
256,192,16723,1,8,0:0:0:0:
256,192,16904,1,0,0:0:0:0:
256,192,16994,1,0,0:0:0:0:
256,192,17085,1,8,0:0:0:0:
256,192,17265,1,8,0:0:0:0:
256,192,17356,1,8,0:0:0:0:
256,192,17446,1,0,0:0:0:0:
256,192,17537,1,0,0:0:0:0:
256,192,17627,1,8,0:0:0:0:
256,192,17808,1,0,0:0:0:0:
256,192,17988,1,8,0:0:0:0:
256,192,18169,1,8,0:0:0:0:
256,192,18350,1,0,0:0:0:0:
256,192,18531,1,8,0:0:0:0:
256,192,18711,1,8,0:0:0:0:
256,192,18802,1,0,0:0:0:0:
256,192,18892,1,8,0:0:0:0:
256,192,18982,1,8,0:0:0:0:
256,192,19073,1,0,0:0:0:0:
256,192,19253,1,0,0:0:0:0:
256,192,19434,1,8,0:0:0:0:
256,192,19615,1,0,0:0:0:0:
256,192,19796,1,8,0:0:0:0:
256,192,19976,1,8,0:0:0:0:
256,192,20067,1,8,0:0:0:0:
256,192,20157,1,0,0:0:0:0:
256,192,20338,1,0,0:0:0:0:
256,192,20518,1,12,0:0:0:0:
256,192,20880,1,8,0:0:0:0:
256,192,20970,1,8,0:0:0:0:
256,192,21061,1,8,0:0:0:0:
256,192,21241,1,8,0:0:0:0:
256,192,21422,1,0,0:0:0:0:
256,192,21603,1,8,0:0:0:0:
256,192,21693,1,0,0:0:0:0:
256,192,21784,1,0,0:0:0:0:
256,192,21874,1,0,0:0:0:0:
256,192,21964,1,8,0:0:0:0:
256,192,22055,1,0,0:0:0:0:
256,192,22145,1,8,0:0:0:0:
256,192,22235,1,0,0:0:0:0:
256,192,22326,1,8,0:0:0:0:
256,192,22416,1,8,0:0:0:0:
256,192,22506,1,0,0:0:0:0:
256,192,22597,1,0,0:0:0:0:
256,192,22687,1,8,0:0:0:0:
256,192,23410,1,0,0:0:0:0:
256,192,23591,1,0,0:0:0:0:
256,192,23771,1,0,0:0:0:0:
256,192,23952,1,0,0:0:0:0:
256,192,24133,5,8,0:0:0:0:
256,192,24223,1,8,0:0:0:0:
256,192,24314,1,0,0:0:0:0:
256,192,24494,1,8,0:0:0:0:
288,192,24585,1,0,0:0:0:0:
256,192,24675,1,8,0:0:0:0:
256,192,24765,1,0,0:0:0:0:
256,192,24856,1,8,0:0:0:0:
256,192,25037,1,0,0:0:0:0:
256,192,25217,1,8,0:0:0:0:
256,192,25398,1,0,0:0:0:0:
256,192,25579,5,8,0:0:0:0:
256,192,25669,1,8,0:0:0:0:
256,192,25759,1,0,0:0:0:0:
256,192,25850,1,0,0:0:0:0:
256,192,25940,1,8,0:0:0:0:
256,192,26031,1,0,0:0:0:0:
256,192,26121,1,8,0:0:0:0:
256,192,26211,1,8,0:0:0:0:
256,192,26302,5,0,0:0:0:0:
256,192,26482,1,0,0:0:0:0:
256,192,26663,1,0,0:0:0:0:
256,192,26723,1,0,0:0:0:0:
256,192,26784,1,0,0:0:0:0:
256,192,26844,1,8,0:0:0:0:
256,192,27024,5,8,0:0:0:0:
256,192,27085,1,0,0:0:0:0:
256,192,27145,1,0,0:0:0:0:
256,192,27205,1,8,0:0:0:0:
256,192,27296,1,0,0:0:0:0:
256,192,27386,1,8,0:0:0:0:
256,192,27567,1,8,0:0:0:0:
256,192,27657,1,8,0:0:0:0:
256,192,27747,1,0,0:0:0:0:
256,192,27838,1,0,0:0:0:0:
256,192,27928,1,0,0:0:0:0:
256,192,28018,1,8,0:0:0:0:
256,192,28109,1,0,0:0:0:0:
256,192,28199,1,8,0:0:0:0:
256,192,28290,1,8,0:0:0:0:
256,192,28380,1,8,0:0:0:0:
256,192,28470,1,0,0:0:0:0:
256,192,29193,5,8,0:0:0:0:
256,192,29374,1,0,0:0:0:0:
256,192,29555,1,8,0:0:0:0:
256,192,29735,1,0,0:0:0:0:
256,192,29916,5,8,0:0:0:0:
256,192,30006,1,8,0:0:0:0:
256,192,30097,1,0,0:0:0:0:
256,192,30187,1,0,0:0:0:0:
256,192,30277,1,8,0:0:0:0:
256,192,30368,1,0,0:0:0:0:
256,192,30458,1,8,0:0:0:0:
256,192,30549,1,8,0:0:0:0:
256,192,30639,1,0,0:0:0:0:
256,192,30820,1,0,0:0:0:0:
256,192,31000,1,0,0:0:0:0:
256,192,31181,1,0,0:0:0:0:
256,192,31362,5,8,0:0:0:0:
256,192,31452,1,8,0:0:0:0:
256,192,31543,1,0,0:0:0:0:
256,192,31603,1,0,0:0:0:0:
256,192,31663,1,0,0:0:0:0:
256,192,31723,1,8,0:0:0:0:
256,192,32085,5,0,0:0:0:0:
256,192,32265,1,0,0:0:0:0:
256,192,32446,1,8,0:0:0:0:
256,192,32627,1,8,0:0:0:0:
256,192,32808,5,0,0:0:0:0:
256,192,32868,1,0,0:0:0:0:
256,192,32928,1,0,0:0:0:0:
256,192,32988,1,8,0:0:0:0:
256,192,33079,1,0,0:0:0:0:
256,192,33169,1,8,0:0:0:0:
256,192,33259,1,0,0:0:0:0:
256,192,33350,1,8,0:0:0:0:
256,192,33410,1,8,0:0:0:0:
256,192,33470,1,8,0:0:0:0:
256,192,33531,1,0,0:0:0:0:
256,192,33711,1,0,0:0:0:0:
256,192,33802,1,8,0:0:0:0:
256,192,33982,1,8,0:0:0:0:
256,192,34073,1,0,0:0:0:0:
256,192,34253,1,12,0:0:0:0:
256,192,34976,5,0,0:0:0:0:
256,192,35157,1,0,0:0:0:0:
256,192,35338,1,0,0:0:0:0:
256,192,35518,1,0,0:0:0:0:
256,192,35699,1,8,0:0:0:0:
256,192,35790,1,0,0:0:0:0:
256,192,35880,1,8,0:0:0:0:
256,192,35970,1,8,0:0:0:0:
256,192,36061,1,0,0:0:0:0:
256,192,36241,1,8,0:0:0:0:
256,192,36422,1,0,0:0:0:0:
256,192,36603,1,0,0:0:0:0:
256,192,36784,1,0,0:0:0:0:
256,192,36964,1,0,0:0:0:0:
256,192,37145,1,8,0:0:0:0:
256,192,37235,1,0,0:0:0:0:
256,192,37326,1,0,0:0:0:0:
256,192,37416,1,0,0:0:0:0:
256,192,37506,1,8,0:0:0:0:
256,192,37687,1,0,0:0:0:0:
256,192,37777,1,8,0:0:0:0:
256,192,37868,1,0,0:0:0:0:
256,192,38049,1,0,0:0:0:0:
256,192,38229,1,0,0:0:0:0:
256,192,38410,1,0,0:0:0:0:
256,192,38591,1,8,0:0:0:0:
256,192,38771,1,8,0:0:0:0:
256,192,38862,1,0,0:0:0:0:
256,192,38952,1,8,0:0:0:0:
256,192,39043,1,8,0:0:0:0:
256,192,39133,1,0,0:0:0:0:
256,192,39314,1,8,0:0:0:0:
256,192,39494,1,0,0:0:0:0:
256,192,39585,1,0,0:0:0:0:
256,192,39675,1,8,0:0:0:0:
256,192,39856,1,8,0:0:0:0:
256,192,40037,1,0,0:0:0:0:
256,192,40127,1,0,0:0:0:0:
256,192,40217,1,8,0:0:0:0:
256,192,40398,1,8,0:0:0:0:
256,192,40579,1,8,0:0:0:0:
256,192,40759,1,0,0:0:0:0:
256,192,40940,1,0,0:0:0:0:
256,192,41121,1,8,0:0:0:0:
256,192,41211,1,8,0:0:0:0:
256,192,41302,1,0,0:0:0:0:
256,192,41482,1,8,0:0:0:0:
256,192,41663,1,0,0:0:0:0:
256,192,41753,1,0,0:0:0:0:
256,192,41844,1,8,0:0:0:0:
256,192,42024,1,0,0:0:0:0:
256,192,42205,5,8,0:0:0:0:
256,192,42296,1,0,0:0:0:0:
256,192,42386,1,8,0:0:0:0:
256,192,42476,1,0,0:0:0:0:
256,192,42567,1,8,0:0:0:0:
256,192,42657,1,0,0:0:0:0:
256,192,42747,1,8,0:0:0:0:
256,192,42838,1,0,0:0:0:0:
256,192,42928,1,8,0:0:0:0:
256,192,42988,1,0,0:0:0:0:
256,192,43049,1,0,0:0:0:0:
256,192,43109,1,8,0:0:0:0:
256,192,43199,1,0,0:0:0:0:
256,192,43290,1,8,0:0:0:0:
256,192,43350,1,8,0:0:0:0:
256,192,43410,1,8,0:0:0:0:
256,192,43470,1,0,0:0:0:0:
256,192,43561,1,8,0:0:0:0:
256,192,43651,1,0,0:0:0:0:
256,192,44012,5,0,0:0:0:0:
256,192,44193,1,0,0:0:0:0:
256,192,44374,1,0,0:0:0:0:
256,192,44555,1,0,0:0:0:0:
256,192,44735,1,0,0:0:0:0:
256,192,44916,1,0,0:0:0:0:
256,192,45097,1,8,0:0:0:0:
256,192,45277,1,8,0:0:0:0:
256,192,45458,1,0,0:0:0:0:
256,192,45639,1,8,0:0:0:0:
256,192,45820,1,0,0:0:0:0:
256,192,46000,1,0,0:0:0:0:
256,192,46181,1,8,0:0:0:0:
256,192,46271,1,8,0:0:0:0:
256,192,46362,1,8,0:0:0:0:
256,192,46452,1,8,0:0:0:0:
256,192,46543,1,4,0:0:0:0:
256,192,46904,5,8,0:0:0:0:
256,192,46994,1,0,0:0:0:0:
256,192,47085,1,8,0:0:0:0:
256,192,47175,1,8,0:0:0:0:
256,192,47265,1,0,0:0:0:0:
256,192,47356,1,0,0:0:0:0:
256,192,47446,1,8,0:0:0:0:
256,192,47537,1,0,0:0:0:0:
256,192,47627,1,8,0:0:0:0:
256,192,47717,1,8,0:0:0:0:
256,192,47808,1,0,0:0:0:0:
256,192,47988,1,8,0:0:0:0:
256,192,48169,1,0,0:0:0:0:
256,192,48350,5,8,0:0:0:0:
256,192,48410,1,0,0:0:0:0:
256,192,48470,1,0,0:0:0:0:
256,192,48531,1,8,0:0:0:0:
256,192,48711,1,0,0:0:0:0:
256,192,48892,1,8,0:0:0:0:
256,192,49073,1,8,0:0:0:0:
256,192,49253,1,8,0:0:0:0:
256,192,49434,1,4,0:0:0:0:
256,192,49796,5,8,0:0:0:0:
256,192,49886,1,0,0:0:0:0:
256,192,49976,1,8,0:0:0:0:
256,192,50067,1,8,0:0:0:0:
256,192,50157,1,0,0:0:0:0:
256,192,50247,1,0,0:0:0:0:
256,192,50338,1,8,0:0:0:0:
256,192,50428,1,0,0:0:0:0:
256,192,50518,1,0,0:0:0:0:
256,192,50609,1,0,0:0:0:0:
256,192,50699,1,8,0:0:0:0:
256,192,50820,1,0,0:0:0:0:
256,192,51000,1,0,0:0:0:0:
256,192,51061,1,0,0:0:0:0:
256,192,51181,1,0,0:0:0:0:
256,192,51241,1,8,0:0:0:0:
256,192,51422,1,0,0:0:0:0:
256,192,51543,1,8,0:0:0:0:
256,192,51723,1,8,0:0:0:0:
256,192,51874,1,0,0:0:0:0:
256,192,51964,1,8,0:0:0:0:
256,192,52326,1,12,0:0:0:0:
256,192,52506,1,0,0:0:0:0:
256,192,52687,1,8,0:0:0:0:
256,192,52777,1,0,0:0:0:0:
256,192,52868,1,8,0:0:0:0:
256,192,52958,1,8,0:0:0:0:
256,192,53049,1,0,0:0:0:0:
256,192,53139,1,0,0:0:0:0:
256,192,53229,1,8,0:0:0:0:
256,192,53320,1,0,0:0:0:0:
256,192,53410,1,0,0:0:0:0:
256,192,53500,1,0,0:0:0:0:
256,192,53591,1,8,0:0:0:0:
256,192,53771,1,8,0:0:0:0:
256,192,53952,1,0,0:0:0:0:
256,192,54133,1,8,0:0:0:0:
256,192,54193,1,0,0:0:0:0:
256,192,54253,1,0,0:0:0:0:
256,192,54314,1,8,0:0:0:0:
256,192,54494,1,0,0:0:0:0:
256,192,54675,5,8,0:0:0:0:
256,192,54856,1,8,0:0:0:0:
256,192,54946,1,8,0:0:0:0:
256,192,55037,1,0,0:0:0:0:
256,192,55097,1,0,0:0:0:0:
256,192,55157,1,0,0:0:0:0:
256,192,55217,1,8,0:0:0:0:
256,192,55398,1,0,0:0:0:0:
256,192,55579,1,8,0:0:0:0:
256,192,55669,1,0,0:0:0:0:
256,192,55759,1,0,0:0:0:0:
256,192,55850,1,0,0:0:0:0:
256,192,55940,1,8,0:0:0:0:
256,192,56031,1,0,0:0:0:0:
256,192,56121,1,8,0:0:0:0:
256,192,56211,1,0,0:0:0:0:
256,192,56302,1,8,0:0:0:0:
256,192,56482,1,4,0:0:0:0:
256,192,56844,1,4,0:0:0:0:
256,192,57024,1,8,0:0:0:0:
256,192,57205,1,4,0:0:0:0:
256,192,57567,1,0,0:0:0:0:
256,192,57747,1,8,0:0:0:0:
256,192,58109,1,12,0:0:0:0:
256,192,58470,5,8,0:0:0:0:
256,192,58561,1,0,0:0:0:0:
256,192,58741,1,0,0:0:0:0:
256,192,58832,1,8,0:0:0:0:
256,192,59012,1,8,0:0:0:0:
256,192,59103,1,0,0:0:0:0:
256,192,59193,1,8,0:0:0:0:
256,192,59284,1,8,0:0:0:0:
256,192,59374,1,0,0:0:0:0:
256,192,59555,1,8,0:0:0:0:
256,192,59735,1,0,0:0:0:0:
256,192,59916,1,8,0:0:0:0:
256,192,59976,1,0,0:0:0:0:
256,192,60037,1,0,0:0:0:0:
256,192,60097,1,8,0:0:0:0:
256,192,60277,1,0,0:0:0:0:
256,192,60458,1,8,0:0:0:0:
256,192,60639,5,0,0:0:0:0:
256,192,60729,1,0,0:0:0:0:
256,192,60820,1,8,0:0:0:0:
256,192,60910,1,8,0:0:0:0:
256,192,61000,1,4,0:0:0:0:
256,192,61181,1,8,0:0:0:0:
256,192,61362,1,8,0:0:0:0:
256,192,61452,1,0,0:0:0:0:
256,192,61543,1,8,0:0:0:0:
256,192,61633,1,8,0:0:0:0:
256,192,61723,1,0,0:0:0:0:
256,192,61904,1,8,0:0:0:0:
256,192,61994,1,8,0:0:0:0:
256,192,62085,1,0,0:0:0:0:
256,192,62175,1,8,0:0:0:0:
256,192,62265,1,0,0:0:0:0:
256,192,62386,1,0,0:0:0:0:
256,192,62567,1,0,0:0:0:0:
256,192,62627,1,0,0:0:0:0:
256,192,62747,1,0,0:0:0:0:
256,192,62808,1,8,0:0:0:0:
256,192,62988,1,0,0:0:0:0:
256,192,63109,1,8,0:0:0:0:
256,192,63290,1,8,0:0:0:0:
256,192,63440,1,0,0:0:0:0:
256,192,63531,1,8,0:0:0:0:
256,192,63711,1,0,0:0:0:0:
256,192,63892,1,12,0:0:0:0:
256,192,64073,1,0,0:0:0:0:
256,192,64133,1,0,0:0:0:0:
256,192,64253,1,8,0:0:0:0:
256,192,64344,1,8,0:0:0:0:
256,192,64524,1,8,0:0:0:0:
256,192,64615,1,0,0:0:0:0:
256,192,64796,1,8,0:0:0:0:
256,192,64886,1,0,0:0:0:0:
256,192,64976,1,8,0:0:0:0:
256,192,65067,1,8,0:0:0:0:
256,192,65157,1,0,0:0:0:0:
256,192,65338,1,8,0:0:0:0:
256,192,65518,1,0,0:0:0:0:
256,192,65699,1,8,0:0:0:0:
256,192,65759,1,0,0:0:0:0:
256,192,65820,1,0,0:0:0:0:
256,192,65880,1,8,0:0:0:0:
256,192,66061,1,0,0:0:0:0:
256,192,66241,1,8,0:0:0:0:
256,192,66422,1,8,0:0:0:0:
256,192,66512,1,0,0:0:0:0:
256,192,66603,1,8,0:0:0:0:
256,192,66663,1,8,0:0:0:0:
256,192,66723,1,8,0:0:0:0:
256,192,66784,1,0,0:0:0:0:
256,192,66964,1,8,0:0:0:0:
256,192,67024,1,0,0:0:0:0:
256,192,67145,1,8,0:0:0:0:
256,192,67235,1,8,0:0:0:0:
256,192,67326,1,0,0:0:0:0:
256,192,67416,1,8,0:0:0:0:
256,192,67506,1,0,0:0:0:0:
256,192,67687,1,8,0:0:0:0:
256,192,67777,1,0,0:0:0:0:
256,192,67868,1,8,0:0:0:0:
256,192,68049,5,0,0:0:0:0:
256,192,68229,1,8,0:0:0:0:
256,192,68290,1,8,0:0:0:0:
256,192,68350,1,8,0:0:0:0:
256,192,68410,1,0,0:0:0:0:
256,192,68591,1,0,0:0:0:0:
256,192,68636,1,0,0:0:0:0:
256,192,68681,1,0,0:0:0:0:
256,192,68771,1,8,0:0:0:0:
256,192,68952,1,0,0:0:0:0:
256,192,69133,1,8,0:0:0:0:
256,192,69314,1,0,0:0:0:0:
256,192,69374,1,0,0:0:0:0:
256,192,69434,1,0,0:0:0:0:
256,192,69494,1,0,0:0:0:0:
256,192,69555,1,0,0:0:0:0:
256,192,69615,1,0,0:0:0:0:
256,192,69675,1,8,0:0:0:0:
256,192,75458,5,8,0:0:0:0:
256,192,75639,1,0,0:0:0:0:
256,192,75820,1,8,0:0:0:0:
256,192,75910,1,0,0:0:0:0:
256,192,76091,1,0,0:0:0:0:
256,192,76181,1,8,0:0:0:0:
256,192,76362,1,0,0:0:0:0:
256,192,76543,1,8,0:0:0:0:
256,192,76723,1,8,0:0:0:0:
256,192,76814,1,8,0:0:0:0:
256,192,76904,1,0,0:0:0:0:
256,192,77085,1,0,0:0:0:0:
256,192,77265,1,0,0:0:0:0:
256,192,77356,1,8,0:0:0:0:
256,192,77537,1,8,0:0:0:0:
256,192,77717,1,0,0:0:0:0:
256,192,77808,1,8,0:0:0:0:
256,192,77898,1,0,0:0:0:0:
256,192,77988,1,8,0:0:0:0:
256,192,78049,1,0,0:0:0:0:
256,192,78109,1,0,0:0:0:0:
256,192,78169,1,8,0:0:0:0:
256,192,78259,1,8,0:0:0:0:
256,192,78350,1,0,0:0:0:0:
256,192,78531,1,8,0:0:0:0:
256,192,78591,1,8,0:0:0:0:
256,192,78651,1,8,0:0:0:0:
256,192,78711,1,0,0:0:0:0:
256,192,78892,1,8,0:0:0:0:
256,192,79073,1,0,0:0:0:0:
256,192,79253,1,8,0:0:0:0:
256,192,79434,1,8,0:0:0:0:
256,192,79615,1,0,0:0:0:0:
256,192,79796,1,8,0:0:0:0:
256,192,79976,1,0,0:0:0:0:
256,192,80067,1,0,0:0:0:0:
256,192,80157,1,8,0:0:0:0:
256,192,80338,1,0,0:0:0:0:
256,192,80518,1,8,0:0:0:0:
256,192,80699,1,8,0:0:0:0:
256,192,80790,1,8,0:0:0:0:
256,192,80880,1,8,0:0:0:0:
256,192,81061,1,8,0:0:0:0:
256,192,81422,1,0,0:0:0:0:
256,192,81603,1,0,0:0:0:0:
256,192,81784,1,0,0:0:0:0:
256,192,82145,1,0,0:0:0:0:
256,192,82205,1,0,0:0:0:0:
256,192,82265,1,0,0:0:0:0:
256,192,82326,1,8,0:0:0:0:
256,192,82416,1,0,0:0:0:0:
256,192,82506,1,8,0:0:0:0:
256,192,82687,1,8,0:0:0:0:
256,192,82958,1,8,0:0:0:0:
256,192,83049,1,0,0:0:0:0:
256,192,83320,1,8,0:0:0:0:
256,192,83410,1,0,0:0:0:0:
256,192,83681,1,8,0:0:0:0:
256,192,83771,1,8,0:0:0:0:
256,192,84043,1,8,0:0:0:0:
256,192,84133,1,0,0:0:0:0:
256,192,84314,1,0,0:0:0:0:
256,192,84494,1,8,0:0:0:0:
256,192,84675,1,8,0:0:0:0:
256,192,84856,1,0,0:0:0:0:
256,192,84946,1,0,0:0:0:0:
256,192,85037,1,8,0:0:0:0:
256,192,85127,1,0,0:0:0:0:
256,192,85217,1,8,0:0:0:0:
256,192,85308,1,8,0:0:0:0:
256,192,85398,1,0,0:0:0:0:
256,192,85488,1,0,0:0:0:0:
256,192,85579,1,8,0:0:0:0:
256,192,85669,1,8,0:0:0:0:
256,192,85759,1,0,0:0:0:0:
256,192,85850,1,8,0:0:0:0:
256,192,85940,1,8,0:0:0:0:
256,192,86031,1,0,0:0:0:0:
256,192,86121,1,8,0:0:0:0:
256,192,86211,1,0,0:0:0:0:
256,192,86302,1,8,0:0:0:0:
256,192,86392,1,8,0:0:0:0:
256,192,86482,1,0,0:0:0:0:
256,192,86573,1,8,0:0:0:0:
256,192,86663,1,8,0:0:0:0:
256,192,86753,1,0,0:0:0:0:
256,192,86844,1,8,0:0:0:0:
256,192,86934,1,8,0:0:0:0:
256,192,87024,1,0,0:0:0:0:
256,192,87205,1,0,0:0:0:0:
256,192,87386,1,0,0:0:0:0:
256,192,87567,1,0,0:0:0:0:
256,192,87838,1,8,0:0:0:0:
256,192,87908,1,8,0:0:0:0:
256,192,87973,1,0,0:0:0:0:
256,192,88041,1,0,0:0:0:0:
256,192,88109,1,8,0:0:0:0:
256,192,88199,1,0,0:0:0:0:
256,192,88290,1,8,0:0:0:0:
256,192,88470,1,8,0:0:0:0:
256,192,88741,1,8,0:0:0:0:
256,192,88832,1,0,0:0:0:0:
256,192,89103,1,0,0:0:0:0:
256,192,89193,1,8,0:0:0:0:
256,192,89464,1,8,0:0:0:0:
256,192,89555,1,0,0:0:0:0:
256,192,89826,1,8,0:0:0:0:
256,192,89916,1,8,0:0:0:0:
256,192,90097,1,0,0:0:0:0:
256,192,90187,1,8,0:0:0:0:
256,192,90277,1,0,0:0:0:0:
256,192,90368,1,0,0:0:0:0:
256,192,90458,1,8,0:0:0:0:
256,192,90639,1,0,0:0:0:0:
256,192,90820,1,8,0:0:0:0:
256,192,90880,1,0,0:0:0:0:
256,192,90940,1,0,0:0:0:0:
256,192,91000,1,8,0:0:0:0:
256,192,91091,1,0,0:0:0:0:
256,192,91181,1,8,0:0:0:0:
256,192,91271,1,8,0:0:0:0:
256,192,91362,1,0,0:0:0:0:
256,192,91543,1,0,0:0:0:0:
256,192,91633,1,0,0:0:0:0:
256,192,91814,1,0,0:0:0:0:
256,192,91904,1,0,0:0:0:0:
256,192,92085,1,0,0:0:0:0:
256,192,92265,5,8,0:0:0:0:
256,192,92326,1,0,0:0:0:0:
256,192,92386,1,0,0:0:0:0:
256,192,92446,1,8,0:0:0:0:
256,192,92537,1,0,0:0:0:0:
256,192,92627,1,8,0:0:0:0:
256,192,92687,1,8,0:0:0:0:
256,192,92747,1,8,0:0:0:0:
256,192,92808,5,0,0:0:0:0:
256,192,92988,1,0,0:0:0:0:
256,192,93169,1,0,0:0:0:0:
256,192,93350,1,0,0:0:0:0:
256,192,93531,1,8,0:0:0:0:
256,192,93622,1,0,0:0:0:0:
256,192,93712,1,8,0:0:0:0:
256,192,93802,1,8,0:0:0:0:
256,192,93893,1,0,0:0:0:0:
256,192,94073,1,8,0:0:0:0:
256,192,94254,1,0,0:0:0:0:
256,192,94435,1,0,0:0:0:0:
256,192,94616,1,0,0:0:0:0:
256,192,94796,1,0,0:0:0:0:
256,192,94977,1,8,0:0:0:0:
256,192,95067,1,0,0:0:0:0:
256,192,95158,1,0,0:0:0:0:
256,192,95248,1,0,0:0:0:0:
256,192,95338,1,8,0:0:0:0:
256,192,95519,1,0,0:0:0:0:
256,192,95609,1,8,0:0:0:0:
256,192,95700,1,0,0:0:0:0:
256,192,95881,1,0,0:0:0:0:
256,192,96061,1,0,0:0:0:0:
256,192,96242,1,0,0:0:0:0:
256,192,96423,1,8,0:0:0:0:
256,192,96603,1,8,0:0:0:0:
256,192,96694,1,0,0:0:0:0:
256,192,96784,1,8,0:0:0:0:
256,192,96875,1,8,0:0:0:0:
256,192,96965,1,0,0:0:0:0:
256,192,97146,1,8,0:0:0:0:
256,192,97326,1,0,0:0:0:0:
256,192,97417,1,0,0:0:0:0:
256,192,97507,1,8,0:0:0:0:
256,192,97688,1,8,0:0:0:0:
256,192,97869,1,0,0:0:0:0:
256,192,97959,1,0,0:0:0:0:
256,192,98049,1,8,0:0:0:0:
256,192,98139,1,0,0:0:0:0:
256,192,98230,1,8,0:0:0:0:
256,192,98320,1,0,0:0:0:0:
256,192,98411,1,8,0:0:0:0:
256,192,98591,1,0,0:0:0:0:
256,192,98772,1,0,0:0:0:0:
256,192,98953,1,8,0:0:0:0:
256,192,99043,1,8,0:0:0:0:
256,192,99134,1,0,0:0:0:0:
256,192,99223,1,0,0:0:0:0:
256,192,99314,1,8,0:0:0:0:
256,192,99495,1,8,0:0:0:0:
256,192,99555,1,0,0:0:0:0:
256,192,99615,1,0,0:0:0:0:
256,192,99675,1,8,0:0:0:0:
256,192,99856,1,0,0:0:0:0:
256,192,100037,5,8,0:0:0:0:
256,192,100128,1,0,0:0:0:0:
256,192,100218,1,8,0:0:0:0:
256,192,100308,1,0,0:0:0:0:
256,192,100399,1,8,0:0:0:0:
256,192,100489,1,0,0:0:0:0:
256,192,100579,1,8,0:0:0:0:
256,192,100670,1,0,0:0:0:0:
256,192,100760,1,8,0:0:0:0:
256,192,100820,1,0,0:0:0:0:
256,192,100881,1,0,0:0:0:0:
256,192,100941,1,8,0:0:0:0:
256,192,101031,1,0,0:0:0:0:
256,192,101122,1,8,0:0:0:0:
256,192,101182,1,8,0:0:0:0:
256,192,101242,1,8,0:0:0:0:
256,192,101302,1,0,0:0:0:0:
256,192,101393,1,8,0:0:0:0:
256,192,101483,1,0,0:0:0:0:
256,192,101844,1,8,0:0:0:0:
256,192,101934,1,8,0:0:0:0:
256,192,102024,1,8,0:0:0:0:
256,192,102115,1,8,0:0:0:0:
256,192,102205,1,8,0:0:0:0:
256,192,102386,1,8,0:0:0:0:
256,192,102446,1,0,0:0:0:0:
256,192,102506,1,0,0:0:0:0:
256,192,102567,1,8,0:0:0:0:
256,192,102747,1,0,0:0:0:0:
256,192,102928,1,8,0:0:0:0:
256,192,103109,1,8,0:0:0:0:
256,192,103290,1,8,0:0:0:0:
256,192,103561,1,8,0:0:0:0:
256,192,103606,1,8,0:0:0:0:
256,192,104374,1,4,0:0:0:0:
256,192,104735,5,0,0:0:0:0:
256,192,104826,1,0,0:0:0:0:
256,192,104916,1,0,0:0:0:0:
256,192,105006,1,0,0:0:0:0:
256,192,105097,5,8,0:0:0:0:
256,192,105277,1,8,0:0:0:0:
256,192,105368,1,8,0:0:0:0:
256,192,105549,1,0,0:0:0:0:
256,192,105639,1,8,0:0:0:0:
256,192,105729,1,8,0:0:0:0:
256,192,105820,1,0,0:0:0:0:
256,192,105910,1,0,0:0:0:0:
256,192,106000,1,8,0:0:0:0:
256,192,106091,1,0,0:0:0:0:
256,192,106181,1,0,0:0:0:0:
256,192,106271,1,8,0:0:0:0:
256,192,106362,1,8,0:0:0:0:
256,192,106452,1,0,0:0:0:0:
256,192,106543,5,8,0:0:0:0:
256,192,106723,1,0,0:0:0:0:
256,192,106814,1,8,0:0:0:0:
256,192,106904,1,0,0:0:0:0:
256,192,107085,1,8,0:0:0:0:
256,192,107265,1,8,0:0:0:0:
256,192,107446,1,0,0:0:0:0:
256,192,107627,1,8,0:0:0:0:
256,192,107717,1,8,0:0:0:0:
256,192,107808,1,0,0:0:0:0:
256,192,107988,5,12,0:0:0:0:
256,192,108169,1,0,0:0:0:0:
256,192,108259,1,8,0:0:0:0:
256,192,108440,1,8,0:0:0:0:
256,192,108531,1,8,0:0:0:0:
256,192,108621,1,0,0:0:0:0:
256,192,108711,1,8,0:0:0:0:
256,192,108802,1,0,0:0:0:0:
256,192,108892,1,8,0:0:0:0:
256,192,108982,1,0,0:0:0:0:
256,192,109163,1,0,0:0:0:0:
256,192,109253,1,8,0:0:0:0:
256,192,109344,1,8,0:0:0:0:
256,192,109434,1,0,0:0:0:0:
256,192,109615,5,0,0:0:0:0:
256,192,109660,1,0,0:0:0:0:
256,192,109735,1,0,0:0:0:0:
256,192,109796,1,8,0:0:0:0:
256,192,109976,1,0,0:0:0:0:
256,192,110157,1,0,0:0:0:0:
256,192,110338,1,0,0:0:0:0:
256,192,110518,1,8,0:0:0:0:
256,192,110699,1,0,0:0:0:0:
256,192,110790,1,0,0:0:0:0:
256,192,110880,1,8,0:0:0:0:
256,192,111061,1,0,0:0:0:0:
256,192,111241,1,0,0:0:0:0:
256,192,111302,1,0,0:0:0:0:
256,192,111362,1,0,0:0:0:0:
256,192,111422,1,8,0:0:0:0:
256,192,111512,1,8,0:0:0:0:
256,192,111603,1,0,0:0:0:0:
256,192,111784,1,0,0:0:0:0:
256,192,111964,1,8,0:0:0:0:
256,192,112145,1,0,0:0:0:0:
256,192,112235,1,0,0:0:0:0:
256,192,112326,1,8,0:0:0:0:
256,192,112506,1,8,0:0:0:0:
256,192,112687,1,0,0:0:0:0:
256,192,112868,1,8,0:0:0:0:
256,192,112928,1,8,0:0:0:0:
256,192,112988,1,8,0:0:0:0:
256,192,113049,1,0,0:0:0:0:
256,192,113410,5,8,0:0:0:0:
256,192,113500,1,0,0:0:0:0:
256,192,113591,1,0,0:0:0:0:
256,192,113681,1,8,0:0:0:0:
256,192,113862,1,0,0:0:0:0:
256,192,113952,1,8,0:0:0:0:
256,192,114133,1,8,0:0:0:0:
256,192,114223,1,8,0:0:0:0:
256,192,114404,1,8,0:0:0:0:
256,192,114494,1,0,0:0:0:0:
256,192,114675,5,0,0:0:0:0:
256,192,114856,5,8,0:0:0:0:
256,192,114946,1,0,0:0:0:0:
256,192,115037,1,0,0:0:0:0:
256,192,115127,1,8,0:0:0:0:
256,192,115217,1,8,0:0:0:0:
256,192,115308,1,0,0:0:0:0:
256,192,115398,1,8,0:0:0:0:
256,192,115579,1,8,0:0:0:0:
256,192,115759,1,0,0:0:0:0:
256,192,115850,1,0,0:0:0:0:
256,192,115940,1,12,0:0:0:0:
256,192,116302,1,0,0:0:0:0:
256,192,116392,1,0,0:0:0:0:
256,192,116482,1,0,0:0:0:0:
256,192,116663,1,12,0:0:0:0:
256,192,116844,5,8,0:0:0:0:
256,192,116934,1,0,0:0:0:0:
256,192,117024,1,8,0:0:0:0:
256,192,117115,1,0,0:0:0:0:
256,192,117205,1,8,0:0:0:0:
256,192,117386,1,0,0:0:0:0:
256,192,117567,1,8,0:0:0:0:
256,192,117657,1,8,0:0:0:0:
256,192,117747,1,0,0:0:0:0:
256,192,117838,1,0,0:0:0:0:
256,192,117928,1,8,0:0:0:0:
256,192,118109,1,12,0:0:0:0:
256,192,118290,5,0,0:0:0:0:
256,192,118350,1,0,0:0:0:0:
256,192,118410,1,0,0:0:0:0:
256,192,118470,1,8,0:0:0:0:
256,192,118561,1,0,0:0:0:0:
256,192,118651,1,8,0:0:0:0:
256,192,118741,1,8,0:0:0:0:
256,192,118832,1,0,0:0:0:0:
256,192,119012,1,8,0:0:0:0:
256,192,119193,1,0,0:0:0:0:
256,192,119284,1,0,0:0:0:0:
256,192,119374,1,8,0:0:0:0:
256,192,119555,1,12,0:0:0:0:
256,192,119735,1,8,0:0:0:0:
256,192,119826,1,8,0:0:0:0:
256,192,119916,1,0,0:0:0:0:
256,192,120006,1,0,0:0:0:0:
256,192,120097,1,8,0:0:0:0:
256,192,120277,5,8,0:0:0:0:
256,192,120368,1,0,0:0:0:0:
256,192,120458,1,8,0:0:0:0:
256,192,120549,1,8,0:0:0:0:
256,192,120639,1,0,0:0:0:0:
256,192,120729,1,0,0:0:0:0:
256,192,120820,1,8,0:0:0:0:
256,192,121000,1,12,0:0:0:0:
256,192,121181,1,0,0:0:0:0:
256,192,121226,1,0,0:0:0:0:
256,192,121302,1,0,0:0:0:0:
256,192,121362,1,8,0:0:0:0:
256,192,121543,1,0,0:0:0:0:
256,192,121723,1,0,0:0:0:0:
256,192,122085,1,12,0:0:0:0:
256,192,122356,5,0,0:0:0:0:
256,192,122446,1,8,0:0:0:0:
256,192,122627,1,0,0:0:0:0:
256,192,122808,5,8,0:0:0:0:
256,192,122898,1,0,0:0:0:0:
256,192,122988,1,8,0:0:0:0:
256,192,123169,1,0,0:0:0:0:
256,192,123531,5,8,0:0:0:0:
256,192,123621,1,8,0:0:0:0:
256,192,123802,1,0,0:0:0:0:
256,192,123892,1,8,0:0:0:0:
256,192,123982,1,8,0:0:0:0:
256,192,124073,1,0,0:0:0:0:
256,192,124253,1,8,0:0:0:0:
256,192,124434,5,8,0:0:0:0:
256,192,124494,1,8,0:0:0:0:
256,192,124555,1,8,0:0:0:0:
256,192,124615,1,0,0:0:0:0:
256,192,124976,5,8,0:0:0:0:
256,192,125067,1,8,0:0:0:0:
256,192,125247,1,0,0:0:0:0:
256,192,125338,1,8,0:0:0:0:
256,192,125428,1,0,0:0:0:0:
256,192,125518,1,8,0:0:0:0:
256,192,125609,1,8,0:0:0:0:
256,192,125699,1,0,0:0:0:0:
256,192,125790,1,8,0:0:0:0:
256,192,125880,1,0,0:0:0:0:
256,192,126061,5,4,0:0:0:0:
256,192,126241,1,0,0:0:0:0:
256,192,126422,1,8,0:0:0:0:
256,192,126603,1,0,0:0:0:0:
256,192,126784,1,8,0:0:0:0:
256,192,126964,1,0,0:0:0:0:
256,192,127145,1,8,0:0:0:0:
256,192,127326,1,0,0:0:0:0:
256,192,127371,1,0,0:0:0:0:
256,192,127416,1,0,0:0:0:0:
