osu file format v14

[General]
AudioFilename: audio.mp3
AudioLeadIn: 0
PreviewTime: 46362
Countdown: 0
SampleSet: Normal
StackLeniency: 0.7
Mode: 1
LetterboxInBreaks: 0
WidescreenStoryboard: 1

[Editor]
Bookmarks: 284,11850,20524,34982,43657,69681,92814,104380
DistanceSpacing: 0.5
BeatDivisor: 4
GridSize: 32
TimelineZoom: 2.700006

[Metadata]
Title:LINK[INIT]
TitleUnicode:LINK[INIT]
Artist:BilliumMoto
ArtistUnicode:BilliumMoto
Creator:Capu
Version:Futsuu
Source:
Tags:electronic instrumental sv tech complextro trap dubstep future bass neurotic experimental bm fa featured artist linkinit cychloryn vulkin
BeatmapID:3042787
BeatmapSetID:1483609

[Difficulty]
HPDrainRate:7
CircleSize:2
OverallDifficulty:4
ApproachRate:10
SliderMultiplier:1.4
SliderTickRate:1

[Events]
//Background and Video events
0,0,"1100871.jpg",0,-30
//Break Periods
2,69875,75008
//Storyboard Layer 0 (Background)
//Storyboard Layer 1 (Fail)
//Storyboard Layer 2 (Pass)
//Storyboard Layer 3 (Foreground)
//Storyboard Layer 4 (Overlay)
//Storyboard Sound Samples

[TimingPoints]
278,361.44578313253,4,1,0,40,1,0
278,-100,4,1,0,40,0,0
5970,-100,4,1,0,50,0,0
11031,-100,4,1,0,72,0,0
46543,-100,4,1,0,72,0,1
57747,-100,4,1,0,72,0,0
58109,-100,4,1,0,72,0,1
69675,-100,4,1,0,72,0,0
69856,-100,4,1,0,32,0,0
75368,-100,4,1,0,48,0,0
87019,-100,4,1,0,53,0,0
88420,-100,4,1,0,58,0,0
89866,-100,4,1,0,63,0,0
91312,-100,4,1,0,72,0,0
104374,-100,4,1,0,72,0,1
121723,-100,4,1,0,72,0,0
122085,-100,4,1,0,72,0,1
127326,-100,4,1,0,72,0,0

[HitObjects]
256,192,278,5,0,0:0:0:0:
256,192,1181,1,0,0:0:0:0:
256,192,1723,1,0,0:0:0:0:
256,192,2627,1,0,0:0:0:0:
256,192,3169,1,0,0:0:0:0:
256,192,4073,1,0,0:0:0:0:
256,192,4615,1,8,0:0:0:0:
256,192,5518,1,8,0:0:0:0:
256,192,6061,1,0,0:0:0:0:
256,192,6422,1,8,0:0:0:0:
256,192,6784,1,0,0:0:0:0:
256,192,7145,1,8,0:0:0:0:
256,192,7868,1,8,0:0:0:0:
256,192,8229,1,0,0:0:0:0:
256,192,8591,1,8,0:0:0:0:
256,192,9133,1,0,0:0:0:0:
256,192,9314,1,8,0:0:0:0:
256,192,9494,1,0,0:0:0:0:
256,192,9675,1,0,0:0:0:0:
256,192,10037,1,8,0:0:0:0:
256,192,10217,1,0,0:0:0:0:
256,192,10398,1,8,0:0:0:0:
256,192,10579,1,8,0:0:0:0:
256,192,10759,1,0,0:0:0:0:
256,192,11121,1,8,0:0:0:0:
256,192,11392,1,8,0:0:0:0:
256,192,11663,1,0,0:0:0:0:
256,192,11844,1,4,0:0:0:0:
256,192,12205,1,8,0:0:0:0:
256,192,12928,1,8,0:0:0:0:
256,192,13290,1,0,0:0:0:0:
256,192,13470,1,0,0:0:0:0:
256,192,13651,1,8,0:0:0:0:
256,192,13832,1,0,0:0:0:0:
256,192,14193,1,0,0:0:0:0:
256,192,14374,1,8,0:0:0:0:
256,192,14555,1,8,0:0:0:0:
256,192,14735,1,0,0:0:0:0:
256,192,15097,1,8,0:0:0:0:
256,192,15820,1,8,0:0:0:0:
256,192,16181,1,0,0:0:0:0:
256,192,16362,1,0,0:0:0:0:
256,192,16543,1,8,0:0:0:0:
256,192,16723,1,8,0:0:0:0:
256,192,17085,1,0,0:0:0:0:
256,192,17265,1,8,0:0:0:0:
256,192,17446,1,0,0:0:0:0:
256,192,17627,1,8,0:0:0:0:
256,192,17988,1,8,0:0:0:0:
256,192,18350,1,8,0:0:0:0:
256,192,18531,1,0,0:0:0:0:
256,192,18892,1,0,0:0:0:0:
256,192,19073,1,8,0:0:0:0:
256,192,19434,1,8,0:0:0:0:
256,192,19796,1,8,0:0:0:0:
256,192,19976,1,8,0:0:0:0:
256,192,20157,1,0,0:0:0:0:
256,192,20338,1,0,0:0:0:0:
256,192,20518,1,8,0:0:0:0:
256,192,21241,1,8,0:0:0:0:
256,192,21964,1,8,0:0:0:0:
256,192,22326,1,8,0:0:0:0:
256,192,22506,1,8,0:0:0:0:
256,192,22687,1,8,0:0:0:0:
256,192,23410,1,0,0:0:0:0:
256,192,23591,1,0,0:0:0:0:
256,192,23771,1,0,0:0:0:0:
256,192,23952,1,0,0:0:0:0:
256,192,24856,1,0,0:0:0:0:
256,192,25037,1,0,0:0:0:0:
256,192,25217,1,0,0:0:0:0:
256,192,25398,1,0,0:0:0:0:
256,192,26302,1,0,0:0:0:0:
256,192,26482,1,0,0:0:0:0:
256,192,26663,1,8,0:0:0:0:
256,192,26844,1,0,0:0:0:0:
256,192,27747,1,8,0:0:0:0:
256,192,28018,1,0,0:0:0:0:
256,192,28290,1,0,0:0:0:0:
256,192,28470,1,8,0:0:0:0:
256,192,29193,1,0,0:0:0:0:
256,192,29374,1,0,0:0:0:0:
256,192,29555,1,0,0:0:0:0:
256,192,29735,1,0,0:0:0:0:
256,192,30639,1,0,0:0:0:0:
256,192,30820,1,0,0:0:0:0:
256,192,31000,1,0,0:0:0:0:
256,192,31181,1,0,0:0:0:0:
256,192,31723,1,0,0:0:0:0:
256,192,32085,1,0,0:0:0:0:
256,192,32265,1,0,0:0:0:0:
256,192,32446,1,8,0:0:0:0:
256,192,32627,1,8,0:0:0:0:
256,192,33169,1,0,0:0:0:0:
256,192,33531,1,8,0:0:0:0:
256,192,33802,1,8,0:0:0:0:
256,192,34073,1,8,0:0:0:0:
256,192,34253,1,12,0:0:0:0:
256,192,34976,1,0,0:0:0:0:
256,192,35157,1,0,0:0:0:0:
256,192,35338,1,0,0:0:0:0:
256,192,35518,1,0,0:0:0:0:
256,192,35699,1,8,0:0:0:0:
256,192,36061,1,0,0:0:0:0:
256,192,36422,1,0,0:0:0:0:
256,192,36603,1,0,0:0:0:0:
256,192,36784,1,0,0:0:0:0:
256,192,36964,1,0,0:0:0:0:
256,192,37145,1,0,0:0:0:0:
256,192,37506,1,8,0:0:0:0:
256,192,37868,1,0,0:0:0:0:
256,192,38049,1,0,0:0:0:0:
256,192,38229,1,0,0:0:0:0:
256,192,38410,1,0,0:0:0:0:
256,192,38591,1,8,0:0:0:0:
256,192,38952,1,8,0:0:0:0:
256,192,39314,1,0,0:0:0:0:
256,192,39494,1,0,0:0:0:0:
256,192,39675,1,8,0:0:0:0:
256,192,39856,1,8,0:0:0:0:
256,192,40037,1,0,0:0:0:0:
256,192,40759,1,8,0:0:0:0:
256,192,41121,1,0,0:0:0:0:
256,192,41302,1,0,0:0:0:0:
256,192,41482,1,8,0:0:0:0:
256,192,41844,1,0,0:0:0:0:
256,192,42205,1,8,0:0:0:0:
256,192,42386,1,8,0:0:0:0:
256,192,42567,1,0,0:0:0:0:
256,192,42747,1,0,0:0:0:0:
256,192,42928,1,8,0:0:0:0:
256,192,43290,1,0,0:0:0:0:
256,192,43470,1,8,0:0:0:0:
256,192,43651,1,4,0:0:0:0:
256,192,44012,1,0,0:0:0:0:
256,192,44374,1,0,0:0:0:0:
256,192,44735,1,0,0:0:0:0:
256,192,45097,1,0,0:0:0:0:
256,192,45458,1,0,0:0:0:0:
256,192,45820,1,0,0:0:0:0:
256,192,46543,1,4,0:0:0:0:
256,192,46904,1,8,0:0:0:0:
256,192,47085,1,0,0:0:0:0:
256,192,47265,1,0,0:0:0:0:
256,192,47446,1,8,0:0:0:0:
256,192,47808,1,0,0:0:0:0:
256,192,48169,1,0,0:0:0:0:
256,192,48531,1,8,0:0:0:0:
256,192,48711,1,0,0:0:0:0:
256,192,49073,1,8,0:0:0:0:
256,192,49434,1,4,0:0:0:0:
256,192,49796,1,8,0:0:0:0:
256,192,49976,1,0,0:0:0:0:
256,192,50157,1,0,0:0:0:0:
256,192,50338,1,8,0:0:0:0:
256,192,50699,1,0,0:0:0:0:
256,192,51061,1,0,0:0:0:0:
256,192,51241,1,8,0:0:0:0:
256,192,51422,1,0,0:0:0:0:
256,192,52326,1,4,0:0:0:0:
256,192,52687,1,8,0:0:0:0:
256,192,52868,1,0,0:0:0:0:
256,192,53049,1,0,0:0:0:0:
256,192,53229,1,8,0:0:0:0:
256,192,53591,1,0,0:0:0:0:
256,192,53952,1,0,0:0:0:0:
256,192,54314,1,8,0:0:0:0:
256,192,54494,1,0,0:0:0:0:
256,192,54675,1,8,0:0:0:0:
256,192,54856,1,8,0:0:0:0:
256,192,55217,1,4,0:0:0:0:
256,192,55579,1,8,0:0:0:0:
256,192,55759,1,0,0:0:0:0:
256,192,56121,1,8,0:0:0:0:
256,192,56482,1,0,0:0:0:0:
256,192,56844,1,0,0:0:0:0:
256,192,57205,1,0,0:0:0:0:
256,192,57747,1,8,0:0:0:0:
256,192,58109,1,4,0:0:0:0:
256,192,58470,1,8,0:0:0:0:
256,192,58651,1,0,0:0:0:0:
256,192,59012,1,8,0:0:0:0:
256,192,59193,1,8,0:0:0:0:
256,192,59374,1,0,0:0:0:0:
256,192,59735,1,0,0:0:0:0:
256,192,60097,1,8,0:0:0:0:
256,192,60277,1,0,0:0:0:0:
256,192,60458,1,8,0:0:0:0:
256,192,60820,1,8,0:0:0:0:
256,192,61000,1,4,0:0:0:0:
256,192,61362,1,8,0:0:0:0:
256,192,61543,1,0,0:0:0:0:
256,192,61723,1,8,0:0:0:0:
256,192,62085,1,8,0:0:0:0:
256,192,62265,1,0,0:0:0:0:
256,192,62627,1,0,0:0:0:0:
256,192,62808,1,8,0:0:0:0:
256,192,62988,1,0,0:0:0:0:
256,192,63892,1,12,0:0:0:0:
256,192,64253,1,8,0:0:0:0:
256,192,64434,1,0,0:0:0:0:
256,192,64615,1,0,0:0:0:0:
256,192,64796,1,8,0:0:0:0:
256,192,64976,1,0,0:0:0:0:
256,192,65157,1,8,0:0:0:0:
256,192,65518,1,0,0:0:0:0:
256,192,65880,1,8,0:0:0:0:
256,192,66061,1,0,0:0:0:0:
256,192,66422,1,8,0:0:0:0:
256,192,66603,1,8,0:0:0:0:
256,192,66784,1,0,0:0:0:0:
256,192,67145,1,8,0:0:0:0:
256,192,67326,1,0,0:0:0:0:
256,192,67687,1,8,0:0:0:0:
256,192,67868,1,8,0:0:0:0:
256,192,68049,1,0,0:0:0:0:
256,192,68410,1,8,0:0:0:0:
256,192,68771,1,8,0:0:0:0:
256,192,69133,1,8,0:0:0:0:
256,192,69675,1,0,0:0:0:0:
256,192,75458,5,8,0:0:0:0:
256,192,75820,1,0,0:0:0:0:
256,192,76181,1,8,0:0:0:0:
256,192,76543,1,0,0:0:0:0:
256,192,76723,1,0,0:0:0:0:
256,192,76904,1,8,0:0:0:0:
256,192,77085,1,0,0:0:0:0:
256,192,77356,1,8,0:0:0:0:
256,192,77537,1,8,0:0:0:0:
256,192,78350,1,0,0:0:0:0:
256,192,78711,1,8,0:0:0:0:
256,192,78892,1,0,0:0:0:0:
256,192,79073,1,8,0:0:0:0:
256,192,79434,1,8,0:0:0:0:
256,192,79615,1,8,0:0:0:0:
256,192,79796,1,0,0:0:0:0:
256,192,80157,1,8,0:0:0:0:
256,192,80518,1,8,0:0:0:0:
256,192,80699,1,0,0:0:0:0:
256,192,80880,1,8,0:0:0:0:
256,192,81241,1,0,0:0:0:0:
256,192,81603,1,0,0:0:0:0:
256,192,82687,1,0,0:0:0:0:
256,192,83049,1,0,0:0:0:0:
256,192,84133,1,0,0:0:0:0:
256,192,84494,1,0,0:0:0:0:
256,192,84856,1,8,0:0:0:0:
256,192,85217,1,8,0:0:0:0:
256,192,85398,1,8,0:0:0:0:
256,192,85579,1,0,0:0:0:0:
256,192,85850,1,0,0:0:0:0:
256,192,86121,1,0,0:0:0:0:
256,192,87024,1,0,0:0:0:0:
256,192,87386,1,0,0:0:0:0:
256,192,87567,1,0,0:0:0:0:
256,192,88470,1,0,0:0:0:0:
256,192,88832,1,0,0:0:0:0:
256,192,89012,1,0,0:0:0:0:
256,192,89916,1,0,0:0:0:0:
256,192,90277,1,0,0:0:0:0:
256,192,90458,1,0,0:0:0:0:
256,192,91362,1,0,0:0:0:0:
256,192,91633,1,0,0:0:0:0:
256,192,91904,1,0,0:0:0:0:
256,192,92808,1,0,0:0:0:0:
256,192,92989,1,0,0:0:0:0:
256,192,93170,1,0,0:0:0:0:
256,192,93350,1,0,0:0:0:0:
256,192,93531,1,8,0:0:0:0:
256,192,93893,1,0,0:0:0:0:
256,192,94254,1,0,0:0:0:0:
256,192,94435,1,0,0:0:0:0:
256,192,94616,1,0,0:0:0:0:
256,192,94796,1,0,0:0:0:0:
256,192,94977,1,0,0:0:0:0:
256,192,95338,1,8,0:0:0:0:
256,192,95519,1,8,0:0:0:0:
256,192,95700,1,0,0:0:0:0:
256,192,95881,1,0,0:0:0:0:
256,192,96061,1,0,0:0:0:0:
256,192,96242,1,0,0:0:0:0:
256,192,96423,1,8,0:0:0:0:
256,192,96784,1,8,0:0:0:0:
256,192,97146,1,0,0:0:0:0:
256,192,97326,1,0,0:0:0:0:
256,192,97507,1,8,0:0:0:0:
256,192,97688,1,8,0:0:0:0:
256,192,97869,1,0,0:0:0:0:
256,192,98591,1,8,0:0:0:0:
256,192,98953,1,0,0:0:0:0:
256,192,99134,1,0,0:0:0:0:
256,192,99314,1,8,0:0:0:0:
256,192,99676,1,0,0:0:0:0:
256,192,100037,1,8,0:0:0:0:
256,192,100218,1,8,0:0:0:0:
256,192,100399,1,0,0:0:0:0:
256,192,100579,1,0,0:0:0:0:
256,192,100760,1,8,0:0:0:0:
256,192,101122,1,0,0:0:0:0:
256,192,101302,1,8,0:0:0:0:
256,192,101483,1,4,0:0:0:0:
256,192,101844,1,8,0:0:0:0:
256,192,102024,1,8,0:0:0:0:
256,192,102205,1,8,0:0:0:0:
256,192,102567,1,8,0:0:0:0:
256,192,102747,1,0,0:0:0:0:
256,192,102928,1,8,0:0:0:0:
256,192,103109,1,8,0:0:0:0:
256,192,103290,1,0,0:0:0:0:
256,192,103651,1,8,0:0:0:0:
256,192,104374,1,4,0:0:0:0:
256,192,104735,1,0,0:0:0:0:
256,192,104916,1,0,0:0:0:0:
256,192,105097,1,8,0:0:0:0:
256,192,105368,1,8,0:0:0:0:
256,192,105639,1,8,0:0:0:0:
256,192,105820,1,0,0:0:0:0:
256,192,106091,1,0,0:0:0:0:
256,192,106362,1,0,0:0:0:0:
256,192,106543,1,8,0:0:0:0:
256,192,107265,1,0,0:0:0:0:
256,192,107446,1,8,0:0:0:0:
256,192,107627,1,8,0:0:0:0:
256,192,107808,1,0,0:0:0:0:
256,192,107988,1,8,0:0:0:0:
256,192,108259,1,8,0:0:0:0:
256,192,108531,1,0,0:0:0:0:
256,192,108711,1,8,0:0:0:0:
256,192,108982,1,8,0:0:0:0:
256,192,109253,1,0,0:0:0:0:
256,192,109434,1,8,0:0:0:0:
256,192,109976,1,0,0:0:0:0:
256,192,110157,1,0,0:0:0:0:
256,192,110338,1,0,0:0:0:0:
256,192,110518,1,8,0:0:0:0:
256,192,110790,1,8,0:0:0:0:
256,192,111061,1,8,0:0:0:0:
256,192,111422,1,0,0:0:0:0:
256,192,111603,1,0,0:0:0:0:
256,192,111964,1,8,0:0:0:0:
256,192,112235,1,8,0:0:0:0:
256,192,112506,1,8,0:0:0:0:
256,192,113049,1,0,0:0:0:0:
256,192,113410,1,8,0:0:0:0:
256,192,113681,1,8,0:0:0:0:
256,192,113952,1,0,0:0:0:0:
256,192,114133,1,8,0:0:0:0:
256,192,114314,1,8,0:0:0:0:
256,192,114494,1,0,0:0:0:0:
256,192,114856,1,8,0:0:0:0:
256,192,115127,1,8,0:0:0:0:
256,192,115398,1,8,0:0:0:0:
256,192,115579,1,8,0:0:0:0:
256,192,115940,1,12,0:0:0:0:
256,192,116663,1,0,0:0:0:0:
256,192,117024,1,8,0:0:0:0:
256,192,117205,1,0,0:0:0:0:
256,192,117386,1,8,0:0:0:0:
256,192,117567,1,8,0:0:0:0:
256,192,117928,1,0,0:0:0:0:
256,192,118109,1,8,0:0:0:0:
256,192,118832,1,0,0:0:0:0:
256,192,119012,1,8,0:0:0:0:
256,192,119193,1,0,0:0:0:0:
256,192,119555,1,8,0:0:0:0:
256,192,119735,1,8,0:0:0:0:
256,192,119916,1,8,0:0:0:0:
256,192,120097,1,0,0:0:0:0:
256,192,120277,1,8,0:0:0:0:
256,192,120458,1,8,0:0:0:0:
256,192,120639,1,0,0:0:0:0:
256,192,121000,1,8,0:0:0:0:
256,192,121723,1,0,0:0:0:0:
256,192,122085,1,12,0:0:0:0:
256,192,122356,1,8,0:0:0:0:
256,192,122627,1,8,0:0:0:0:
256,192,122808,1,0,0:0:0:0:
256,192,122988,1,0,0:0:0:0:
256,192,123169,1,4,0:0:0:0:
256,192,123531,1,8,0:0:0:0:
256,192,123802,1,8,0:0:0:0:
256,192,124073,1,8,0:0:0:0:
256,192,124253,1,0,0:0:0:0:
256,192,124615,1,4,0:0:0:0:
256,192,124976,1,8,0:0:0:0:
256,192,125247,1,0,0:0:0:0:
256,192,125518,1,0,0:0:0:0:
256,192,125699,1,8,0:0:0:0:
256,192,125880,1,8,0:0:0:0:
256,192,126061,1,0,0:0:0:0:
256,192,126422,1,8,0:0:0:0:
256,192,126603,1,0,0:0:0:0:
256,192,126784,1,8,0:0:0:0:
256,192,126964,1,0,0:0:0:0:
256,192,127145,1,8,0:0:0:0:
256,192,127326,1,0,0:0:0:0:
