osu file format v14

[General]
AudioFilename: audio.mp3
AudioLeadIn: 0
PreviewTime: 53467
Countdown: 0
SampleSet: Normal
StackLeniency: 0.7
Mode: 3
LetterboxInBreaks: 0
SpecialStyle: 0
WidescreenStoryboard: 1

[Editor]
DistanceSpacing: 1.3
BeatDivisor: 4
GridSize: 16
TimelineZoom: 2.5

[Metadata]
Title:LIGHT LEFT BEHIND
TitleUnicode:LIGHΓ LEFΓ BEHIΠD
Artist:BilliumMoto
ArtistUnicode:BilliumMoto
Creator:-mint-
Version:EXTRA
Source:osu!mania 4K World Cup 2023
Tags:osu! original mwc23 mwc 4k 2023 grand finals gf hybrid hb3 qqqant fa featured artist mappers' guild mg mpg electronic instrumental
BeatmapID:4389545
BeatmapSetID:2062241

[Difficulty]
HPDrainRate:8
CircleSize:4
OverallDifficulty:7.7
ApproachRate:5
SliderMultiplier:1.4
SliderTickRate:1

[Events]
//Background and Video events
0,0,"LIGHT LEFT BEHIND.jpg",0,0
//Break Periods
//Storyboard Layer 0 (Background)
//Storyboard Layer 1 (Fail)
//Storyboard Layer 2 (Pass)
//Storyboard Layer 3 (Foreground)
//Storyboard Layer 4 (Overlay)
//Storyboard Sound Samples

[TimingPoints]
625,210.526315789474,4,1,1,20,1,0
13782,-100,4,1,1,40,0,0
27256,-100,4,1,1,50,0,0
34309,-100,4,1,1,30,0,0
40203,-100,4,1,1,40,0,0
67993,-100,4,1,1,50,0,1
94625,-100,4,1,1,40,0,0
101677,-100,4,1,1,20,0,0
105046,-100,4,1,1,30,0,0
106730,-100,4,1,1,40,0,0
114835,-100,4,1,1,50,0,0
128625,-100,4,1,1,50,0,1
141256,-100,4,1,1,30,0,0
145151,-100,4,1,1,50,0,0
159361,-100,4,1,1,30,0,0
165256,-100,4,1,1,20,0,0

[HitObjects]
64,192,309,5,0,0:0:0:0:
64,192,519,1,0,0:0:0:0:
64,192,730,1,0,0:0:0:0:
64,192,835,1,0,0:0:0:0:
448,192,1888,1,0,0:0:0:0:
64,192,1993,5,0,0:0:0:0:
64,192,2203,5,0,0:0:0:0:
448,192,2309,1,0,0:0:0:0:
64,192,2414,1,0,0:0:0:0:
64,192,2519,1,0,0:0:0:0:
448,192,2730,1,0,0:0:0:0:
192,192,2940,1,0,0:0:0:0:
448,192,3151,1,0,0:0:0:0:
320,192,3203,128,0,3361:0:0:0:0:
192,192,3361,1,0,0:0:0:0:
448,192,3572,1,0,0:0:0:0:
64,192,3677,5,0,0:0:0:0:
64,192,3888,5,0,0:0:0:0:
448,192,3993,1,0,0:0:0:0:
64,192,4098,1,0,0:0:0:0:
64,192,4203,1,0,0:0:0:0:
448,192,4414,1,0,0:0:0:0:
192,192,4519,1,0,0:0:0:0:
64,192,4625,1,0,0:0:0:0:
448,192,4835,1,0,0:0:0:0:
320,192,4888,1,0,0:0:0:0:
64,192,4940,1,0,0:0:0:0:
192,192,4993,1,0,0:0:0:0:
320,192,5046,1,0,0:0:0:0:
448,192,5256,1,0,0:0:0:0:
64,192,5361,5,0,0:0:0:0:
64,192,5572,5,0,0:0:0:0:
448,192,5677,1,0,0:0:0:0:
64,192,5782,1,0,0:0:0:0:
64,192,5888,1,0,0:0:0:0:
448,192,6098,1,0,0:0:0:0:
192,192,6168,1,0,0:0:0:0:
64,192,6203,1,0,0:0:0:0:
320,192,6239,1,0,0:0:0:0:
448,192,6274,1,0,0:0:0:0:
64,192,6309,1,0,0:0:0:0:
192,192,6344,1,0,0:0:0:0:
448,192,6379,1,0,0:0:0:0:
320,192,6414,1,0,0:0:0:0:
64,192,6519,1,0,0:0:0:0:
448,192,6572,1,0,0:0:0:0:
64,192,6625,1,0,0:0:0:0:
448,192,6677,1,0,0:0:0:0:
192,192,6730,1,0,0:0:0:0:
320,192,6782,1,0,0:0:0:0:
192,192,6835,1,0,0:0:0:0:
448,192,6940,1,0,0:0:0:0:
64,192,7046,1,0,0:0:0:0:
64,192,7256,1,0,0:0:0:0:
320,192,7361,128,0,9046:0:0:0:0:
64,192,7467,1,0,0:0:0:0:
64,192,7572,1,0,0:0:0:0:
448,192,7572,1,0,0:0:0:0:
192,192,7782,1,0,0:0:0:0:
64,192,7993,1,0,0:0:0:0:
448,192,8203,1,0,0:0:0:0:
64,192,8256,1,0,0:0:0:0:
448,192,8309,1,0,0:0:0:0:
192,192,8361,1,0,0:0:0:0:
64,192,8414,1,0,0:0:0:0:
192,192,8625,1,0,0:0:0:0:
448,192,8730,1,0,0:0:0:0:
64,192,8730,1,0,0:0:0:0:
64,192,8835,1,0,0:0:0:0:
192,192,8940,1,0,0:0:0:0:
448,192,8940,1,0,0:0:0:0:
64,192,9046,128,0,10730:0:0:0:0:
448,192,9151,1,0,0:0:0:0:
448,192,9256,1,0,0:0:0:0:
192,192,9256,1,0,0:0:0:0:
320,192,9467,1,0,0:0:0:0:
448,192,9677,1,0,0:0:0:0:
192,192,9888,1,0,0:0:0:0:
448,192,9940,1,0,0:0:0:0:
192,192,9993,1,0,0:0:0:0:
320,192,10046,1,0,0:0:0:0:
448,192,10098,1,0,0:0:0:0:
320,192,10309,1,0,0:0:0:0:
192,192,10414,1,0,0:0:0:0:
192,192,10625,1,0,0:0:0:0:
448,192,10730,128,0,12414:0:0:0:0:
192,192,10835,1,0,0:0:0:0:
192,192,10940,1,0,0:0:0:0:
320,192,10940,1,0,0:0:0:0:
64,192,11151,1,0,0:0:0:0:
192,192,11361,1,0,0:0:0:0:
320,192,11572,1,0,0:0:0:0:
192,192,11625,1,0,0:0:0:0:
320,192,11677,1,0,0:0:0:0:
64,192,11730,1,0,0:0:0:0:
192,192,11782,1,0,0:0:0:0:
64,192,11993,1,0,0:0:0:0:
320,192,12098,1,0,0:0:0:0:
192,192,12098,1,0,0:0:0:0:
192,192,12203,1,0,0:0:0:0:
320,192,12309,1,0,0:0:0:0:
64,192,12309,1,0,0:0:0:0:
192,192,12414,128,0,13186:0:0:0:0:
320,192,12519,1,0,0:0:0:0:
320,192,12625,1,0,0:0:0:0:
64,192,12625,1,0,0:0:0:0:
448,192,12835,128,0,13046:0:0:0:0:
64,192,12940,128,0,13151:0:0:0:0:
320,192,13046,128,0,13221:0:0:0:0:
448,192,13151,128,0,13256:0:0:0:0:
192,192,13782,128,0,13888:0:0:0:0:
64,192,13782,128,0,13888:0:0:0:0:
320,192,13888,1,0,0:0:0:0:
192,192,13993,128,0,14098:0:0:0:0:
64,192,13993,128,0,14098:0:0:0:0:
448,192,14098,1,0,0:0:0:0:
192,192,14203,1,0,0:0:0:0:
64,192,14203,1,0,0:0:0:0:
64,192,14309,128,0,14414:0:0:0:0:
192,192,14309,128,0,14414:0:0:0:0:
320,192,14414,1,0,0:0:0:0:
448,192,14467,1,0,0:0:0:0:
192,192,14519,128,0,14625:0:0:0:0:
320,192,14625,1,0,0:0:0:0:
192,192,14730,1,0,0:0:0:0:
448,192,14782,1,0,0:0:0:0:
320,192,14835,1,0,0:0:0:0:
64,192,14888,1,0,0:0:0:0:
192,192,14940,128,0,15046:0:0:0:0:
448,192,15046,1,0,0:0:0:0:
64,192,15151,1,0,0:0:0:0:
192,192,15203,1,0,0:0:0:0:
320,192,15256,128,0,15361:0:0:0:0:
448,192,15282,128,0,15414:0:0:0:0:
192,192,15361,1,0,0:0:0:0:
64,192,15414,1,0,0:0:0:0:
320,192,15467,128,0,15572:0:0:0:0:
192,192,15572,1,0,0:0:0:0:
320,192,15677,128,0,15782:0:0:0:0:
64,192,15782,1,0,0:0:0:0:
320,192,15888,1,0,0:0:0:0:
320,192,15993,128,0,16098:0:0:0:0:
64,192,16098,1,0,0:0:0:0:
192,192,16151,1,0,0:0:0:0:
448,192,16203,128,0,16309:0:0:0:0:
192,192,16309,1,0,0:0:0:0:
320,192,16414,1,0,0:0:0:0:
448,192,16467,1,0,0:0:0:0:
192,192,16519,128,0,16625:0:0:0:0:
64,192,16554,1,0,0:0:0:0:
448,192,16589,1,0,0:0:0:0:
320,192,16625,128,0,16730:0:0:0:0:
192,192,16730,1,0,0:0:0:0:
192,192,16835,128,0,16940:0:0:0:0:
448,192,16940,128,0,17046:0:0:0:0:
320,192,16967,128,0,17098:0:0:0:0:
64,192,17046,1,0,0:0:0:0:
192,192,17098,1,0,0:0:0:0:
320,192,17151,128,0,17256:0:0:0:0:
448,192,17151,128,0,17256:0:0:0:0:
192,192,17256,1,0,0:0:0:0:
320,192,17361,128,0,17467:0:0:0:0:
448,192,17361,128,0,17467:0:0:0:0:
64,192,17467,1,0,0:0:0:0:
320,192,17572,1,0,0:0:0:0:
448,192,17572,1,0,0:0:0:0:
320,192,17677,128,0,17782:0:0:0:0:
448,192,17677,128,0,17782:0:0:0:0:
64,192,17888,1,0,0:0:0:0:
448,192,17993,1,0,0:0:0:0:
64,192,18098,128,0,18203:0:0:0:0:
192,192,18203,1,0,0:0:0:0:
320,192,18309,1,0,0:0:0:0:
448,192,18361,128,0,18519:0:0:0:0:
192,192,18519,128,0,18589:0:0:0:0:
320,192,18589,128,0,18660:0:0:0:0:
64,192,18660,128,0,18730:0:0:0:0:
448,192,18730,128,0,18835:0:0:0:0:
192,192,18835,128,0,18940:0:0:0:0:
320,192,18835,128,0,18940:0:0:0:0:
64,192,18940,1,0,0:0:0:0:
192,192,19046,128,0,19151:0:0:0:0:
320,192,19046,128,0,19151:0:0:0:0:
448,192,19151,1,0,0:0:0:0:
192,192,19256,128,0,19361:0:0:0:0:
320,192,19256,1,0,0:0:0:0:
64,192,19361,1,0,0:0:0:0:
320,192,19361,128,0,19572:0:0:0:0:
448,192,19467,128,0,19572:0:0:0:0:
192,192,19572,1,0,0:0:0:0:
64,192,19625,1,0,0:0:0:0:
448,192,19677,128,0,19888:0:0:0:0:
320,192,19677,128,0,19782:0:0:0:0:
192,192,19782,128,0,19888:0:0:0:0:
320,192,19888,128,0,19993:0:0:0:0:
64,192,19888,128,0,20098:0:0:0:0:
448,192,19993,1,0,0:0:0:0:
192,192,20098,1,0,0:0:0:0:
448,192,20151,1,0,0:0:0:0:
192,192,20203,128,0,20309:0:0:0:0:
320,192,20203,1,0,0:0:0:0:
64,192,20309,1,0,0:0:0:0:
448,192,20361,1,0,0:0:0:0:
192,192,20414,1,0,0:0:0:0:
64,192,20467,1,0,0:0:0:0:
320,192,20519,128,0,20625:0:0:0:0:
448,192,20519,128,0,20625:0:0:0:0:
192,192,20625,1,0,0:0:0:0:
320,192,20730,128,0,20835:0:0:0:0:
448,192,20730,128,0,20835:0:0:0:0:
64,192,20835,1,0,0:0:0:0:
320,192,20940,1,0,0:0:0:0:
448,192,20940,1,0,0:0:0:0:
320,192,21046,128,0,21151:0:0:0:0:
448,192,21046,128,0,21151:0:0:0:0:
192,192,21151,1,0,0:0:0:0:
64,192,21203,1,0,0:0:0:0:
320,192,21256,128,0,21361:0:0:0:0:
192,192,21361,1,0,0:0:0:0:
320,192,21467,1,0,0:0:0:0:
64,192,21519,1,0,0:0:0:0:
192,192,21572,1,0,0:0:0:0:
448,192,21625,1,0,0:0:0:0:
320,192,21677,128,0,21782:0:0:0:0:
64,192,21782,1,0,0:0:0:0:
448,192,21888,1,0,0:0:0:0:
320,192,21940,1,0,0:0:0:0:
192,192,21993,128,0,22098:0:0:0:0:
64,192,22019,128,0,22151:0:0:0:0:
320,192,22098,1,0,0:0:0:0:
448,192,22151,1,0,0:0:0:0:
192,192,22203,128,0,22309:0:0:0:0:
320,192,22309,1,0,0:0:0:0:
192,192,22414,128,0,22519:0:0:0:0:
448,192,22519,1,0,0:0:0:0:
192,192,22625,1,0,0:0:0:0:
192,192,22730,128,0,22835:0:0:0:0:
448,192,22835,1,0,0:0:0:0:
320,192,22888,1,0,0:0:0:0:
64,192,22940,128,0,23046:0:0:0:0:
320,192,23046,1,0,0:0:0:0:
192,192,23151,1,0,0:0:0:0:
64,192,23203,1,0,0:0:0:0:
320,192,23256,128,0,23361:0:0:0:0:
448,192,23291,1,0,0:0:0:0:
64,192,23326,1,0,0:0:0:0:
192,192,23361,128,0,23467:0:0:0:0:
320,192,23467,1,0,0:0:0:0:
64,192,23519,1,0,0:0:0:0:
320,192,23572,128,0,23677:0:0:0:0:
448,192,23625,1,0,0:0:0:0:
64,192,23677,128,0,23782:0:0:0:0:
192,192,23703,128,0,23835:0:0:0:0:
448,192,23782,1,0,0:0:0:0:
320,192,23835,1,0,0:0:0:0:
192,192,23888,128,0,23993:0:0:0:0:
64,192,23888,128,0,23993:0:0:0:0:
320,192,23993,1,0,0:0:0:0:
192,192,24098,128,0,24203:0:0:0:0:
64,192,24098,128,0,24203:0:0:0:0:
448,192,24203,1,0,0:0:0:0:
192,192,24309,1,0,0:0:0:0:
64,192,24309,1,0,0:0:0:0:
192,192,24414,128,0,24519:0:0:0:0:
64,192,24414,128,0,24519:0:0:0:0:
320,192,24625,1,0,0:0:0:0:
64,192,24625,1,0,0:0:0:0:
320,192,24730,1,0,0:0:0:0:
192,192,24835,1,0,0:0:0:0:
448,192,24940,1,0,0:0:0:0:
192,192,25046,1,0,0:0:0:0:
64,192,25046,1,0,0:0:0:0:
320,192,25081,1,0,0:0:0:0:
448,192,25116,1,0,0:0:0:0:
192,192,25186,1,0,0:0:0:0:
64,192,25256,1,0,0:0:0:0:
320,192,25361,1,0,0:0:0:0:
64,192,25432,1,0,0:0:0:0:
192,192,25467,1,0,0:0:0:0:
448,192,25467,1,0,0:0:0:0:
448,192,25572,1,0,0:0:0:0:
320,192,25677,1,0,0:0:0:0:
192,192,25782,1,0,0:0:0:0:
448,192,25817,1,0,0:0:0:0:
64,192,25853,1,0,0:0:0:0:
320,192,25888,1,0,0:0:0:0:
192,192,25993,1,0,0:0:0:0:
64,192,26046,1,0,0:0:0:0:
320,192,26098,1,0,0:0:0:0:
448,192,26098,1,0,0:0:0:0:
192,192,26151,1,0,0:0:0:0:
448,192,26203,1,0,0:0:0:0:
64,192,26256,1,0,0:0:0:0:
192,192,26309,1,0,0:0:0:0:
320,192,26309,1,0,0:0:0:0:
192,192,26414,1,0,0:0:0:0:
448,192,26414,1,0,0:0:0:0:
320,192,26519,1,0,0:0:0:0:
64,192,26519,1,0,0:0:0:0:
192,192,26625,1,0,0:0:0:0:
320,192,26625,1,0,0:0:0:0:
448,192,26730,1,0,0:0:0:0:
64,192,26756,1,0,0:0:0:0:
320,192,26835,1,0,0:0:0:0:
64,192,26861,1,0,0:0:0:0:
192,192,26940,1,0,0:0:0:0:
448,192,26967,1,0,0:0:0:0:
64,192,27046,1,0,0:0:0:0:
448,192,27072,1,0,0:0:0:0:
320,192,27151,1,0,0:0:0:0:
192,192,27256,1,0,0:0:0:0:
64,192,27256,1,0,0:0:0:0:
320,192,27309,1,0,0:0:0:0:
192,192,27361,1,0,0:0:0:0:
448,192,27414,1,0,0:0:0:0:
320,192,27467,1,0,0:0:0:0:
64,192,27467,1,0,0:0:0:0:
192,192,27572,1,0,0:0:0:0:
320,192,27625,1,0,0:0:0:0:
448,192,27677,1,0,0:0:0:0:
64,192,27677,1,0,0:0:0:0:
192,192,27782,1,0,0:0:0:0:
448,192,27782,1,0,0:0:0:0:
64,192,27817,1,0,0:0:0:0:
320,192,27853,1,0,0:0:0:0:
192,192,27888,1,0,0:0:0:0:
448,192,27993,1,0,0:0:0:0:
320,192,27993,1,0,0:0:0:0:
64,192,28035,1,0,0:0:0:0:
192,192,28077,1,0,0:0:0:0:
320,192,28119,1,0,0:0:0:0:
448,192,28161,1,0,0:0:0:0:
64,192,28203,1,0,0:0:0:0:
64,192,28309,1,0,0:0:0:0:
192,192,28414,1,0,0:0:0:0:
320,192,28414,1,0,0:0:0:0:
320,192,28519,1,0,0:0:0:0:
64,192,28572,1,0,0:0:0:0:
192,192,28625,1,0,0:0:0:0:
192,192,28730,1,0,0:0:0:0:
320,192,28765,1,0,0:0:0:0:
64,192,28800,1,0,0:0:0:0:
448,192,28835,1,0,0:0:0:0:
448,192,28940,1,0,0:0:0:0:
64,192,29046,1,0,0:0:0:0:
320,192,29098,1,0,0:0:0:0:
64,192,29151,1,0,0:0:0:0:
448,192,29203,1,0,0:0:0:0:
320,192,29256,1,0,0:0:0:0:
192,192,29256,1,0,0:0:0:0:
64,192,29326,1,0,0:0:0:0:
192,192,29396,1,0,0:0:0:0:
320,192,29467,1,0,0:0:0:0:
448,192,29467,1,0,0:0:0:0:
64,192,29537,1,0,0:0:0:0:
448,192,29607,1,0,0:0:0:0:
192,192,29677,1,0,0:0:0:0:
64,192,29712,1,0,0:0:0:0:
320,192,29747,1,0,0:0:0:0:
448,192,29782,1,0,0:0:0:0:
192,192,29835,1,0,0:0:0:0:
320,192,29888,1,0,0:0:0:0:
320,192,29993,1,0,0:0:0:0:
64,192,29993,1,0,0:0:0:0:
192,192,30098,1,0,0:0:0:0:
320,192,30151,1,0,0:0:0:0:
448,192,30203,1,0,0:0:0:0:
448,192,30309,1,0,0:0:0:0:
192,192,30309,1,0,0:0:0:0:
320,192,30414,1,0,0:0:0:0:
192,192,30467,1,0,0:0:0:0:
64,192,30519,1,0,0:0:0:0:
320,192,30625,1,0,0:0:0:0:
448,192,30625,1,0,0:0:0:0:
192,192,30730,1,0,0:0:0:0:
448,192,30835,1,0,0:0:0:0:
320,192,30835,1,0,0:0:0:0:
320,192,30940,1,0,0:0:0:0:
448,192,30993,1,0,0:0:0:0:
192,192,31046,1,0,0:0:0:0:
64,192,31046,1,0,0:0:0:0:
448,192,31151,1,0,0:0:0:0:
64,192,31151,1,0,0:0:0:0:
192,192,31203,1,0,0:0:0:0:
448,192,31256,1,0,0:0:0:0:
320,192,31309,1,0,0:0:0:0:
192,192,31361,1,0,0:0:0:0:
64,192,31361,1,0,0:0:0:0:
448,192,31467,1,0,0:0:0:0:
320,192,31519,1,0,0:0:0:0:
192,192,31572,1,0,0:0:0:0:
64,192,31642,1,0,0:0:0:0:
192,192,31712,1,0,0:0:0:0:
320,192,31782,1,0,0:0:0:0:
448,192,31782,1,0,0:0:0:0:
64,192,31888,1,0,0:0:0:0:
448,192,31940,1,0,0:0:0:0:
320,192,31993,1,0,0:0:0:0:
192,192,32046,1,0,0:0:0:0:
320,192,32098,1,0,0:0:0:0:
192,192,32203,1,0,0:0:0:0:
64,192,32203,1,0,0:0:0:0:
448,192,32309,1,0,0:0:0:0:
64,192,32309,1,0,0:0:0:0:
192,192,32414,1,0,0:0:0:0:
448,192,32414,1,0,0:0:0:0:
64,192,32519,1,0,0:0:0:0:
320,192,32589,1,0,0:0:0:0:
64,192,32660,1,0,0:0:0:0:
192,192,32730,1,0,0:0:0:0:
320,192,32730,1,0,0:0:0:0:
448,192,32835,1,0,0:0:0:0:
192,192,32905,1,0,0:0:0:0:
448,192,32975,1,0,0:0:0:0:
64,192,33046,1,0,0:0:0:0:
192,192,33046,1,0,0:0:0:0:
320,192,33098,1,0,0:0:0:0:
448,192,33151,1,0,0:0:0:0:
64,192,33151,128,0,33361:0:0:0:0:
192,192,33361,1,0,0:0:0:0:
320,192,33432,1,0,0:0:0:0:
448,192,33432,1,0,0:0:0:0:
64,192,33502,1,0,0:0:0:0:
192,192,33572,1,0,0:0:0:0:
448,192,33572,1,0,0:0:0:0:
320,192,33677,1,0,0:0:0:0:
192,192,33747,1,0,0:0:0:0:
64,192,33747,1,0,0:0:0:0:
448,192,33817,1,0,0:0:0:0:
64,192,33888,1,0,0:0:0:0:
320,192,33888,128,0,34203:0:0:0:0:
448,192,34098,128,0,34309:0:0:0:0:
64,192,34203,128,0,34414:0:0:0:0:
192,192,34414,128,0,34519:0:0:0:0:
320,192,34519,128,0,34625:0:0:0:0:
192,192,34625,128,0,34730:0:0:0:0:
448,192,34730,128,0,34835:0:0:0:0:
64,192,34730,1,0,0:0:0:0:
64,192,34835,128,0,34940:0:0:0:0:
320,192,34940,128,0,35046:0:0:0:0:
448,192,34993,1,0,0:0:0:0:
64,192,35046,128,0,35151:0:0:0:0:
192,192,35151,128,0,35256:0:0:0:0:
320,192,35221,1,0,0:0:0:0:
64,192,35256,128,0,35361:0:0:0:0:
448,192,35291,1,0,0:0:0:0:
320,192,35361,128,0,35467:0:0:0:0:
192,192,35467,128,0,35572:0:0:0:0:
448,192,35572,128,0,35677:0:0:0:0:
192,192,35677,128,0,35782:0:0:0:0:
320,192,35782,1,0,0:0:0:0:
448,192,35835,1,0,0:0:0:0:
64,192,35888,128,0,36098:0:0:0:0:
448,192,35993,128,0,36730:0:0:0:0:
192,192,36098,1,0,0:0:0:0:
320,192,36151,1,0,0:0:0:0:
64,192,36203,1,0,0:0:0:0:
320,192,36256,1,0,0:0:0:0:
192,192,36309,1,0,0:0:0:0:
64,192,36414,1,0,0:0:0:0:
320,192,36519,1,0,0:0:0:0:
192,192,36625,1,0,0:0:0:0:
64,192,36677,1,0,0:0:0:0:
320,192,36730,1,0,0:0:0:0:
192,192,36782,1,0,0:0:0:0:
448,192,36835,1,0,0:0:0:0:
64,192,36940,1,0,0:0:0:0:
320,192,37046,1,0,0:0:0:0:
448,192,37072,1,0,0:0:0:0:
192,192,37151,1,0,0:0:0:0:
64,192,37177,1,0,0:0:0:0:
320,192,37256,1,0,0:0:0:0:
64,192,37361,128,0,37467:0:0:0:0:
192,192,37467,1,0,0:0:0:0:
448,192,37572,128,0,37677:0:0:0:0:
320,192,37677,1,0,0:0:0:0:
192,192,37782,128,0,37993:0:0:0:0:
320,192,37888,128,0,38098:0:0:0:0:
64,192,37993,128,0,38203:0:0:0:0:
448,192,38098,1,0,0:0:0:0:
192,192,38098,128,0,38309:0:0:0:0:
448,192,38203,128,0,38309:0:0:0:0:
64,192,38309,128,0,38519:0:0:0:0:
320,192,38361,1,0,0:0:0:0:
448,192,38414,128,0,38519:0:0:0:0:
320,192,38519,128,0,38730:0:0:0:0:
192,192,38589,1,0,0:0:0:0:
448,192,38625,128,0,38730:0:0:0:0:
64,192,38660,1,0,0:0:0:0:
192,192,38730,128,0,38940:0:0:0:0:
320,192,38835,128,0,39046:0:0:0:0:
64,192,38940,128,0,39046:0:0:0:0:
192,192,39046,128,0,39151:0:0:0:0:
448,192,39256,128,0,39782:0:0:0:0:
320,192,39361,128,0,39782:0:0:0:0:
64,192,39467,1,0,0:0:0:0:
64,192,39572,128,0,39782:0:0:0:0:
192,192,39782,128,0,39888:0:0:0:0:
320,192,39888,1,0,0:0:0:0:
192,192,39993,1,0,0:0:0:0:
320,192,40046,1,0,0:0:0:0:
64,192,40098,1,0,0:0:0:0:
192,192,40151,1,0,0:0:0:0:
320,192,40203,1,0,0:0:0:0:
448,192,40203,128,0,40309:0:0:0:0:
64,192,40309,1,0,0:0:0:0:
64,192,40414,128,0,40519:0:0:0:0:
448,192,40414,1,0,0:0:0:0:
192,192,40519,1,0,0:0:0:0:
320,192,40625,128,0,40730:0:0:0:0:
448,192,40625,1,0,0:0:0:0:
192,192,40730,128,0,40888:0:0:0:0:
64,192,40730,128,0,40940:0:0:0:0:
192,192,40940,1,0,0:0:0:0:
320,192,40940,128,0,41098:0:0:0:0:
448,192,40940,128,0,41098:0:0:0:0:
448,192,41151,1,0,0:0:0:0:
64,192,41151,1,0,0:0:0:0:
64,192,41256,128,0,41361:0:0:0:0:
192,192,41256,128,0,41361:0:0:0:0:
320,192,41256,1,0,0:0:0:0:
448,192,41361,1,0,0:0:0:0:
192,192,41414,1,0,0:0:0:0:
320,192,41467,128,0,41572:0:0:0:0:
64,192,41467,128,0,41625:0:0:0:0:
448,192,41572,1,0,0:0:0:0:
64,192,41677,128,0,41835:0:0:0:0:
192,192,41677,1,0,0:0:0:0:
448,192,41730,1,0,0:0:0:0:
320,192,41782,1,0,0:0:0:0:
192,192,41835,1,0,0:0:0:0:
64,192,41888,1,0,0:0:0:0:
448,192,41888,128,0,41993:0:0:0:0:
320,192,41993,1,0,0:0:0:0:
64,192,41993,128,0,42151:0:0:0:0:
448,192,42098,1,0,0:0:0:0:
64,192,42203,128,0,42414:0:0:0:0:
192,192,42203,128,0,42309:0:0:0:0:
448,192,42309,1,0,0:0:0:0:
320,192,42361,1,0,0:0:0:0:
192,192,42414,1,0,0:0:0:0:
320,192,42519,1,0,0:0:0:0:
448,192,42519,1,0,0:0:0:0:
320,192,42625,1,0,0:0:0:0:
192,192,42625,128,0,42835:0:0:0:0:
64,192,42625,128,0,42835:0:0:0:0:
448,192,42730,1,0,0:0:0:0:
64,192,42940,1,0,0:0:0:0:
192,192,42940,128,0,43046:0:0:0:0:
320,192,42940,1,0,0:0:0:0:
64,192,43046,128,0,43151:0:0:0:0:
448,192,43046,1,0,0:0:0:0:
320,192,43151,128,0,43256:0:0:0:0:
448,192,43151,128,0,43309:0:0:0:0:
192,192,43256,1,0,0:0:0:0:
448,192,43361,128,0,43519:0:0:0:0:
192,192,43361,1,0,0:0:0:0:
64,192,43414,1,0,0:0:0:0:
320,192,43467,1,0,0:0:0:0:
64,192,43519,1,0,0:0:0:0:
448,192,43572,1,0,0:0:0:0:
192,192,43625,1,0,0:0:0:0:
448,192,43677,1,0,0:0:0:0:
64,192,43677,1,0,0:0:0:0:
320,192,43782,1,0,0:0:0:0:
192,192,43782,1,0,0:0:0:0:
64,192,43888,128,0,44098:0:0:0:0:
192,192,43888,128,0,43993:0:0:0:0:
448,192,43993,1,0,0:0:0:0:
320,192,44046,1,0,0:0:0:0:
192,192,44098,1,0,0:0:0:0:
448,192,44151,1,0,0:0:0:0:
192,192,44203,1,0,0:0:0:0:
64,192,44309,128,0,44467:0:0:0:0:
448,192,44309,1,0,0:0:0:0:
448,192,44414,1,0,0:0:0:0:
192,192,44519,1,0,0:0:0:0:
320,192,44519,1,0,0:0:0:0:
64,192,44625,128,0,44782:0:0:0:0:
192,192,44625,128,0,44730:0:0:0:0:
320,192,44730,1,0,0:0:0:0:
448,192,44782,1,0,0:0:0:0:
64,192,44835,1,0,0:0:0:0:
192,192,44835,128,0,44940:0:0:0:0:
64,192,44940,1,0,0:0:0:0:
320,192,44940,1,0,0:0:0:0:
192,192,45046,1,0,0:0:0:0:
320,192,45046,1,0,0:0:0:0:
448,192,45098,1,0,0:0:0:0:
192,192,45151,1,0,0:0:0:0:
320,192,45203,1,0,0:0:0:0:
448,192,45256,1,0,0:0:0:0:
64,192,45256,128,0,45361:0:0:0:0:
192,192,45361,1,0,0:0:0:0:
448,192,45361,128,0,45519:0:0:0:0:
192,192,45467,1,0,0:0:0:0:
320,192,45572,128,0,45677:0:0:0:0:
64,192,45572,1,0,0:0:0:0:
64,192,45677,128,0,45782:0:0:0:0:
448,192,45677,1,0,0:0:0:0:
320,192,45782,1,0,0:0:0:0:
320,192,45888,1,0,0:0:0:0:
192,192,45888,1,0,0:0:0:0:
64,192,45940,1,0,0:0:0:0:
448,192,45993,1,0,0:0:0:0:
192,192,46046,1,0,0:0:0:0:
64,192,46098,128,0,46309:0:0:0:0:
320,192,46098,128,0,46256:0:0:0:0:
192,192,46203,128,0,46309:0:0:0:0:
320,192,46309,1,0,0:0:0:0:
448,192,46309,1,0,0:0:0:0:
192,192,46414,128,0,46572:0:0:0:0:
320,192,46414,128,0,46625:0:0:0:0:
448,192,46519,128,0,46625:0:0:0:0:
192,192,46625,1,0,0:0:0:0:
64,192,46677,1,0,0:0:0:0:
320,192,46730,1,0,0:0:0:0:
448,192,46730,1,0,0:0:0:0:
192,192,46782,1,0,0:0:0:0:
64,192,46835,1,0,0:0:0:0:
320,192,46870,1,0,0:0:0:0:
448,192,46905,1,0,0:0:0:0:
192,192,46940,128,0,47046:0:0:0:0:
64,192,47046,128,0,47151:0:0:0:0:
320,192,47151,1,0,0:0:0:0:
448,192,47151,1,0,0:0:0:0:
320,192,47256,128,0,47467:0:0:0:0:
192,192,47256,128,0,47361:0:0:0:0:
448,192,47361,128,0,47467:0:0:0:0:
192,192,47467,1,0,0:0:0:0:
64,192,47519,1,0,0:0:0:0:
320,192,47572,1,0,0:0:0:0:
448,192,47572,1,0,0:0:0:0:
192,192,47625,1,0,0:0:0:0:
320,192,47677,128,0,47888:0:0:0:0:
64,192,47677,128,0,47782:0:0:0:0:
448,192,47782,128,0,47888:0:0:0:0:
64,192,47888,1,0,0:0:0:0:
192,192,47888,1,0,0:0:0:0:
320,192,47993,128,0,48098:0:0:0:0:
192,192,47993,128,0,48098:0:0:0:0:
64,192,48098,1,0,0:0:0:0:
320,192,48151,1,0,0:0:0:0:
192,192,48203,128,0,48309:0:0:0:0:
448,192,48203,128,0,48361:0:0:0:0:
64,192,48309,1,0,0:0:0:0:
448,192,48414,128,0,48572:0:0:0:0:
320,192,48414,1,0,0:0:0:0:
64,192,48467,1,0,0:0:0:0:
192,192,48519,1,0,0:0:0:0:
320,192,48572,1,0,0:0:0:0:
448,192,48625,1,0,0:0:0:0:
64,192,48625,128,0,48730:0:0:0:0:
448,192,48730,128,0,48888:0:0:0:0:
192,192,48730,1,0,0:0:0:0:
64,192,48835,1,0,0:0:0:0:
320,192,48940,128,0,49046:0:0:0:0:
448,192,48940,128,0,49151:0:0:0:0:
64,192,49046,1,0,0:0:0:0:
192,192,49098,1,0,0:0:0:0:
320,192,49151,1,0,0:0:0:0:
64,192,49256,1,0,0:0:0:0:
192,192,49256,1,0,0:0:0:0:
448,192,49361,128,0,49572:0:0:0:0:
192,192,49361,1,0,0:0:0:0:
320,192,49361,128,0,49572:0:0:0:0:
64,192,49467,1,0,0:0:0:0:
448,192,49677,1,0,0:0:0:0:
192,192,49677,1,0,0:0:0:0:
320,192,49677,128,0,49782:0:0:0:0:
448,192,49782,128,0,49888:0:0:0:0:
64,192,49782,1,0,0:0:0:0:
192,192,49888,128,0,49993:0:0:0:0:
64,192,49888,128,0,50046:0:0:0:0:
320,192,49993,1,0,0:0:0:0:
320,192,50098,1,0,0:0:0:0:
64,192,50098,128,0,50256:0:0:0:0:
448,192,50151,1,0,0:0:0:0:
192,192,50203,1,0,0:0:0:0:
448,192,50256,1,0,0:0:0:0:
64,192,50309,1,0,0:0:0:0:
64,192,50414,1,0,0:0:0:0:
448,192,50414,1,0,0:0:0:0:
192,192,50519,1,0,0:0:0:0:
320,192,50519,1,0,0:0:0:0:
64,192,50572,1,0,0:0:0:0:
448,192,50625,128,0,50835:0:0:0:0:
320,192,50625,128,0,50730:0:0:0:0:
64,192,50730,1,0,0:0:0:0:
192,192,50782,1,0,0:0:0:0:
320,192,50835,1,0,0:0:0:0:
320,192,50940,1,0,0:0:0:0:
64,192,51046,1,0,0:0:0:0:
448,192,51046,128,0,51256:0:0:0:0:
192,192,51098,1,0,0:0:0:0:
320,192,51151,1,0,0:0:0:0:
192,192,51256,1,0,0:0:0:0:
64,192,51309,1,0,0:0:0:0:
320,192,51361,128,0,51519:0:0:0:0:
448,192,51361,128,0,51467:0:0:0:0:
64,192,51467,1,0,0:0:0:0:
192,192,51519,1,0,0:0:0:0:
320,192,51572,1,0,0:0:0:0:
448,192,51572,128,0,51677:0:0:0:0:
320,192,51677,1,0,0:0:0:0:
64,192,51677,1,0,0:0:0:0:
64,192,51782,1,0,0:0:0:0:
448,192,51782,1,0,0:0:0:0:
320,192,51835,1,0,0:0:0:0:
192,192,51888,1,0,0:0:0:0:
448,192,51940,1,0,0:0:0:0:
320,192,51993,1,0,0:0:0:0:
64,192,51993,128,0,52098:0:0:0:0:
192,192,52098,1,0,0:0:0:0:
320,192,52098,128,0,52256:0:0:0:0:
64,192,52203,1,0,0:0:0:0:
320,192,52309,1,0,0:0:0:0:
448,192,52309,128,0,52414:0:0:0:0:
192,192,52361,1,0,0:0:0:0:
64,192,52414,1,0,0:0:0:0:
320,192,52414,128,0,52519:0:0:0:0:
192,192,52519,1,0,0:0:0:0:
64,192,52625,1,0,0:0:0:0:
448,192,52625,128,0,52835:0:0:0:0:
320,192,52677,1,0,0:0:0:0:
192,192,52730,128,0,52835:0:0:0:0:
64,192,52730,128,0,52940:0:0:0:0:
320,192,52835,128,0,52940:0:0:0:0:
192,192,52940,1,0,0:0:0:0:
448,192,52940,128,0,53046:0:0:0:0:
320,192,53046,128,0,53256:0:0:0:0:
64,192,53046,128,0,53361:0:0:0:0:
192,192,53256,1,0,0:0:0:0:
448,192,53309,1,0,0:0:0:0:
320,192,53361,1,0,0:0:0:0:
192,192,53414,1,0,0:0:0:0:
448,192,53467,128,0,53677:0:0:0:0:
64,192,53467,1,0,0:0:0:0:
192,192,53677,128,0,53888:0:0:0:0:
320,192,53888,128,0,54098:0:0:0:0:
448,192,53888,1,0,0:0:0:0:
192,192,54098,1,0,0:0:0:0:
64,192,54098,1,0,0:0:0:0:
64,192,54203,1,0,0:0:0:0:
448,192,54203,128,0,54361:0:0:0:0:
192,192,54414,128,0,54519:0:0:0:0:
64,192,54467,128,0,54625:0:0:0:0:
320,192,54519,1,0,0:0:0:0:
448,192,54519,1,0,0:0:0:0:
192,192,54625,1,0,0:0:0:0:
192,192,54730,128,0,54940:0:0:0:0:
320,192,54730,1,0,0:0:0:0:
448,192,54940,1,0,0:0:0:0:
64,192,55046,1,0,0:0:0:0:
448,192,55151,1,0,0:0:0:0:
320,192,55151,128,0,55256:0:0:0:0:
192,192,55203,128,0,55361:0:0:0:0:
448,192,55256,128,0,55361:0:0:0:0:
320,192,55361,1,0,0:0:0:0:
64,192,55361,128,0,55572:0:0:0:0:
448,192,55414,1,0,0:0:0:0:
192,192,55467,1,0,0:0:0:0:
320,192,55572,128,0,55782:0:0:0:0:
448,192,55572,1,0,0:0:0:0:
448,192,55782,1,0,0:0:0:0:
64,192,55782,1,0,0:0:0:0:
448,192,55888,128,0,55993:0:0:0:0:
320,192,55993,1,0,0:0:0:0:
64,192,56098,128,0,56203:0:0:0:0:
192,192,56098,1,0,0:0:0:0:
320,192,56151,128,0,56309:0:0:0:0:
192,192,56203,128,0,56309:0:0:0:0:
64,192,56309,128,0,56414:0:0:0:0:
448,192,56309,1,0,0:0:0:0:
448,192,56414,128,0,56625:0:0:0:0:
192,192,56414,128,0,56519:0:0:0:0:
320,192,56519,128,0,56625:0:0:0:0:
64,192,56625,128,0,56730:0:0:0:0:
192,192,56677,1,0,0:0:0:0:
448,192,56730,1,0,0:0:0:0:
192,192,56835,1,0,0:0:0:0:
320,192,56835,128,0,56940:0:0:0:0:
64,192,56888,128,0,57046:0:0:0:0:
448,192,56940,1,0,0:0:0:0:
448,192,57046,128,0,57256:0:0:0:0:
192,192,57046,1,0,0:0:0:0:
64,192,57098,1,0,0:0:0:0:
320,192,57151,1,0,0:0:0:0:
64,192,57256,1,0,0:0:0:0:
192,192,57256,128,0,57467:0:0:0:0:
64,192,57467,1,0,0:0:0:0:
448,192,57467,128,0,57572:0:0:0:0:
320,192,57572,1,0,0:0:0:0:
320,192,57677,1,0,0:0:0:0:
192,192,57730,1,0,0:0:0:0:
448,192,57782,128,0,57993:0:0:0:0:
64,192,57782,1,0,0:0:0:0:
320,192,57888,1,0,0:0:0:0:
64,192,57993,1,0,0:0:0:0:
64,192,58098,128,0,58256:0:0:0:0:
448,192,58098,1,0,0:0:0:0:
320,192,58203,1,0,0:0:0:0:
192,192,58309,1,0,0:0:0:0:
64,192,58309,128,0,58519:0:0:0:0:
448,192,58414,1,0,0:0:0:0:
192,192,58519,128,0,58730:0:0:0:0:
320,192,58519,1,0,0:0:0:0:
320,192,58730,128,0,58888:0:0:0:0:
64,192,58730,1,0,0:0:0:0:
448,192,58782,1,0,0:0:0:0:
192,192,58835,1,0,0:0:0:0:
320,192,58940,1,0,0:0:0:0:
448,192,58940,128,0,59151:0:0:0:0:
192,192,59046,1,0,0:0:0:0:
320,192,59151,1,0,0:0:0:0:
64,192,59151,128,0,59309:0:0:0:0:
448,192,59256,1,0,0:0:0:0:
320,192,59309,1,0,0:0:0:0:
64,192,59361,1,0,0:0:0:0:
192,192,59361,128,0,59572:0:0:0:0:
448,192,59467,1,0,0:0:0:0:
320,192,59572,1,0,0:0:0:0:
64,192,59572,128,0,59730:0:0:0:0:
448,192,59625,1,0,0:0:0:0:
192,192,59677,1,0,0:0:0:0:
320,192,59730,1,0,0:0:0:0:
448,192,59782,1,0,0:0:0:0:
64,192,59835,1,0,0:0:0:0:
192,192,59888,1,0,0:0:0:0:
320,192,59940,1,0,0:0:0:0:
192,192,59993,128,0,60203:0:0:0:0:
448,192,60203,1,0,0:0:0:0:
320,192,60203,128,0,60414:0:0:0:0:
64,192,60309,1,0,0:0:0:0:
64,192,60414,128,0,60625:0:0:0:0:
448,192,60414,1,0,0:0:0:0:
192,192,60467,1,0,0:0:0:0:
448,192,60519,1,0,0:0:0:0:
192,192,60625,1,0,0:0:0:0:
320,192,60625,128,0,60730:0:0:0:0:
448,192,60730,1,0,0:0:0:0:
192,192,60782,1,0,0:0:0:0:
320,192,60835,1,0,0:0:0:0:
64,192,60835,1,0,0:0:0:0:
448,192,60940,128,0,61046:0:0:0:0:
64,192,60940,1,0,0:0:0:0:
192,192,61046,1,0,0:0:0:0:
320,192,61151,128,0,61256:0:0:0:0:
448,192,61186,128,0,61361:0:0:0:0:
192,192,61256,1,0,0:0:0:0:
64,192,61256,1,0,0:0:0:0:
320,192,61361,1,0,0:0:0:0:
192,192,61467,1,0,0:0:0:0:
320,192,61467,128,0,61677:0:0:0:0:
64,192,61677,1,0,0:0:0:0:
448,192,61677,1,0,0:0:0:0:
448,192,61782,1,0,0:0:0:0:
192,192,61888,1,0,0:0:0:0:
64,192,61888,128,0,62098:0:0:0:0:
320,192,61993,128,0,62098:0:0:0:0:
192,192,62098,1,0,0:0:0:0:
448,192,62098,128,0,62309:0:0:0:0:
64,192,62151,1,0,0:0:0:0:
320,192,62203,1,0,0:0:0:0:
192,192,62309,128,0,62519:0:0:0:0:
64,192,62309,1,0,0:0:0:0:
64,192,62519,1,0,0:0:0:0:
448,192,62519,1,0,0:0:0:0:
64,192,62625,128,0,62730:0:0:0:0:
192,192,62730,1,0,0:0:0:0:
448,192,62835,1,0,0:0:0:0:
320,192,62835,128,0,63046:0:0:0:0:
192,192,62940,1,0,0:0:0:0:
448,192,63046,128,0,63151:0:0:0:0:
64,192,63046,1,0,0:0:0:0:
64,192,63151,1,0,0:0:0:0:
320,192,63151,1,0,0:0:0:0:
448,192,63203,1,0,0:0:0:0:
192,192,63256,128,0,63361:0:0:0:0:
448,192,63361,1,0,0:0:0:0:
192,192,63467,128,0,63572:0:0:0:0:
64,192,63572,1,0,0:0:0:0:
320,192,63572,128,0,63677:0:0:0:0:
192,192,63677,1,0,0:0:0:0:
64,192,63730,1,0,0:0:0:0:
448,192,63782,1,0,0:0:0:0:
192,192,63835,1,0,0:0:0:0:
448,192,63888,128,0,63993:0:0:0:0:
320,192,63993,1,0,0:0:0:0:
64,192,63993,128,0,64203:0:0:0:0:
192,192,64098,128,0,64203:0:0:0:0:
320,192,64203,128,0,64309:0:0:0:0:
192,192,64309,1,0,0:0:0:0:
448,192,64309,128,0,64414:0:0:0:0:
192,192,64414,1,0,0:0:0:0:
320,192,64519,1,0,0:0:0:0:
448,192,64519,1,0,0:0:0:0:
64,192,64554,128,0,64625:0:0:0:0:
192,192,64625,1,0,0:0:0:0:
320,192,64625,128,0,65256:0:0:0:0:
448,192,64677,1,0,0:0:0:0:
64,192,64730,1,0,0:0:0:0:
64,192,64835,1,0,0:0:0:0:
448,192,64940,1,0,0:0:0:0:
192,192,64993,1,0,0:0:0:0:
64,192,65046,1,0,0:0:0:0:
448,192,65046,1,0,0:0:0:0:
64,192,65151,1,0,0:0:0:0:
192,192,65256,1,0,0:0:0:0:
448,192,65309,1,0,0:0:0:0:
64,192,65361,1,0,0:0:0:0:
320,192,65361,1,0,0:0:0:0:
192,192,65467,1,0,0:0:0:0:
320,192,65467,1,0,0:0:0:0:
448,192,65519,1,0,0:0:0:0:
192,192,65572,1,0,0:0:0:0:
320,192,65625,1,0,0:0:0:0:
64,192,65677,1,0,0:0:0:0:
64,192,65782,1,0,0:0:0:0:
320,192,65888,1,0,0:0:0:0:
448,192,65888,1,0,0:0:0:0:
192,192,65940,1,0,0:0:0:0:
320,192,65993,1,0,0:0:0:0:
64,192,66046,1,0,0:0:0:0:
448,192,66098,1,0,0:0:0:0:
192,192,66151,1,0,0:0:0:0:
320,192,66203,1,0,0:0:0:0:
448,192,66256,1,0,0:0:0:0:
64,192,66309,1,0,0:0:0:0:
192,192,66309,1,0,0:0:0:0:
320,192,66361,1,0,0:0:0:0:
64,192,66414,1,0,0:0:0:0:
320,192,66519,1,0,0:0:0:0:
448,192,66519,1,0,0:0:0:0:
192,192,66572,1,0,0:0:0:0:
448,192,66625,1,0,0:0:0:0:
192,192,66730,1,0,0:0:0:0:
64,192,66730,1,0,0:0:0:0:
64,192,66835,128,0,66940:0:0:0:0:
320,192,66835,128,0,67046:0:0:0:0:
448,192,66835,128,0,66940:0:0:0:0:
448,192,67046,128,0,67151:0:0:0:0:
192,192,67046,128,0,67151:0:0:0:0:
64,192,67046,128,0,67151:0:0:0:0:
320,192,67221,1,0,0:0:0:0:
64,192,67256,128,0,67361:0:0:0:0:
192,192,67256,1,0,0:0:0:0:
192,192,67361,128,0,67519:0:0:0:0:
320,192,67361,128,0,67572:0:0:0:0:
448,192,67361,128,0,67572:0:0:0:0:
192,192,67572,1,0,0:0:0:0:
64,192,67677,128,0,67835:0:0:0:0:
448,192,67677,128,0,67888:0:0:0:0:
64,192,67888,128,0,68046:0:0:0:0:
192,192,67888,128,0,68046:0:0:0:0:
320,192,67888,1,0,0:0:0:0:
320,192,67993,1,0,0:0:0:0:
192,192,68098,1,0,0:0:0:0:
64,192,68098,1,0,0:0:0:0:
192,192,68203,1,0,0:0:0:0:
320,192,68203,128,0,68309:0:0:0:0:
448,192,68203,128,0,68309:0:0:0:0:
64,192,68309,1,0,0:0:0:0:
320,192,68361,1,0,0:0:0:0:
192,192,68414,1,0,0:0:0:0:
448,192,68414,128,0,68519:0:0:0:0:
192,192,68519,1,0,0:0:0:0:
320,192,68625,1,0,0:0:0:0:
448,192,68625,1,0,0:0:0:0:
64,192,68677,1,0,0:0:0:0:
448,192,68730,1,0,0:0:0:0:
192,192,68782,1,0,0:0:0:0:
64,192,68835,1,0,0:0:0:0:
320,192,68835,128,0,68940:0:0:0:0:
448,192,68940,1,0,0:0:0:0:
192,192,68940,1,0,0:0:0:0:
448,192,69046,1,0,0:0:0:0:
192,192,69151,128,0,69256:0:0:0:0:
64,192,69151,128,0,69361:0:0:0:0:
320,192,69256,1,0,0:0:0:0:
448,192,69256,1,0,0:0:0:0:
192,192,69361,1,0,0:0:0:0:
448,192,69361,1,0,0:0:0:0:
320,192,69467,1,0,0:0:0:0:
64,192,69572,1,0,0:0:0:0:
192,192,69572,1,0,0:0:0:0:
192,192,69677,1,0,0:0:0:0:
448,192,69782,1,0,0:0:0:0:
320,192,69782,1,0,0:0:0:0:
320,192,69888,1,0,0:0:0:0:
448,192,69888,1,0,0:0:0:0:
192,192,69993,1,0,0:0:0:0:
320,192,70046,1,0,0:0:0:0:
64,192,70098,128,0,70203:0:0:0:0:
448,192,70098,1,0,0:0:0:0:
192,192,70203,1,0,0:0:0:0:
192,192,70309,1,0,0:0:0:0:
320,192,70309,1,0,0:0:0:0:
448,192,70361,1,0,0:0:0:0:
64,192,70414,1,0,0:0:0:0:
320,192,70467,1,0,0:0:0:0:
192,192,70519,128,0,70625:0:0:0:0:
448,192,70519,1,0,0:0:0:0:
320,192,70625,1,0,0:0:0:0:
64,192,70625,1,0,0:0:0:0:
448,192,70730,1,0,0:0:0:0:
192,192,70765,1,0,0:0:0:0:
448,192,70835,128,0,71046:0:0:0:0:
320,192,70835,128,0,70940:0:0:0:0:
192,192,70940,1,0,0:0:0:0:
64,192,70940,1,0,0:0:0:0:
64,192,71046,1,0,0:0:0:0:
320,192,71046,1,0,0:0:0:0:
320,192,71151,1,0,0:0:0:0:
448,192,71256,128,0,71361:0:0:0:0:
192,192,71256,1,0,0:0:0:0:
192,192,71361,1,0,0:0:0:0:
320,192,71467,1,0,0:0:0:0:
64,192,71467,128,0,71572:0:0:0:0:
320,192,71572,128,0,71677:0:0:0:0:
448,192,71572,1,0,0:0:0:0:
192,192,71677,1,0,0:0:0:0:
448,192,71730,1,0,0:0:0:0:
320,192,71782,1,0,0:0:0:0:
64,192,71782,128,0,71888:0:0:0:0:
320,192,71888,1,0,0:0:0:0:
64,192,71993,1,0,0:0:0:0:
192,192,71993,1,0,0:0:0:0:
448,192,72046,1,0,0:0:0:0:
64,192,72098,1,0,0:0:0:0:
320,192,72151,1,0,0:0:0:0:
448,192,72203,1,0,0:0:0:0:
192,192,72203,128,0,72309:0:0:0:0:
64,192,72309,1,0,0:0:0:0:
448,192,72309,1,0,0:0:0:0:
64,192,72414,1,0,0:0:0:0:
320,192,72467,1,0,0:0:0:0:
448,192,72519,1,0,0:0:0:0:
192,192,72519,128,0,72625:0:0:0:0:
64,192,72572,1,0,0:0:0:0:
320,192,72625,1,0,0:0:0:0:
448,192,72625,128,0,72730:0:0:0:0:
192,192,72730,1,0,0:0:0:0:
192,192,72835,1,0,0:0:0:0:
320,192,72835,1,0,0:0:0:0:
448,192,72888,1,0,0:0:0:0:
64,192,72940,1,0,0:0:0:0:
320,192,72993,1,0,0:0:0:0:
192,192,73046,1,0,0:0:0:0:
448,192,73046,128,0,73256:0:0:0:0:
64,192,73098,1,0,0:0:0:0:
320,192,73151,128,0,73256:0:0:0:0:
192,192,73256,1,0,0:0:0:0:
64,192,73256,1,0,0:0:0:0:
320,192,73361,128,0,73467:0:0:0:0:
448,192,73467,1,0,0:0:0:0:
64,192,73467,128,0,73677:0:0:0:0:
192,192,73572,128,0,73677:0:0:0:0:
320,192,73677,1,0,0:0:0:0:
448,192,73730,1,0,0:0:0:0:
64,192,73782,1,0,0:0:0:0:
320,192,73817,1,0,0:0:0:0:
192,192,73853,1,0,0:0:0:0:
448,192,73888,128,0,73993:0:0:0:0:
64,192,73993,128,0,74098:0:0:0:0:
320,192,74028,1,0,0:0:0:0:
192,192,74098,1,0,0:0:0:0:
448,192,74133,1,0,0:0:0:0:
320,192,74203,128,0,74309:0:0:0:0:
64,192,74239,1,0,0:0:0:0:
448,192,74309,128,0,74414:0:0:0:0:
192,192,74414,128,0,74519:0:0:0:0:
64,192,74414,128,0,74519:0:0:0:0:
448,192,74519,1,0,0:0:0:0:
64,192,74572,1,0,0:0:0:0:
192,192,74625,1,0,0:0:0:0:
320,192,74625,128,0,74730:0:0:0:0:
192,192,74730,128,0,74940:0:0:0:0:
448,192,74730,1,0,0:0:0:0:
320,192,74835,1,0,0:0:0:0:
320,192,74940,1,0,0:0:0:0:
64,192,74940,1,0,0:0:0:0:
64,192,75046,1,0,0:0:0:0:
320,192,75098,1,0,0:0:0:0:
192,192,75151,1,0,0:0:0:0:
448,192,75151,128,0,75256:0:0:0:0:
192,192,75256,1,0,0:0:0:0:
320,192,75361,1,0,0:0:0:0:
448,192,75361,1,0,0:0:0:0:
64,192,75414,1,0,0:0:0:0:
448,192,75467,1,0,0:0:0:0:
192,192,75519,1,0,0:0:0:0:
64,192,75572,1,0,0:0:0:0:
320,192,75572,128,0,75677:0:0:0:0:
448,192,75677,1,0,0:0:0:0:
192,192,75677,1,0,0:0:0:0:
448,192,75782,1,0,0:0:0:0:
192,192,75888,128,0,75993:0:0:0:0:
64,192,75888,128,0,76098:0:0:0:0:
320,192,75993,1,0,0:0:0:0:
448,192,75993,1,0,0:0:0:0:
192,192,76098,1,0,0:0:0:0:
448,192,76098,1,0,0:0:0:0:
320,192,76203,1,0,0:0:0:0:
192,192,76309,1,0,0:0:0:0:
64,192,76309,1,0,0:0:0:0:
192,192,76414,1,0,0:0:0:0:
448,192,76519,1,0,0:0:0:0:
320,192,76519,1,0,0:0:0:0:
320,192,76625,1,0,0:0:0:0:
448,192,76625,1,0,0:0:0:0:
192,192,76730,1,0,0:0:0:0:
320,192,76782,1,0,0:0:0:0:
64,192,76835,128,0,76940:0:0:0:0:
448,192,76835,1,0,0:0:0:0:
192,192,76940,1,0,0:0:0:0:
192,192,77046,1,0,0:0:0:0:
320,192,77046,1,0,0:0:0:0:
448,192,77098,1,0,0:0:0:0:
64,192,77151,1,0,0:0:0:0:
320,192,77203,1,0,0:0:0:0:
192,192,77256,128,0,77361:0:0:0:0:
448,192,77256,1,0,0:0:0:0:
64,192,77361,1,0,0:0:0:0:
320,192,77414,1,0,0:0:0:0:
192,192,77467,1,0,0:0:0:0:
64,192,77502,1,0,0:0:0:0:
320,192,77572,128,0,77782:0:0:0:0:
448,192,77572,128,0,77677:0:0:0:0:
192,192,77625,1,0,0:0:0:0:
64,192,77677,1,0,0:0:0:0:
64,192,77782,1,0,0:0:0:0:
448,192,77782,1,0,0:0:0:0:
192,192,77888,1,0,0:0:0:0:
64,192,77993,128,0,78098:0:0:0:0:
448,192,77993,1,0,0:0:0:0:
320,192,78046,1,0,0:0:0:0:
192,192,78098,1,0,0:0:0:0:
64,192,78203,1,0,0:0:0:0:
320,192,78203,1,0,0:0:0:0:
448,192,78256,1,0,0:0:0:0:
64,192,78309,1,0,0:0:0:0:
192,192,78309,128,0,78414:0:0:0:0:
448,192,78414,1,0,0:0:0:0:
192,192,78467,1,0,0:0:0:0:
64,192,78519,1,0,0:0:0:0:
320,192,78519,128,0,78625:0:0:0:0:
192,192,78625,1,0,0:0:0:0:
320,192,78730,1,0,0:0:0:0:
448,192,78730,1,0,0:0:0:0:
64,192,78782,1,0,0:0:0:0:
320,192,78835,1,0,0:0:0:0:
192,192,78888,1,0,0:0:0:0:
64,192,78940,1,0,0:0:0:0:
448,192,78940,128,0,79046:0:0:0:0:
64,192,79046,128,0,79151:0:0:0:0:
320,192,79151,1,0,0:0:0:0:
192,192,79203,1,0,0:0:0:0:
448,192,79256,128,0,79361:0:0:0:0:
320,192,79309,1,0,0:0:0:0:
64,192,79361,1,0,0:0:0:0:
192,192,79361,128,0,79467:0:0:0:0:
448,192,79467,1,0,0:0:0:0:
64,192,79572,1,0,0:0:0:0:
448,192,79572,1,0,0:0:0:0:
192,192,79625,1,0,0:0:0:0:
320,192,79677,1,0,0:0:0:0:
64,192,79730,1,0,0:0:0:0:
192,192,79782,128,0,79888:0:0:0:0:
320,192,79782,1,0,0:0:0:0:
448,192,79835,1,0,0:0:0:0:
64,192,79888,128,0,79993:0:0:0:0:
448,192,79993,1,0,0:0:0:0:
320,192,79993,128,0,80098:0:0:0:0:
64,192,80098,128,0,80203:0:0:0:0:
192,192,80151,128,0,80309:0:0:0:0:
448,192,80203,1,0,0:0:0:0:
448,192,80309,128,0,80414:0:0:0:0:
64,192,80414,1,0,0:0:0:0:
192,192,80414,1,0,0:0:0:0:
320,192,80467,1,0,0:0:0:0:
448,192,80519,1,0,0:0:0:0:
192,192,80554,1,0,0:0:0:0:
64,192,80589,1,0,0:0:0:0:
320,192,80625,1,0,0:0:0:0:
192,192,80730,1,0,0:0:0:0:
448,192,80730,1,0,0:0:0:0:
64,192,80782,1,0,0:0:0:0:
64,192,80888,1,0,0:0:0:0:
320,192,80888,1,0,0:0:0:0:
448,192,80940,1,0,0:0:0:0:
192,192,81046,1,0,0:0:0:0:
448,192,81046,128,0,81151:0:0:0:0:
192,192,81151,128,0,81256:0:0:0:0:
64,192,81151,128,0,81256:0:0:0:0:
320,192,81256,1,0,0:0:0:0:
448,192,81309,1,0,0:0:0:0:
192,192,81361,1,0,0:0:0:0:
64,192,81361,128,0,81467:0:0:0:0:
320,192,81414,1,0,0:0:0:0:
192,192,81467,128,0,81677:0:0:0:0:
320,192,81572,1,0,0:0:0:0:
448,192,81572,1,0,0:0:0:0:
448,192,81677,128,0,81782:0:0:0:0:
320,192,81677,1,0,0:0:0:0:
64,192,81730,1,0,0:0:0:0:
192,192,81782,128,0,81888:0:0:0:0:
448,192,81835,1,0,0:0:0:0:
64,192,81888,128,0,81993:0:0:0:0:
320,192,81888,1,0,0:0:0:0:
192,192,81940,1,0,0:0:0:0:
320,192,81993,128,0,82098:0:0:0:0:
64,192,82046,1,0,0:0:0:0:
448,192,82098,128,0,82203:0:0:0:0:
192,192,82151,1,0,0:0:0:0:
64,192,82203,128,0,82309:0:0:0:0:
192,192,82309,1,0,0:0:0:0:
320,192,82309,128,0,82414:0:0:0:0:
448,192,82361,1,0,0:0:0:0:
64,192,82414,128,0,82519:0:0:0:0:
192,192,82467,1,0,0:0:0:0:
448,192,82519,128,0,82625:0:0:0:0:
320,192,82625,128,0,82730:0:0:0:0:
64,192,82677,1,0,0:0:0:0:
448,192,82730,1,0,0:0:0:0:
192,192,82730,128,0,82835:0:0:0:0:
64,192,82835,1,0,0:0:0:0:
320,192,82835,128,0,82940:0:0:0:0:
448,192,82835,128,0,82940:0:0:0:0:
64,192,83046,128,0,83151:0:0:0:0:
192,192,83046,128,0,83151:0:0:0:0:
448,192,83046,1,0,0:0:0:0:
320,192,83151,1,0,0:0:0:0:
448,192,83256,1,0,0:0:0:0:
192,192,83256,128,0,83361:0:0:0:0:
64,192,83361,1,0,0:0:0:0:
448,192,83361,128,0,83467:0:0:0:0:
320,192,83467,128,0,83572:0:0:0:0:
64,192,83519,1,0,0:0:0:0:
192,192,83572,128,0,83677:0:0:0:0:
448,192,83572,1,0,0:0:0:0:
320,192,83677,128,0,83782:0:0:0:0:
448,192,83730,1,0,0:0:0:0:
64,192,83782,128,0,83888:0:0:0:0:
192,192,83835,1,0,0:0:0:0:
448,192,83888,128,0,83993:0:0:0:0:
192,192,83993,1,0,0:0:0:0:
320,192,83993,1,0,0:0:0:0:
64,192,84046,1,0,0:0:0:0:
320,192,84098,1,0,0:0:0:0:
448,192,84151,1,0,0:0:0:0:
192,192,84203,128,0,84309:0:0:0:0:
64,192,84309,128,0,84414:0:0:0:0:
448,192,84361,1,0,0:0:0:0:
192,192,84414,1,0,0:0:0:0:
320,192,84414,128,0,84519:0:0:0:0:
448,192,84519,1,0,0:0:0:0:
64,192,84519,128,0,84625:0:0:0:0:
192,192,84519,128,0,84625:0:0:0:0:
64,192,84730,1,0,0:0:0:0:
320,192,84730,128,0,84835:0:0:0:0:
448,192,84730,128,0,84835:0:0:0:0:
192,192,84835,1,0,0:0:0:0:
64,192,84940,1,0,0:0:0:0:
448,192,84940,128,0,85046:0:0:0:0:
64,192,85046,128,0,85151:0:0:0:0:
320,192,85046,1,0,0:0:0:0:
192,192,85151,128,0,85256:0:0:0:0:
320,192,85256,128,0,85361:0:0:0:0:
448,192,85256,1,0,0:0:0:0:
192,192,85361,128,0,85467:0:0:0:0:
448,192,85414,1,0,0:0:0:0:
64,192,85467,128,0,85572:0:0:0:0:
320,192,85519,1,0,0:0:0:0:
448,192,85572,128,0,85677:0:0:0:0:
320,192,85677,1,0,0:0:0:0:
192,192,85677,128,0,85782:0:0:0:0:
64,192,85730,1,0,0:0:0:0:
448,192,85782,128,0,85888:0:0:0:0:
320,192,85835,1,0,0:0:0:0:
64,192,85888,128,0,85993:0:0:0:0:
192,192,85993,128,0,86098:0:0:0:0:
448,192,86046,1,0,0:0:0:0:
64,192,86098,1,0,0:0:0:0:
320,192,86098,128,0,86203:0:0:0:0:
448,192,86203,1,0,0:0:0:0:
192,192,86203,128,0,86309:0:0:0:0:
64,192,86203,128,0,86309:0:0:0:0:
448,192,86414,128,0,86519:0:0:0:0:
320,192,86414,128,0,86519:0:0:0:0:
192,192,86414,1,0,0:0:0:0:
64,192,86519,1,0,0:0:0:0:
192,192,86625,1,0,0:0:0:0:
320,192,86625,128,0,86730:0:0:0:0:
448,192,86730,1,0,0:0:0:0:
192,192,86730,128,0,86835:0:0:0:0:
320,192,86835,1,0,0:0:0:0:
64,192,86940,1,0,0:0:0:0:
448,192,86940,1,0,0:0:0:0:
448,192,87081,1,0,0:0:0:0:
192,192,87151,1,0,0:0:0:0:
448,192,87221,1,0,0:0:0:0:
320,192,87361,1,0,0:0:0:0:
64,192,87361,1,0,0:0:0:0:
192,192,87414,1,0,0:0:0:0:
320,192,87467,1,0,0:0:0:0:
192,192,87519,1,0,0:0:0:0:
448,192,87572,1,0,0:0:0:0:
64,192,87677,1,0,0:0:0:0:
192,192,87712,1,0,0:0:0:0:
320,192,87747,1,0,0:0:0:0:
448,192,87782,1,0,0:0:0:0:
192,192,87888,1,0,0:0:0:0:
320,192,87888,1,0,0:0:0:0:
64,192,87888,128,0,87993:0:0:0:0:
320,192,87993,1,0,0:0:0:0:
192,192,88046,1,0,0:0:0:0:
448,192,88098,128,0,88203:0:0:0:0:
64,192,88098,1,0,0:0:0:0:
320,192,88151,1,0,0:0:0:0:
192,192,88203,1,0,0:0:0:0:
320,192,88309,1,0,0:0:0:0:
448,192,88309,128,0,88414:0:0:0:0:
192,192,88414,1,0,0:0:0:0:
64,192,88414,1,0,0:0:0:0:
320,192,88467,1,0,0:0:0:0:
64,192,88519,1,0,0:0:0:0:
448,192,88572,1,0,0:0:0:0:
320,192,88625,1,0,0:0:0:0:
192,192,88625,128,0,88730:0:0:0:0:
64,192,88730,1,0,0:0:0:0:
320,192,88782,1,0,0:0:0:0:
448,192,88835,128,0,88940:0:0:0:0:
64,192,88940,1,0,0:0:0:0:
192,192,88993,1,0,0:0:0:0:
320,192,89046,128,0,89151:0:0:0:0:
448,192,89046,1,0,0:0:0:0:
64,192,89151,1,0,0:0:0:0:
448,192,89203,1,0,0:0:0:0:
192,192,89256,128,0,89361:0:0:0:0:
448,192,89361,1,0,0:0:0:0:
320,192,89414,1,0,0:0:0:0:
192,192,89467,1,0,0:0:0:0:
64,192,89467,1,0,0:0:0:0:
64,192,89572,1,0,0:0:0:0:
320,192,89572,1,0,0:0:0:0:
448,192,89625,1,0,0:0:0:0:
192,192,89677,1,0,0:0:0:0:
320,192,89782,1,0,0:0:0:0:
448,192,89782,1,0,0:0:0:0:
64,192,89835,1,0,0:0:0:0:
320,192,89888,1,0,0:0:0:0:
192,192,89940,1,0,0:0:0:0:
64,192,89993,1,0,0:0:0:0:
448,192,89993,1,0,0:0:0:0:
320,192,90098,1,0,0:0:0:0:
64,192,90098,1,0,0:0:0:0:
448,192,90203,1,0,0:0:0:0:
192,192,90309,1,0,0:0:0:0:
64,192,90309,1,0,0:0:0:0:
320,192,90414,1,0,0:0:0:0:
448,192,90519,1,0,0:0:0:0:
64,192,90625,1,0,0:0:0:0:
192,192,90677,1,0,0:0:0:0:
448,192,90730,1,0,0:0:0:0:
320,192,90747,1,0,0:0:0:0:
192,192,90835,1,0,0:0:0:0:
64,192,90853,1,0,0:0:0:0:
320,192,90940,1,0,0:0:0:0:
448,192,90958,1,0,0:0:0:0:
192,192,91046,1,0,0:0:0:0:
64,192,91151,1,0,0:0:0:0:
448,192,91168,1,0,0:0:0:0:
192,192,91256,1,0,0:0:0:0:
320,192,91256,1,0,0:0:0:0:
192,192,91361,1,0,0:0:0:0:
320,192,91467,1,0,0:0:0:0:
448,192,91467,1,0,0:0:0:0:
64,192,91519,1,0,0:0:0:0:
448,192,91572,1,0,0:0:0:0:
64,192,91677,1,0,0:0:0:0:
192,192,91677,1,0,0:0:0:0:
64,192,91782,1,0,0:0:0:0:
448,192,91782,1,0,0:0:0:0:
192,192,91835,1,0,0:0:0:0:
320,192,91888,1,0,0:0:0:0:
192,192,91993,1,0,0:0:0:0:
448,192,92046,1,0,0:0:0:0:
320,192,92098,1,0,0:0:0:0:
64,192,92151,1,0,0:0:0:0:
448,192,92203,1,0,0:0:0:0:
192,192,92309,1,0,0:0:0:0:
64,192,92309,1,0,0:0:0:0:
320,192,92361,1,0,0:0:0:0:
192,192,92414,1,0,0:0:0:0:
448,192,92519,1,0,0:0:0:0:
320,192,92519,1,0,0:0:0:0:
64,192,92625,1,0,0:0:0:0:
448,192,92625,1,0,0:0:0:0:
320,192,92677,1,0,0:0:0:0:
192,192,92730,1,0,0:0:0:0:
320,192,92835,1,0,0:0:0:0:
192,192,92940,1,0,0:0:0:0:
64,192,92940,1,0,0:0:0:0:
448,192,93046,1,0,0:0:0:0:
64,192,93098,1,0,0:0:0:0:
192,192,93151,1,0,0:0:0:0:
448,192,93151,1,0,0:0:0:0:
320,192,93256,1,0,0:0:0:0:
192,192,93361,1,0,0:0:0:0:
64,192,93361,1,0,0:0:0:0:
64,192,93467,1,0,0:0:0:0:
448,192,93467,1,0,0:0:0:0:
192,192,93519,1,0,0:0:0:0:
320,192,93572,1,0,0:0:0:0:
448,192,93625,1,0,0:0:0:0:
192,192,93677,1,0,0:0:0:0:
64,192,93730,1,0,0:0:0:0:
448,192,93782,1,0,0:0:0:0:
320,192,93835,1,0,0:0:0:0:
64,192,93888,1,0,0:0:0:0:
448,192,93940,1,0,0:0:0:0:
192,192,93993,1,0,0:0:0:0:
64,192,94046,1,0,0:0:0:0:
320,192,94098,1,0,0:0:0:0:
192,192,94151,1,0,0:0:0:0:
320,192,94203,1,0,0:0:0:0:
64,192,94256,1,0,0:0:0:0:
448,192,94309,1,0,0:0:0:0:
64,192,94361,1,0,0:0:0:0:
320,192,94414,1,0,0:0:0:0:
448,192,94467,1,0,0:0:0:0:
192,192,94519,1,0,0:0:0:0:
64,192,94625,128,0,94730:0:0:0:0:
448,192,94625,128,0,95046:0:0:0:0:
192,192,94835,128,0,94940:0:0:0:0:
64,192,94835,128,0,95467:0:0:0:0:
320,192,95046,1,0,0:0:0:0:
192,192,95046,128,0,95519:0:0:0:0:
320,192,95151,128,0,95572:0:0:0:0:
448,192,95151,128,0,95677:0:0:0:0:
64,192,95572,1,0,0:0:0:0:
192,192,95625,1,0,0:0:0:0:
320,192,95677,1,0,0:0:0:0:
64,192,95730,1,0,0:0:0:0:
448,192,95782,128,0,96625:0:0:0:0:
320,192,95993,1,0,0:0:0:0:
64,192,96046,1,0,0:0:0:0:
192,192,96098,1,0,0:0:0:0:
320,192,96151,1,0,0:0:0:0:
64,192,96203,1,0,0:0:0:0:
192,192,96256,1,0,0:0:0:0:
320,192,96309,128,0,96414:0:0:0:0:
192,192,96519,128,0,96730:0:0:0:0:
64,192,96625,128,0,97467:0:0:0:0:
448,192,96730,128,0,96835:0:0:0:0:
320,192,96835,128,0,96940:0:0:0:0:
448,192,96940,128,0,97046:0:0:0:0:
192,192,97046,128,0,97151:0:0:0:0:
320,192,97098,1,0,0:0:0:0:
448,192,97151,1,0,0:0:0:0:
320,192,97256,128,0,97361:0:0:0:0:
448,192,97309,1,0,0:0:0:0:
192,192,97361,1,0,0:0:0:0:
320,192,97467,128,0,98309:0:0:0:0:
192,192,97519,1,0,0:0:0:0:
64,192,97572,1,0,0:0:0:0:
192,192,97677,128,0,97782:0:0:0:0:
448,192,97782,128,0,97888:0:0:0:0:
64,192,97888,1,0,0:0:0:0:
192,192,97940,1,0,0:0:0:0:
448,192,97993,128,0,98098:0:0:0:0:
192,192,98098,128,0,98203:0:0:0:0:
448,192,98203,1,0,0:0:0:0:
64,192,98256,1,0,0:0:0:0:
192,192,98309,128,0,99151:0:0:0:0:
320,192,98379,1,0,0:0:0:0:
448,192,98449,1,0,0:0:0:0:
64,192,98519,1,0,0:0:0:0:
448,192,98589,1,0,0:0:0:0:
320,192,98660,1,0,0:0:0:0:
64,192,98730,1,0,0:0:0:0:
448,192,98800,1,0,0:0:0:0:
64,192,98870,1,0,0:0:0:0:
320,192,98940,1,0,0:0:0:0:
448,192,99010,1,0,0:0:0:0:
320,192,99081,1,0,0:0:0:0:
64,192,99151,1,0,0:0:0:0:
448,192,99193,1,0,0:0:0:0:
192,192,99235,1,0,0:0:0:0:
320,192,99277,1,0,0:0:0:0:
448,192,99319,1,0,0:0:0:0:
64,192,99361,1,0,0:0:0:0:
192,192,99403,1,0,0:0:0:0:
320,192,99446,1,0,0:0:0:0:
64,192,99488,1,0,0:0:0:0:
448,192,99530,1,0,0:0:0:0:
320,192,99572,1,0,0:0:0:0:
192,192,99614,1,0,0:0:0:0:
64,192,99656,1,0,0:0:0:0:
448,192,99698,1,0,0:0:0:0:
320,192,99740,1,0,0:0:0:0:
192,192,99782,1,0,0:0:0:0:
448,192,99825,1,0,0:0:0:0:
64,192,99867,1,0,0:0:0:0:
320,192,99909,1,0,0:0:0:0:
448,192,99993,128,0,101677:0:0:0:0:
64,192,101361,1,0,0:0:0:0:
320,192,101572,1,0,0:0:0:0:
192,192,101677,1,0,0:0:0:0:
64,192,101677,1,0,0:0:0:0:
448,192,101782,1,0,0:0:0:0:
192,192,101888,1,0,0:0:0:0:
320,192,101993,1,0,0:0:0:0:
64,192,102098,1,0,0:0:0:0:
64,192,102203,1,0,0:0:0:0:
448,192,102203,1,0,0:0:0:0:
320,192,102309,1,0,0:0:0:0:
192,192,102361,1,0,0:0:0:0:
64,192,102414,1,0,0:0:0:0:
448,192,102414,1,0,0:0:0:0:
320,192,102519,1,0,0:0:0:0:
448,192,102589,1,0,0:0:0:0:
64,192,102625,1,0,0:0:0:0:
320,192,102660,1,0,0:0:0:0:
192,192,102730,1,0,0:0:0:0:
448,192,102835,1,0,0:0:0:0:
64,192,102940,1,0,0:0:0:0:
320,192,102975,1,0,0:0:0:0:
192,192,103046,1,0,0:0:0:0:
448,192,103151,1,0,0:0:0:0:
320,192,103203,1,0,0:0:0:0:
192,192,103256,1,0,0:0:0:0:
64,192,103361,1,0,0:0:0:0:
448,192,103361,1,0,0:0:0:0:
192,192,103467,1,0,0:0:0:0:
320,192,103519,1,0,0:0:0:0:
448,192,103572,1,0,0:0:0:0:
192,192,103625,1,0,0:0:0:0:
64,192,103677,1,0,0:0:0:0:
448,192,103782,1,0,0:0:0:0:
320,192,103782,1,0,0:0:0:0:
64,192,103888,1,0,0:0:0:0:
192,192,103993,1,0,0:0:0:0:
320,192,104046,1,0,0:0:0:0:
448,192,104098,1,0,0:0:0:0:
192,192,104151,1,0,0:0:0:0:
64,192,104203,1,0,0:0:0:0:
320,192,104203,1,0,0:0:0:0:
448,192,104309,1,0,0:0:0:0:
64,192,104414,1,0,0:0:0:0:
192,192,104432,1,0,0:0:0:0:
448,192,104519,1,0,0:0:0:0:
320,192,104537,1,0,0:0:0:0:
64,192,104625,1,0,0:0:0:0:
320,192,104730,1,0,0:0:0:0:
192,192,104835,1,0,0:0:0:0:
448,192,104888,1,0,0:0:0:0:
64,192,104940,128,0,105046:0:0:0:0:
320,192,105046,1,0,0:0:0:0:
192,192,105098,1,0,0:0:0:0:
64,192,105151,1,0,0:0:0:0:
64,192,105256,128,0,105888:0:0:0:0:
448,192,105256,1,0,0:0:0:0:
192,192,105361,1,0,0:0:0:0:
320,192,105467,1,0,0:0:0:0:
320,192,105572,1,0,0:0:0:0:
192,192,105677,1,0,0:0:0:0:
320,192,105730,1,0,0:0:0:0:
448,192,105782,1,0,0:0:0:0:
320,192,105888,128,0,106519:0:0:0:0:
64,192,105993,1,0,0:0:0:0:
448,192,106098,1,0,0:0:0:0:
192,192,106203,1,0,0:0:0:0:
64,192,106309,1,0,0:0:0:0:
64,192,106414,1,0,0:0:0:0:
192,192,106519,1,0,0:0:0:0:
448,192,106625,128,0,106730:0:0:0:0:
64,192,106730,128,0,107256:0:0:0:0:
448,192,106835,1,0,0:0:0:0:
448,192,106940,128,0,107572:0:0:0:0:
192,192,107151,128,0,107572:0:0:0:0:
320,192,107151,128,0,107467:0:0:0:0:
64,192,107361,128,0,107572:0:0:0:0:
320,192,107572,128,0,107677:0:0:0:0:
64,192,107677,1,0,0:0:0:0:
192,192,107730,1,0,0:0:0:0:
448,192,107782,128,0,107888:0:0:0:0:
64,192,107888,1,0,0:0:0:0:
192,192,107940,1,0,0:0:0:0:
320,192,107993,128,0,108098:0:0:0:0:
192,192,108098,128,0,108203:0:0:0:0:
64,192,108098,128,0,108203:0:0:0:0:
448,192,108098,1,0,0:0:0:0:
192,192,108309,1,0,0:0:0:0:
320,192,108309,128,0,108414:0:0:0:0:
448,192,108309,128,0,108414:0:0:0:0:
64,192,108519,1,0,0:0:0:0:
192,192,108519,1,0,0:0:0:0:
192,192,108625,128,0,108730:0:0:0:0:
64,192,108625,128,0,108835:0:0:0:0:
320,192,108835,1,0,0:0:0:0:
448,192,108835,1,0,0:0:0:0:
192,192,108888,1,0,0:0:0:0:
320,192,108940,1,0,0:0:0:0:
64,192,108993,1,0,0:0:0:0:
192,192,109046,1,0,0:0:0:0:
448,192,109098,1,0,0:0:0:0:
192,192,109151,1,0,0:0:0:0:
320,192,109203,1,0,0:0:0:0:
64,192,109256,128,0,109361:0:0:0:0:
448,192,109361,1,0,0:0:0:0:
192,192,109414,1,0,0:0:0:0:
64,192,109467,1,0,0:0:0:0:
320,192,109467,128,0,109572:0:0:0:0:
448,192,109519,1,0,0:0:0:0:
192,192,109572,1,0,0:0:0:0:
448,192,109677,128,0,109782:0:0:0:0:
64,192,109782,128,0,109888:0:0:0:0:
192,192,109782,1,0,0:0:0:0:
448,192,109888,1,0,0:0:0:0:
320,192,109993,1,0,0:0:0:0:
192,192,109993,128,0,110098:0:0:0:0:
64,192,110098,1,0,0:0:0:0:
320,192,110203,1,0,0:0:0:0:
448,192,110203,1,0,0:0:0:0:
192,192,110309,128,0,110414:0:0:0:0:
448,192,110309,128,0,110730:0:0:0:0:
64,192,110361,128,0,110519:0:0:0:0:
320,192,110414,128,0,110519:0:0:0:0:
192,192,110519,128,0,110625:0:0:0:0:
320,192,110730,128,0,110835:0:0:0:0:
192,192,110730,128,0,110940:0:0:0:0:
448,192,110940,1,0,0:0:0:0:
64,192,111046,1,0,0:0:0:0:
320,192,111098,1,0,0:0:0:0:
192,192,111151,1,0,0:0:0:0:
448,192,111151,1,0,0:0:0:0:
64,192,111203,1,0,0:0:0:0:
320,192,111256,1,0,0:0:0:0:
64,192,111361,1,0,0:0:0:0:
448,192,111467,1,0,0:0:0:0:
192,192,111467,1,0,0:0:0:0:
320,192,111572,1,0,0:0:0:0:
448,192,111677,1,0,0:0:0:0:
64,192,111677,1,0,0:0:0:0:
448,192,111888,1,0,0:0:0:0:
320,192,111888,1,0,0:0:0:0:
320,192,111993,1,0,0:0:0:0:
448,192,111993,128,0,112203:0:0:0:0:
192,192,112203,1,0,0:0:0:0:
64,192,112203,128,0,112361:0:0:0:0:
64,192,112414,128,0,112625:0:0:0:0:
320,192,112414,1,0,0:0:0:0:
192,192,112519,128,0,112625:0:0:0:0:
448,192,112625,1,0,0:0:0:0:
320,192,112660,1,0,0:0:0:0:
192,192,112695,1,0,0:0:0:0:
64,192,112730,128,0,112835:0:0:0:0:
320,192,112835,1,0,0:0:0:0:
448,192,112835,1,0,0:0:0:0:
192,192,112888,1,0,0:0:0:0:
448,192,112940,128,0,113046:0:0:0:0:
64,192,113046,128,0,113151:0:0:0:0:
192,192,113151,1,0,0:0:0:0:
320,192,113151,128,0,113256:0:0:0:0:
448,192,113256,1,0,0:0:0:0:
64,192,113361,1,0,0:0:0:0:
192,192,113361,128,0,113467:0:0:0:0:
448,192,113467,1,0,0:0:0:0:
320,192,113572,1,0,0:0:0:0:
64,192,113572,128,0,113677:0:0:0:0:
192,192,113677,1,0,0:0:0:0:
320,192,113677,128,0,113782:0:0:0:0:
448,192,113782,128,0,113888:0:0:0:0:
64,192,113782,1,0,0:0:0:0:
192,192,113888,128,0,114098:0:0:0:0:
320,192,113958,1,0,0:0:0:0:
64,192,113993,128,0,114098:0:0:0:0:
448,192,114028,1,0,0:0:0:0:
320,192,114098,128,0,114309:0:0:0:0:
192,192,114168,1,0,0:0:0:0:
448,192,114203,128,0,114309:0:0:0:0:
64,192,114239,1,0,0:0:0:0:
192,192,114309,1,0,0:0:0:0:
448,192,114361,1,0,0:0:0:0:
320,192,114414,1,0,0:0:0:0:
192,192,114467,1,0,0:0:0:0:
448,192,114519,1,0,0:0:0:0:
64,192,114572,1,0,0:0:0:0:
320,192,114625,1,0,0:0:0:0:
320,192,114730,1,0,0:0:0:0:
192,192,114835,128,0,114940:0:0:0:0:
448,192,114835,128,0,114940:0:0:0:0:
192,192,115046,128,0,115256:0:0:0:0:
64,192,115046,128,0,115151:0:0:0:0:
320,192,115151,128,0,115256:0:0:0:0:
448,192,115256,128,0,115361:0:0:0:0:
64,192,115256,1,0,0:0:0:0:
192,192,115361,128,0,115467:0:0:0:0:
320,192,115361,128,0,115467:0:0:0:0:
64,192,115467,128,0,115572:0:0:0:0:
192,192,115572,1,0,0:0:0:0:
448,192,115572,128,0,115677:0:0:0:0:
64,192,115677,128,0,115782:0:0:0:0:
192,192,115730,1,0,0:0:0:0:
320,192,115782,128,0,115888:0:0:0:0:
448,192,115782,1,0,0:0:0:0:
64,192,115888,128,0,115993:0:0:0:0:
320,192,115993,1,0,0:0:0:0:
192,192,115993,128,0,116098:0:0:0:0:
448,192,116098,1,0,0:0:0:0:
64,192,116151,1,0,0:0:0:0:
320,192,116203,128,0,116309:0:0:0:0:
448,192,116256,1,0,0:0:0:0:
192,192,116309,1,0,0:0:0:0:
64,192,116309,128,0,116414:0:0:0:0:
320,192,116414,1,0,0:0:0:0:
192,192,116414,128,0,116519:0:0:0:0:
64,192,116519,1,0,0:0:0:0:
448,192,116519,128,0,116625:0:0:0:0:
320,192,116625,1,0,0:0:0:0:
192,192,116730,1,0,0:0:0:0:
64,192,116730,128,0,116835:0:0:0:0:
320,192,116835,1,0,0:0:0:0:
192,192,116870,1,0,0:0:0:0:
448,192,116905,1,0,0:0:0:0:
64,192,116940,128,0,117046:0:0:0:0:
320,192,117046,128,0,117151:0:0:0:0:
192,192,117046,128,0,117151:0:0:0:0:
448,192,117151,128,0,117256:0:0:0:0:
320,192,117256,1,0,0:0:0:0:
64,192,117256,128,0,117361:0:0:0:0:
448,192,117361,128,0,117467:0:0:0:0:
320,192,117414,1,0,0:0:0:0:
192,192,117467,128,0,117572:0:0:0:0:
64,192,117467,1,0,0:0:0:0:
448,192,117572,128,0,117677:0:0:0:0:
320,192,117572,1,0,0:0:0:0:
192,192,117677,1,0,0:0:0:0:
64,192,117677,128,0,117782:0:0:0:0:
320,192,117782,1,0,0:0:0:0:
192,192,117835,1,0,0:0:0:0:
64,192,117888,1,0,0:0:0:0:
448,192,117888,128,0,117993:0:0:0:0:
320,192,117993,1,0,0:0:0:0:
64,192,117993,128,0,118098:0:0:0:0:
448,192,118098,1,0,0:0:0:0:
192,192,118098,128,0,118203:0:0:0:0:
64,192,118203,1,0,0:0:0:0:
448,192,118203,128,0,118414:0:0:0:0:
192,192,118309,1,0,0:0:0:0:
64,192,118414,1,0,0:0:0:0:
320,192,118414,128,0,118519:0:0:0:0:
448,192,118519,1,0,0:0:0:0:
64,192,118625,1,0,0:0:0:0:
192,192,118625,1,0,0:0:0:0:
320,192,118660,1,0,0:0:0:0:
448,192,118730,1,0,0:0:0:0:
64,192,118730,128,0,118835:0:0:0:0:
320,192,118835,128,0,118940:0:0:0:0:
192,192,118940,128,0,119046:0:0:0:0:
448,192,118940,128,0,119046:0:0:0:0:
64,192,119046,1,0,0:0:0:0:
320,192,119098,1,0,0:0:0:0:
448,192,119151,1,0,0:0:0:0:
64,192,119203,1,0,0:0:0:0:
448,192,119256,1,0,0:0:0:0:
192,192,119309,1,0,0:0:0:0:
320,192,119361,1,0,0:0:0:0:
64,192,119361,128,0,119467:0:0:0:0:
448,192,119467,1,0,0:0:0:0:
192,192,119519,1,0,0:0:0:0:
64,192,119572,1,0,0:0:0:0:
448,192,119625,1,0,0:0:0:0:
64,192,119677,1,0,0:0:0:0:
320,192,119730,1,0,0:0:0:0:
448,192,119782,128,0,119888:0:0:0:0:
64,192,119888,1,0,0:0:0:0:
192,192,119888,1,0,0:0:0:0:
320,192,119940,1,0,0:0:0:0:
448,192,119993,1,0,0:0:0:0:
192,192,120046,1,0,0:0:0:0:
320,192,120098,1,0,0:0:0:0:
64,192,120151,1,0,0:0:0:0:
320,192,120203,128,0,120309:0:0:0:0:
192,192,120309,1,0,0:0:0:0:
448,192,120361,1,0,0:0:0:0:
320,192,120414,1,0,0:0:0:0:
192,192,120414,1,0,0:0:0:0:
64,192,120467,1,0,0:0:0:0:
448,192,120519,1,0,0:0:0:0:
192,192,120572,1,0,0:0:0:0:
320,192,120625,1,0,0:0:0:0:
64,192,120625,128,0,120730:0:0:0:0:
448,192,120730,1,0,0:0:0:0:
320,192,120782,1,0,0:0:0:0:
64,192,120835,1,0,0:0:0:0:
448,192,120888,1,0,0:0:0:0:
64,192,120940,1,0,0:0:0:0:
192,192,120993,1,0,0:0:0:0:
448,192,121046,1,0,0:0:0:0:
320,192,121046,128,0,121151:0:0:0:0:
192,192,121151,1,0,0:0:0:0:
320,192,121256,1,0,0:0:0:0:
64,192,121256,128,0,121361:0:0:0:0:
448,192,121361,1,0,0:0:0:0:
192,192,121414,1,0,0:0:0:0:
448,192,121467,128,0,121572:0:0:0:0:
64,192,121467,1,0,0:0:0:0:
192,192,121572,128,0,121782:0:0:0:0:
320,192,121572,1,0,0:0:0:0:
64,192,121677,128,0,121782:0:0:0:0:
320,192,121782,128,0,121888:0:0:0:0:
448,192,121782,1,0,0:0:0:0:
192,192,121993,1,0,0:0:0:0:
64,192,121993,1,0,0:0:0:0:
192,192,122098,128,0,122203:0:0:0:0:
64,192,122098,128,0,122309:0:0:0:0:
448,192,122151,1,0,0:0:0:0:
320,192,122203,1,0,0:0:0:0:
192,192,122256,1,0,0:0:0:0:
448,192,122309,1,0,0:0:0:0:
64,192,122361,1,0,0:0:0:0:
448,192,122414,1,0,0:0:0:0:
192,192,122467,1,0,0:0:0:0:
64,192,122519,1,0,0:0:0:0:
320,192,122519,1,0,0:0:0:0:
448,192,122572,1,0,0:0:0:0:
64,192,122625,1,0,0:0:0:0:
192,192,122677,1,0,0:0:0:0:
320,192,122730,128,0,122835:0:0:0:0:
64,192,122835,128,0,122940:0:0:0:0:
192,192,122940,128,0,123046:0:0:0:0:
320,192,122940,1,0,0:0:0:0:
448,192,122993,1,0,0:0:0:0:
64,192,123046,128,0,123151:0:0:0:0:
448,192,123151,128,0,123256:0:0:0:0:
64,192,123256,1,0,0:0:0:0:
192,192,123256,128,0,123361:0:0:0:0:
320,192,123361,1,0,0:0:0:0:
448,192,123467,128,0,123572:0:0:0:0:
192,192,123467,1,0,0:0:0:0:
64,192,123572,1,0,0:0:0:0:
320,192,123677,1,0,0:0:0:0:
448,192,123677,1,0,0:0:0:0:
448,192,123782,128,0,123993:0:0:0:0:
320,192,123782,128,0,123888:0:0:0:0:
64,192,123835,1,0,0:0:0:0:
192,192,123888,1,0,0:0:0:0:
320,192,123940,1,0,0:0:0:0:
64,192,123993,1,0,0:0:0:0:
448,192,124046,1,0,0:0:0:0:
64,192,124098,1,0,0:0:0:0:
320,192,124151,1,0,0:0:0:0:
192,192,124203,1,0,0:0:0:0:
448,192,124203,1,0,0:0:0:0:
64,192,124309,1,0,0:0:0:0:
448,192,124309,128,0,124414:0:0:0:0:
320,192,124414,1,0,0:0:0:0:
192,192,124414,128,0,124519:0:0:0:0:
448,192,124519,128,0,124625:0:0:0:0:
320,192,124625,1,0,0:0:0:0:
64,192,124625,128,0,124730:0:0:0:0:
192,192,124677,1,0,0:0:0:0:
320,192,124730,128,0,124835:0:0:0:0:
64,192,124835,1,0,0:0:0:0:
448,192,124835,128,0,124940:0:0:0:0:
320,192,124940,1,0,0:0:0:0:
64,192,124940,128,0,125046:0:0:0:0:
192,192,125046,128,0,125151:0:0:0:0:
320,192,125151,1,0,0:0:0:0:
448,192,125151,128,0,125256:0:0:0:0:
192,192,125256,1,0,0:0:0:0:
64,192,125361,1,0,0:0:0:0:
320,192,125361,128,0,125467:0:0:0:0:
64,192,125467,128,0,125677:0:0:0:0:
448,192,125467,1,0,0:0:0:0:
192,192,125572,1,0,0:0:0:0:
320,192,125677,1,0,0:0:0:0:
448,192,125677,1,0,0:0:0:0:
320,192,125782,1,0,0:0:0:0:
64,192,125888,1,0,0:0:0:0:
192,192,125888,1,0,0:0:0:0:
448,192,125993,1,0,0:0:0:0:
64,192,125993,128,0,126098:0:0:0:0:
320,192,126098,1,0,0:0:0:0:
192,192,126098,128,0,126309:0:0:0:0:
448,192,126203,128,0,126309:0:0:0:0:
320,192,126309,1,0,0:0:0:0:
64,192,126309,1,0,0:0:0:0:
192,192,126379,1,0,0:0:0:0:
320,192,126449,1,0,0:0:0:0:
448,192,126519,1,0,0:0:0:0:
192,192,126519,128,0,126625:0:0:0:0:
64,192,126625,1,0,0:0:0:0:
448,192,126625,128,0,126730:0:0:0:0:
320,192,126730,128,0,126835:0:0:0:0:
192,192,126835,1,0,0:0:0:0:
64,192,126835,128,0,126940:0:0:0:0:
320,192,126940,1,0,0:0:0:0:
192,192,127046,1,0,0:0:0:0:
448,192,127046,128,0,127151:0:0:0:0:
192,192,127151,1,0,0:0:0:0:
320,192,127151,128,0,127361:0:0:0:0:
64,192,127256,128,0,127572:0:0:0:0:
192,192,127361,128,0,127572:0:0:0:0:
448,192,127467,128,0,127572:0:0:0:0:
320,192,127572,128,0,127782:0:0:0:0:
192,192,127677,1,0,0:0:0:0:
64,192,127782,128,0,127993:0:0:0:0:
448,192,127835,1,0,0:0:0:0:
320,192,127888,1,0,0:0:0:0:
192,192,127940,1,0,0:0:0:0:
448,192,127993,128,0,128203:0:0:0:0:
64,192,128098,1,0,0:0:0:0:
192,192,128203,1,0,0:0:0:0:
448,192,128309,1,0,0:0:0:0:
192,192,128309,128,0,128519:0:0:0:0:
64,192,128414,128,0,128519:0:0:0:0:
320,192,128519,128,0,128625:0:0:0:0:
448,192,128519,128,0,128730:0:0:0:0:
64,192,128625,1,0,0:0:0:0:
192,192,128730,1,0,0:0:0:0:
320,192,128730,128,0,128835:0:0:0:0:
448,192,128835,1,0,0:0:0:0:
192,192,128835,128,0,129046:0:0:0:0:
64,192,129046,1,0,0:0:0:0:
320,192,129046,1,0,0:0:0:0:
64,192,129151,1,0,0:0:0:0:
448,192,129256,128,0,129467:0:0:0:0:
192,192,129309,1,0,0:0:0:0:
320,192,129361,128,0,129467:0:0:0:0:
192,192,129467,1,0,0:0:0:0:
64,192,129467,128,0,129677:0:0:0:0:
192,192,129572,1,0,0:0:0:0:
320,192,129677,128,0,129888:0:0:0:0:
192,192,129782,1,0,0:0:0:0:
64,192,129888,1,0,0:0:0:0:
448,192,129888,1,0,0:0:0:0:
320,192,129993,1,0,0:0:0:0:
64,192,129993,128,0,130098:0:0:0:0:
448,192,130098,1,0,0:0:0:0:
192,192,130203,1,0,0:0:0:0:
448,192,130203,128,0,130414:0:0:0:0:
320,192,130309,128,0,130414:0:0:0:0:
64,192,130414,1,0,0:0:0:0:
192,192,130414,1,0,0:0:0:0:
64,192,130519,128,0,130730:0:0:0:0:
448,192,130519,1,0,0:0:0:0:
448,192,130625,1,0,0:0:0:0:
192,192,130730,1,0,0:0:0:0:
320,192,130730,1,0,0:0:0:0:
320,192,130835,1,0,0:0:0:0:
64,192,130888,1,0,0:0:0:0:
448,192,130940,128,0,131098:0:0:0:0:
192,192,130993,1,0,0:0:0:0:
64,192,131046,1,0,0:0:0:0:
320,192,131098,1,0,0:0:0:0:
448,192,131151,1,0,0:0:0:0:
192,192,131151,128,0,131361:0:0:0:0:
448,192,131256,1,0,0:0:0:0:
320,192,131361,128,0,131572:0:0:0:0:
192,192,131467,1,0,0:0:0:0:
64,192,131572,1,0,0:0:0:0:
448,192,131572,1,0,0:0:0:0:
64,192,131677,128,0,131782:0:0:0:0:
320,192,131677,1,0,0:0:0:0:
448,192,131782,128,0,131888:0:0:0:0:
192,192,131888,128,0,131993:0:0:0:0:
64,192,131888,128,0,132098:0:0:0:0:
448,192,131993,1,0,0:0:0:0:
320,192,132098,1,0,0:0:0:0:
192,192,132098,128,0,132203:0:0:0:0:
64,192,132203,1,0,0:0:0:0:
320,192,132203,128,0,132361:0:0:0:0:
320,192,132414,128,0,132625:0:0:0:0:
192,192,132414,1,0,0:0:0:0:
192,192,132519,1,0,0:0:0:0:
448,192,132625,128,0,132835:0:0:0:0:
192,192,132730,1,0,0:0:0:0:
320,192,132835,1,0,0:0:0:0:
64,192,132835,128,0,132993:0:0:0:0:
320,192,132940,1,0,0:0:0:0:
448,192,133046,128,0,133256:0:0:0:0:
64,192,133046,1,0,0:0:0:0:
320,192,133098,1,0,0:0:0:0:
64,192,133151,1,0,0:0:0:0:
192,192,133203,1,0,0:0:0:0:
320,192,133256,128,0,133467:0:0:0:0:
64,192,133361,1,0,0:0:0:0:
192,192,133467,128,0,133677:0:0:0:0:
448,192,133467,1,0,0:0:0:0:
448,192,133572,1,0,0:0:0:0:
320,192,133677,1,0,0:0:0:0:
64,192,133677,128,0,134046:0:0:0:0:
448,192,133782,1,0,0:0:0:0:
448,192,133888,1,0,0:0:0:0:
192,192,133888,1,0,0:0:0:0:
320,192,133993,1,0,0:0:0:0:
64,192,134098,1,0,0:0:0:0:
448,192,134098,1,0,0:0:0:0:
192,192,134203,1,0,0:0:0:0:
320,192,134309,128,0,134467:0:0:0:0:
64,192,134414,1,0,0:0:0:0:
192,192,134467,1,0,0:0:0:0:
320,192,134519,1,0,0:0:0:0:
448,192,134519,128,0,134730:0:0:0:0:
64,192,134625,1,0,0:0:0:0:
320,192,134677,1,0,0:0:0:0:
192,192,134730,128,0,134835:0:0:0:0:
64,192,134835,1,0,0:0:0:0:
448,192,134888,1,0,0:0:0:0:
64,192,134940,128,0,135046:0:0:0:0:
192,192,135046,128,0,135151:0:0:0:0:
320,192,135046,128,0,135151:0:0:0:0:
64,192,135256,128,0,135467:0:0:0:0:
448,192,135256,128,0,135361:0:0:0:0:
192,192,135361,128,0,135467:0:0:0:0:
320,192,135467,1,0,0:0:0:0:
448,192,135467,1,0,0:0:0:0:
448,192,135572,128,0,135782:0:0:0:0:
320,192,135572,128,0,135677:0:0:0:0:
64,192,135782,1,0,0:0:0:0:
320,192,135782,1,0,0:0:0:0:
64,192,135888,1,0,0:0:0:0:
448,192,135993,128,0,136203:0:0:0:0:
320,192,136098,128,0,136203:0:0:0:0:
192,192,136203,1,0,0:0:0:0:
64,192,136203,128,0,136414:0:0:0:0:
192,192,136309,1,0,0:0:0:0:
320,192,136414,128,0,136625:0:0:0:0:
192,192,136519,128,0,136625:0:0:0:0:
64,192,136625,1,0,0:0:0:0:
448,192,136625,1,0,0:0:0:0:
320,192,136730,1,0,0:0:0:0:
64,192,136730,128,0,136835:0:0:0:0:
448,192,136835,1,0,0:0:0:0:
192,192,136888,1,0,0:0:0:0:
448,192,136940,128,0,137151:0:0:0:0:
64,192,136940,1,0,0:0:0:0:
320,192,137046,128,0,137151:0:0:0:0:
64,192,137151,1,0,0:0:0:0:
192,192,137151,1,0,0:0:0:0:
64,192,137256,128,0,137467:0:0:0:0:
448,192,137256,1,0,0:0:0:0:
448,192,137361,1,0,0:0:0:0:
320,192,137414,1,0,0:0:0:0:
192,192,137467,1,0,0:0:0:0:
320,192,137572,128,0,137677:0:0:0:0:
448,192,137677,128,0,137835:0:0:0:0:
64,192,137677,1,0,0:0:0:0:
64,192,137782,1,0,0:0:0:0:
320,192,137835,1,0,0:0:0:0:
448,192,137888,1,0,0:0:0:0:
192,192,137888,128,0,137993:0:0:0:0:
448,192,137993,128,0,138098:0:0:0:0:
64,192,138046,1,0,0:0:0:0:
320,192,138098,128,0,138203:0:0:0:0:
192,192,138098,1,0,0:0:0:0:
192,192,138203,128,0,138309:0:0:0:0:
64,192,138309,1,0,0:0:0:0:
448,192,138309,128,0,138414:0:0:0:0:
64,192,138414,128,0,138519:0:0:0:0:
320,192,138414,1,0,0:0:0:0:
448,192,138519,1,0,0:0:0:0:
448,192,138625,1,0,0:0:0:0:
64,192,138625,128,0,138835:0:0:0:0:
192,192,138730,128,0,139046:0:0:0:0:
320,192,138835,1,0,0:0:0:0:
448,192,138835,1,0,0:0:0:0:
320,192,138940,128,0,139046:0:0:0:0:
448,192,138940,128,0,139046:0:0:0:0:
64,192,139046,1,0,0:0:0:0:
320,192,139098,1,0,0:0:0:0:
192,192,139151,1,0,0:0:0:0:
448,192,139151,1,0,0:0:0:0:
64,192,139203,1,0,0:0:0:0:
448,192,139256,1,0,0:0:0:0:
320,192,139309,1,0,0:0:0:0:
64,192,139361,128,0,139572:0:0:0:0:
192,192,139467,1,0,0:0:0:0:
448,192,139572,128,0,139677:0:0:0:0:
320,192,139572,1,0,0:0:0:0:
320,192,139677,128,0,139782:0:0:0:0:
192,192,139782,128,0,139888:0:0:0:0:
448,192,139835,1,0,0:0:0:0:
64,192,139888,128,0,139993:0:0:0:0:
320,192,139940,1,0,0:0:0:0:
192,192,139993,1,0,0:0:0:0:
448,192,139993,128,0,140098:0:0:0:0:
192,192,140098,128,0,140203:0:0:0:0:
320,192,140203,1,0,0:0:0:0:
64,192,140309,1,0,0:0:0:0:
320,192,140309,128,0,140414:0:0:0:0:
448,192,140361,128,0,140519:0:0:0:0:
192,192,140414,128,0,140519:0:0:0:0:
320,192,140519,1,0,0:0:0:0:
64,192,140572,1,0,0:0:0:0:
320,192,140625,1,0,0:0:0:0:
192,192,140677,1,0,0:0:0:0:
448,192,140730,128,0,140940:0:0:0:0:
192,192,140835,1,0,0:0:0:0:
320,192,140835,1,0,0:0:0:0:
64,192,140940,1,0,0:0:0:0:
320,192,140993,1,0,0:0:0:0:
64,192,141046,1,0,0:0:0:0:
448,192,141098,1,0,0:0:0:0:
192,192,141151,1,0,0:0:0:0:
320,192,141203,1,0,0:0:0:0:
64,192,141256,5,0,0:0:0:0:
448,192,141256,1,0,0:0:0:0:
192,192,141298,1,0,0:0:0:0:
320,192,141340,1,0,0:0:0:0:
64,192,141382,1,0,0:0:0:0:
448,192,141425,1,0,0:0:0:0:
320,192,141467,1,0,0:0:0:0:
192,192,141509,1,0,0:0:0:0:
448,192,141551,1,0,0:0:0:0:
64,192,141593,1,0,0:0:0:0:
192,192,141635,1,0,0:0:0:0:
320,192,141677,1,0,0:0:0:0:
64,192,141719,1,0,0:0:0:0:
448,192,141761,1,0,0:0:0:0:
320,192,141803,1,0,0:0:0:0:
192,192,141846,1,0,0:0:0:0:
448,192,141888,1,0,0:0:0:0:
64,192,141930,1,0,0:0:0:0:
192,192,141972,1,0,0:0:0:0:
320,192,142014,1,0,0:0:0:0:
64,192,142056,1,0,0:0:0:0:
448,192,142098,1,0,0:0:0:0:
192,192,142140,1,0,0:0:0:0:
320,192,142182,1,0,0:0:0:0:
64,192,142225,1,0,0:0:0:0:
192,192,142267,1,0,0:0:0:0:
448,192,142309,1,0,0:0:0:0:
320,192,142351,1,0,0:0:0:0:
192,192,142393,1,0,0:0:0:0:
64,192,142435,1,0,0:0:0:0:
448,192,142477,1,0,0:0:0:0:
320,192,142519,1,0,0:0:0:0:
192,192,142561,1,0,0:0:0:0:
448,192,142603,1,0,0:0:0:0:
64,192,142646,1,0,0:0:0:0:
320,192,142688,1,0,0:0:0:0:
192,192,142730,1,0,0:0:0:0:
448,192,142782,1,0,0:0:0:0:
64,192,142835,1,0,0:0:0:0:
448,192,142888,1,0,0:0:0:0:
192,192,142940,1,0,0:0:0:0:
320,192,142993,1,0,0:0:0:0:
64,192,143046,1,0,0:0:0:0:
448,192,143098,1,0,0:0:0:0:
64,192,143151,1,0,0:0:0:0:
448,192,143203,1,0,0:0:0:0:
192,192,143256,128,0,143322:0:0:0:0:
320,192,143322,128,0,143388:0:0:0:0:
192,192,143388,128,0,143453:0:0:0:0:
320,192,143453,128,0,143519:0:0:0:0:
64,192,143519,128,0,143589:0:0:0:0:
448,192,143589,128,0,143660:0:0:0:0:
64,192,143660,128,0,143730:0:0:0:0:
448,192,143730,128,0,143809:0:0:0:0:
64,192,143809,128,0,143888:0:0:0:0:
448,192,143888,128,0,143967:0:0:0:0:
64,192,143967,128,0,144046:0:0:0:0:
320,192,144046,128,0,144125:0:0:0:0:
192,192,144125,128,0,144203:0:0:0:0:
448,192,144203,128,0,144288:0:0:0:0:
192,192,144288,128,0,144372:0:0:0:0:
320,192,144372,128,0,144456:0:0:0:0:
64,192,144456,128,0,144540:0:0:0:0:
320,192,144540,128,0,144625:0:0:0:0:
192,192,144625,128,0,144715:0:0:0:0:
64,192,144715,128,0,144805:0:0:0:0:
192,192,144805,128,0,144895:0:0:0:0:
64,192,144895,128,0,144985:0:0:0:0:
192,192,144985,128,0,145076:0:0:0:0:
64,192,145076,1,0,0:0:0:0:
320,192,145151,1,0,0:0:0:0:
448,192,145151,1,0,0:0:0:0:
192,192,145203,1,0,0:0:0:0:
320,192,145256,1,0,0:0:0:0:
64,192,145309,1,0,0:0:0:0:
192,192,145361,1,0,0:0:0:0:
448,192,145361,1,0,0:0:0:0:
320,192,145467,1,0,0:0:0:0:
192,192,145519,1,0,0:0:0:0:
64,192,145572,1,0,0:0:0:0:
448,192,145572,1,0,0:0:0:0:
320,192,145677,1,0,0:0:0:0:
64,192,145677,1,0,0:0:0:0:
448,192,145712,1,0,0:0:0:0:
192,192,145747,1,0,0:0:0:0:
320,192,145782,1,0,0:0:0:0:
64,192,145888,1,0,0:0:0:0:
192,192,145888,1,0,0:0:0:0:
448,192,145930,1,0,0:0:0:0:
320,192,145972,1,0,0:0:0:0:
192,192,146014,1,0,0:0:0:0:
64,192,146056,1,0,0:0:0:0:
448,192,146098,1,0,0:0:0:0:
448,192,146203,1,0,0:0:0:0:
320,192,146309,1,0,0:0:0:0:
192,192,146309,1,0,0:0:0:0:
192,192,146414,1,0,0:0:0:0:
448,192,146467,1,0,0:0:0:0:
320,192,146519,1,0,0:0:0:0:
320,192,146625,1,0,0:0:0:0:
192,192,146660,1,0,0:0:0:0:
448,192,146695,1,0,0:0:0:0:
64,192,146730,1,0,0:0:0:0:
64,192,146835,1,0,0:0:0:0:
448,192,146940,1,0,0:0:0:0:
192,192,146993,1,0,0:0:0:0:
448,192,147046,1,0,0:0:0:0:
64,192,147098,1,0,0:0:0:0:
192,192,147151,1,0,0:0:0:0:
320,192,147151,1,0,0:0:0:0:
448,192,147221,1,0,0:0:0:0:
320,192,147291,1,0,0:0:0:0:
192,192,147361,1,0,0:0:0:0:
64,192,147361,1,0,0:0:0:0:
448,192,147432,1,0,0:0:0:0:
64,192,147502,1,0,0:0:0:0:
320,192,147572,1,0,0:0:0:0:
448,192,147607,1,0,0:0:0:0:
192,192,147642,1,0,0:0:0:0:
64,192,147677,1,0,0:0:0:0:
320,192,147730,1,0,0:0:0:0:
192,192,147782,1,0,0:0:0:0:
192,192,147888,1,0,0:0:0:0:
448,192,147888,1,0,0:0:0:0:
320,192,147993,1,0,0:0:0:0:
192,192,148046,1,0,0:0:0:0:
64,192,148098,1,0,0:0:0:0:
64,192,148203,1,0,0:0:0:0:
320,192,148203,1,0,0:0:0:0:
192,192,148309,1,0,0:0:0:0:
320,192,148361,1,0,0:0:0:0:
448,192,148414,1,0,0:0:0:0:
192,192,148519,1,0,0:0:0:0:
64,192,148519,1,0,0:0:0:0:
320,192,148625,1,0,0:0:0:0:
64,192,148730,1,0,0:0:0:0:
192,192,148730,1,0,0:0:0:0:
192,192,148835,1,0,0:0:0:0:
320,192,148940,1,0,0:0:0:0:
448,192,148940,1,0,0:0:0:0:
64,192,149046,1,0,0:0:0:0:
448,192,149046,1,0,0:0:0:0:
320,192,149098,1,0,0:0:0:0:
64,192,149151,1,0,0:0:0:0:
192,192,149203,1,0,0:0:0:0:
320,192,149256,1,0,0:0:0:0:
448,192,149256,1,0,0:0:0:0:
64,192,149361,1,0,0:0:0:0:
192,192,149414,1,0,0:0:0:0:
320,192,149467,1,0,0:0:0:0:
448,192,149537,1,0,0:0:0:0:
320,192,149607,1,0,0:0:0:0:
192,192,149677,1,0,0:0:0:0:
64,192,149677,1,0,0:0:0:0:
448,192,149782,1,0,0:0:0:0:
64,192,149835,1,0,0:0:0:0:
192,192,149888,1,0,0:0:0:0:
320,192,149940,1,0,0:0:0:0:
192,192,149993,1,0,0:0:0:0:
320,192,150098,1,0,0:0:0:0:
448,192,150098,1,0,0:0:0:0:
64,192,150203,1,0,0:0:0:0:
448,192,150203,1,0,0:0:0:0:
320,192,150309,1,0,0:0:0:0:
64,192,150309,1,0,0:0:0:0:
448,192,150414,1,0,0:0:0:0:
320,192,150484,1,0,0:0:0:0:
64,192,150519,1,0,0:0:0:0:
448,192,150554,1,0,0:0:0:0:
320,192,150625,1,0,0:0:0:0:
192,192,150625,1,0,0:0:0:0:
64,192,150730,1,0,0:0:0:0:
192,192,150800,1,0,0:0:0:0:
64,192,150870,1,0,0:0:0:0:
192,192,150940,1,0,0:0:0:0:
448,192,150940,1,0,0:0:0:0:
64,192,151046,1,0,0:0:0:0:
448,192,151046,128,0,151256:0:0:0:0:
320,192,151256,1,0,0:0:0:0:
192,192,151326,1,0,0:0:0:0:
64,192,151326,1,0,0:0:0:0:
448,192,151396,1,0,0:0:0:0:
320,192,151467,1,0,0:0:0:0:
64,192,151467,1,0,0:0:0:0:
192,192,151572,1,0,0:0:0:0:
320,192,151642,1,0,0:0:0:0:
448,192,151642,1,0,0:0:0:0:
64,192,151712,1,0,0:0:0:0:
192,192,151782,1,0,0:0:0:0:
448,192,151782,1,0,0:0:0:0:
320,192,151888,1,0,0:0:0:0:
192,192,151888,1,0,0:0:0:0:
448,192,151940,1,0,0:0:0:0:
64,192,151993,1,0,0:0:0:0:
192,192,152046,1,0,0:0:0:0:
320,192,152098,1,0,0:0:0:0:
64,192,152203,1,0,0:0:0:0:
320,192,152203,1,0,0:0:0:0:
64,192,152309,1,0,0:0:0:0:
192,192,152414,1,0,0:0:0:0:
448,192,152432,1,0,0:0:0:0:
192,192,152519,1,0,0:0:0:0:
320,192,152537,1,0,0:0:0:0:
64,192,152625,1,0,0:0:0:0:
320,192,152642,1,0,0:0:0:0:
192,192,152730,1,0,0:0:0:0:
320,192,152782,1,0,0:0:0:0:
64,192,152835,1,0,0:0:0:0:
448,192,152835,1,0,0:0:0:0:
192,192,152905,1,0,0:0:0:0:
64,192,152975,1,0,0:0:0:0:
192,192,153046,1,0,0:0:0:0:
320,192,153046,1,0,0:0:0:0:
448,192,153151,1,0,0:0:0:0:
320,192,153203,1,0,0:0:0:0:
192,192,153256,1,0,0:0:0:0:
64,192,153256,1,0,0:0:0:0:
448,192,153309,1,0,0:0:0:0:
64,192,153361,1,0,0:0:0:0:
448,192,153414,1,0,0:0:0:0:
320,192,153467,1,0,0:0:0:0:
192,192,153467,1,0,0:0:0:0:
64,192,153572,1,0,0:0:0:0:
448,192,153572,1,0,0:0:0:0:
192,192,153625,1,0,0:0:0:0:
448,192,153677,1,0,0:0:0:0:
320,192,153730,1,0,0:0:0:0:
64,192,153782,128,0,153993:0:0:0:0:
192,192,153782,1,0,0:0:0:0:
448,192,153888,1,0,0:0:0:0:
192,192,153993,1,0,0:0:0:0:
320,192,154046,1,0,0:0:0:0:
192,192,154098,1,0,0:0:0:0:
448,192,154151,1,0,0:0:0:0:
320,192,154203,1,0,0:0:0:0:
192,192,154256,1,0,0:0:0:0:
64,192,154309,1,0,0:0:0:0:
448,192,154309,1,0,0:0:0:0:
64,192,154414,1,0,0:0:0:0:
448,192,154519,1,0,0:0:0:0:
192,192,154589,1,0,0:0:0:0:
448,192,154660,1,0,0:0:0:0:
320,192,154730,1,0,0:0:0:0:
192,192,154730,1,0,0:0:0:0:
64,192,154835,1,0,0:0:0:0:
448,192,154870,1,0,0:0:0:0:
192,192,154940,1,0,0:0:0:0:
320,192,154993,1,0,0:0:0:0:
64,192,155046,1,0,0:0:0:0:
192,192,155098,1,0,0:0:0:0:
320,192,155151,1,0,0:0:0:0:
448,192,155151,1,0,0:0:0:0:
64,192,155256,1,0,0:0:0:0:
192,192,155256,1,0,0:0:0:0:
448,192,155282,1,0,0:0:0:0:
320,192,155361,1,0,0:0:0:0:
192,192,155467,1,0,0:0:0:0:
64,192,155467,1,0,0:0:0:0:
448,192,155493,1,0,0:0:0:0:
192,192,155572,1,0,0:0:0:0:
320,192,155677,1,0,0:0:0:0:
448,192,155677,1,0,0:0:0:0:
448,192,155782,1,0,0:0:0:0:
64,192,155782,1,0,0:0:0:0:
320,192,155835,1,0,0:0:0:0:
64,192,155888,1,0,0:0:0:0:
192,192,155940,1,0,0:0:0:0:
320,192,155993,1,0,0:0:0:0:
448,192,155993,1,0,0:0:0:0:
64,192,156063,1,0,0:0:0:0:
448,192,156133,1,0,0:0:0:0:
320,192,156203,1,0,0:0:0:0:
192,192,156203,1,0,0:0:0:0:
64,192,156274,1,0,0:0:0:0:
192,192,156344,1,0,0:0:0:0:
320,192,156414,1,0,0:0:0:0:
448,192,156440,1,0,0:0:0:0:
64,192,156467,1,0,0:0:0:0:
320,192,156519,1,0,0:0:0:0:
192,192,156572,1,0,0:0:0:0:
64,192,156625,1,0,0:0:0:0:
448,192,156625,1,0,0:0:0:0:
320,192,156677,1,0,0:0:0:0:
64,192,156730,1,0,0:0:0:0:
192,192,156782,1,0,0:0:0:0:
320,192,156835,1,0,0:0:0:0:
448,192,156835,1,0,0:0:0:0:
448,192,156940,1,0,0:0:0:0:
192,192,156940,1,0,0:0:0:0:
64,192,156993,1,0,0:0:0:0:
320,192,157046,1,0,0:0:0:0:
192,192,157098,1,0,0:0:0:0:
64,192,157151,1,0,0:0:0:0:
448,192,157151,1,0,0:0:0:0:
320,192,157221,1,0,0:0:0:0:
448,192,157291,1,0,0:0:0:0:
320,192,157361,1,0,0:0:0:0:
192,192,157361,1,0,0:0:0:0:
192,192,157467,1,0,0:0:0:0:
64,192,157519,1,0,0:0:0:0:
448,192,157519,1,0,0:0:0:0:
320,192,157625,1,0,0:0:0:0:
192,192,157677,1,0,0:0:0:0:
64,192,157677,1,0,0:0:0:0:
64,192,157782,1,0,0:0:0:0:
192,192,157835,1,0,0:0:0:0:
448,192,157835,1,0,0:0:0:0:
64,192,157940,1,0,0:0:0:0:
320,192,157993,1,0,0:0:0:0:
448,192,157993,1,0,0:0:0:0:
320,192,158098,1,0,0:0:0:0:
448,192,158151,1,0,0:0:0:0:
64,192,158151,1,0,0:0:0:0:
192,192,158256,1,0,0:0:0:0:
320,192,158309,1,0,0:0:0:0:
448,192,158309,1,0,0:0:0:0:
448,192,158414,1,0,0:0:0:0:
320,192,158467,1,0,0:0:0:0:
64,192,158467,1,0,0:0:0:0:
64,192,158625,128,0,158782:0:0:0:0:
448,192,158625,128,0,158782:0:0:0:0:
64,192,158835,128,0,158993:0:0:0:0:
448,192,158835,128,0,158993:0:0:0:0:
64,192,159046,128,0,159098:0:0:0:0:
448,192,159046,128,0,159098:0:0:0:0:
448,192,159151,128,0,159309:0:0:0:0:
64,192,159151,128,0,159309:0:0:0:0:
448,192,159361,128,0,159502:0:0:0:0:
192,192,159408,128,0,159478:0:0:0:0:
64,192,159455,128,0,159525:0:0:0:0:
320,192,159502,128,0,159572:0:0:0:0:
192,192,159548,128,0,159619:0:0:0:0:
64,192,159595,128,0,159665:0:0:0:0:
320,192,159642,128,0,159712:0:0:0:0:
192,192,159689,128,0,159759:0:0:0:0:
64,192,159736,128,0,159806:0:0:0:0:
320,192,159782,128,0,159923:0:0:0:0:
192,192,159829,128,0,159899:0:0:0:0:
448,192,159876,128,0,159946:0:0:0:0:
64,192,159923,128,0,159993:0:0:0:0:
192,192,159970,128,0,160040:0:0:0:0:
448,192,160016,128,0,160086:0:0:0:0:
64,192,160063,128,0,160133:0:0:0:0:
192,192,160110,128,0,160180:0:0:0:0:
448,192,160157,128,0,160227:0:0:0:0:
64,192,160203,128,0,160344:0:0:0:0:
320,192,160250,128,0,160320:0:0:0:0:
448,192,160297,128,0,160367:0:0:0:0:
192,192,160344,128,0,160414:0:0:0:0:
320,192,160391,128,0,160461:0:0:0:0:
448,192,160437,128,0,160508:0:0:0:0:
192,192,160484,128,0,160554:0:0:0:0:
320,192,160531,128,0,160601:0:0:0:0:
448,192,160578,128,0,160648:0:0:0:0:
192,192,160625,128,0,160765:0:0:0:0:
64,192,160671,128,0,160741:0:0:0:0:
448,192,160718,128,0,160788:0:0:0:0:
320,192,160765,128,0,160835:0:0:0:0:
64,192,160812,128,0,160882:0:0:0:0:
448,192,160858,128,0,160929:0:0:0:0:
320,192,160905,128,0,160975:0:0:0:0:
64,192,160952,128,0,161022:0:0:0:0:
448,192,160999,128,0,161069:0:0:0:0:
320,192,161046,128,0,161186:0:0:0:0:
192,192,161092,128,0,161163:0:0:0:0:
64,192,161139,128,0,161209:0:0:0:0:
448,192,161186,128,0,161256:0:0:0:0:
192,192,161233,128,0,161303:0:0:0:0:
64,192,161279,128,0,161350:0:0:0:0:
448,192,161326,128,0,161396:0:0:0:0:
192,192,161373,128,0,161443:0:0:0:0:
64,192,161420,128,0,161490:0:0:0:0:
448,192,161467,128,0,161607:0:0:0:0:
192,192,161513,128,0,161584:0:0:0:0:
320,192,161560,128,0,161630:0:0:0:0:
64,192,161607,128,0,161677:0:0:0:0:
192,192,161654,128,0,161724:0:0:0:0:
320,192,161701,128,0,161771:0:0:0:0:
64,192,161747,128,0,161817:0:0:0:0:
192,192,161794,128,0,161864:0:0:0:0:
320,192,161841,128,0,161911:0:0:0:0:
64,192,161888,128,0,161993:0:0:0:0:
448,192,161940,128,0,161993:0:0:0:0:
320,192,161993,1,0,0:0:0:0:
192,192,161993,1,0,0:0:0:0:
192,192,162203,1,0,0:0:0:0:
320,192,162203,1,0,0:0:0:0:
320,192,162414,1,0,0:0:0:0:
192,192,162414,1,0,0:0:0:0:
192,192,162519,1,0,0:0:0:0:
320,192,162519,1,0,0:0:0:0:
448,192,162730,128,0,162870:0:0:0:0:
320,192,162777,128,0,162847:0:0:0:0:
64,192,162823,128,0,162894:0:0:0:0:
192,192,162870,128,0,162940:0:0:0:0:
320,192,162917,128,0,162987:0:0:0:0:
64,192,162964,128,0,163034:0:0:0:0:
192,192,163010,128,0,163081:0:0:0:0:
320,192,163057,128,0,163127:0:0:0:0:
64,192,163104,128,0,163174:0:0:0:0:
192,192,163151,128,0,163291:0:0:0:0:
320,192,163198,128,0,163268:0:0:0:0:
448,192,163244,128,0,163315:0:0:0:0:
64,192,163291,128,0,163361:0:0:0:0:
320,192,163338,128,0,163408:0:0:0:0:
448,192,163385,128,0,163455:0:0:0:0:
64,192,163432,128,0,163502:0:0:0:0:
320,192,163478,128,0,163548:0:0:0:0:
448,192,163525,128,0,163595:0:0:0:0:
64,192,163572,128,0,163782:0:0:0:0:
192,192,163619,128,0,163689:0:0:0:0:
448,192,163665,128,0,163736:0:0:0:0:
320,192,163712,128,0,163782:0:0:0:0:
192,192,163759,128,0,163829:0:0:0:0:
448,192,163806,128,0,163876:0:0:0:0:
320,192,163853,128,0,163923:0:0:0:0:
192,192,163899,128,0,163970:0:0:0:0:
448,192,163946,128,0,164016:0:0:0:0:
320,192,163993,128,0,164274:0:0:0:0:
64,192,164040,128,0,164110:0:0:0:0:
448,192,164086,128,0,164157:0:0:0:0:
192,192,164133,128,0,164203:0:0:0:0:
64,192,164180,128,0,164250:0:0:0:0:
448,192,164227,128,0,164297:0:0:0:0:
192,192,164274,128,0,164344:0:0:0:0:
64,192,164320,128,0,164391:0:0:0:0:
448,192,164367,128,0,164437:0:0:0:0:
192,192,164414,128,0,164765:0:0:0:0:
320,192,164461,128,0,164531:0:0:0:0:
64,192,164508,128,0,164578:0:0:0:0:
448,192,164554,128,0,164625:0:0:0:0:
320,192,164601,128,0,164671:0:0:0:0:
64,192,164648,128,0,164718:0:0:0:0:
448,192,164695,128,0,164765:0:0:0:0:
320,192,164741,128,0,164812:0:0:0:0:
64,192,164788,128,0,164858:0:0:0:0:
448,192,164835,128,0,165256:0:0:0:0:
320,192,164882,128,0,164952:0:0:0:0:
192,192,164929,128,0,164999:0:0:0:0:
64,192,164975,128,0,165046:0:0:0:0:
320,192,165022,128,0,165092:0:0:0:0:
192,192,165069,128,0,165139:0:0:0:0:
64,192,165116,128,0,165186:0:0:0:0:
320,192,165163,128,0,165233:0:0:0:0:
192,192,165209,128,0,165279:0:0:0:0:
448,192,165361,1,0,0:0:0:0:
448,192,165572,1,0,0:0:0:0:
448,192,165782,1,0,0:0:0:0:
448,192,165888,1,0,0:0:0:0:
