osu file format v14

[General]
AudioFilename: audio.mp3
AudioLeadIn: 0
PreviewTime: 92006
Countdown: 0
SampleSet: Soft
StackLeniency: 0.7
Mode: 0
LetterboxInBreaks: 0
WidescreenStoryboard: 0

[Editor]
Bookmarks: 118,7229,21451,35673,64117,92562,121006,149451,170784,186295
DistanceSpacing: 0.7
BeatDivisor: 8
GridSize: 4
TimelineZoom: 1.5

[Metadata]
Title:HDHR
TitleUnicode:HDHR
Artist:BilliumMoto
ArtistUnicode:BilliumMoto
Creator:RyoKazuka
Version:Expert
Source:osu!remix contest
Tags:nekodex circles monthly beatmapping competition #13 MBC HootOwlStar
BeatmapID:1208035
BeatmapSetID:569888

[Difficulty]
HPDrainRate:6
CircleSize:4
OverallDifficulty:8.2
ApproachRate:9
SliderMultiplier:2
SliderTickRate:2

[Events]
//Background and Video events
0,0,"IMG_186191.jpg",0,0
//Break Periods
2,121206,131073
//Storyboard Layer 0 (Background)
//Storyboard Layer 1 (Fail)
//Storyboard Layer 2 (Pass)
//Storyboard Layer 3 (Foreground)
//Storyboard Sound Samples

[TimingPoints]
118,444.444444444444,4,2,0,30,1,0
1895,-166.666666666667,4,2,0,15,0,0
2784,-166.666666666667,4,2,0,20,0,0
3673,-142.857142857143,4,2,0,25,0,0
4562,-142.857142857143,4,2,0,30,0,0
5451,-125,4,2,0,35,0,0
6340,-125,4,2,0,40,0,0
7229,-117.647058823529,4,2,0,40,0,0
25006,-117.647058823529,4,2,0,45,0,0
28562,-117.647058823529,4,2,0,50,0,0
32117,-117.647058823529,4,2,0,55,0,0
34784,-117.647058823529,4,2,0,5,0,0
35229,-62.5,4,2,0,40,0,0
35340,-62.5,4,2,0,5,0,0
35673,-125,4,2,0,50,0,0
36117,-105.263157894737,4,2,0,50,0,0
36636,-105.263157894737,4,2,0,5,0,0
36710,-105.263157894737,4,2,0,50,0,0
37229,-76.9230769230769,4,2,0,50,0,0
37784,-76.9230769230769,4,2,0,5,0,0
37895,-71.4285714285714,4,2,0,50,0,0
38229,-71.4285714285714,4,2,0,5,0,0
38340,-125,4,2,0,50,0,0
38784,-100,4,2,0,50,0,0
39229,-111.111111111111,4,2,0,50,0,0
39562,-95.2380952380952,4,2,0,50,0,0
39895,-133.333333333333,4,2,0,50,0,0
40562,-105.263157894737,4,2,0,50,0,0
41895,-166.666666666667,4,2,0,50,0,0
42340,-111.111111111111,4,2,0,50,0,0
42562,-95.2380952380952,4,2,0,50,0,0
42784,-125,4,2,0,50,0,0
43229,-105.263157894737,4,2,0,50,0,0
45451,-125,4,2,0,50,0,0
46117,-83.3333333333333,4,2,0,50,0,0
46340,-125,4,2,0,50,0,0
46784,-105.263157894737,4,2,0,50,0,0
48117,-125,4,2,0,50,0,0
48340,-105.263157894737,4,2,0,50,0,0
49451,-83.3333333333333,4,2,0,50,0,0
49895,-125,4,2,0,50,0,0
50340,-200,4,2,0,50,0,0
52562,-125,4,2,0,50,0,0
53006,-83.3333333333333,4,2,0,50,0,0
53451,-111.111111111111,4,2,0,55,0,0
53784,-90.9090909090909,4,2,0,55,0,0
54117,-125,4,2,0,55,0,0
54784,-105.263157894737,4,2,0,55,0,0
55451,-95.2380952380952,4,2,0,55,0,0
55673,-153.846153846154,4,2,0,55,0,0
56117,-200,4,2,0,55,0,0
56451,-100,4,2,0,55,0,0
56784,-83.3333333333333,4,2,0,55,0,0
57006,-125,4,2,0,55,0,0
57451,-105.263157894737,4,2,0,55,0,0
59673,-125,4,2,0,55,0,0
60340,-83.3333333333333,4,2,0,55,0,0
60562,-125,4,2,0,55,0,0
61229,-111.111111111111,4,2,0,55,0,0
61562,-90.9090909090909,4,2,0,55,0,0
61895,-125,4,2,0,55,0,0
62340,-105.263157894737,4,2,0,55,0,0
63006,-166.666666666667,4,2,0,55,0,0
63451,-133.333333333333,4,2,0,55,0,0
64117,-125,4,2,0,60,0,1
64562,-76.9230769230769,4,2,0,60,0,0
65006,-90.9090909090909,4,2,0,60,0,0
65562,-200,4,2,0,60,0,0
65895,-90.9090909090909,4,2,0,60,0,0
66451,-200,4,2,0,60,0,0
66784,-90.9090909090909,4,2,0,60,0,0
67006,-111.111111111111,4,2,0,60,0,0
67229,-90.9090909090909,4,2,0,60,0,0
67451,-50,4,2,0,60,0,0
67673,-90.9090909090909,4,2,0,50,0,0
67895,-117.647058823529,4,2,0,60,0,0
68117,-76.9230769230769,4,2,0,60,0,0
68562,-90.9090909090909,4,2,0,60,0,0
69117,-153.846153846154,4,2,0,60,0,0
69451,-90.9090909090909,4,2,0,60,0,0
70006,-153.846153846154,4,2,0,60,0,0
70340,-90.9090909090909,4,2,0,60,0,0
71229,-200,4,2,0,60,0,0
71673,-76.9230769230769,4,2,0,60,0,0
72117,-90.9090909090909,4,2,0,60,0,0
72673,-200,4,2,0,60,0,0
73006,-90.9090909090909,4,2,0,60,0,0
73562,-200,4,2,0,60,0,0
73895,-90.9090909090909,4,2,0,60,0,0
74117,-111.111111111111,4,2,0,60,0,0
74340,-90.9090909090909,4,2,0,60,0,0
74562,-50,4,2,0,60,0,0
74784,-90.9090909090909,4,2,0,50,0,0
75006,-117.647058823529,4,2,0,60,0,0
75228,-76.9230769230769,4,2,0,60,0,0
75673,-90.9090909090909,4,2,0,60,0,0
76562,-125,4,2,0,60,0,0
77006,-90.9090909090909,4,2,0,60,0,0
77229,-80,4,2,0,60,0,0
77451,-90.9090909090909,4,2,0,60,0,0
78006,-153.846153846154,4,2,0,60,0,0
78340,-125,4,2,0,60,0,1
78784,-76.9230769230769,4,2,0,60,0,0
79229,-90.9090909090909,4,2,0,60,0,0
79784,-200,4,2,0,60,0,0
80117,-90.9090909090909,4,2,0,60,0,0
80673,-200,4,2,0,60,0,0
81006,-90.9090909090909,4,2,0,60,0,0
81229,-111.111111111111,4,2,0,60,0,0
81451,-90.9090909090909,4,2,0,60,0,0
81673,-50,4,2,0,60,0,0
81895,-90.9090909090909,4,2,0,50,0,0
82117,-117.647058823529,4,2,0,60,0,0
82340,-76.9230769230769,4,2,0,60,0,0
82784,-90.9090909090909,4,2,0,60,0,0
83340,-153.846153846154,4,2,0,60,0,0
83673,-90.9090909090909,4,2,0,60,0,0
84229,-153.846153846154,4,2,0,60,0,0
84562,-90.9090909090909,4,2,0,60,0,0
85451,-200,4,2,0,60,0,0
85895,-76.9230769230769,4,2,0,60,0,0
86339,-90.9090909090909,4,2,0,60,0,0
86895,-200,4,2,0,60,0,0
87229,-90.9090909090909,4,2,0,60,0,0
88784,-181.818181818182,4,2,0,60,0,0
89006,-142.857142857143,4,2,0,60,0,0
89673,-125,4,2,0,60,0,0
90006,-100,4,2,0,60,0,0
90340,-83.3333333333333,4,2,0,60,0,0
90784,-90.9090909090909,4,2,0,60,0,0
92562,-62.5,4,2,0,60,0,0
92673,-62.5,4,2,0,5,0,0
93006,-90.9090909090909,4,2,0,70,0,1
96117,-111.111111111111,4,2,0,70,0,1
96562,-90.9090909090909,4,2,0,70,0,1
99673,-111.111111111111,4,2,0,70,0,1
100117,-90.9090909090909,4,2,0,70,0,1
103229,-111.111111111111,4,2,0,70,0,1
103673,-90.9090909090909,4,2,0,70,0,1
105006,-90.9090909090909,4,2,0,70,0,0
106784,-111.111111111111,4,2,0,70,0,1
107228,-90.9090909090909,4,2,0,70,0,1
110340,-111.111111111111,4,2,0,70,0,1
110784,-90.9090909090909,4,2,0,70,0,1
113895,-111.111111111111,4,2,0,70,0,1
114339,-90.9090909090909,4,2,0,70,0,1
117451,-111.111111111111,4,2,0,70,0,0
117895,-90.9090909090909,4,2,0,70,0,0
119229,-250,4,2,0,70,0,0
120951,-250,4,2,0,5,0,0
121006,-133.333333333333,4,2,0,40,0,0
135229,-142.857142857143,4,2,0,45,0,0
149451,-117.647058823529,4,2,0,50,0,0
157006,-76.9230769230769,4,2,0,50,0,0
157229,-117.64705882353,4,2,0,50,0,0
161895,-76.9230769230769,4,2,0,50,0,0
162117,-117.64705882353,4,2,0,50,0,0
170784,451.127819548872,4,2,0,35,1,0
170784,-200,4,2,0,35,0,0
171122,-200,4,2,0,5,0,0
171235,410.958904109589,4,2,0,35,1,0
171645,447.761194029851,4,2,0,35,1,0
171645,-117.647058823529,4,2,0,35,0,0
172092,521.739130434783,4,2,0,35,1,0
172092,-117.647058823529,4,2,0,35,0,0
172613,422.535211267606,4,2,0,35,1,0
172718,512.820512820513,4,2,0,35,1,0
172718,-117.647058823529,4,2,0,35,0,0
173230,571.428571428571,4,2,0,35,1,0
173515,705.882352941176,4,2,0,35,1,0
173867,600,4,2,0,35,1,0
174167,571.428571428571,4,2,0,35,1,0
174452,468.75,4,2,0,35,1,0
174569,483.870967741935,4,2,0,35,1,0
174569,-117.647058823529,4,2,0,35,0,0
175294,576.923076923077,4,2,0,35,1,0
175582,666.666666666667,4,2,0,35,1,0
175915,560.747663551402,4,2,0,35,1,0
176195,659.340659340659,4,2,0,35,1,0
176524,413.793103448276,4,2,0,35,1,0
176627,461.538461538462,4,2,0,35,1,0
176627,-117.647058823529,4,2,0,35,0,0
177088,582.52427184466,4,2,0,35,1,0
177379,571.428571428571,4,2,0,35,1,0
177379,-117.647058823529,4,2,0,35,0,0
177568,545.454545454546,4,2,0,35,1,0
178931,-117.647058823529,4,2,0,35,0,0
180840,-100,4,2,0,36,0,0
180977,-100,4,2,0,37,0,0
181113,-100,4,2,0,38,0,0
181249,-100,4,2,0,39,0,0
181386,-100,4,2,0,40,0,0
181522,-100,4,2,0,41,0,0
181658,-100,4,2,0,42,0,0
181795,-100,4,2,0,43,0,0
181931,-100,4,2,0,44,0,0
182068,-100,4,2,0,45,0,0
182204,-100,4,2,0,46,0,0
182340,-100,4,2,0,47,0,0
182477,-100,4,2,0,48,0,0
182613,-100,4,2,0,49,0,0
182749,-100,4,2,0,50,0,0
182886,-100,4,2,0,51,0,0
183022,-100,4,2,0,52,0,0
183158,-100,4,2,0,53,0,0
183295,-100,4,2,0,54,0,0
183431,-100,4,2,0,55,0,0
183568,-100,4,2,0,56,0,0
183704,-100,4,2,0,57,0,0
183840,-100,4,2,0,58,0,0
183977,-100,4,2,0,59,0,0
184113,-100,4,2,0,60,0,0
184249,-100,4,2,0,61,0,0
184386,-100,4,2,0,62,0,0
184522,-100,4,2,0,63,0,0
184658,-100,4,2,0,64,0,0
184795,-100,4,2,0,65,0,0
184931,-100,4,2,0,66,0,0
185068,-100,4,2,0,67,0,0
185204,-100,4,2,0,68,0,0
185340,-100,4,2,0,69,0,0
185477,-100,4,2,0,70,0,0
185613,-100,4,2,0,71,0,0
185749,-100,4,2,0,72,0,0
185886,-100,4,2,0,73,0,0
186022,-100,4,2,0,74,0,0
186158,-100,4,2,0,75,0,0
186295,-100,4,2,0,5,0,0

[Colours]
Combo1 : 229,229,229
Combo2 : 155,225,240
Combo3 : 168,255,168
Combo4 : 251,186,115
Combo5 : 242,94,94
Combo6 : 140,242,215
Combo7 : 255,255,170
Combo8 : 255,185,187

[HitObjects]
323,263,1895,6,0,P|371:252|398:234,1,59.9999981689454,2|0,0:0|0:0,0:0:0:0:
189,263,2340,2,0,P|141:252|114:234,1,59.9999981689454,2|0,0:0|0:0,0:0:0:0:
313,119,2784,2,0,P|326:146|330:176,1,59.9999981689454,2|0,0:0|0:0,0:0:0:0:
182,176,3229,2,0,P|185:146|198:119,1,59.9999981689454,2|0,0:0|0:0,0:0:0:0:
69,41,3673,6,0,P|81:67|85:108,1,69.9999978637696,2|0,0:0|0:0,0:0:0:0:
20,232,4117,2,0,B|50:212|50:212|98:209,1,69.9999978637696,2|0,0:0|0:0,0:0:0:0:
203,341,4562,2,0,P|157:334|123:324,1,69.9999978637696,2|0,0:0|0:0,0:0:0:0:
299,202,5006,2,0,L|311:277,1,69.9999978637696,2|0,0:0|0:0,0:0:0:0:
161,266,5451,101,2,0:0:0:0:
263,123,5673,1,0,0:0:0:0:
387,211,5895,1,2,0:0:0:0:
212,195,6117,1,0,0:0:0:0:
226,42,6339,1,2,0:0:0:0:
299,202,6562,1,0,0:0:0:0:
42,249,7229,6,0,P|90:227|98:117,1,170.000003242493,2|0,3:2|0:0,0:0:0:0:
289,61,7895,2,0,P|241:83|233:193,1,170.000003242493,0|0,3:0|0:0,0:0:0:0:
376,162,8562,2,0,L|294:141,1,85.0000016212464,0|0,3:0|0:0,0:0:0:0:
266,306,9006,102,0,B|356:318|346:284|435:298,1,170.000003242493,0|0,3:0|0:0,0:0:0:0:
376,162,9673,1,0,3:0:0:0:
240,216,9895,2,0,P|188:223|135:222,1,85.0000016212464,2|0,0:0|0:0,0:0:0:0:
38,118,10340,2,0,L|142:111,1,85.0000016212464,2|0,3:2|0:0,0:0:0:0:
312,53,10784,6,0,P|245:16|187:25,2,127.50000243187,2|2|2,3:2|0:0|3:2,0:0:0:0:
280,160,11673,2,0,P|234:157|188:150,1,85.0000016212464
367,283,12117,2,0,P|321:286|275:293,1,85.0000016212464,0|0,3:0|0:0,0:0:0:0:
434,173,12562,102,0,P|369:125|365:26,1,170.000003242493,0|0,3:0|0:0,0:0:0:0:
222,24,13229,2,0,P|233:98|244:196,1,170.000003242493,0|0,3:0|0:0,0:0:0:0:
61,130,13895,2,0,B|101:114|101:114|142:120,1,85.0000016212464,2|2,3:2|0:0,0:0:0:0:
305,256,14340,6,0,B|266:293|209:276|209:276|141:253,1,170.000003242493,2|0,3:2|0:0,0:0:0:0:
234,107,15006,2,0,L|243:192,1,85.0000016212464,0|0,3:0|0:0,0:0:0:0:
342,58,15451,1,0,0:0:0:0:
412,157,15673,2,0,L|403:242,1,85.0000016212464,0|0,3:0|0:0,0:0:0:0:
281,329,16117,102,0,B|216:331|216:331|181:314|181:314|111:317,1,170.000003242493,0|0,3:0|0:0,0:0:0:0:
38,183,16784,1,0,3:0:0:0:
109,108,17006,2,0,P|155:84|200:81,1,85.0000016212464,2|0,0:0|0:0,0:0:0:0:
184,192,17451,2,0,P|235:187|278:202,1,85.0000016212464,0|2,3:0|0:0,0:0:0:0:
220,298,17895,6,0,P|269:314|302:344,1,85.0000016212464,2|0,3:2|0:0,0:0:0:0:
111,277,18340,1,0,0:0:0:0:
267,196,18562,2,0,P|191:195|125:91,1,170.000003242493,0|0,3:0|0:0,0:0:0:0:
29,53,19229,2,0,P|40:93|37:135,1,85.0000016212464,0|0,3:0|0:0,0:0:0:0:
229,97,19673,102,0,P|226:54|237:14,2,85.0000016212464,0|0|0,3:0|0:0|0:0,0:0:0:0:
331,168,20340,2,0,P|368:186|398:216,2,85.0000016212464,0|0|0,3:0|0:0|0:0,0:0:0:0:
218,220,21006,2,0,P|182:243|141:253,1,85.0000016212464,2|0,3:2|0:0,0:0:0:0:
229,359,21451,6,0,P|146:348|42:338,1,170.000003242493,6|2,0:2|0:3,0:0:0:0:
141,252,22117,1,0,0:0:0:0:
61,126,22340,1,2,0:3:0:0:
61,126,22451,1,0,0:0:0:0:
238,94,22673,2,0,L|234:181,1,85.0000016212464,2|0,0:3|0:0,0:0:0:0:
249,204,23006,1,2,0:3:0:0:
397,152,23229,101,2,0:3:0:0:
397,152,23340,2,0,L|401:65,1,85.0000016212464,0|2,0:0|0:3,0:0:0:0:
502,192,23784,1,0,0:0:0:0:
502,192,23895,1,2,0:3:0:0:
368,278,24117,1,2,0:0:0:0:
368,278,24229,1,0,0:0:0:0:
368,278,24340,2,0,L|287:264,1,42.5000008106232,0|2,0:0|0:3,0:0:0:0:
235,302,24562,2,0,P|198:313|164:315,1,42.5000008106232,2|0,0:0|0:0,0:0:0:0:
252,206,24784,1,2,0:3:0:0:
390,78,25006,6,0,P|331:70|295:62,1,85.0000016212464,2|0,0:0|0:0,0:0:0:0:
276,58,25340,2,0,L|281:104,1,42.5000008106232,2|2,0:0|0:3,0:0:0:0:
145,33,25673,1,2,0:0:0:0:
61,128,25895,1,2,0:3:0:0:
61,128,26006,1,0,0:0:0:0:
152,228,26229,2,0,B|194:231|194:231|240:207,1,85.0000016212464,2|0,0:3|0:0,0:0:0:0:
257,195,26562,1,2,0:3:0:0:
138,333,26784,102,0,P|105:327|82:324,1,42.5000008106232,2|0,0:3|0:0,0:0:0:0:
179,147,27117,1,2,0:3:0:0:
292,287,27340,1,0,0:0:0:0:
292,287,27451,2,0,L|390:278,1,85.0000016212464,2|2,0:3|0:3,0:0:0:0:
404,289,27784,1,0,0:0:0:0:
351,126,28006,2,0,L|265:114,1,85.0000016212464,2|0,0:0|0:0,0:0:0:0:
241,98,28340,1,2,0:0:0:0:
420,34,28562,6,0,B|459:109|459:109|439:203,1,170.000003242493,2|2,0:0|0:3,0:0:0:0:
404,289,29229,1,0,0:0:0:0:
256,232,29451,1,2,0:3:0:0:
256,232,29562,1,0,0:0:0:0:
108,289,29784,2,0,P|99:251|85:207,1,85.0000016212464,2|0,0:3|0:0,0:0:0:0:
77,178,30117,1,2,0:3:0:0:
205,66,30340,102,0,L|200:122,1,42.5000008106232,2|0,0:3|0:0,0:0:0:0:
374,16,30673,2,0,L|365:108,1,85.0000016212464,2|0,0:3|0:0,0:0:0:0:
377,128,31006,1,2,0:3:0:0:
253,206,31229,1,2,0:0:0:0:
253,206,31340,2,0,P|210:196|160:191,1,85.0000016212464,0|2,0:0|0:3,0:0:0:0:
59,280,31784,1,0,0:0:0:0:
59,280,31895,1,2,0:0:0:0:
265,305,32117,6,0,P|346:319|413:252,1,170.000003242493,2|2,0:0|0:3,0:0:0:0:
319,225,32784,1,0,0:0:0:0:
170,275,33006,1,2,0:3:0:0:
170,275,33117,1,0,0:0:0:0:
47,167,33340,2,0,B|39:126|39:126|55:72,1,85.0000016212464,2|0,0:3|0:0,0:0:0:0:
62,56,33673,1,2,0:3:0:0:
229,127,33895,102,0,L|234:177,1,42.5000008106232,2|0,0:3|0:0,0:0:0:0:
406,135,34229,1,2,0:3:0:0:
258,262,34451,1,0,0:0:0:0:
258,262,34562,2,0,L|171:253,1,85.0000016212464,2|0,0:3|0:0,0:0:0:0:
58,62,35229,6,0,L|152:57,1,80
58,62,35673,6,2,L|196:54,1,120,4|0,1:2|0:0,0:1:0:0:
302,107,36117,6,0,L|301:146,4,31.6666658210755
353,218,36488,102,0,P|333:229|291:234,1,63.3333316421509
393,136,36710,1,0,0:0:0:0:
66,161,37229,6,0,P|164:100|141:239,1,324.999985122681
44,167,37895,102,2,P|100:84|197:103,1,209.999993591309,0|0,0:0|0:0,0:0:0:0:
318,201,38340,6,2,L|310:339,1,120,0|0,1:0|0:0,0:1:0:0:
203,267,38784,102,2,B|129:252|129:252|49:300,1,150,0|0,0:1|0:1,0:1:0:0:
114,164,39229,6,2,L|222:186,1,89.9999972534181,4|0,1:2|0:0,0:1:0:0:
257,0,39562,102,2,L|170:96,1,104.999996795654,4|0,1:2|0:0,0:1:0:0:
255,276,39895,6,2,P|306:201|283:113,1,187.500007152558,4|0,1:2|0:0,0:1:0:0:
186,77,40562,102,0,L|189:115,2,23.7499993658066,2|0|0,0:0|0:0|0:0,0:0:0:0:
50,158,40784,1,0,0:0:0:0:
44,190,40895,1,0,0:0:0:0:
38,222,41006,2,0,L|136:214,1,94.9999974632264,0|2,0:0|0:0,0:0:0:0:
217,298,41340,1,0,0:0:0:0:
195,323,41451,2,0,L|97:331,1,94.9999974632264
277,223,41895,6,2,B|303:225|303:225|321:221|321:221|339:226|339:226|365:224,1,89.9999972534181,0|0,0:0|0:0,0:0:0:0:
463,145,42340,102,0,L|458:79,1,44.999998626709,2|0,0:1|0:0,0:0:0:0:
327,20,42562,6,0,L|332:89,1,52.4999983978272,2|0,0:1|0:0,0:0:0:0:
206,187,42784,102,2,L|196:51,1,120,4|0,1:2|0:0,0:1:0:0:
103,127,43229,5,2,0:0:0:0:
301,147,43451,1,0,0:0:0:0:
132,242,43673,1,2,0:0:0:0:
78,118,43895,1,0,0:0:0:0:
323,142,44117,1,2,0:0:0:0:
114,260,44340,1,0,0:0:0:0:
359,284,44562,101,2,0:0:0:0:
359,284,44784,1,2,0:0:0:0:
211,153,45006,1,2,0:0:0:0:
211,153,45229,1,2,0:0:0:0:
72,312,45451,6,2,B|102:307|102:307|127:313|127:313|149:308|149:308|197:335|242:336|280:309,1,200,4|0,1:2|0:0,0:1:0:0:
382,210,46117,102,0,L|388:274,1,59.9999981689454,2|0,0:1|0:0,0:0:0:0:
217,214,46340,6,2,L|224:76,1,120,4|0,1:2|0:0,0:1:0:0:
318,119,46784,102,0,L|316:167,1,47.4999987316132,2|0,0:0|0:0,0:0:0:0:
400,70,47006,1,0,0:0:0:0:
420,163,47117,1,0,0:0:0:0:
420,163,47173,1,0,0:0:0:0:
420,163,47229,2,0,L|418:217,1,47.4999987316132,2|2,0:0|0:0,0:0:0:0:
346,272,47451,1,0,0:0:0:0:
257,237,47562,2,0,B|208:235|208:235|166:259,1,94.9999974632264,2|2,0:0|0:0,0:0:0:0:
59,307,47895,2,0,P|68:285|73:262,1,47.4999987316132,2|2,0:0|0:0,0:0:0:0:
21,154,48062,1,0,0:0:0:0:
21,154,48117,6,2,L|93:147,1,60,4|0,1:2|0:0,0:1:0:0:
187,137,48340,102,0,P|184:113|180:84,1,47.4999987316132
308,44,48562,1,2,0:0:0:0:
305,100,48673,1,2,0:0:0:0:
302,156,48784,1,2,0:0:0:0:
299,212,48895,1,2,0:0:0:0:
295,268,49006,2,0,L|355:260,1,47.4999987316132,2|0,0:0|0:0,0:0:0:0:
421,316,49229,1,2,0:1:0:0:
335,358,49340,1,0,1:0:0:0:
335,358,49395,1,0,1:0:0:0:
335,358,49451,6,2,B|216:370|216:370|136:335,1,179.999994506836,4|0,1:2|0:0,0:1:0:0:
40,235,49895,102,2,L|52:373,1,120,4|0,1:2|0:0,0:1:0:0:
182,257,50340,6,0,B|180:243|180:243|184:229|184:229|177:217|177:217|183:206|183:206|176:194|176:194|183:184|183:184|177:165|177:165|185:143|185:143|174:117|174:117|168:93|192:65|192:65|201:136|251:158|294:158|331:143|355:111|367:83|356:32,1,487.5,0|0,1:0|0:0,0:0:0:0:
276,61,52562,102,2,L|408:53,1,120,0|0,1:0|0:0,0:1:0:0:
480,150,53006,6,2,B|386:170|394:118|302:142,1,179.999994506836,8|0,1:2|0:0,0:1:0:0:
281,274,53451,102,2,P|324:264|347:226,1,89.9999972534181,4|0,1:2|0:0,0:1:0:0:
191,172,53784,1,4,1:2:0:0:
165,201,53895,6,2,L|174:282,1,55.0000016784668,8|0,0:0|0:0,0:1:0:0:
63,327,54117,102,2,L|67:274,1,40,4|0,1:2|0:0,0:1:0:0:
37,184,54340,1,8,0:0:0:0:
112,57,54562,1,0,0:0:0:0:
117,84,54673,1,0,0:0:0:0:
122,111,54784,6,2,B|171:120|171:120|216:103,1,94.9999974632264,8|2,0:0|0:1,0:1:0:0:
303,9,55229,2,0,L|279:7,3,23.7499993658066,8|0|0|0,0:0|0:0|0:0|0:0,0:0:0:0:
317,20,55451,102,0,B|308:48|308:48|314:80,1,52.4999983978272,2|0,0:1|0:0,0:0:0:0:
445,172,55673,6,2,B|457:124|457:124|430:71,1,97.4999955368044,8|0,0:0|0:0,0:1:0:0:
395,231,56117,102,0,P|421:246|451:250,1,50,8|0,1:2|0:0,0:0:0:0:
332,154,56451,6,2,L|282:150,2,50,4|8|0,1:2|0:0|0:0,0:1:0:0:
212,199,56784,102,0,P|197:159|199:125,1,59.9999981689454,2|0,0:1|0:0,0:0:0:0:
120,27,57006,6,2,L|104:164,1,120,12|0,1:2|0:0,0:1:0:0:
115,268,57451,101,10,0:0:0:0:
256,338,57673,1,0,0:0:0:0:
397,268,57895,1,10,0:0:0:0:
256,198,58117,1,0,0:0:0:0:
256,352,58340,1,10,0:0:0:0:
423,269,58562,1,0,0:0:0:0:
88,269,58784,5,10,0:0:0:0:
88,269,59006,1,2,0:0:0:0:
256,185,59229,1,10,0:0:0:0:
256,185,59451,1,2,0:0:0:0:
77,105,59673,102,2,P|120:106|161:83,1,80,12|0,1:2|0:0,0:1:0:0:
254,27,60006,1,0,0:0:0:0:
276,43,60117,2,0,L|273:93,1,40,8|0,0:0|0:0,0:0:0:0:
399,185,60340,6,0,B|409:155|409:155|400:122,1,59.9999981689454,2|0,0:1|0:0,0:0:0:0:
296,265,60562,102,2,B|326:266|326:266|355:259|355:259|391:278|428:267,1,120,12|0,1:2|0:0,0:1:0:0:
311,351,61006,2,0,L|272:348,1,40,8|0,0:0|0:0,0:0:0:0:
190,310,61229,5,4,1:2:0:0:
110,351,61340,2,0,L|113:376,2,22.4999993133545,0|0|8,0:0|0:0|0:0,0:0:0:0:
34,302,61562,102,0,B|20:248|20:248|38:182,1,110.000003356934,4|0,1:2|0:0,0:0:0:0:
117,160,61895,6,0,L|166:156,1,40,12|0,1:2|0:0,0:0:0:0:
237,196,62117,1,0,0:0:0:0:
313,147,62229,1,0,0:0:0:0:
313,147,62284,1,0,0:0:0:0:
313,147,62340,102,0,P|326:103|325:82,1,47.4999987316132,8|0,0:0|0:0,0:0:0:0:
417,34,62562,2,2,L|422:90,1,47.4999987316132,0|0,0:0|0:0,0:1:0:0:
502,169,62784,2,0,L|506:121,1,47.4999987316132,10|2,0:0|0:3,0:0:0:0:
465,249,63006,6,0,P|492:257|507:259,1,29.9999990844727,2|0,0:1|0:0,0:0:0:0:
412,175,63229,1,12,0:0:0:0:
278,272,63451,102,0,B|240:275|240:275|190:261,1,75.0000028610231,2|2,0:0|0:0,0:0:0:0:
249,184,63784,1,2,0:0:0:0:
64,53,64117,22,0,B|23:94|28:148|28:148|61:168,1,140,4|0,1:2|0:0,0:0:0:0:
88,262,64562,6,2,P|153:195|136:103,1,194.999991073609,0|0,1:0|0:0,0:1:0:0:
249,184,65006,102,0,P|282:211|310:219,1,55.0000016784668,2|2,1:3|0:3,0:0:0:0:
432,129,65229,2,0,L|338:118,1,82.5000025177003,2|0,0:3|0:0,0:0:0:0:
330,117,65451,1,0,1:0:0:0:
269,32,65562,6,2,P|307:13|321:12,1,50,0|0,0:0|0:0,0:1:0:0:
452,143,65895,102,0,L|456:206,1,55.0000016784668,2|2,1:3|0:3,0:0:0:0:
357,302,66117,2,0,L|350:197,1,82.5000025177003,2|0,0:3|0:0,0:0:0:0:
349,200,66340,1,0,1:0:0:0:
256,265,66451,6,2,B|232:273|232:273|197:271,1,50,0|0,0:0|0:0,0:1:0:0:
86,161,66784,102,0,B|113:159|113:159|126:153|126:153|138:157|138:157|166:156,1,82.5000025177003,0|0,1:0|0:0,0:0:0:0:
257,77,67006,6,0,P|225:69|193:68,1,44.999998626709,2|0,0:0|0:0,0:0:0:0:
278,187,67229,1,0,1:0:0:0:
314,174,67340,1,0,0:0:0:0:
350,161,67451,102,0,B|364:139|364:139|341:124,1,50,0|0,1:0|0:0,0:0:0:0:
195,270,67673,5,0,1:0:0:0:
361,270,67895,2,0,L|423:265,1,42.5000008106232,2|0,0:3|0:0,0:0:0:0:
278,353,68117,102,2,B|212:359|212:359|123:366|103:288|107:263,1,227.499989585877,0|0,1:0|0:0,0:1:0:0:
51,170,68562,6,0,B|105:182|105:182|158:167,1,110.000003356934,0|2,1:0|0:0,0:0:0:0:
224,101,68895,1,2,0:3:0:0:
233,81,69006,1,2,1:3:0:0:
248,191,69117,102,2,P|245:232|242:269,1,64.9999970245363,0|0,0:0|0:0,0:1:0:0:
379,345,69451,6,0,P|381:290|385:235,1,110.000003356934,0|2,1:0|0:0,0:0:0:0:
458,177,69784,1,2,0:3:0:0:
477,190,69895,1,2,1:3:0:0:
327,161,70006,102,2,P|319:126|329:86,1,64.9999970245363,0|0,0:0|1:0,0:1:0:0:
376,21,70284,1,0,1:0:0:0:
376,21,70340,6,0,P|335:21|277:1,1,82.5000025177003,0|0,1:0|0:0,0:0:0:0:
216,36,70562,2,0,L|221:124,1,82.5000025177003,0|0,1:0|0:0,0:0:0:0:
227,201,70784,2,0,B|185:196|185:196|138:216,1,82.5000025177003,0|0,1:0|0:0,0:0:0:0:
161,293,71006,2,0,B|203:298|203:298|250:278,1,82.5000025177003,0|0,1:0|0:0,0:0:0:0:
331,245,71229,102,2,B|329:252|329:252|331:258|331:258|329:263|329:263|330:267|330:267|328:271|328:271|329:275|329:275|328:279|328:279|329:282|329:282|328:287|328:287|329:291|329:291|327:295|327:295|329:299|329:299|327:305|327:305|329:310|329:310|327:316|327:316|328:321|328:321|326:327|326:327|326:328,1,87.5,0|0,1:0|0:0,0:1:0:0:
414,205,71673,6,0,B|280:182|280:182|334:156,1,194.999991073609,0|0,1:0|0:0,0:0:0:0:
502,178,72117,102,0,P|506:215|495:248,1,55.0000016784668,2|2,1:3|0:3,0:0:0:0:
419,111,72340,2,0,L|426:14,1,82.5000025177003,2|0,0:3|0:0,0:0:0:0:
427,9,72562,1,0,1:0:0:0:
319,62,72673,6,2,P|289:69|262:69,1,50,0|0,0:0|0:0,0:1:0:0:
115,147,73006,102,0,P|145:148|175:155,1,55.0000016784668,2|2,1:3|0:3,0:0:0:0:
207,306,73229,2,0,B|166:296|166:296|141:263,1,82.5000025177003,2|0,0:3|0:0,0:0:0:0:
131,248,73451,1,0,1:0:0:0:
258,212,73562,6,2,B|271:212|283:207|283:207|297:212|306:211,1,50,0|0,0:0|0:0,0:1:0:0:
444,348,73895,102,0,B|403:355|403:355|357:336,1,82.5000025177003,0|0,1:0|0:0,0:0:0:0:
407,192,74117,6,0,B|413:257,1,44.999998626709,2|0,0:0|0:0,0:0:0:0:
280,323,74340,1,0,1:0:0:0:
242,316,74451,1,0,0:0:0:0:
204,309,74562,102,0,B|196:283|196:283|212:260,1,50,0|0,1:0|0:0,0:0:0:0:
309,118,74784,5,0,1:0:0:0:
164,162,75006,2,0,P|121:171|105:170,1,42.5000008106232,2|0,0:3|0:0,0:0:0:0:
214,55,75229,102,2,P|289:6|408:65,1,227.499989585877,0|0,1:0|0:0,0:1:0:0:
460,163,75673,6,0,L|449:288,1,110.000003356934,0|2,1:0|0:0,0:0:0:0:
371,322,76006,1,2,0:3:0:0:
336,338,76117,2,0,P|302:345|271:344,1,55.0000016784668,2|0,1:3|0:0,0:0:0:0:
166,264,76340,2,0,P|194:265|221:272,1,55.0000016784668,0|0,1:0|0:0,0:0:0:0:
77,309,76562,102,0,B|66:248|66:248|97:188,1,120,2|0,0:0|1:0,0:0:0:0:
174,115,77006,6,2,P|137:115|86:99,1,82.5000025177003,0|0,1:0|0:0,0:1:0:0:
175,24,77229,102,2,P|214:12|262:14,1,62.5,0|0,1:0|0:0,0:1:0:0:
302,142,77451,5,2,1:2:0:0:
464,93,77673,1,2,1:2:0:0:
299,312,77895,1,2,1:2:0:0:
270,327,78006,102,0,L|182:315,1,81.2499962806703,2|0,1:2|0:0,0:0:0:0:
41,242,78340,6,0,B|70:207|95:196|95:196|125:199|160:216,1,140,4|0,1:2|0:0,0:0:0:0:
219,136,78784,102,2,B|183:112|129:98|129:98|185:85|223:62,1,194.999991073609,0|0,1:0|0:0,0:1:0:0:
363,103,79229,6,0,L|308:99,1,55.0000016784668,2|2,1:3|0:3,0:0:0:0:
351,223,79451,2,0,B|385:222|385:222|401:217|401:217|452:216,1,82.5000025177003,2|0,0:3|0:0,0:0:0:0:
452,216,79673,1,0,1:0:0:0:
400,327,79784,102,2,P|361:316|344:313,1,50,0|0,0:0|0:0,0:1:0:0:
178,373,80117,6,0,P|209:369|239:360,1,55.0000016784668,2|2,1:3|0:3,0:0:0:0:
108,205,80340,2,0,B|95:245|95:245|98:285,1,82.5000025177003,2|0,0:3|0:0,0:0:0:0:
100,304,80562,1,0,1:0:0:0:
215,245,80673,102,2,L|213:185,1,50,0|0,0:0|0:0,0:1:0:0:
317,57,81006,6,0,P|279:74|233:76,1,82.5000025177003,0|0,1:0|0:0,0:0:0:0:
319,162,81229,102,0,P|352:186|366:204,1,44.999998626709,2|0,0:0|0:0,0:0:0:0:
409,108,81451,1,0,1:0:0:0:
414,70,81562,1,0,0:0:0:0:
419,32,81673,6,0,B|446:22|446:22|457:51,1,50,0|0,1:0|0:0,0:0:0:0:
492,216,81895,101,0,1:0:0:0:
284,243,82117,2,0,L|222:242,1,42.5000008106232,2|0,0:3|0:0,0:0:0:0:
299,363,82340,6,2,B|345:363|345:363|378:352|378:352|419:367|419:367|452:358|452:358|521:358,1,227.499989585877,0|0,1:0|0:0,0:1:0:0:
492,216,82784,102,0,L|373:215,1,110.000003356934,0|2,1:0|0:0,0:0:0:0:
300,169,83117,1,2,0:3:0:0:
298,147,83229,1,2,1:3:0:0:
246,252,83340,6,2,B|217:268|217:268|171:268,1,64.9999970245363,0|0,0:0|0:0,0:1:0:0:
52,157,83673,102,0,P|98:150|162:142,1,110.000003356934,0|2,1:0|0:0,0:0:0:0:
240,93,84006,1,2,0:3:0:0:
237,71,84117,1,2,1:3:0:0:
231,203,84229,6,2,P|231:241|228:280,1,64.9999970245363,0|0,0:0|1:0,0:1:0:0:
179,349,84506,1,0,1:0:0:0:
179,349,84562,102,0,B|219:341|219:341|258:355,1,82.5000025177003,0|0,1:0|0:0,0:0:0:0:
338,375,84784,2,0,L|329:272,1,82.5000025177003,0|0,1:0|0:0,0:0:0:0:
383,228,85006,2,0,P|432:240|471:232,1,82.5000025177003,0|0,1:0|0:0,0:0:0:0:
428,157,85229,2,0,P|379:145|340:153,1,82.5000025177003,0|0,1:0|0:0,0:0:0:0:
270,213,85451,6,2,B|264:214|264:214|258:212|258:212|251:214|251:214|245:212|245:212|239:214|239:214|232:212|232:212|225:213|225:213|218:211|218:211|212:213|212:213|206:210|206:210|200:212|200:212|195:210|195:210|190:211|190:211|185:211|185:211|179:212,1,87.5,0|0,1:0|0:0,0:1:0:0:
77,155,85895,102,0,B|130:157|130:157|154:211|154:211|127:266|127:266|61:264,1,227.499989585877,0|0,1:0|0:0,0:0:0:0:
140,369,86340,6,0,L|213:373,1,55.0000016784668,2|2,1:3|0:3,0:0:0:0:
334,293,86562,2,0,B|293:286|292:299|251:293,1,82.5000025177003,2|0,0:3|0:0,0:0:0:0:
232,290,86784,1,0,1:0:0:0:
336,203,86895,102,2,P|360:208|383:217,1,50,0|0,0:0|1:0,0:1:0:0:
484,290,87229,5,2,1:2:0:0:
488,251,87340,1,0,1:0:0:0:
492,212,87451,2,0,L|486:154,1,55.0000016784668,2|0,1:2|0:0,0:0:0:0:
389,39,87673,1,2,1:2:0:0:
372,73,87784,2,0,L|366:127,1,55.0000016784668,2|0,0:0|0:0,0:0:0:0:
255,203,88006,1,2,1:2:0:0:
237,169,88117,2,0,L|231:111,1,55.0000016784668,2|0,1:2|1:0,0:0:0:0:
106,45,88340,101,2,0:0:0:0:
100,99,88451,1,2,1:2:0:0:
94,153,88562,1,2,1:2:0:0:
88,207,88673,1,2,0:0:0:0:
82,261,88784,2,0,L|121:260,1,27.5000008392334,2|0,1:2|0:0,0:0:0:0:
203,349,89006,6,2,L|122:350,1,69.9999978637696,0|0,1:0|0:0,0:1:0:0:
235,255,89340,1,0,1:0:0:0:
235,255,89395,1,0,1:0:0:0:
235,255,89451,2,0,L|300:254,1,52.4999983978272,0|0,1:0|0:0,0:0:0:0:
382,184,89673,102,2,P|398:209|406:267,1,80,4|0,1:2|1:0,0:1:0:0:
400,169,90006,6,2,P|416:194|428:263,1,100,4|0,1:2|0:0,0:1:0:0:
418,154,90340,102,2,P|434:179|419:352,1,209.999993591309,4|0,1:2|0:0,0:1:0:0:
311,375,90784,6,0,L|193:366,1,110.000003356934,0|2,1:0|0:0,0:0:0:0:
125,311,91117,1,0,0:0:0:0:
97,284,91229,2,0,B|91:254|91:254|96:222,1,55.0000016784668,2|0,1:3|0:0,0:0:0:0:
170,125,91451,2,0,B|176:155|176:155|173:180,1,55.0000016784668,2|0,0:0|0:0,0:0:0:0:
40,115,91673,101,6,0:0:0:0:
251,266,92117,5,2,0:0:0:0:
289,262,92229,1,2,0:0:0:0:
327,258,92340,1,0,3:0:0:0:
411,73,92562,102,0,L|316:64,1,80,2|0,0:1|0:0,0:0:0:0:
411,73,93006,22,0,L|239:57,1,165.000005035401,6|0,1:2|0:0,0:0:0:0:
170,91,93451,2,0,P|157:143|176:199,1,110.000003356934,0|0,1:0|0:0,0:0:0:0:
341,293,93895,2,0,P|354:240|338:188,1,110.000003356934,0|0,1:0|0:0,0:0:0:0:
292,119,94229,1,0,0:0:0:0:
268,89,94340,6,0,L|385:86,1,110.000003356934,0|0,1:0|0:0,0:0:0:0:
263,243,94784,2,0,L|146:240,1,110.000003356934,0|0,1:0|0:0,0:0:0:0:
77,119,95229,102,2,P|68:83|70:62,1,55.0000016784668,2|0,1:2|0:0,0:1:0:0:
325,22,95451,2,2,P|334:48|334:76,1,55.0000016784668,0|0,0:0|0:0,0:1:0:0:
178,76,95673,6,2,P|178:44|192:14,1,55.0000016784668,2|0,1:2|0:0,0:0:0:0:
442,65,95895,2,2,P|443:92|435:119,1,55.0000016784668,0|0,1:0|0:0,0:0:0:0:
338,234,96117,102,0,L|440:231,1,89.9999972534181,2|2,1:2|0:3,0:0:0:0:
323,331,96451,1,2,0:0:0:0:
286,320,96562,6,2,P|239:253|242:207,1,110.000003356934,0|2,1:2|0:0,0:1:0:0:
350,60,97006,2,0,P|296:50|233:41,1,110.000003356934,0|0,1:0|0:0,0:0:0:0:
158,36,97340,1,0,0:0:0:0:
123,53,97451,2,0,L|127:117,1,55.0000016784668,0|0,1:0|0:0,0:0:0:0:
15,241,97673,2,0,P|14:213|25:188,1,55.0000016784668
235,312,97895,102,0,B|177:312|177:312|135:302|135:302|70:302,1,165.000005035401,2|2,1:0|0:1,0:0:0:0:
15,241,98340,1,0,1:0:0:0:
173,151,98562,1,2,0:1:0:0:
407,301,98710,5,0,1:0:0:0:
407,301,98784,1,6,1:0:0:0:
307,43,99006,1,4,1:0:0:0:
235,312,99229,1,4,1:0:0:0:
451,136,99451,1,4,1:0:0:0:
173,150,99673,102,0,B|126:158|95:153|95:153|65:142|27:111,1,157.499995193482,4|0,1:0|0:0,0:0:0:0:
128,48,100117,6,2,B|242:39|242:39|226:49|226:49|207:78,1,165.000005035401,0|0,1:0|0:0,0:1:0:0:
253,143,100562,1,0,1:0:0:0:
402,92,100784,1,0,0:0:0:0:
431,248,101006,2,0,L|421:359,1,110.000003356934,0|0,1:0|0:0,0:0:0:0:
342,330,101340,1,0,0:0:0:0:
308,312,101451,102,0,P|262:300|231:297,1,55.0000016784668,0|0,1:0|0:0,0:0:0:0:
114,300,101673,2,0,P|147:266|165:240,1,55.0000016784668
221,137,101895,2,0,P|233:182|246:211,1,55.0000016784668,0|0,1:0|0:0,0:0:0:0:
349,131,102117,1,0,0:0:0:0:
179,39,102340,2,0,B|123:34|123:34|68:68,1,110.000003356934,2|0,1:2|0:0,0:0:0:0:
75,216,102784,1,0,1:0:0:0:
256,100,103006,1,2,1:2:0:0:
437,216,103229,6,0,L|429:306,1,89.9999972534181,2|2,1:2|0:3,0:0:0:0:
480,141,103673,102,2,B|428:168|428:168|306:144,1,165.000005035401,0|0,1:0|0:0,0:1:0:0:
256,100,104117,2,0,P|279:151|265:211,1,110.000003356934,0|0,1:0|0:0,0:0:0:0:
197,161,104451,1,0,0:0:0:0:
171,133,104562,2,0,P|165:102|168:76,1,55.0000016784668,0|0,1:0|0:0,0:0:0:0:
54,200,104784,2,0,P|29:180|15:158,1,55.0000016784668,0|0,1:0|0:0,0:0:0:0:
117,317,105006,6,0,P|189:310|290:292,1,165.000005035401,2|0,0:0|1:0,0:0:0:0:
345,243,105451,1,0,1:0:0:0:
197,161,105673,1,2,1:2:0:0:
328,44,105895,2,0,B|336:69|336:69|306:77,1,55.0000016784668,0|0,1:0|0:0,0:0:0:0:
75,91,106117,2,0,B|67:66|67:66|97:58,1,55.0000016784668,2|0,1:2|0:0,0:0:0:0:
217,194,106340,1,2,1:2:0:0:
237,227,106451,2,0,B|165:238|176:209|101:216,1,137.500004196167,2|0,1:2|0:0,0:0:0:0:
128,330,106784,102,0,L|223:322,1,89.9999972534181,6|2,1:2|0:1,0:0:0:0:
62,366,107229,6,2,L|249:350,1,165.000005035401,0|0,1:0|0:0,0:1:0:0:
302,320,107673,2,0,B|323:267|323:267|303:196,1,110.000003356934,0|0,1:0|0:0,0:0:0:0:
277,139,108006,1,0,0:0:0:0:
259,105,108117,2,0,P|295:111|323:111,1,55.0000016784668,0|0,1:0|0:0,0:0:0:0:
148,28,108340,2,0,P|120:29|93:34,1,55.0000016784668
18,200,108562,102,0,B|48:249|108:241|108:241|166:231,1,165.000005035401,0|0,1:0|0:0,0:0:0:0:
248,218,109006,1,0,1:0:0:0:
90,155,109229,1,0,0:0:0:0:
153,334,109451,6,2,P|191:357|218:365,1,55.0000016784668,2|0,1:2|0:0,0:1:0:0:
362,345,109673,2,2,P|324:322|297:314,1,55.0000016784668,0|0,0:0|0:0,0:1:0:0:
200,191,109895,102,2,P|238:214|265:222,1,55.0000016784668,2|0,1:2|0:0,0:0:0:0:
409,202,110117,2,2,P|371:179|344:171,1,55.0000016784668,0|0,1:0|0:0,0:0:0:0:
134,128,110340,6,0,P|110:183|118:231,1,89.9999972534181,2|0,1:2|0:0,0:0:0:0:
228,116,110673,1,2,0:0:0:0:
213,80,110784,102,2,P|144:37|110:38,1,110.000003356934,0|2,1:0|0:0,0:1:0:0:
299,203,111229,2,0,P|352:194|394:159,1,110.000003356934,0|0,1:0|0:0,0:0:0:0:
455,105,111562,1,0,0:0:0:0:
488,125,111673,2,0,L|484:186,1,55.0000016784668,0|0,1:0|0:0,0:0:0:0:
315,107,111895,2,0,L|319:46,1,55.0000016784668
422,243,112117,6,0,L|418:304,1,55.0000016784668,2|0,1:2|0:0,0:0:0:0:
245,214,112340,2,0,P|279:203|302:203,1,55.0000016784668,2|0,0:0|0:0,0:0:0:0:
199,326,112562,1,2,1:2:0:0:
161,323,112673,1,2,0:0:0:0:
123,320,112784,1,2,0:0:0:0:
140,136,112932,101,0,1:0:0:0:
140,136,113006,2,0,L|189:133,2,36.6666677856446,2|0|0,1:2|0:0|0:0,0:0:0:0:
65,193,113229,2,0,P|48:141|53:104,1,73.3333355712891,2|0,0:0|1:0,0:0:0:0:
106,56,113451,2,0,L|218:48,1,110.000003356934,2|2,1:2|0:0,0:0:0:0:
455,146,113895,6,0,B|406:147|406:147|355:132|355:132|299:133,1,157.499995193482,2|0,1:2|0:0,0:0:0:0:
243,250,114340,102,2,P|309:286|326:201,1,165.000005035401,0|0,1:0|0:0,0:1:0:0:
421,227,114784,2,0,P|416:273|410:293,1,55.0000016784668,2|0,1:0|0:0,0:0:0:0:
279,166,115006,1,0,0:0:0:0:
299,133,115117,2,0,P|294:87|288:67,1,55.0000016784668,2|0,0:1|1:0,0:0:0:0:
121,165,115340,2,0,B|104:217|104:217|123:295,1,110.000003356934,2|0,0:1|0:0,0:0:0:0:
235,357,115673,6,0,L|298:350,1,55.0000016784668,2|0,1:0|0:0,0:0:0:0:
279,166,115895,1,0,0:0:0:0:
242,174,116006,2,0,L|216:232,1,55.0000016784668,2|0,1:0|1:0,0:0:0:0:
396,271,116229,2,0,L|358:219,1,55.0000016784668,2|0,0:1|0:0,0:0:0:0:
210,329,116451,1,2,1:2:0:0:
235,357,116562,102,0,L|363:343,1,110.000003356934,2|0,1:2|0:0,0:0:0:0:
122,230,117006,1,2,1:2:0:0:
52,354,117229,1,2,1:2:0:0:
219,224,117451,6,2,B|220:218|220:218|218:212|218:212|218:208|218:208|216:203|216:203|218:198|218:198|216:194|216:194|217:190|217:190|216:184|216:184|217:179|217:179|214:175|214:175|216:169|216:169|213:166|213:166|216:161|216:161|214:156|214:156|215:152|215:152|213:148|213:148|215:144|215:144|213:140|213:140|215:136|215:136|213:132|213:132|214:128|214:128|212:122|212:122|215:117|215:117|212:112|212:112|214:106|214:106|212:101|212:101|213:96|213:96|212:91|212:91|212:86|212:86|213:80,1,149.999995422363,2|0,1:2|1:0,0:0:0:0:
126,51,117895,102,2,B|180:53|212:86|212:86|244:47|295:40,1,192.500005874634,0|0,1:0|0:0,0:1:0:0:
359,133,118340,2,0,L|352:198,1,55.0000016784668,2|0,1:0|0:0,0:0:0:0:
87,206,118562,2,0,L|74:153,1,55.0000016784668,2|0,0:1|0:0,0:0:0:0:
217,186,118784,1,0,1:0:0:0:
219,224,118895,2,2,L|226:336,1,110.000003356934,0|0,1:0|0:0,0:1:0:0:
453,179,119229,6,0,B|448:180|448:180|445:173|445:173|440:183|440:183|436:175|436:175|431:186|431:186|425:170|425:170|417:185|417:185|409:167|409:167|399:185|399:185|392:165|392:165|379:183|379:183|352:196|297:185|277:146|289:102,1,310,4|0,1:2|0:0,0:0:0:0:
316,27,121006,1,0,3:0:0:0:
256,192,131673,12,2,134340,0:0:0:0:
256,192,134784,69,2,0:0:0:0:
91,88,135229,38,0,P|133:73|172:77,1,69.9999978637696,6|2,0:0|0:3,0:0:0:0:
321,239,135673,2,0,B|266:234|266:234|251:229|251:229|236:232|236:232|182:227,1,139.999995727539,2|2,0:3|0:3,0:0:0:0:
158,233,136229,1,0,0:0:0:0:
278,351,136451,2,0,P|327:344|354:338,1,69.9999978637696,2|0,0:3|0:0,0:0:0:0:
369,329,136784,1,2,0:3:0:0:
471,154,137006,70,0,L|466:202,1,34.9999989318848,2|0,0:3|0:0,0:0:0:0:
369,57,137340,1,2,0:3:0:0:
287,155,137562,1,0,0:0:0:0:
287,155,137673,2,0,B|251:157|251:157|211:142,1,69.9999978637696,2|2,0:3|0:0,0:0:0:0:
196,135,138006,1,0,0:0:0:0:
89,255,138229,2,0,P|141:250|165:246,1,69.9999978637696,2|0,0:3|0:0,0:0:0:0:
182,242,138562,1,2,0:0:0:0:
190,44,138784,38,0,P|140:62|105:146,1,139.999995727539,2|2,0:0|0:3,0:0:0:0:
332,111,139673,1,2,0:3:0:0:
332,111,139784,1,0,0:0:0:0:
246,223,140006,2,0,L|162:215,1,69.9999978637696,2|0,0:3|0:0,0:0:0:0:
153,224,140340,1,2,0:3:0:0:
295,343,140562,70,0,P|301:318|305:299,1,34.9999989318848,2|0,0:3|0:0,0:0:0:0:
444,207,140895,1,2,0:3:0:0:
444,207,141006,2,0,L|447:250,1,34.9999989318848,2|0,0:0|0:0,0:0:0:0:
435,264,141229,1,2,0:3:0:0:
262,176,141451,1,2,0:0:0:0:
262,176,141562,2,0,P|281:122|285:99,1,69.9999978637696,0|2,0:0|0:3,0:0:0:0:
120,203,142006,1,0,0:0:0:0:
120,203,142117,2,0,L|124:248,1,34.9999989318848,2|2,0:0|0:3,0:0:0:0:
205,315,142340,38,0,L|282:309,1,69.9999978637696,6|2,0:0|0:3,0:0:0:0:
460,182,142784,2,0,B|412:162|412:162|311:178,1,139.999995727539,2|2,0:3|0:3,0:0:0:0:
300,180,143340,1,0,0:0:0:0:
181,97,143562,1,2,0:3:0:0:
86,210,143784,1,0,0:0:0:0:
86,210,143895,1,2,0:3:0:0:
209,290,144117,69,2,0:3:0:0:
209,290,144229,2,0,L|282:282,1,69.9999978637696
303,280,144562,2,0,P|283:212|289:135,1,139.999995727539,2|2,0:0|0:0,0:0:0:0:
127,40,145451,2,0,P|134:71|138:115,1,69.9999978637696,2|2,0:0|0:0,0:0:0:0:
74,200,145895,38,0,B|128:198|128:198|157:186|157:186|212:184,1,139.999995727539,2|0,0:0|0:0,0:0:0:0:
231,275,146562,2,0,B|176:277|176:277|147:289|147:289|93:291,1,139.999995727539,2|2,0:0|0:0,0:0:0:0:
112,381,147229,2,0,B|151:380,2,23.3333326212565,2|2|2,0:0|0:0|0:0,0:0:0:0:
288,353,147673,70,0,P|321:302|313:225,1,139.999995727539
248,139,148340,1,2,0:0:0:0:
94,223,148562,2,0,L|175:226,1,69.9999978637696,2|0,0:0|0:0,0:0:0:0:
185,237,148895,2,0,P|184:275|183:317,1,69.9999978637696,2|2,0:0|0:0,0:0:0:0:
199,325,149229,1,2,0:0:0:0:
336,127,149451,54,0,P|260:114|161:102,1,170.000003242493,2|2,1:2|0:0,0:0:0:0:
322,224,150117,2,0,P|353:223|376:219,1,42.5000008106232,2|2,0:0|0:0,0:0:0:0:
458,204,150340,1,2,1:2:0:0:
458,204,150451,1,2,0:0:0:0:
331,335,150673,2,0,P|283:314|237:315,1,85.0000016212464,2|0,0:0|0:0,0:0:0:0:
221,317,151006,2,0,P|193:326|166:328,1,42.5000008106232,2|2,0:0|0:0,0:0:0:0:
71,192,151229,6,0,B|113:188|113:188|148:212,1,85.0000016212464,2|2,0:0|0:0,0:0:0:0:
173,228,151562,2,0,L|167:141,1,85.0000016212464,2|2,1:2|1:2,0:0:0:0:
344,143,152006,1,2,0:0:0:0:
344,143,152117,2,0,L|339:228,1,85.0000016212464,2|2,1:2|1:2,0:0:0:0:
256,56,152562,2,0,P|303:51|355:41,1,85.0000016212464,2|2,0:0|0:0,0:0:0:0:
369,38,152895,1,0,0:0:0:0:
398,31,153006,101,2,1:2:0:0:
488,168,153229,1,2,0:0:0:0:
488,168,153340,2,0,L|489:196,2,21.2500004053116,0|0|2,0:0|0:0|0:0,0:0:0:0:
339,227,153673,1,2,0:0:0:0:
339,227,153784,2,0,L|279:221,1,42.5000008106232,2|0,0:0|1:0,0:0:0:0:
195,324,154006,2,0,L|237:319,1,42.5000008106232,2|0,0:0|0:0,0:0:0:0:
184,217,154229,2,0,L|84:207,1,85.0000016212464,2|0,0:0|0:0,0:0:0:0:
69,205,154562,1,2,0:0:0:0:
130,44,154784,5,2,0:0:0:0:
256,141,155006,1,2,0:0:0:0:
256,141,155117,1,0,0:0:0:0:
256,141,155229,1,2,1:2:0:0:
382,44,155451,1,2,0:0:0:0:
443,205,155673,1,2,1:2:0:0:
317,302,155895,1,2,0:0:0:0:
317,302,156006,1,0,0:0:0:0:
317,302,156117,1,2,0:0:0:0:
142,218,156340,1,2,0:0:0:0:
142,218,156451,1,0,0:0:0:0:
142,218,156562,102,0,L|138:264,1,42.5000008106232,2|2,1:2|0:0,0:0:0:0:
322,114,157006,6,2,P|315:89|288:113,1,64.9999970245363,2|0,0:0|0:0,0:1:0:0:
361,207,157229,102,0,L|380:207,5,14.1666669368744
277,268,157451,2,0,L|245:267,3,21.2500004053116,2|2|2|2,1:2|0:0|0:0|0:0,0:0:0:0:
371,310,157673,2,0,B|414:311|414:311|451:292,1,85.0000016212464,2|0,0:0|0:0,0:0:0:0:
474,273,158006,6,0,L|481:228,1,42.5000008106232,2|0,0:0|0:0,0:0:0:0:
334,109,158229,1,2,0:0:0:0:
334,109,158340,2,0,L|328:149,3,21.2500004053116,2|2|2|2,0:0|0:0|0:0|0:0,0:0:0:0:
347,244,158562,1,2,0:0:0:0:
347,244,158673,2,0,L|388:250,1,42.5000008106232,2|0,0:0|0:0,0:0:0:0:
468,98,158895,2,0,L|426:91,1,42.5000008106232,2|0,1:2|0:0,0:0:0:0:
309,23,159117,2,0,L|350:16,1,42.5000008106232,2|0,0:0|1:0,0:0:0:0:
203,23,159340,2,0,L|162:16,1,42.5000008106232,2|0,0:0|0:0,0:0:0:0:
44,98,159562,1,2,0:0:0:0:
44,98,159673,2,0,L|86:91,1,42.5000008106232,2|0,0:0|0:0,0:0:0:0:
211,131,159895,1,2,0:0:0:0:
211,131,160006,1,0,0:0:0:0:
211,131,160117,102,0,P|203:165|193:221,1,85.0000016212464,2|0,1:2|0:0,0:0:0:0:
301,298,160562,1,2,0:0:0:0:
386,170,160784,2,0,P|376:128|369:86,1,85.0000016212464,2|0,0:0|1:0,0:0:0:0:
361,57,161117,2,0,P|318:52|273:60,1,85.0000016212464,2|0,0:0|0:0,0:0:0:0:
250,73,161451,2,0,L|195:68,1,42.5000008106232,2|2,0:0|0:0,0:0:0:0:
93,54,161673,1,0,0:0:0:0:
93,54,161784,1,0,0:0:0:0:
93,54,161895,6,2,P|71:73|29:68,1,64.9999970245363,0|0,0:1|0:0,0:1:0:0:
140,148,162117,102,0,L|173:146,3,21.2500004053116
59,210,162340,1,0,0:0:0:0:
59,210,162451,1,0,0:0:0:0:
59,210,162562,2,0,P|52:241|51:264,1,42.5000008106232,0|0,1:0|0:0,0:0:0:0:
186,309,162784,6,0,L|191:265,3,28.3333338737488,2|2|2|2,1:2|0:0|0:0|0:0,0:0:0:0:
256,220,163080,1,2,0:0:0:0:
322,280,163229,2,0,L|326:309,3,28.3333338737488,2|2|2|2,0:0|0:0|0:0|0:0,0:0:0:0:
256,220,163525,2,0,L|256:175,1,28.3333338737488,2|0,0:0|0:0,0:0:0:0:
314,138,163673,102,0,P|273:139|224:104,1,85.0000016212464,2|0,1:2|0:0,0:0:0:0:
215,96,164006,2,0,L|217:44,1,42.5000008106232,2|2,0:1|0:0,0:0:0:0:
336,228,164229,1,2,0:1:0:0:
336,228,164340,1,2,0:0:0:0:
336,228,164451,2,0,P|307:224|287:214,1,42.5000008106232,2|0,0:1|1:0,0:0:0:0:
366,65,164673,2,0,P|385:57|407:55,1,42.5000008106232,2|0,0:1|0:0,0:0:0:0:
253,100,164895,1,2,0:0:0:0:
253,100,165006,6,0,L|150:88,1,85.0000016212464,2|0,1:0|0:0,0:0:0:0:
141,76,165340,2,0,L|135:109,1,21.2500004053116,2|2,0:1|0:0,0:0:0:0:
113,64,165451,1,2,1:0:0:0:
143,183,165673,2,0,L|198:189,1,42.5000008106232,2|0,1:0|0:0,0:0:0:0:
109,280,165895,2,0,P|89:287|68:288,1,42.5000008106232
190,341,166117,102,0,L|231:338,2,28.3333338737488,2|2|2,0:0|0:0|0:0,0:0:0:0:
253,242,166340,2,0,P|297:276|314:307,1,85.0000016212464,2|0,1:0|0:0,0:0:0:0:
233,64,166784,2,0,L|348:55,1,85.0000016212464,2|0,1:0|0:0,0:0:0:0:
345,67,167117,2,0,L|344:100,1,21.2500004053116
373,76,167229,6,0,L|368:124,1,42.5000008106232,2|2,0:1|0:0,0:0:0:0:
415,294,167562,2,0,B|372:289|372:289|323:309,1,85.0000016212464,6|0,1:2|0:0,0:0:0:0:
306,317,167895,102,0,L|255:310,1,42.5000008106232,2|2,0:1|0:0,0:0:0:0:
185,218,168117,1,0,1:0:0:0:
185,218,168229,2,0,P|216:214|237:208,1,42.5000008106232,6|0,1:2|0:0,0:0:0:0:
62,60,168562,6,0,L|57:117,1,42.5000008106232,2|2,0:1|0:0,0:0:0:0:
221,52,168895,1,2,0:0:0:0:
221,52,169006,102,0,L|217:9,1,42.5000008106232,6|0,1:0|0:0,0:0:0:0:
377,101,169451,2,0,L|371:221,1,113.333335494995,2|2,1:2|0:0,0:0:0:0:
290,278,169895,6,0,L|226:269,2,56.6666677474976,2|2|2,1:2|0:0|0:0,0:0:0:0:
175,376,170340,2,0,L|239:367,2,56.6666677474976,2|2|2,0:0|0:0|0:0,0:0:0:0:
110,268,170784,102,0,L|105:184,1,75,2|0,0:0|0:0,0:0:0:0:
102,115,171235,53,2,3:2:0:0:
273,31,171645,2,0,P|292:77|292:121,1,85.0000016212464,2|2,0:0|0:0,0:0:0:0:
315,233,172092,2,0,P|345:193|383:171,1,85.0000016212464,2|2,0:0|0:0,0:0:0:0:
469,96,172613,1,2,0:0:0:0:
469,96,172718,54,0,P|419:89|381:67,1,85.0000016212464,2|2,0:0|0:0,0:0:0:0:
273,31,173230,1,2,0:0:0:0:
374,175,173515,1,2,0:0:0:0:
230,276,173867,53,2,0:0:0:0:
129,132,174167,1,2,0:0:0:0:
347,160,174452,1,2,0:0:0:0:
347,160,174569,54,0,P|397:239|382:340,1,170.000003242493,2|2,0:0|0:0,0:0:0:0:
256,245,175294,1,2,0:0:0:0:
256,353,175582,1,2,0:0:0:0:
256,138,175915,53,2,0:0:0:0:
256,31,176195,1,2,0:0:0:0:
165,160,176524,1,2,0:0:0:0:
164,160,176627,54,0,P|117:229|118:312,1,170.000003242493,2|2,0:0|0:0,0:0:0:0:
256,353,177379,2,0,L|256:296,1,42.5000008106232,2|2,0:0|0:0,0:0:0:0:
256,31,177840,1,2,0:0:0:0:
256,192,178931,54,0,L|256:243,1,42.5000008106232,2|2,0:0|0:0,0:0:0:0:
256,192,179204,12,0,186295,0:0:0:0:
