osu file format v14

[General]
AudioFilename: audio.mp3
AudioLeadIn: 0
PreviewTime: 34784
Countdown: 0
SampleSet: None
StackLeniency: 0.2
Mode: 0
LetterboxInBreaks: 0
WidescreenStoryboard: 0

[Editor]
Bookmarks: 55229
DistanceSpacing: 1.3
BeatDivisor: 4
GridSize: 4
TimelineZoom: 2.599999

[Metadata]
Title:HDHR
TitleUnicode:HDHR
Artist:BilliumMoto
ArtistUnicode:BilliumMoto
Creator:Low
Version:Insane
Source:osu!remix contest
Tags:nekodex circles
BeatmapID:1199209
BeatmapSetID:566100

[Difficulty]
HPDrainRate:6
CircleSize:4.5
OverallDifficulty:8.5
ApproachRate:9.2
SliderMultiplier:2.4
SliderTickRate:1

[Events]
//Background and Video events
//Break Periods
//Storyboard Layer 0 (Background)
//Storyboard Layer 1 (Fail)
//Storyboard Layer 2 (Pass)
//Storyboard Layer 3 (Foreground)
//Storyboard Sound Samples

[TimingPoints]
118,444.444444444444,4,2,0,30,1,0
7229,-200,4,2,0,40,0,0
21006,-200,4,2,0,20,0,0
21117,-200,4,2,0,25,0,0
21229,-200,4,2,0,30,0,0
21340,-200,4,2,0,45,0,0
21451,-133.333333333333,4,3,0,50,0,0
25006,-133.333333333333,4,3,0,35,0,0
25340,-133.333333333333,4,3,0,5,0,0
25451,-133.333333333333,4,3,0,35,0,0
25784,-133.333333333333,4,3,0,15,0,0
25895,-133.333333333333,4,3,0,55,0,0
27673,-133.333333333333,4,3,0,70,0,0
28006,-133.333333333333,4,3,0,55,0,0
28117,-133.333333333333,4,3,0,15,0,0
28229,-133.333333333333,4,3,0,55,0,0
28562,-133.333333333333,4,3,0,60,0,0
32117,-133.333333333333,4,3,0,65,0,0
32562,-100,4,2,0,65,0,1
32617,-100,4,2,0,65,0,0
33006,-133.333333333333,4,2,0,65,0,0
34562,-100,4,2,0,65,0,0
35229,-100,4,2,0,65,0,1
35284,-66.6666666666667,4,2,0,65,0,0
35673,-66.6666666666667,4,2,0,75,0,1
36006,-66.6666666666667,4,2,0,5,0,1
36117,-200,4,2,0,40,0,0
36562,-200,4,2,0,5,0,0
36590,-200,4,2,0,40,0,0
37006,-200,4,2,0,5,0,0
37034,-200,4,2,0,40,0,0
38229,-200,4,2,0,5,0,0
38340,-200,4,2,0,75,0,1
38673,-200,4,2,0,5,0,1
38784,-200,4,2,0,75,0,1
39117,-200,4,2,0,5,0,0
39229,-66.6666666666667,4,2,0,75,0,1
39451,-66.6666666666667,4,2,0,10,0,1
39562,-66.6666666666667,4,2,0,75,0,1
39784,-66.6666666666667,4,2,0,10,0,1
39895,-200,4,2,0,75,0,1
40451,-200,4,2,0,10,0,1
40562,-200,4,2,0,75,0,0
40784,-200,4,2,0,60,0,0
41006,-133.333333333333,4,2,0,60,0,0
41034,-133.333333333333,4,2,0,5,0,0
41229,-133.333333333333,4,2,0,60,0,0
41895,-200,4,2,0,75,0,0
42229,-200,4,2,0,5,0,0
42340,-66.6666666666667,4,2,0,75,0,0
42451,-66.6666666666667,4,2,0,5,0,0
42562,-66.6666666666667,4,2,0,75,0,0
42673,-66.6666666666667,4,2,0,5,0,0
42784,-200,4,2,0,75,0,1
43117,-200,4,2,0,5,0,1
43229,-133.333333333333,4,2,0,60,0,0
45451,-200,4,2,0,75,0,1
46117,-200,4,2,0,75,0,0
46340,-66.6666666666667,4,2,0,75,0,1
46673,-66.6666666666667,4,2,0,5,0,1
46784,-100,4,2,0,75,0,0
48340,-100,4,2,0,85,0,0
49784,-100,4,2,0,5,0,0
49895,-66.6666666666667,4,2,0,75,0,1
50229,-66.6666666666667,4,2,0,5,0,1
50340,-200,4,2,0,75,0,0
51117,-200,4,2,0,5,0,0
51229,-200,4,2,0,50,0,0
51784,-200,4,2,0,5,0,0
51895,-200,4,2,0,25,0,0
52451,-200,4,2,0,5,0,0
52562,-200,4,2,0,75,0,1
53395,-200,4,2,0,75,0,0
53451,-100,4,2,0,75,0,1
53506,-100,4,2,0,75,0,0
54784,-66.6666666666667,4,2,0,75,0,0
55006,-66.6666666666667,4,2,0,50,0,0
55229,-100,4,2,0,75,0,0
55673,-200,4,2,0,75,0,0
56117,-66.6666666666667,4,2,0,75,0,0
57006,-66.6666666666667,4,2,0,75,0,1
57229,-66.6666666666667,4,2,0,5,0,1
57451,-100,4,2,0,85,0,0
59673,-200,4,2,0,85,0,1
60340,-200,4,2,0,60,0,1
60534,-66.6666666666667,4,2,0,85,0,0
60562,-66.6666666666667,4,2,0,85,0,1
60590,-66.6666666666667,4,2,0,85,0,0
61229,-100,4,2,0,85,0,0
63229,-100,4,2,0,5,0,0
64117,-200,4,2,0,80,0,1
64229,-100,4,2,0,80,0,0
64451,-100,4,2,0,20,0,0
64562,-66.6666666666667,4,2,0,80,0,0
64784,-66.6666666666667,4,2,0,60,0,0
65006,-100,4,2,0,80,0,0
67895,-200,4,2,0,80,0,0
68006,-200,4,2,0,5,0,0
68117,-66.6666666666667,4,2,0,80,0,0
68340,-66.6666666666667,4,2,0,60,0,0
68562,-100,4,2,0,80,0,0
71229,-200,4,2,0,80,0,0
71562,-200,4,2,0,5,0,0
71673,-66.6666666666667,4,2,0,80,0,0
71895,-66.6666666666667,4,2,0,60,0,0
72117,-100,4,2,0,80,0,0
75006,-200,4,2,0,80,0,0
75117,-200,4,2,0,5,0,0
75229,-66.6666666666667,4,2,0,80,0,0
75451,-66.6666666666667,4,2,0,60,0,0
75673,-100,4,2,0,80,0,0
76562,-200,4,2,0,80,0,0
77006,-66.6666666666667,4,2,0,80,0,0
77117,-66.6666666666667,4,2,0,5,0,0
77229,-66.6666666666667,4,2,0,80,0,0
77340,-66.6666666666667,4,2,0,5,0,0
77451,-100,4,2,0,80,0,0
170784,451.127819548872,4,2,0,30,1,0
171235,410.958904109589,4,2,0,30,1,0
171645,447.761194029851,4,2,0,30,1,0
172092,521.739130434783,4,2,0,30,1,0
172613,422.535211267606,4,2,0,30,1,0
172718,512.820512820513,4,2,0,30,1,0
173230,571.428571428571,4,2,0,30,1,0
173515,705.882352941176,4,2,0,30,1,0
173867,600,4,2,0,30,1,0
174167,571.428571428571,4,2,0,30,1,0
174452,468.75,4,2,0,30,1,0
174569,483.870967741935,4,2,0,30,1,0
175294,576.923076923077,4,2,0,30,1,0
175582,666.666666666667,4,2,0,30,1,0
175915,560.747663551402,4,2,0,30,1,0
176195,659.340659340659,4,2,0,30,1,0
176524,413.793103448276,4,2,0,30,1,0
176627,461.538461538462,4,2,0,30,1,0
177088,582.52427184466,4,2,0,30,1,0
177379,571.428571428571,4,2,0,30,1,0
177568,545.454545454546,4,2,0,30,1,0

[Colours]
Combo1 : 128,0,255
Combo2 : 255,9,9
Combo3 : 18,124,255
Combo4 : 255,255,0

[HitObjects]
56,200,7229,6,0,P|112:184|160:224,1,120,0|2,3:0|0:0,0:0:0:0:
196,280,7895,2,0,B|228:288|228:288|316:272,1,120,0|2,0:0|0:0,0:0:0:0:
384,256,8562,1,0,0:0:0:0:
408,152,8895,5,0,0:0:0:0:
408,152,9006,2,0,L|280:148,1,120,0|2,0:0|0:0,0:0:0:0:
260,128,9673,2,0,L|379:131,1,120,0|2,0:0|0:0,0:0:0:0:
436,84,10340,1,0,3:0:0:0:
296,56,10784,38,0,L|184:64,1,90,0|0,3:0|3:0,0:0:0:0:
184,52,11229,1,2,0:0:0:0:
132,104,11451,2,0,P|112:180|136:208,1,120,0|2,3:0|0:0,0:0:0:0:
192,252,12117,1,0,0:0:0:0:
284,192,12562,6,0,B|340:184|340:184|396:212,1,120,0|2,0:0|0:0,0:0:0:0:
380,284,13229,2,0,B|324:292|324:292|268:264,1,120,0|2,0:0|0:0,0:0:0:0:
212,216,13895,1,0,3:0:0:0:
212,216,14117,1,0,3:0:0:0:
156,264,14340,38,0,L|32:276,1,120,0|2,3:0|0:0,0:0:0:0:
8,208,15006,2,0,P|56:152|48:104,1,120,0|2,0:0|0:0,0:0:0:0:
32,40,15673,1,0,0:0:0:0:
172,80,16117,6,0,B|200:92|200:92|300:88,1,120,0|2,0:0|0:0,0:0:0:0:
312,112,16784,2,0,B|284:100|284:100|184:104,1,120,0|2,0:0|0:0,0:0:0:0:
124,108,17451,1,0,0:0:0:0:
200,228,17895,38,0,L|188:360,1,120,0|2,3:0|0:0,0:0:0:0:
124,376,18562,2,0,L|113:256,1,120,0|2,0:0|0:0,0:0:0:0:
40,248,19229,1,0,0:0:0:0:
112,124,19673,6,0,P|152:112|220:160,1,120,0|2,0:0|0:0,0:0:0:0:
252,212,20340,2,0,P|298:247|384:224,1,120,0|2,0:0|0:0,0:0:0:0:
404,188,21006,2,0,L|396:160,5,20,0|0|0|0|0|0,3:0|3:0|3:0|3:0|3:0|3:0,0:0:0:0:
404,144,21451,37,0,0:0:0:0:
296,128,21673,1,2,0:0:0:0:
188,112,21895,1,0,0:0:0:0:
224,216,22117,5,0,0:0:0:0:
212,224,22229,1,0,0:0:0:0:
200,232,22340,2,0,L|216:308,1,45.0000017166138,2|0,0:0|0:0,0:0:0:0:
176,336,22562,1,0,0:0:0:0:
164,328,22673,2,0,P|124:304|72:308,1,90.0000034332277,2|0,0:0|0:0,0:0:0:0:
28,352,23006,1,0,0:0:0:0:
64,140,23229,37,2,0:0:0:0:
64,140,23340,2,0,P|108:148|160:128,1,90.0000034332277,0|2,0:0|0:0,0:0:0:0:
212,44,23784,1,0,0:0:0:0:
212,44,23895,1,0,0:0:0:0:
296,112,24117,6,0,L|276:188,1,45.0000017166138,2|0,0:2|0:0,0:0:0:0:
324,256,24451,1,2,0:0:0:0:
276,160,24673,2,0,L|287:116,1,45.0000017166138
296,160,25006,38,2,B|252:168|252:168|204:152|204:152|160:160,1,135.000005149841,2|0,2:1|2:0,0:0:0:0:
40,280,25451,2,2,B|79:272|79:272|127:288|127:288|171:280,1,135.000005149841,2|0,2:1|0:0,0:0:0:0:
204,176,25895,5,2,0:0:0:0:
200,168,26006,2,0,L|204:72,1,90.0000034332277,0|2,0:0|0:0,0:0:0:0:
300,32,26451,1,0,0:0:0:0:
300,32,26562,1,0,0:0:0:0:
203,78,26784,38,0,L|128:60,1,45.0000017166138,2|0,0:0|0:0,0:0:0:0:
68,8,27117,1,2,0:0:0:0:
76,116,27340,1,0,0:0:0:0:
76,116,27451,1,0,0:0:0:0:
160,184,27673,6,0,P|208:184|164:216,1,135.000005149841,2|2,2:2|0:0,0:0:0:0:
156,220,28117,38,0,L|108:228,2,45.0000017166138,0|2|2,0:0|0:0|0:0,0:0:0:0:
304,304,28562,5,0,0:0:0:0:
368,116,28784,2,0,L|364:224,1,90.0000034332277,0|2,0:0|0:0,0:0:0:0:
348,96,29229,1,0,0:0:0:0:
384,224,29451,37,2,0:0:0:0:
396,220,29562,2,0,P|348:220|300:256,1,90.0000034332277,0|2,0:0|0:0,0:0:0:0:
228,308,30006,1,0,0:0:0:0:
228,308,30117,1,0,0:0:0:0:
128,268,30340,6,0,L|76:248,1,45.0000017166138,2|0,0:0|0:0,0:0:0:0:
24,164,30673,1,2,0:0:0:0:
80,256,30895,2,0,L|122:272,1,45.0000017166138
224,124,31229,37,2,0:0:0:0:
216,144,31340,2,0,L|344:136,1,90.0000034332277,0|2,0:0|0:0,0:0:0:0:
376,56,31784,1,0,0:0:0:0:
376,56,31895,1,0,0:0:0:0:
424,204,32117,6,2,B|440:264|440:264|408:256|380:224,1,135.000005149841,2|0,0:1|0:1,0:1:0:0:
212,252,32562,6,2,B|272:240|272:240|296:248|348:276,1,120,0|2,0:1|0:1,0:1:0:0:
160,348,33006,21,2,0:0:0:0:
148,364,33117,2,0,L|132:232,1,90.0000034332277,0|2,0:0|0:0,0:0:0:0:
56,204,33562,1,0,0:0:0:0:
56,204,33673,1,0,0:0:0:0:
144,60,33895,6,0,L|136:132,1,45.0000017166138,2|0,0:0|0:0,0:0:0:0:
228,164,34229,2,0,L|344:148,1,90.0000034332277,2|0,0:0|0:0,0:0:0:0:
368,99,34562,38,0,L|432:88,1,60,2|0,0:0|0:0,0:0:0:0:
427,88,35673,22,2,B|466:178|417:284|417:284|376:248|320:248,1,270.000010299683,0|0,1:0|0:0,1:0:0:0:
187,222,36117,6,2,P|110:216|194:307,1,300,0|2,0:1|0:2,2:0:0:0:
144,268,37895,2,0,P|195:275|236:246,1,90,2|0,0:0|0:0,0:0:0:0:
288,40,38340,2,0,B|298:108|298:108|283:150,1,90,0|0,1:0|0:0,0:1:0:0:
352,219,38784,2,2,B|373:171|373:171|415:208,1,90,0|0,0:2|0:0,0:1:0:0:
357,309,39229,38,0,P|297:298|177:348,1,180.000006866455,0|0,1:0|0:0,0:0:0:0:
192,353,39562,2,0,P|272:315|361:324,1,180.000006866455,0|0,1:0|0:0,0:0:0:0:
448,373,39895,6,0,L|418:206,1,150,0|0,1:0|0:0,0:1:0:0:
464,128,40562,1,2,2:2:0:0:
372,32,40784,21,0,0:0:0:0:
352,36,40895,1,0,0:0:0:0:
332,40,41006,2,0,P|256:48|232:28,1,90.0000034332277,0|2,0:0|0:0,0:0:0:0:
180,48,41340,1,0,0:0:0:0:
176,24,41451,1,0,0:0:0:0:
216,292,41784,1,2,0:0:0:0:
232,364,41895,22,0,P|284:356|339:371,1,90,0|0,1:0|0:0,0:0:0:0:
444,384,42340,38,2,L|454:248,1,90.0000034332277,0|0,0:0|0:0,1:0:0:0:
464,136,42562,2,2,L|472:-6,1,90.0000034332277,0|0,0:0|0:0,1:0:0:0:
337,211,42784,6,2,B|297:223|297:223|237:219,1,90,0|0,1:0|0:0,1:0:0:0:
249,220,43229,5,2,0:0:0:0:
169,206,43451,1,0,0:0:0:0:
89,186,43673,2,0,L|-15:166,1,90.0000034332277,2|0,0:0|0:0,0:0:0:0:
185,130,44117,5,0,0:0:0:0:
105,110,44339,2,0,L|1:90,2,90.0000034332277,2|0|2,0:0|0:0|0:0,0:0:0:0:
185,130,45006,1,2,0:0:0:0:
265,150,45229,1,0,0:0:0:0:
209,206,45451,22,2,B|201:250|217:290|261:314|261:314|321:298,1,180,0|2,1:0|0:1,0:1:0:0:
512,57,46340,38,2,B|521:138|467:190|467:190|400:243|420:348,1,270.000010299683,0|0,1:0|0:0,0:1:0:0:
409,322,46784,22,0,P|301:318|245:354,1,120,2|0,0:0|0:0,0:0:0:0:
129,350,47229,1,0,0:0:0:0:
129,350,47340,1,2,0:0:0:0:
181,98,47562,2,0,P|193:154|173:246,1,120,2|0,0:0|0:0,0:0:0:0:
121,258,47895,1,2,0:0:0:0:
121,258,48006,1,0,0:0:0:0:
185,215,48117,6,0,B|273:234|273:234|325:218,1,120,0|2,1:0|0:0,0:0:0:0:
361,186,48451,1,0,0:0:0:0:
401,246,48562,2,0,L|405:350,1,60,2|0,0:0|0:0,0:0:0:0:
465,214,48784,2,0,L|467:154,1,60,2|0,0:0|0:0,0:0:0:0:
389,2,49006,38,0,L|397:154,1,120,2|0,0:0|0:0,0:0:0:0:
313,206,49340,1,0,1:0:0:0:
313,206,49395,1,0,1:0:0:0:
313,206,49451,2,0,P|245:194|141:282,1,180,0|0,1:0|0:0,0:0:0:0:
120,344,49895,22,2,B|72:276|72:276|48:192|104:160|56:96,1,270.000010299683,0|0,1:0|0:0,1:0:0:0:
161,146,50340,6,2,B|193:214|289:218|317:178|285:146|221:178,1,210,0|0,1:0|0:0,0:0:0:0:
193,274,51229,2,2,P|161:310|221:294,1,150,0|0,0:0|0:0,0:0:0:0:
309,266,51895,2,2,B|353:250|353:250|461:274,1,150,0|0,0:0|0:0,0:0:0:0:
412,346,52562,2,0,P|388:234|420:174,1,180,0|0,1:0|0:0,0:0:0:0:
501,86,53451,22,0,B|437:70|437:70|345:90,1,120,0|0,1:0|0:0,0:0:0:0:
321,114,53784,2,0,L|241:102,2,60,0|2|0,1:0|0:3|0:0,0:0:0:0:
357,178,54117,38,0,L|345:314,1,120,0|2,1:0|0:3,0:0:0:0:
321,310,54562,1,0,0:0:0:0:
249,322,54673,1,0,0:0:0:0:
177,334,54784,22,2,P|111:314|165:356,1,180.000006866455,2|2,0:3|0:1,0:1:0:0:
249,322,55229,38,0,L|254:286,1,30
275,271,55340,2,0,L|280:235,1,30
306,221,55451,2,0,L|316:138,1,60,2|0,0:3|0:0,0:0:0:0:
331,46,55673,22,2,B|343:35|359:51|345:71|297:69|281:35,1,90,2|0,0:0|0:0,0:0:0:0:
415,40,56117,38,0,P|380:115|277:116,1,180.000006866455,0|0,1:0|0:0,0:0:0:0:
415,208,56451,2,0,P|380:133|277:132,1,180.000006866455,0|0,1:0|0:0,0:0:0:0:
312,225,56784,1,2,0:0:0:0:
310,241,57006,2,0,P|196:208|88:304,1,270.000010299683,0|0,1:0|0:0,0:0:0:0:
188,304,57451,22,0,P|208:288|252:340,1,60,2|0,0:0|0:0,0:0:0:0:
228,368,57673,1,2,0:0:0:0:
432,232,57895,5,2,0:0:0:0:
420,216,57951,37,0,0:0:0:0:
408,200,58006,5,0,0:0:0:0:
396,184,58062,37,0,0:0:0:0:
384,168,58117,6,0,L|348:116,1,60,2|0,0:0|0:0,0:0:0:0:
443,59,58340,38,0,P|387:71|344:143,1,120,2|2,0:1|0:0,0:0:0:0:
288,172,58673,1,0,0:0:0:0:
304,246,58784,6,0,L|356:240,3,30,2|0|0|0,0:0|0:0|0:0|0:0,0:0:0:0:
365,233,59006,38,0,P|394:204|401:169,1,60,2|0,0:0|0:0,0:0:0:0:
508,195,59229,6,0,P|449:169|386:203,1,120,2|2,0:1|0:0,0:0:0:0:
330,124,59562,1,0,0:0:0:0:
266,189,59673,22,0,B|194:173|194:173|152:182|152:182|90:171,1,180,0|2,1:0|0:1,0:0:0:0:
248,315,60562,38,0,P|385:295|299:355,1,360.000013732911,0|2,1:0|0:0,0:0:0:0:
313,283,61229,37,0,1:0:0:0:
332,213,61562,37,0,1:0:0:0:
348,141,61895,5,2,1:2:0:0:
256,192,62117,12,0,63229,0:0:0:0:
48,140,64117,22,0,B|88:156|88:156|80:108,1,90,4|0,1:0|0:0,0:0:0:0:
80,109,64562,38,2,P|168:136|216:64,1,180.000006866455,2|2,1:1|0:1,0:1:0:0:
272,304,65006,21,0,1:0:0:0:
320,368,65117,1,0,1:0:0:0:
384,324,65229,1,0,1:0:0:0:
340,260,65340,2,0,P|384:188|364:140,1,120,0|0,0:0|1:0,0:0:0:0:
304,184,65673,1,0,0:0:0:0:
272,304,65895,5,0,1:0:0:0:
320,368,66006,1,0,1:0:0:0:
384,324,66118,1,0,1:0:0:0:
340,260,66229,2,0,P|384:188|364:140,1,120,0|0,0:0|1:0,0:0:0:0:
304,184,66562,1,0,0:0:0:0:
272,304,66784,38,0,P|239:302|252:324,1,60,2|0,0:0|0:0,0:0:0:0:
160,352,67006,6,0,P|144:288|208:216,1,120,0|0,1:0|0:0,0:0:0:0:
244,144,67340,1,0,0:0:0:0:
168,164,67451,1,2,1:2:0:0:
166,241,67673,37,0,0:0:0:0:
64,92,67895,38,0,P|56:120|64:144,1,30,2|0,0:0|0:0,0:0:0:0:
64,92,68117,38,2,P|72:168|20:124,1,180.000006866455,2|2,1:0|0:1,1:0:0:0:
80,164,68562,37,0,1:0:0:0:
132,312,68784,2,0,P|152:280|180:260,1,60,0|0,1:0|1:0,0:0:0:0:
168,265,69117,2,0,P|188:243|214:229,1,60,0|0,1:0|1:0,0:0:0:0:
80,164,69451,37,0,1:0:0:0:
132,312,69673,2,0,P|152:280|180:260,1,60,0|0,1:0|1:0,0:0:0:0:
168,265,70006,2,0,P|188:243|214:229,1,60,0|0,1:0|1:0,0:0:0:0:
284,212,70229,5,0,1:0:0:0:
284,212,70284,1,0,1:0:0:0:
284,212,70340,38,0,L|360:228,1,60,0|0,1:0|0:0,0:0:0:0:
344,72,70562,6,0,L|328:148,1,60,0|0,1:0|0:0,0:0:0:0:
184,80,70784,38,0,L|260:96,1,60,0|0,1:0|0:0,0:0:0:0:
176,240,71006,6,0,L|192:164,1,60,0|0,1:0|0:0,0:0:0:0:
284,212,71229,22,2,L|390:234,1,90,0|0,1:0|0:0,1:0:0:0:
368,144,71673,38,2,B|392:200|392:200|360:252|360:252|392:348,1,180.000006866455,2|2,1:0|0:1,1:0:0:0:
472,72,72117,21,0,1:0:0:0:
396,60,72229,1,0,1:0:0:0:
320,44,72340,1,0,1:0:0:0:
336,120,72451,2,0,P|390:116|391:53,1,120,0|0,0:0|1:0,0:0:0:0:
320,44,72784,1,0,0:0:0:0:
472,72,73006,5,0,1:0:0:0:
396,60,73118,1,0,1:0:0:0:
320,44,73229,1,0,1:0:0:0:
336,120,73340,2,0,P|390:116|391:53,1,120,0|0,0:0|1:0,0:0:0:0:
320,44,73673,1,0,0:0:0:0:
472,72,73895,38,0,L|479:132,1,60,2|0,0:0|0:0,0:0:0:0:
506,203,74117,6,0,P|499:164|498:209,1,120,0|0,1:0|0:1,0:1:0:0:
498,285,74451,1,0,0:0:0:0:
498,285,74562,1,2,1:2:0:0:
422,262,74784,37,0,0:0:0:0:
289,338,75006,38,0,L|285:297,1,30,2|0,0:0|0:0,0:0:0:0:
225,284,75229,38,2,B|252:342|334:345|358:311|331:284|276:311,1,180.000006866455,2|2,1:0|0:1,0:1:0:0:
96,344,75673,37,0,1:0:0:0:
56,192,75895,1,0,1:0:0:0:
56,192,76006,1,0,1:0:0:0:
208,220,76229,1,0,1:0:0:0:
228,216,76340,1,0,0:0:0:0:
248,212,76451,1,0,1:0:0:0:
268,208,76562,22,0,P|272:168|260:140,1,60
208,92,76895,1,0,1:0:0:0:
351,167,77006,38,0,B|395:151|395:151|375:191,1,90.0000034332277,2|0,0:0|0:0,0:0:0:0:
343,177,77229,2,0,B|324:216|324:216|368:200,1,90.0000034332277,2|0,0:0|0:0,0:0:0:0:
448,104,77451,21,0,1:0:0:0:
460,184,77673,5,0,1:0:0:0:
472,264,77895,37,2,1:2:0:0:
472,264,78006,1,0,1:0:0:0:
