osu file format v14

[General]
AudioFilename: audio.mp3
AudioLeadIn: 0
PreviewTime: 35999
Countdown: 0
SampleSet: Normal
StackLeniency: 0.7
Mode: 1
LetterboxInBreaks: 0
WidescreenStoryboard: 1

[Editor]
DistanceSpacing: 0.95
BeatDivisor: 2
GridSize: 32
TimelineZoom: 0.5999997

[Metadata]
Title:1xMISS
TitleUnicode:1xMISS
Artist:BilliumMoto
ArtistUnicode:BilliumMoto
Creator:rubies87
Version:Vulkin's 90% (Futsuu)
Source:osu!
Tags:EDM Electronic Dance Music Instrumental steel Mappers' Guild MG Featured Artist FA Cynp-zy Cynplytholowazy -GN Junior Jr. xtrem3x Vulkin Faputa xishiora
BeatmapID:2261484
BeatmapSetID:1079811

[Difficulty]
HPDrainRate:7
CircleSize:7
OverallDifficulty:3
ApproachRate:10
SliderMultiplier:1.4
SliderTickRate:1

[Events]
//Background and Video events
0,0,"bg.jpg",0,0
//Break Periods
//Storyboard Layer 0 (Background)
//Storyboard Layer 1 (Fail)
//Storyboard Layer 2 (Pass)
//Storyboard Layer 3 (Foreground)
//Storyboard Layer 4 (Overlay)
//Storyboard Sound Samples

[TimingPoints]
170,284.36018957346,4,2,0,30,1,0
170,-125,4,2,0,30,0,0
18226,-125,4,1,0,50,0,0
35715,-111.111111111111,4,1,0,70,0,0
37136,-111.111111111111,4,1,0,70,0,1
41117,-111.111111111111,4,1,0,70,0,0
41686,-111.111111111111,4,1,0,70,0,1
45951,-111.111111111111,4,1,0,70,0,0
46520,-111.111111111111,4,1,0,70,0,1
50217,-111.111111111111,4,1,0,70,0,0
50786,-111.111111111111,4,1,0,70,0,1
54767,-111.111111111111,4,1,0,70,0,0
72681,-111.111111111111,4,1,0,50,0,0
73250,-111.111111111111,4,2,0,50,0,0
99980,-111.111111111111,4,1,0,50,0,0
104459,-111.111111111111,4,1,0,70,0,0
109933,-111.111111111111,4,1,0,70,0,1
113914,-111.111111111111,4,1,0,70,0,0
114482,-111.111111111111,4,1,0,70,0,1
118463,-111.111111111111,4,1,0,70,0,0
118748,-111.111111111111,4,1,0,70,0,1
123013,-111.111111111111,4,1,0,70,0,0
123297,-111.111111111111,4,1,0,70,0,1
126141,-111.111111111111,4,1,0,70,0,0
136520,-111.111111111111,4,1,0,50,0,0
140857,-111.111111111111,4,1,0,70,0,0
145762,-111.111111111111,4,1,0,70,0,1
163961,-111.111111111111,4,1,0,70,0,0
164103,-111.111111111111,4,1,0,50,0,0
172918,-111.111111111111,4,1,0,30,0,0

[HitObjects]
256,192,170,5,0,0:0:0:0:
256,192,1307,1,8,0:0:0:0:
256,192,2444,1,0,0:0:0:0:
256,192,3582,1,8,0:0:0:0:
256,192,4151,1,8,0:0:0:0:
256,192,4719,1,0,0:0:0:0:
256,192,5857,1,8,0:0:0:0:
256,192,6425,1,8,0:0:0:0:
256,192,6994,1,0,0:0:0:0:
256,192,9269,1,0,0:0:0:0:
256,192,10406,1,8,0:0:0:0:
256,192,10691,1,8,0:0:0:0:
256,192,11544,1,0,0:0:0:0:
256,192,11828,1,0,0:0:0:0:
256,192,12681,1,8,0:0:0:0:
256,192,13250,1,8,0:0:0:0:
256,192,13819,1,0,0:0:0:0:
256,192,14956,1,8,0:0:0:0:
256,192,15241,1,8,0:0:0:0:
256,192,16094,1,0,0:0:0:0:
256,192,16378,1,0,0:0:0:0:
256,192,17089,1,8,0:0:0:0:
256,192,17515,1,8,0:0:0:0:
256,192,18369,1,0,0:0:0:0:
256,192,18937,1,8,0:0:0:0:
256,192,19506,1,8,0:0:0:0:
256,192,20075,1,0,0:0:0:0:
256,192,20643,1,8,0:0:0:0:
256,192,21212,1,0,0:0:0:0:
256,192,21781,1,8,0:0:0:0:
256,192,22350,1,8,0:0:0:0:
256,192,22776,1,8,0:0:0:0:
256,192,22918,1,0,0:0:0:0:
256,192,23487,1,0,0:0:0:0:
256,192,24056,1,8,0:0:0:0:
256,192,24624,1,8,0:0:0:0:
256,192,24909,1,8,0:0:0:0:
256,192,25193,1,0,0:0:0:0:
256,192,26331,1,0,0:0:0:0:
256,192,26899,1,8,0:0:0:0:
256,192,27184,1,8,0:0:0:0:
256,192,27468,1,0,0:0:0:0:
256,192,28036,1,8,0:0:0:0:
256,192,28605,1,8,0:0:0:0:
256,192,29174,1,0,0:0:0:0:
256,192,29742,1,8,0:0:0:0:
256,192,30311,1,0,0:0:0:0:
256,192,30880,1,8,0:0:0:0:
256,192,31449,1,8,0:0:0:0:
256,192,31875,1,8,0:0:0:0:
256,192,32017,1,0,0:0:0:0:
256,192,32586,1,0,0:0:0:0:
256,192,33155,1,8,0:0:0:0:
256,192,33724,1,0,0:0:0:0:
256,192,34008,1,0,0:0:0:0:
256,192,34293,1,8,0:0:0:0:
256,192,34861,1,8,0:0:0:0:
256,192,35146,1,8,0:0:0:0:
256,192,35999,1,0,0:0:0:0:
256,192,36568,1,4,0:0:0:0:
256,192,37136,1,12,0:0:0:0:
256,192,37705,1,8,0:0:0:0:
256,192,37989,1,0,0:0:0:0:
256,192,38274,1,8,0:0:0:0:
256,192,38558,1,8,0:0:0:0:
256,192,38700,1,8,0:0:0:0:
256,192,38842,1,0,0:0:0:0:
256,192,39411,1,0,0:0:0:0:
256,192,39553,1,0,0:0:0:0:
256,192,39696,1,0,0:0:0:0:
256,192,39980,1,8,0:0:0:0:
256,192,40264,1,8,0:0:0:0:
256,192,40549,1,0,0:0:0:0:
256,192,41117,1,0,0:0:0:0:
256,192,41686,1,8,0:0:0:0:
256,192,41970,1,0,0:0:0:0:
256,192,42255,1,8,0:0:0:0:
256,192,42539,1,8,0:0:0:0:
256,192,42681,1,8,0:0:0:0:
256,192,42824,1,0,0:0:0:0:
256,192,43392,1,0,0:0:0:0:
256,192,43534,1,0,0:0:0:0:
256,192,43677,1,0,0:0:0:0:
256,192,43961,1,8,0:0:0:0:
256,192,44103,1,8,0:0:0:0:
256,192,44245,1,0,0:0:0:0:
256,192,44530,1,8,0:0:0:0:
256,192,45098,1,0,0:0:0:0:
256,192,45383,1,8,0:0:0:0:
256,192,45525,1,0,0:0:0:0:
256,192,45667,1,0,0:0:0:0:
256,192,46236,1,8,0:0:0:0:
256,192,46520,1,0,0:0:0:0:
256,192,46662,1,0,0:0:0:0:
256,192,46805,1,0,0:0:0:0:
256,192,47089,1,0,0:0:0:0:
256,192,47373,1,8,0:0:0:0:
256,192,47658,1,8,0:0:0:0:
256,192,47942,1,0,0:0:0:0:
256,192,48511,1,8,0:0:0:0:
256,192,48653,1,8,0:0:0:0:
256,192,48795,1,0,0:0:0:0:
256,192,49079,1,8,0:0:0:0:
256,192,49364,1,8,0:0:0:0:
256,192,49648,1,0,0:0:0:0:
256,192,49933,1,8,0:0:0:0:
256,192,50217,1,0,0:0:0:0:
256,192,50786,1,8,0:0:0:0:
256,192,51354,1,0,0:0:0:0:
256,192,51639,1,0,0:0:0:0:
256,192,51923,1,8,0:0:0:0:
256,192,52207,1,0,0:0:0:0:
256,192,52350,1,0,0:0:0:0:
256,192,52492,1,8,0:0:0:0:
256,192,53060,1,0,0:0:0:0:
256,192,53345,1,8,0:0:0:0:
256,192,53629,1,0,0:0:0:0:
256,192,53914,1,0,0:0:0:0:
256,192,54198,1,8,0:0:0:0:
256,192,54767,1,0,0:0:0:0:
256,192,56473,1,8,0:0:0:0:
256,192,57042,1,0,0:0:0:0:
256,192,57610,1,8,0:0:0:0:
256,192,58179,1,0,0:0:0:0:
256,192,58463,1,0,0:0:0:0:
256,192,58748,1,8,0:0:0:0:
256,192,59316,1,0,0:0:0:0:
256,192,59885,1,8,0:0:0:0:
256,192,61023,1,8,0:0:0:0:
256,192,61591,1,0,0:0:0:0:
256,192,62160,1,8,0:0:0:0:
256,192,62444,1,8,0:0:0:0:
256,192,62729,1,0,0:0:0:0:
256,192,63297,1,8,0:0:0:0:
256,192,63866,1,0,0:0:0:0:
256,192,64435,1,8,0:0:0:0:
256,192,65572,1,8,0:0:0:0:
256,192,66141,1,0,0:0:0:0:
256,192,66710,1,8,0:0:0:0:
256,192,67279,1,0,0:0:0:0:
256,192,67563,1,0,0:0:0:0:
256,192,67847,1,8,0:0:0:0:
256,192,68416,1,0,0:0:0:0:
256,192,68985,1,8,0:0:0:0:
256,192,70122,1,8,0:0:0:0:
256,192,70691,1,0,0:0:0:0:
256,192,71260,1,8,0:0:0:0:
256,192,71544,1,8,0:0:0:0:
256,192,71828,1,0,0:0:0:0:
256,192,72397,1,8,0:0:0:0:
256,192,72966,1,0,0:0:0:0:
256,192,75241,1,0,0:0:0:0:
256,192,77515,1,0,0:0:0:0:
256,192,79790,1,0,0:0:0:0:
256,192,82065,1,0,0:0:0:0:
256,192,82350,1,8,0:0:0:0:
256,192,82918,1,8,0:0:0:0:
256,192,83487,1,8,0:0:0:0:
256,192,84056,1,8,0:0:0:0:
256,192,84340,1,0,0:0:0:0:
256,192,84624,1,8,0:0:0:0:
256,192,85193,1,8,0:0:0:0:
256,192,85762,1,8,0:0:0:0:
256,192,86615,1,0,0:0:0:0:
256,192,86899,1,8,0:0:0:0:
256,192,87468,1,8,0:0:0:0:
256,192,88037,1,8,0:0:0:0:
256,192,88606,1,8,0:0:0:0:
256,192,88890,1,0,0:0:0:0:
256,192,89174,1,8,0:0:0:0:
256,192,89743,1,8,0:0:0:0:
256,192,90170,1,8,0:0:0:0:
256,192,90312,1,0,0:0:0:0:
256,192,90596,1,8,0:0:0:0:
256,192,90880,1,8,0:0:0:0:
256,192,91165,1,0,0:0:0:0:
256,192,92302,1,8,0:0:0:0:
256,192,93440,1,0,0:0:0:0:
256,192,94577,1,8,0:0:0:0:
256,192,94861,1,0,0:0:0:0:
256,192,95146,1,8,0:0:0:0:
256,192,95715,1,0,0:0:0:0:
256,192,96568,1,0,0:0:0:0:
256,192,96710,1,0,0:0:0:0:
256,192,96852,1,0,0:0:0:0:
256,192,97136,1,0,0:0:0:0:
256,192,97989,1,0,0:0:0:0:
256,192,98842,1,0,0:0:0:0:
256,192,98985,1,0,0:0:0:0:
256,192,99127,1,0,0:0:0:0:
256,192,99411,1,0,0:0:0:0:
256,192,99980,1,8,0:0:0:0:
256,192,100264,1,0,0:0:0:0:
256,192,100833,1,8,0:0:0:0:
256,192,101402,1,0,0:0:0:0:
256,192,101686,1,0,0:0:0:0:
256,192,101970,1,8,0:0:0:0:
256,192,102539,1,0,0:0:0:0:
256,192,103108,1,8,0:0:0:0:
256,192,103392,1,8,0:0:0:0:
256,192,103677,1,0,0:0:0:0:
256,192,103961,1,0,0:0:0:0:
256,192,104245,1,8,0:0:0:0:
256,192,104814,1,0,0:0:0:0:
256,192,105383,1,0,0:0:0:0:
256,192,105667,1,8,0:0:0:0:
256,192,105951,1,0,0:0:0:0:
256,192,106236,1,8,0:0:0:0:
256,192,106520,1,0,0:0:0:0:
256,192,107089,1,8,0:0:0:0:
256,192,107942,1,8,0:0:0:0:
256,192,108084,1,8,0:0:0:0:
256,192,108226,1,8,0:0:0:0:
256,192,108511,1,0,0:0:0:0:
256,192,108795,1,8,0:0:0:0:
256,192,109364,1,0,0:0:0:0:
256,192,109933,1,8,0:0:0:0:
256,192,110075,1,8,0:0:0:0:
256,192,110359,1,8,0:0:0:0:
256,192,110643,1,8,0:0:0:0:
256,192,110928,1,8,0:0:0:0:
256,192,111070,1,0,0:0:0:0:
256,192,111354,1,8,0:0:0:0:
256,192,111639,1,0,0:0:0:0:
256,192,111923,1,0,0:0:0:0:
256,192,112207,1,8,0:0:0:0:
256,192,112776,1,0,0:0:0:0:
256,192,113060,1,0,0:0:0:0:
256,192,113345,1,8,0:0:0:0:
256,192,113914,1,0,0:0:0:0:
256,192,114482,1,8,0:0:0:0:
256,192,114624,1,8,0:0:0:0:
256,192,114909,1,8,0:0:0:0:
256,192,115193,1,8,0:0:0:0:
256,192,115478,1,8,0:0:0:0:
256,192,115620,1,0,0:0:0:0:
256,192,115904,1,8,0:0:0:0:
256,192,116188,1,0,0:0:0:0:
256,192,116331,1,0,0:0:0:0:
256,192,116473,1,0,0:0:0:0:
256,192,116757,1,8,0:0:0:0:
256,192,117042,1,0,0:0:0:0:
256,192,117326,1,8,0:0:0:0:
256,192,117610,1,8,0:0:0:0:
256,192,117895,1,0,0:0:0:0:
256,192,118463,1,0,0:0:0:0:
256,192,118748,1,8,0:0:0:0:
256,192,118890,1,8,0:0:0:0:
256,192,119032,1,8,0:0:0:0:
256,192,119316,1,8,0:0:0:0:
256,192,119601,1,0,0:0:0:0:
256,192,119885,1,8,0:0:0:0:
256,192,120170,1,0,0:0:0:0:
256,192,120738,1,0,0:0:0:0:
256,192,121023,1,0,0:0:0:0:
256,192,121307,1,8,0:0:0:0:
256,192,121591,1,0,0:0:0:0:
256,192,121876,1,8,0:0:0:0:
256,192,122160,1,8,0:0:0:0:
256,192,122302,1,8,0:0:0:0:
256,192,122444,1,8,0:0:0:0:
256,192,122729,1,8,0:0:0:0:
256,192,123013,1,0,0:0:0:0:
256,192,123297,1,8,0:0:0:0:
256,192,123440,1,8,0:0:0:0:
256,192,123582,1,8,0:0:0:0:
256,192,123866,1,0,0:0:0:0:
256,192,124151,1,8,0:0:0:0:
256,192,124435,1,0,0:0:0:0:
256,192,124719,1,8,0:0:0:0:
256,192,125004,1,8,0:0:0:0:
256,192,125288,1,0,0:0:0:0:
256,192,125857,1,8,0:0:0:0:
256,192,126141,1,0,0:0:0:0:
256,192,127563,1,0,0:0:0:0:
256,192,128132,1,8,0:0:0:0:
256,192,128701,1,0,0:0:0:0:
256,192,128985,1,0,0:0:0:0:
256,192,129269,1,8,0:0:0:0:
256,192,129838,1,0,0:0:0:0:
256,192,130407,1,8,0:0:0:0:
256,192,130691,1,8,0:0:0:0:
256,192,130976,1,0,0:0:0:0:
256,192,131260,1,0,0:0:0:0:
256,192,131544,1,8,0:0:0:0:
256,192,132113,1,0,0:0:0:0:
256,192,132681,1,8,0:0:0:0:
256,192,132966,1,8,0:0:0:0:
256,192,133108,1,8,0:0:0:0:
256,192,133250,1,0,0:0:0:0:
256,192,133534,1,0,0:0:0:0:
256,192,133819,1,8,0:0:0:0:
256,192,134388,1,0,0:0:0:0:
256,192,134956,1,8,0:0:0:0:
256,192,135241,1,8,0:0:0:0:
256,192,135383,1,0,0:0:0:0:
256,192,135525,1,0,0:0:0:0:
256,192,135809,1,0,0:0:0:0:
256,192,136094,1,8,0:0:0:0:
256,192,136662,1,0,0:0:0:0:
256,192,137231,1,8,0:0:0:0:
256,192,137800,1,0,0:0:0:0:
256,192,138368,1,8,0:0:0:0:
256,192,138937,1,0,0:0:0:0:
256,192,139506,1,8,0:0:0:0:
256,192,139790,1,8,0:0:0:0:
256,192,140075,1,0,0:0:0:0:
256,192,140359,1,8,0:0:0:0:
256,192,140643,1,8,0:0:0:0:
256,192,141212,1,0,0:0:0:0:
256,192,141781,1,0,0:0:0:0:
256,192,142065,1,8,0:0:0:0:
256,192,142207,1,8,0:0:0:0:
256,192,142350,1,0,0:0:0:0:
256,192,142634,1,0,0:0:0:0:
256,192,142918,1,8,0:0:0:0:
256,192,143487,1,0,0:0:0:0:
256,192,144056,1,8,0:0:0:0:
256,192,144340,1,0,0:0:0:0:
256,192,144482,1,0,0:0:0:0:
256,192,144624,1,8,0:0:0:0:
256,192,144909,1,0,0:0:0:0:
256,192,145762,1,0,0:0:0:0:
256,192,146046,1,8,0:0:0:0:
256,192,146331,1,8,0:0:0:0:
256,192,146615,1,0,0:0:0:0:
256,192,146899,1,8,0:0:0:0:
256,192,147468,1,0,0:0:0:0:
256,192,148037,1,8,0:0:0:0:
256,192,148321,1,0,0:0:0:0:
256,192,148606,1,8,0:0:0:0:
256,192,148890,1,8,0:0:0:0:
256,192,149174,1,0,0:0:0:0:
256,192,149601,1,0,0:0:0:0:
256,192,149743,1,8,0:0:0:0:
256,192,150312,1,0,0:0:0:0:
256,192,150596,1,8,0:0:0:0:
256,192,150880,1,8,0:0:0:0:
256,192,151165,1,0,0:0:0:0:
256,192,151449,1,8,0:0:0:0:
256,192,152018,1,0,0:0:0:0:
256,192,152587,1,8,0:0:0:0:
256,192,152871,1,8,0:0:0:0:
256,192,153155,1,0,0:0:0:0:
256,192,153440,1,8,0:0:0:0:
256,192,153582,1,8,0:0:0:0:
256,192,153724,1,0,0:0:0:0:
256,192,154008,1,8,0:0:0:0:
256,192,154293,1,0,0:0:0:0:
256,192,154577,1,8,0:0:0:0:
256,192,154861,1,0,0:0:0:0:
256,192,155145,1,8,0:0:0:0:
256,192,155430,1,8,0:0:0:0:
256,192,155714,1,0,0:0:0:0:
256,192,155998,1,8,0:0:0:0:
256,192,156567,1,0,0:0:0:0:
256,192,157136,1,8,0:0:0:0:
256,192,157420,1,0,0:0:0:0:
256,192,157705,1,8,0:0:0:0:
256,192,157989,1,8,0:0:0:0:
256,192,158273,1,0,0:0:0:0:
256,192,158700,1,0,0:0:0:0:
256,192,158842,1,8,0:0:0:0:
256,192,159411,1,0,0:0:0:0:
256,192,159695,1,8,0:0:0:0:
256,192,159979,1,8,0:0:0:0:
256,192,160264,1,0,0:0:0:0:
256,192,160548,1,8,0:0:0:0:
256,192,161117,1,0,0:0:0:0:
256,192,161686,1,8,0:0:0:0:
256,192,161970,1,8,0:0:0:0:
256,192,162254,1,0,0:0:0:0:
256,192,162539,1,8,0:0:0:0:
256,192,162681,1,8,0:0:0:0:
256,192,162823,1,0,0:0:0:0:
256,192,163107,1,8,0:0:0:0:
256,192,163392,1,0,0:0:0:0:
256,192,163534,1,0,0:0:0:0:
256,192,163677,1,8,0:0:0:0:
256,192,163961,1,0,0:0:0:0:
256,192,164530,1,0,0:0:0:0:
256,192,165098,1,8,0:0:0:0:
256,192,166236,1,0,0:0:0:0:
256,192,166805,1,0,0:0:0:0:
256,192,167373,1,8,0:0:0:0:
256,192,167800,1,0,0:0:0:0:
256,192,167942,1,8,0:0:0:0:
256,192,168511,1,0,0:0:0:0:
256,192,169079,1,0,0:0:0:0:
256,192,169648,1,8,0:0:0:0:
256,192,170786,1,0,0:0:0:0:
256,192,171354,1,0,0:0:0:0:
256,192,171923,1,8,0:0:0:0:
256,192,172207,1,0,0:0:0:0:
256,192,172492,1,8,0:0:0:0:
256,192,172776,1,8,0:0:0:0:
256,192,173060,1,0,0:0:0:0:
256,192,173629,1,0,0:0:0:0:
256,192,174198,1,8,0:0:0:0:
256,192,175335,1,0,0:0:0:0:
256,192,175904,1,0,0:0:0:0:
256,192,176473,1,8,0:0:0:0:
256,192,177042,1,8,0:0:0:0:
256,192,177610,1,0,0:0:0:0:
256,192,178179,1,0,0:0:0:0:
256,192,178748,1,8,0:0:0:0:
256,192,179885,1,0,0:0:0:0:
256,192,180454,1,0,0:0:0:0:
256,192,181023,1,8,0:0:0:0:
256,192,181307,1,0,0:0:0:0:
256,192,181591,1,0,0:0:0:0:
256,192,181876,1,8,0:0:0:0:
