osu file format v14

[General]
AudioFilename: audio.mp3
AudioLeadIn: 0
PreviewTime: 35999
Countdown: 0
SampleSet: Normal
StackLeniency: 0.7
Mode: 1
LetterboxInBreaks: 0
WidescreenStoryboard: 0

[Editor]
DistanceSpacing: 0.95
BeatDivisor: 4
GridSize: 32
TimelineZoom: 2.2

[Metadata]
Title:1xMISS
TitleUnicode:1xMISS
Artist:BilliumMoto
ArtistUnicode:BilliumMoto
Creator:rubies87
Version:Fapu's 99.5% (Inner Oni)
Source:osu!
Tags:EDM Electronic Dance Music Instrumental steel Mappers' Guild MG Featured Artist FA Cynp-zy Cynplytholowazy -GN Junior Jr. xtrem3x Vulkin Faputa xishiora
BeatmapID:2262482
BeatmapSetID:1079811

[Difficulty]
HPDrainRate:5.7
CircleSize:2
OverallDifficulty:6.3
ApproachRate:10
SliderMultiplier:1.4
SliderTickRate:1

[Events]
//Background and Video events
0,0,"bg.jpg",0,0
//Break Periods
//Storyboard Layer 0 (Background)
//Storyboard Layer 1 (Fail)
//Storyboard Layer 2 (Pass)
//Storyboard Layer 3 (Foreground)
//Storyboard Layer 4 (Overlay)
//Storyboard Sound Samples

[TimingPoints]
170,284.36018957346,4,1,0,30,1,0
170,-250,4,1,0,30,0,0
17658,-250,4,1,0,30,0,0
18369,-166.666666666667,4,1,0,50,0,0
35715,-125,4,1,0,70,0,0
36568,-83.3333333333333,4,1,0,70,0,0
37136,-100,4,1,0,70,0,1
40762,-66.6666666666667,4,1,0,70,0,1
41402,-100,4,1,0,70,0,1
45596,-66.6666666666667,4,1,0,70,0,1
46094,-100,4,1,0,70,0,1
49577,-90.9090909090909,4,1,0,70,0,1
49719,-83.3333333333333,4,1,0,70,0,1
49861,-76.9230769230769,4,1,0,70,0,1
50004,-71.4285714285714,4,1,0,70,0,1
50217,-66.6666666666667,4,1,0,70,0,0
50359,-111.111111111111,4,2,0,20,0,0
50715,-133.333333333333,4,1,0,70,0,0
50786,-100,4,1,0,70,0,1
53558,-66.6666666666667,4,1,0,70,0,1
54127,-83.3333333333333,4,1,0,70,0,1
54269,-86.2068965517241,4,1,0,70,0,1
54340,-89.2857142857143,4,1,0,70,0,1
54482,-92.5925925925926,4,1,0,70,0,1
54624,-96.1538461538461,4,1,0,70,0,1
54767,-100,4,1,0,70,0,0
54909,-181.818181818182,4,1,0,70,0,0
55478,-169.491525423729,4,1,0,70,0,0
55762,-158.730158730159,4,1,0,70,0,0
56046,-149.253731343284,4,1,0,70,0,0
56331,-140.845070422535,4,1,0,70,0,0
56615,-133.333333333333,4,1,0,70,0,0
68700,-135.135135135135,4,1,0,70,0,0
68842,-136.986301369863,4,1,0,70,0,0
68985,-138.888888888889,4,1,0,70,0,0
69127,-140.845070422535,4,1,0,70,0,0
69269,-142.857142857143,4,1,0,70,0,0
69411,-144.927536231884,4,1,0,70,0,0
69553,-147.058823529412,4,1,0,70,0,0
69696,-149.253731343284,4,1,0,70,0,0
69838,-151.515151515152,4,1,0,70,0,0
69980,-153.846153846154,4,1,0,70,0,0
70122,-156.25,4,1,0,70,0,0
70264,-158.730158730159,4,1,0,70,0,0
70406,-161.290322580645,4,1,0,70,0,0
70549,-163.934426229508,4,1,0,70,0,0
70691,-166.666666666667,4,1,0,70,0,0
70833,-169.491525423729,4,1,0,70,0,0
70975,-172.413793103448,4,1,0,70,0,0
71117,-175.438596491228,4,1,0,70,0,0
71260,-178.571428571429,4,1,0,70,0,0
71402,-181.818181818182,4,1,0,70,0,0
71544,-185.185185185185,4,1,0,70,0,0
71686,-188.679245283019,4,1,0,70,0,0
71828,-192.307692307692,4,1,0,70,0,0
71970,-196.078431372549,4,1,0,70,0,0
72113,-200,4,1,0,70,0,0
72681,-200,4,1,0,50,0,0
73250,-250,4,1,0,50,0,0
81781,-166.666666666667,4,1,0,50,0,0
90027,-156.25,4,1,0,50,0,0
90312,-147.058823529412,4,1,0,50,0,0
90596,-138.888888888889,4,1,0,50,0,0
90880,-131.578947368421,4,1,0,50,0,0
91165,-100,4,1,0,50,0,0
91449,-125,4,1,0,50,0,0
93297,-100,4,1,0,50,0,0
93724,-125,4,1,0,50,0,0
95715,-100,4,1,0,50,0,0
95999,-121.951219512195,4,1,0,50,0,0
97989,-100,4,1,0,50,0,0
98274,-119.047619047619,4,1,0,50,0,0
100264,-100,4,1,0,50,0,0
100406,-116.279069767442,4,1,0,50,0,0
101260,-100,4,1,0,50,0,0
101544,-113.636363636364,4,1,0,50,0,0
102397,-100,4,1,0,50,0,0
102681,-111.111111111111,4,1,0,50,0,0
103534,-100,4,1,0,50,0,0
103819,-108.695652173913,4,1,0,50,0,0
104672,-100,4,1,0,50,0,0
104956,-107.52688172043,4,1,0,50,0,0
105241,-100,4,1,0,50,0,0
105525,-106.382978723404,4,1,0,50,0,0
105809,-100,4,1,0,50,0,0
106094,-105.263157894737,4,1,0,50,0,0
106378,-100,4,1,0,50,0,0
106662,-104.166666666667,4,1,0,50,0,0
106947,-100,4,1,0,50,0,0
108511,-83.3333333333333,4,1,0,50,0,0
108937,-74.0740740740741,4,1,0,50,0,0
109364,-66.6666666666667,4,1,0,70,0,1
109933,-90.9090909090909,4,1,0,70,0,1
110075,-93.4579439252336,4,1,0,70,0,1
110217,-96.1538461538461,4,1,0,70,0,1
110359,-99.009900990099,4,1,0,70,0,1
110501,-102.040816326531,4,1,0,70,0,1
110643,-105.263157894737,4,1,0,70,0,1
110786,-108.695652173913,4,1,0,70,0,1
110928,-112.359550561798,4,1,0,70,0,1
111070,-116.279069767442,4,1,0,70,0,1
111212,-120.481927710843,4,1,0,70,0,1
111354,-125,4,1,0,70,0,1
111449,-122.956463575377,4,1,0,70,0,1
111544,-120.978522682868,4,1,0,70,0,1
111639,-119.063352419189,4,1,0,70,0,1
111733,-117.207736648281,4,1,0,70,0,1
111828,-115.409206423215,4,1,0,70,0,1
111923,-113.665038225552,4,1,0,70,0,1
111994,-112.390994783934,4,1,0,70,0,1
112065,-111.145319170456,4,1,0,70,0,1
112207,-108.734891286856,4,1,0,70,0,1
112350,-106.426908128036,4,1,0,70,0,1
112492,-104.214757434941,4,1,0,70,0,1
112563,-103.142866278368,4,1,0,70,0,1
112634,-102.092800313629,4,1,0,70,0,1
112776,-100.055430708613,4,1,0,70,0,1
112847,-99.0669871153477,4,1,0,70,0,1
112918,-98.0977858348759,4,1,0,70,0,1
113060,-96.2153684808075,4,1,0,70,0,1
113132,-95.3009938940653,4,1,0,70,0,1
113203,-94.4037459406389,4,1,0,70,0,1
113345,-92.6591699220922,4,1,0,70,0,1
113416,-91.8107559973081,4,1,0,70,0,1
113487,-90.9778205171361,4,1,0,70,0,1
113558,-66.6666666666667,4,1,0,70,0,1
114482,-90.9090909090909,4,1,0,70,0,1
114624,-93.4471145399972,4,1,0,70,0,1
114767,-96.130830214689,4,1,0,70,0,1
114909,-98.9733494461946,4,1,0,70,0,1
115051,-101.988989268719,4,1,0,70,0,1
115193,-105.194283321867,4,1,0,70,0,1
115335,-108.607467632259,4,1,0,70,0,1
115406,-110.39854980465,4,1,0,70,0,1
115478,-112.249697206442,4,1,0,70,0,1
115620,-116.144558162872,4,1,0,70,0,1
115762,-120.319568774666,4,1,0,70,0,1
115904,-125,4,1,0,70,0,1
115999,-123.081770605119,4,1,0,70,0,1
116094,-121.221672010522,4,1,0,70,0,1
116188,-119.416816037201,4,1,0,70,0,1
116283,-117.665054655418,4,1,0,70,0,1
116378,-115.963810014171,4,1,0,70,0,1
116473,-114.31118935077,4,1,0,70,0,1
116544,-113.10221273169,4,1,0,70,0,1
116615,-111.918666466705,4,1,0,70,0,1
116757,-109.624120814551,4,1,0,70,0,1
116899,-107.421885490419,4,1,0,70,0,1
117042,-105.306388938617,4,1,0,70,0,1
117113,-104.279527530317,4,1,0,70,0,1
117184,-103.272498946621,4,1,0,70,0,1
117326,-101.315788140582,4,1,0,70,0,1
117397,-100.364926874114,4,1,0,70,0,1
117468,-99.4318464295018,4,1,0,70,0,1
117610,-97.6165932589885,4,1,0,70,0,1
117681,-96.7336902161611,4,1,0,70,0,1
117752,-95.866523122526,4,1,0,70,0,1
117895,-94.1780983181675,4,1,0,70,0,1
117966,-93.3559503682425,4,1,0,70,0,1
118037,-92.5481180802929,4,1,0,70,0,1
118179,-90.9735166995536,4,1,0,70,0,1
118463,-66.6666666666667,4,1,0,70,0,1
118748,-95.2380952380952,4,1,0,70,0,1
122373,-90.9090909090909,4,1,0,70,0,1
122515,-83.3333333333333,4,1,0,70,0,1
122658,-76.9230769230769,4,1,0,70,0,1
122800,-71.4285714285714,4,1,0,70,0,1
122942,-66.6666666666667,4,1,0,70,0,1
123155,-95.2380952380952,4,1,0,70,0,1
126141,-66.6666666666667,4,1,0,70,0,0
126425,-100,4,1,0,70,0,0
127563,-83.3333333333333,4,1,0,70,0,0
127847,-100,4,1,0,70,0,0
128558,-84.7457627118644,4,1,0,70,0,0
128842,-100,4,1,0,70,0,0
129696,-86.2068965517241,4,1,0,70,0,0
130122,-100,4,1,0,70,0,0
130833,-87.719298245614,4,1,0,70,0,0
131117,-100,4,1,0,70,0,0
131402,-89.2857142857143,4,1,0,70,0,0
131686,-100,4,1,0,70,0,0
132042,-90.9090909090909,4,1,0,70,0,0
132255,-100,4,1,0,70,0,0
134316,-92.5925925925926,4,1,0,70,0,0
134530,-100,4,1,0,70,0,0
136520,-94.3396226415094,4,1,0,50,0,0
136805,-133.333333333333,4,1,0,50,0,0
140857,-125,4,1,0,70,0,0
141212,-117.647058823529,4,1,0,70,0,0
141497,-111.111111111111,4,1,0,70,0,0
145762,-100,4,1,0,70,0,1
163961,-100,4,1,0,70,0,0
164103,-125,4,1,0,50,0,0
164245,-125,4,1,0,50,0,0
164530,-126.01584523238,4,1,0,50,0,0
164814,-127.048498223227,4,1,0,50,0,0
165098,-128.098051372443,4,1,0,50,0,0
165383,-129.165256612615,4,1,0,50,0,0
165667,-130.250223704759,4,1,0,50,0,0
165951,-131.353744829588,4,1,0,50,0,0
166236,-132.475948991461,4,1,0,50,0,0
166520,-133.617671738793,4,1,0,50,0,0
166805,-134.779063420288,4,1,0,50,0,0
167089,-135.960821529668,4,1,0,50,0,0
167373,-137.16367466971,4,1,0,50,0,0
167942,-139.634186358578,4,1,0,50,0,0
168511,-142.195325186489,4,1,0,50,0,0
168795,-143.511349595083,4,1,0,50,0,0
169079,-144.852171116767,4,1,0,50,0,0
169364,-146.218069629045,4,1,0,50,0,0
169648,-147.609973120224,4,1,0,50,0,0
169933,-149.028853476322,4,1,0,50,0,0
170217,-150.475049732004,4,1,0,50,0,0
170501,-151.949820091413,4,1,0,50,0,0
170786,-153.453548843497,4,1,0,50,0,0
171070,-154.987577745644,4,1,0,50,0,0
171354,-156.552341709927,4,1,0,50,0,0
171639,-158.149273936683,4,1,0,50,0,0
171923,-159.778866049388,4,1,0,50,0,0
172207,-161.442390897232,4,1,0,50,0,0
172492,-163.141185644881,4,1,0,50,0,0
172776,-164.875840248501,4,1,0,50,0,0
172918,-166.666666666667,4,1,0,30,0,0
173345,-168.458503616804,4,1,0,30,0,0
173629,-170.309008665322,4,1,0,30,0,0
173914,-172.20032408101,4,1,0,30,0,0
174198,-174.134421325198,4,1,0,30,0,0
174482,-176.112148215984,4,1,0,30,0,0
174767,-178.135315148093,4,1,0,30,0,0
175051,-180.205831100283,4,1,0,30,0,0
175335,-182.324713020902,4,1,0,30,0,0
175620,-184.49435631764,4,1,0,30,0,0
175904,-186.715909875965,4,1,0,30,0,0
176188,-188.991973510885,4,1,0,30,0,0
176473,-191.323846221545,4,1,0,30,0,0
177042,-196.16497474376,4,1,0,30,0,0
177610,-200,4,1,0,30,0,0
177895,-203.903944929623,4,1,0,30,0,0
178179,-206.62138903295,4,1,0,30,0,0
178463,-209.411804124575,4,1,0,30,0,0
178748,-212.279070557317,4,1,0,30,0,0
179032,-215.225480975144,4,1,0,30,0,0
179316,-218.255310697348,4,1,0,30,0,0
179601,-221.371173045846,4,1,0,30,0,0
179885,-224.577793747754,4,1,0,30,0,0
180170,-227.878158106424,4,1,0,30,0,0
180454,-231.276972676938,4,1,0,30,0,0
180738,-234.779260539241,4,1,0,30,0,0
181023,-238.388683212431,4,1,0,30,0,0
181307,-242.111405141962,4,1,0,30,0,0
181591,-245.951636070283,4,1,0,30,0,0
181876,-249.916278046854,4,1,0,30,0,0

[HitObjects]
256,192,170,5,0,0:0:0:0:
256,192,738,1,0,0:0:0:0:
256,192,1307,1,8,0:0:0:0:
256,192,1876,1,0,0:0:0:0:
256,192,2444,1,8,0:0:0:0:
256,192,3013,1,8,0:0:0:0:
256,192,3582,1,0,0:0:0:0:
256,192,4151,1,0,0:0:0:0:
256,192,4719,1,8,0:0:0:0:
256,192,5288,1,8,0:0:0:0:
256,192,5857,1,0,0:0:0:0:
256,192,6425,1,8,0:0:0:0:
256,192,6994,1,0,0:0:0:0:
256,192,9269,1,0,0:0:0:0:
256,192,9838,1,0,0:0:0:0:
256,192,10406,1,8,0:0:0:0:
256,192,10975,1,0,0:0:0:0:
256,192,11544,1,8,0:0:0:0:
256,192,12113,1,8,0:0:0:0:
256,192,12681,1,0,0:0:0:0:
256,192,13250,1,0,0:0:0:0:
256,192,13819,1,8,0:0:0:0:
256,192,14388,1,8,0:0:0:0:
256,192,14956,1,0,0:0:0:0:
256,192,15525,1,8,0:0:0:0:
256,192,16094,1,0,0:0:0:0:
256,192,17658,2,0,L|346:190,1,84
256,192,18369,1,4,0:0:0:0:
256,192,18653,1,8,0:0:0:0:
256,192,18937,1,0,0:0:0:0:
256,192,19222,1,8,0:0:0:0:
256,192,19506,1,0,0:0:0:0:
256,192,19790,1,8,0:0:0:0:
256,192,20075,1,0,0:0:0:0:
256,192,20217,1,8,0:0:0:0:
256,192,20359,1,8,0:0:0:0:
256,192,20643,1,0,0:0:0:0:
256,192,20928,1,8,0:0:0:0:
256,192,21212,1,0,0:0:0:0:
256,192,21497,1,8,0:0:0:0:
256,192,21781,1,0,0:0:0:0:
256,192,21923,1,0,0:0:0:0:
256,192,22065,1,8,0:0:0:0:
256,192,22350,1,8,0:0:0:0:
256,192,22492,1,0,0:0:0:0:
256,192,22634,1,0,0:0:0:0:
256,192,22776,1,0,0:0:0:0:
256,192,22847,1,0,0:0:0:0:
256,192,22918,1,8,0:0:0:0:
256,192,23203,1,0,0:0:0:0:
256,192,23487,1,8,0:0:0:0:
256,192,23771,1,0,0:0:0:0:
256,192,24056,1,8,0:0:0:0:
256,192,24198,1,0,0:0:0:0:
256,192,24340,1,8,0:0:0:0:
256,192,24624,1,0,0:0:0:0:
256,192,24767,1,8,0:0:0:0:
256,192,24909,1,8,0:0:0:0:
256,192,25051,1,0,0:0:0:0:
256,192,25193,1,8,0:0:0:0:
256,192,25478,1,8,0:0:0:0:
256,192,25762,1,0,0:0:0:0:
256,192,25904,1,0,0:0:0:0:
256,192,26046,1,8,0:0:0:0:
256,192,26331,1,8,0:0:0:0:
256,192,26473,1,0,0:0:0:0:
256,192,26615,1,0,0:0:0:0:
256,192,26899,1,8,0:0:0:0:
256,192,27042,1,0,0:0:0:0:
256,192,27184,1,0,0:0:0:0:
256,192,27326,1,8,0:0:0:0:
256,192,27397,1,8,0:0:0:0:
256,192,27468,1,0,0:0:0:0:
256,192,27752,1,8,0:0:0:0:
256,192,28037,1,0,0:0:0:0:
256,192,28179,1,0,0:0:0:0:
256,192,28321,1,8,0:0:0:0:
256,192,28606,1,0,0:0:0:0:
256,192,28748,1,8,0:0:0:0:
256,192,28890,1,8,0:0:0:0:
256,192,29174,1,0,0:0:0:0:
256,192,29316,1,8,0:0:0:0:
256,192,29459,1,0,0:0:0:0:
256,192,29601,1,0,0:0:0:0:
256,192,29743,1,8,0:0:0:0:
256,192,29885,1,8,0:0:0:0:
256,192,30027,1,0,0:0:0:0:
256,192,30312,1,8,0:0:0:0:
256,192,30454,1,0,0:0:0:0:
256,192,30596,1,8,0:0:0:0:
256,192,30880,1,0,0:0:0:0:
256,192,31023,1,0,0:0:0:0:
256,192,31165,1,8,0:0:0:0:
256,192,31449,1,8,0:0:0:0:
256,192,31591,1,0,0:0:0:0:
256,192,31733,1,0,0:0:0:0:
256,192,31876,1,8,0:0:0:0:
256,192,31947,1,0,0:0:0:0:
256,192,32018,1,8,0:0:0:0:
256,192,32302,1,0,0:0:0:0:
256,192,32444,1,0,0:0:0:0:
256,192,32587,1,8,0:0:0:0:
256,192,32871,1,8,0:0:0:0:
256,192,33013,1,0,0:0:0:0:
256,192,33155,1,8,0:0:0:0:
256,192,33440,1,0,0:0:0:0:
256,192,33582,1,8,0:0:0:0:
256,192,33724,1,0,0:0:0:0:
256,192,33866,1,0,0:0:0:0:
256,192,34008,1,8,0:0:0:0:
256,192,34151,1,8,0:0:0:0:
256,192,34293,1,8,0:0:0:0:
256,192,34435,1,0,0:0:0:0:
256,192,34577,1,8,0:0:0:0:
256,192,34861,1,0,0:0:0:0:
256,192,35004,1,0,0:0:0:0:
256,192,35146,1,8,0:0:0:0:
256,192,35288,1,8,0:0:0:0:
256,192,35999,1,8,0:0:0:0:
256,192,36141,1,8,0:0:0:0:
256,192,36283,1,8,0:0:0:0:
256,192,36425,1,8,0:0:0:0:
256,192,36568,1,4,0:0:0:0:
256,192,37136,1,8,0:0:0:0:
256,192,37207,1,8,0:0:0:0:
256,192,37279,1,8,0:0:0:0:
256,192,37421,1,0,0:0:0:0:
256,192,37492,1,0,0:0:0:0:
256,192,37563,1,0,0:0:0:0:
256,192,37705,1,0,0:0:0:0:
256,192,37776,1,0,0:0:0:0:
256,192,37847,1,0,0:0:0:0:
256,192,37989,1,8,0:0:0:0:
256,192,38060,1,8,0:0:0:0:
256,192,38132,1,8,0:0:0:0:
256,192,38274,1,0,0:0:0:0:
256,192,38321,1,0,0:0:0:0:
256,192,38369,1,8,0:0:0:0:
256,192,38416,1,8,0:0:0:0:
256,192,38463,1,0,0:0:0:0:
256,192,38511,1,0,0:0:0:0:
256,192,38558,1,8,0:0:0:0:
256,192,38653,1,8,0:0:0:0:
256,192,38748,1,8,0:0:0:0:
256,192,38842,1,0,0:0:0:0:
256,192,38937,1,8,0:0:0:0:
256,192,39032,1,8,0:0:0:0:
256,192,39127,1,0,0:0:0:0:
256,192,39198,1,0,0:0:0:0:
256,192,39269,1,0,0:0:0:0:
256,192,39411,1,8,0:0:0:0:
256,192,39553,1,8,0:0:0:0:
256,192,39696,1,0,0:0:0:0:
256,192,39767,1,0,0:0:0:0:
256,192,39838,1,0,0:0:0:0:
256,192,39980,1,8,0:0:0:0:
256,192,40051,1,8,0:0:0:0:
256,192,40122,1,8,0:0:0:0:
256,192,40264,1,8,0:0:0:0:
256,192,40335,1,8,0:0:0:0:
256,192,40406,1,8,0:0:0:0:
256,192,40549,1,0,0:0:0:0:
256,192,40620,1,0,0:0:0:0:
256,192,40691,1,0,0:0:0:0:
256,192,40833,1,12,0:0:0:0:
256,192,41117,1,4,0:0:0:0:
256,192,41686,1,8,0:0:0:0:
256,192,41757,1,8,0:0:0:0:
256,192,41828,1,8,0:0:0:0:
256,192,41970,1,0,0:0:0:0:
256,192,42042,1,0,0:0:0:0:
256,192,42113,1,0,0:0:0:0:
256,192,42255,1,0,0:0:0:0:
256,192,42326,1,0,0:0:0:0:
256,192,42397,1,0,0:0:0:0:
256,192,42539,1,8,0:0:0:0:
256,192,42610,1,8,0:0:0:0:
256,192,42681,1,8,0:0:0:0:
256,192,42824,1,0,0:0:0:0:
256,192,42871,1,0,0:0:0:0:
256,192,42918,1,8,0:0:0:0:
256,192,42966,1,8,0:0:0:0:
256,192,43013,1,0,0:0:0:0:
256,192,43060,1,0,0:0:0:0:
256,192,43108,1,8,0:0:0:0:
256,192,43203,1,8,0:0:0:0:
256,192,43297,1,8,0:0:0:0:
256,192,43392,1,0,0:0:0:0:
256,192,43487,1,8,0:0:0:0:
256,192,43582,1,8,0:0:0:0:
256,192,43677,1,0,0:0:0:0:
256,192,43748,1,0,0:0:0:0:
256,192,43819,1,0,0:0:0:0:
256,192,43961,1,8,0:0:0:0:
256,192,44103,1,8,0:0:0:0:
256,192,44245,1,0,0:0:0:0:
256,192,44316,1,0,0:0:0:0:
256,192,44388,1,0,0:0:0:0:
256,192,44530,1,8,0:0:0:0:
256,192,44601,1,8,0:0:0:0:
256,192,44672,1,8,0:0:0:0:
256,192,44814,1,8,0:0:0:0:
256,192,44885,1,8,0:0:0:0:
256,192,44956,1,8,0:0:0:0:
256,192,45098,1,0,0:0:0:0:
256,192,45170,1,0,0:0:0:0:
256,192,45241,1,0,0:0:0:0:
256,192,45383,1,8,0:0:0:0:
256,192,45525,1,0,0:0:0:0:
256,192,45667,1,12,0:0:0:0:
256,192,45951,1,12,0:0:0:0:
256,192,46236,1,8,0:0:0:0:
256,192,46378,1,0,0:0:0:0:
256,192,46449,1,0,0:0:0:0:
256,192,46520,1,0,0:0:0:0:
256,192,46591,1,8,0:0:0:0:
256,192,46662,1,8,0:0:0:0:
256,192,46733,1,8,0:0:0:0:
256,192,46805,1,0,0:0:0:0:
256,192,46876,1,0,0:0:0:0:
256,192,46947,1,8,0:0:0:0:
256,192,47089,1,8,0:0:0:0:
256,192,47160,1,0,0:0:0:0:
256,192,47231,1,0,0:0:0:0:
256,192,47373,1,0,0:0:0:0:
256,192,47444,1,0,0:0:0:0:
256,192,47515,1,8,0:0:0:0:
256,192,47658,1,0,0:0:0:0:
256,192,47752,1,0,0:0:0:0:
256,192,47847,1,0,0:0:0:0:
256,192,47942,1,8,0:0:0:0:
256,192,48037,1,8,0:0:0:0:
256,192,48132,1,8,0:0:0:0:
256,192,48226,1,0,0:0:0:0:
256,192,48297,1,0,0:0:0:0:
256,192,48369,1,8,0:0:0:0:
256,192,48440,1,8,0:0:0:0:
256,192,48511,1,0,0:0:0:0:
256,192,48582,1,8,0:0:0:0:
256,192,48653,1,0,0:0:0:0:
256,192,48724,1,0,0:0:0:0:
256,192,48795,1,8,0:0:0:0:
256,192,48866,1,8,0:0:0:0:
256,192,48937,1,0,0:0:0:0:
256,192,49008,1,0,0:0:0:0:
256,192,49079,1,8,0:0:0:0:
256,192,49151,1,0,0:0:0:0:
256,192,49222,1,8,0:0:0:0:
256,192,49293,1,8,0:0:0:0:
256,192,49364,1,0,0:0:0:0:
256,192,49435,1,0,0:0:0:0:
256,192,49506,1,8,0:0:0:0:
256,192,49648,1,4,0:0:0:0:
256,192,49790,1,4,0:0:0:0:
256,192,49933,1,12,0:0:0:0:
256,192,50075,1,12,0:0:0:0:
256,192,50217,1,4,0:0:0:0:
256,192,50501,12,0,50643,0:0:0:0:
256,192,50786,5,8,0:0:0:0:
256,192,50857,1,8,0:0:0:0:
256,192,50928,1,8,0:0:0:0:
256,192,51070,1,0,0:0:0:0:
256,192,51141,1,0,0:0:0:0:
256,192,51212,1,0,0:0:0:0:
256,192,51354,1,0,0:0:0:0:
256,192,51425,1,0,0:0:0:0:
256,192,51497,1,0,0:0:0:0:
256,192,51639,1,8,0:0:0:0:
256,192,51710,1,8,0:0:0:0:
256,192,51781,1,8,0:0:0:0:
256,192,51923,1,0,0:0:0:0:
256,192,52065,1,0,0:0:0:0:
256,192,52207,1,8,0:0:0:0:
256,192,52302,1,0,0:0:0:0:
256,192,52397,1,0,0:0:0:0:
256,192,52492,1,8,0:0:0:0:
256,192,52587,1,8,0:0:0:0:
256,192,52681,1,0,0:0:0:0:
256,192,52776,1,8,0:0:0:0:
256,192,52847,1,8,0:0:0:0:
256,192,52918,1,8,0:0:0:0:
256,192,52989,1,0,0:0:0:0:
256,192,53060,1,8,0:0:0:0:
256,192,53132,1,8,0:0:0:0:
256,192,53203,1,0,0:0:0:0:
256,192,53274,1,0,0:0:0:0:
256,192,53345,1,8,0:0:0:0:
256,192,53416,1,0,0:0:0:0:
256,192,53487,1,0,0:0:0:0:
256,192,53629,1,12,0:0:0:0:
256,192,53914,1,12,0:0:0:0:
256,192,54198,1,0,0:0:0:0:
256,192,54311,1,0,0:0:0:0:
256,192,54425,1,8,0:0:0:0:
256,192,54539,1,8,0:0:0:0:
256,192,54652,1,8,0:0:0:0:
256,192,54767,1,0,0:0:0:0:
256,192,55335,1,0,0:0:0:0:
256,192,55620,1,0,0:0:0:0:
256,192,55904,1,0,0:0:0:0:
256,192,56188,1,0,0:0:0:0:
256,192,56473,1,8,0:0:0:0:
256,192,56757,1,0,0:0:0:0:
256,192,56899,1,0,0:0:0:0:
256,192,57042,1,0,0:0:0:0:
256,192,57326,1,0,0:0:0:0:
256,192,57610,1,8,0:0:0:0:
256,192,57895,1,0,0:0:0:0:
256,192,58037,1,0,0:0:0:0:
256,192,58179,1,8,0:0:0:0:
256,192,58321,1,8,0:0:0:0:
256,192,58463,1,0,0:0:0:0:
256,192,58748,1,8,0:0:0:0:
256,192,59032,1,8,0:0:0:0:
256,192,59316,1,0,0:0:0:0:
256,192,59601,1,8,0:0:0:0:
256,192,59743,1,8,0:0:0:0:
256,192,59885,1,0,0:0:0:0:
256,192,60027,1,0,0:0:0:0:
256,192,60170,1,8,0:0:0:0:
256,192,60312,1,0,0:0:0:0:
256,192,60454,1,8,0:0:0:0:
256,192,60596,1,8,0:0:0:0:
256,192,60738,1,0,0:0:0:0:
256,192,60880,1,0,0:0:0:0:
256,192,61023,1,8,0:0:0:0:
256,192,61307,1,0,0:0:0:0:
256,192,61591,1,8,0:0:0:0:
256,192,61733,1,8,0:0:0:0:
256,192,61876,1,0,0:0:0:0:
256,192,62018,1,8,0:0:0:0:
256,192,62160,1,0,0:0:0:0:
256,192,62302,1,0,0:0:0:0:
256,192,62444,1,8,0:0:0:0:
256,192,62587,1,0,0:0:0:0:
256,192,62729,1,8,0:0:0:0:
256,192,62871,1,8,0:0:0:0:
256,192,63013,1,0,0:0:0:0:
256,192,63297,1,8,0:0:0:0:
256,192,63440,1,8,0:0:0:0:
256,192,63582,1,8,0:0:0:0:
256,192,63724,1,0,0:0:0:0:
256,192,63795,1,0,0:0:0:0:
256,192,63866,1,0,0:0:0:0:
256,192,64151,1,0,0:0:0:0:
256,192,64435,1,8,0:0:0:0:
256,192,64719,1,0,0:0:0:0:
256,192,64861,1,0,0:0:0:0:
256,192,64933,1,0,0:0:0:0:
256,192,65004,1,8,0:0:0:0:
256,192,65288,1,0,0:0:0:0:
256,192,65572,1,8,0:0:0:0:
256,192,65857,1,0,0:0:0:0:
256,192,65999,1,0,0:0:0:0:
256,192,66141,1,0,0:0:0:0:
256,192,66425,1,0,0:0:0:0:
256,192,66710,1,8,0:0:0:0:
256,192,66852,1,8,0:0:0:0:
256,192,66994,1,0,0:0:0:0:
256,192,67136,1,0,0:0:0:0:
256,192,67279,1,8,0:0:0:0:
256,192,67421,1,8,0:0:0:0:
256,192,67563,1,0,0:0:0:0:
256,192,67847,1,8,0:0:0:0:
256,192,68132,1,8,0:0:0:0:
256,192,68416,1,0,0:0:0:0:
256,192,68700,1,8,0:0:0:0:
256,192,68842,1,8,0:0:0:0:
256,192,68985,1,0,0:0:0:0:
256,192,69127,1,0,0:0:0:0:
256,192,69269,1,8,0:0:0:0:
256,192,69411,1,0,0:0:0:0:
256,192,69553,1,8,0:0:0:0:
256,192,69696,1,0,0:0:0:0:
256,192,69838,1,8,0:0:0:0:
256,192,69980,1,8,0:0:0:0:
256,192,70122,1,0,0:0:0:0:
256,192,70264,1,8,0:0:0:0:
256,192,70406,1,0,0:0:0:0:
256,192,70549,1,0,0:0:0:0:
256,192,70691,1,8,0:0:0:0:
256,192,70833,1,0,0:0:0:0:
256,192,70975,1,8,0:0:0:0:
256,192,71117,1,8,0:0:0:0:
256,192,71260,1,0,0:0:0:0:
256,192,71402,1,8,0:0:0:0:
256,192,71544,1,0,0:0:0:0:
256,192,71686,1,0,0:0:0:0:
256,192,71828,1,8,0:0:0:0:
256,192,71970,1,8,0:0:0:0:
256,192,72113,1,0,0:0:0:0:
256,192,72397,1,8,0:0:0:0:
256,192,72966,1,4,0:0:0:0:
256,192,73534,1,8,0:0:0:0:
256,192,74103,1,8,0:0:0:0:
256,192,74672,1,0,0:0:0:0:
256,192,75241,1,8,0:0:0:0:
256,192,75809,1,0,0:0:0:0:
256,192,76378,1,8,0:0:0:0:
256,192,76947,1,8,0:0:0:0:
256,192,77515,1,8,0:0:0:0:
256,192,78084,1,0,0:0:0:0:
256,192,78653,1,0,0:0:0:0:
256,192,79222,1,8,0:0:0:0:
256,192,79790,1,0,0:0:0:0:
256,192,81497,1,0,0:0:0:0:
256,192,82065,1,8,0:0:0:0:
256,192,82350,1,8,0:0:0:0:
256,192,82634,1,0,0:0:0:0:
256,192,82918,1,8,0:0:0:0:
256,192,83203,1,0,0:0:0:0:
256,192,83345,1,8,0:0:0:0:
256,192,83487,1,8,0:0:0:0:
256,192,83771,1,0,0:0:0:0:
256,192,83914,1,0,0:0:0:0:
256,192,84056,1,8,0:0:0:0:
256,192,84340,1,0,0:0:0:0:
256,192,84624,1,8,0:0:0:0:
256,192,84909,1,0,0:0:0:0:
256,192,85193,1,8,0:0:0:0:
256,192,85478,1,0,0:0:0:0:
256,192,85620,1,8,0:0:0:0:
256,192,85762,1,0,0:0:0:0:
256,192,86046,1,8,0:0:0:0:
256,192,86188,1,0,0:0:0:0:
256,192,86331,1,8,0:0:0:0:
256,192,86473,1,0,0:0:0:0:
256,192,86544,1,0,0:0:0:0:
256,192,86615,1,0,0:0:0:0:
256,192,86899,1,8,0:0:0:0:
256,192,87184,1,0,0:0:0:0:
256,192,87326,1,0,0:0:0:0:
256,192,87468,1,8,0:0:0:0:
256,192,87752,1,8,0:0:0:0:
256,192,87895,1,0,0:0:0:0:
256,192,88037,1,8,0:0:0:0:
256,192,88321,1,0,0:0:0:0:
256,192,88463,1,0,0:0:0:0:
256,192,88606,1,8,0:0:0:0:
256,192,88748,1,8,0:0:0:0:
256,192,88890,1,0,0:0:0:0:
256,192,89174,1,8,0:0:0:0:
256,192,89743,1,8,0:0:0:0:
256,192,90027,1,0,0:0:0:0:
256,192,90312,1,0,0:0:0:0:
256,192,90596,1,8,0:0:0:0:
256,192,90880,1,8,0:0:0:0:
256,192,91165,1,4,0:0:0:0:
256,192,91733,1,0,0:0:0:0:
256,192,92018,1,0,0:0:0:0:
256,192,92302,1,8,0:0:0:0:
256,192,92871,1,8,0:0:0:0:
256,192,93155,1,8,0:0:0:0:
256,192,93440,1,4,0:0:0:0:
256,192,94008,1,8,0:0:0:0:
256,192,94293,1,0,0:0:0:0:
256,192,94577,1,8,0:0:0:0:
256,192,95146,1,8,0:0:0:0:
256,192,95430,1,0,0:0:0:0:
256,192,95715,1,4,0:0:0:0:
256,192,96283,1,8,0:0:0:0:
256,192,96568,1,0,0:0:0:0:
256,192,96710,1,0,0:0:0:0:
256,192,96852,1,0,0:0:0:0:
256,192,96994,1,0,0:0:0:0:
256,192,97136,1,0,0:0:0:0:
256,192,97421,1,8,0:0:0:0:
256,192,97563,1,8,0:0:0:0:
256,192,97705,1,0,0:0:0:0:
256,192,97989,1,4,0:0:0:0:
256,192,98558,1,8,0:0:0:0:
256,192,98842,1,0,0:0:0:0:
256,192,98985,1,0,0:0:0:0:
256,192,99127,1,8,0:0:0:0:
256,192,99269,1,0,0:0:0:0:
256,192,99411,1,8,0:0:0:0:
256,192,99696,1,8,0:0:0:0:
256,192,99838,1,8,0:0:0:0:
256,192,99980,1,8,0:0:0:0:
256,192,100264,1,4,0:0:0:0:
256,192,100549,1,8,0:0:0:0:
256,192,100691,1,0,0:0:0:0:
256,192,100833,1,8,0:0:0:0:
256,192,101117,1,8,0:0:0:0:
256,192,101402,1,4,0:0:0:0:
256,192,101686,1,8,0:0:0:0:
256,192,101828,1,8,0:0:0:0:
256,192,101970,1,0,0:0:0:0:
256,192,102255,1,0,0:0:0:0:
256,192,102539,1,12,0:0:0:0:
256,192,102824,1,0,0:0:0:0:
256,192,102966,1,0,0:0:0:0:
256,192,103108,1,8,0:0:0:0:
256,192,103392,1,0,0:0:0:0:
256,192,103677,1,12,0:0:0:0:
256,192,103961,1,0,0:0:0:0:
256,192,104103,1,0,0:0:0:0:
256,192,104245,1,8,0:0:0:0:
256,192,104388,1,0,0:0:0:0:
256,192,104530,1,8,0:0:0:0:
256,192,104814,1,4,0:0:0:0:
256,192,105098,1,8,0:0:0:0:
256,192,105383,1,4,0:0:0:0:
256,192,105667,1,0,0:0:0:0:
256,192,105951,1,12,0:0:0:0:
256,192,106236,1,0,0:0:0:0:
256,192,106520,1,12,0:0:0:0:
256,192,106805,1,8,0:0:0:0:
123,190,107089,2,12,L|483:193,1,350
256,192,107942,1,8,0:0:0:0:
256,192,108084,1,8,0:0:0:0:
256,192,108226,1,8,0:0:0:0:
256,192,108369,1,8,0:0:0:0:
256,192,108511,12,8,108653,0:0:0:0:
248,180,108795,5,0,0:0:0:0:
248,180,109079,1,8,0:0:0:0:
248,180,109127,1,8,0:0:0:0:
248,180,109364,1,4,0:0:0:0:
248,180,109933,1,0,0:0:0:0:
248,180,110075,1,8,0:0:0:0:
248,180,110217,1,0,0:0:0:0:
248,180,110359,1,8,0:0:0:0:
248,180,110501,1,0,0:0:0:0:
248,180,110643,1,8,0:0:0:0:
248,180,110786,1,0,0:0:0:0:
248,180,110928,1,8,0:0:0:0:
248,180,111070,1,0,0:0:0:0:
248,180,111212,1,8,0:0:0:0:
248,180,111354,1,0,0:0:0:0:
248,180,111449,1,0,0:0:0:0:
248,180,111544,1,0,0:0:0:0:
248,180,111639,1,8,0:0:0:0:
248,180,111733,1,0,0:0:0:0:
248,180,111828,1,8,0:0:0:0:
248,180,111923,1,0,0:0:0:0:
248,180,111994,1,0,0:0:0:0:
248,180,112065,1,0,0:0:0:0:
248,180,112207,1,8,0:0:0:0:
248,180,112350,1,8,0:0:0:0:
248,180,112492,1,0,0:0:0:0:
248,180,112563,1,0,0:0:0:0:
248,180,112634,1,0,0:0:0:0:
248,180,112776,1,8,0:0:0:0:
248,180,112847,1,8,0:0:0:0:
248,180,112918,1,8,0:0:0:0:
248,180,113060,1,0,0:0:0:0:
248,180,113132,1,0,0:0:0:0:
248,180,113203,1,0,0:0:0:0:
248,180,113345,1,0,0:0:0:0:
248,180,113416,1,0,0:0:0:0:
248,180,113487,1,0,0:0:0:0:
248,180,113629,1,12,0:0:0:0:
248,180,113914,1,12,0:0:0:0:
248,180,114482,1,0,0:0:0:0:
248,180,114624,1,8,0:0:0:0:
248,180,114767,1,0,0:0:0:0:
248,180,114909,1,8,0:0:0:0:
248,180,115051,1,0,0:0:0:0:
248,180,115193,1,8,0:0:0:0:
248,180,115335,1,0,0:0:0:0:
248,180,115406,1,0,0:0:0:0:
248,180,115478,1,0,0:0:0:0:
248,180,115620,1,8,0:0:0:0:
248,180,115762,1,8,0:0:0:0:
248,180,115904,1,0,0:0:0:0:
248,180,115999,1,8,0:0:0:0:
248,180,116094,1,8,0:0:0:0:
248,180,116188,1,0,0:0:0:0:
248,180,116283,1,8,0:0:0:0:
248,180,116378,1,0,0:0:0:0:
248,180,116473,1,8,0:0:0:0:
248,180,116544,1,8,0:0:0:0:
248,180,116615,1,8,0:0:0:0:
248,180,116757,1,0,0:0:0:0:
248,180,116899,1,0,0:0:0:0:
248,180,117042,1,8,0:0:0:0:
248,180,117113,1,8,0:0:0:0:
248,180,117184,1,8,0:0:0:0:
248,180,117326,1,0,0:0:0:0:
248,180,117397,1,0,0:0:0:0:
248,180,117468,1,0,0:0:0:0:
248,180,117610,1,8,0:0:0:0:
248,180,117681,1,8,0:0:0:0:
248,180,117752,1,8,0:0:0:0:
248,180,117895,1,8,0:0:0:0:
248,180,117966,1,8,0:0:0:0:
248,180,118037,1,8,0:0:0:0:
248,180,118179,1,0,0:0:0:0:
248,180,118321,1,0,0:0:0:0:
248,180,118463,1,12,0:0:0:0:
248,180,118748,1,8,0:0:0:0:
248,180,118819,1,8,0:0:0:0:
248,180,118890,1,8,0:0:0:0:
248,180,118961,1,8,0:0:0:0:
248,180,119032,1,0,0:0:0:0:
248,180,119103,1,0,0:0:0:0:
248,180,119174,1,0,0:0:0:0:
248,180,119245,1,0,0:0:0:0:
248,180,119316,1,8,0:0:0:0:
248,180,119388,1,8,0:0:0:0:
248,180,119459,1,8,0:0:0:0:
248,180,119530,1,8,0:0:0:0:
248,180,119601,1,0,0:0:0:0:
248,180,119672,1,0,0:0:0:0:
248,180,119743,1,8,0:0:0:0:
248,180,119814,1,0,0:0:0:0:
248,180,119885,1,8,0:0:0:0:
248,180,119956,1,8,0:0:0:0:
248,180,120027,1,0,0:0:0:0:
248,180,120098,1,0,0:0:0:0:
248,180,120170,1,8,0:0:0:0:
248,180,120241,1,8,0:0:0:0:
248,180,120312,1,0,0:0:0:0:
248,180,120383,1,8,0:0:0:0:
248,180,120454,1,0,0:0:0:0:
248,180,120549,1,8,0:0:0:0:
248,180,120643,1,8,0:0:0:0:
248,180,120738,1,0,0:0:0:0:
248,180,120833,1,8,0:0:0:0:
248,180,120928,1,0,0:0:0:0:
248,180,121023,1,8,0:0:0:0:
248,180,121094,1,8,0:0:0:0:
248,180,121165,1,8,0:0:0:0:
248,180,121236,1,0,0:0:0:0:
248,180,121307,1,8,0:0:0:0:
248,180,121378,1,8,0:0:0:0:
248,180,121449,1,0,0:0:0:0:
248,180,121520,1,0,0:0:0:0:
248,180,121591,1,8,0:0:0:0:
248,180,121662,1,8,0:0:0:0:
248,180,121733,1,0,0:0:0:0:
248,180,121805,1,0,0:0:0:0:
248,180,121876,1,8,0:0:0:0:
248,180,121947,1,0,0:0:0:0:
248,180,122018,1,0,0:0:0:0:
248,180,122089,1,0,0:0:0:0:
248,180,122160,1,8,0:0:0:0:
248,180,122231,1,8,0:0:0:0:
248,180,122302,1,8,0:0:0:0:
248,180,122444,1,4,0:0:0:0:
248,180,122587,1,4,0:0:0:0:
248,180,122729,1,12,0:0:0:0:
248,180,122871,1,12,0:0:0:0:
248,180,123013,1,4,0:0:0:0:
248,180,123297,1,8,0:0:0:0:
248,180,123369,1,8,0:0:0:0:
248,180,123440,1,0,0:0:0:0:
248,180,123511,1,8,0:0:0:0:
248,180,123582,1,0,0:0:0:0:
248,180,123653,1,0,0:0:0:0:
248,180,123724,1,8,0:0:0:0:
248,180,123795,1,0,0:0:0:0:
248,180,123866,1,8,0:0:0:0:
248,180,123937,1,8,0:0:0:0:
248,180,124008,1,0,0:0:0:0:
248,180,124079,1,0,0:0:0:0:
248,180,124151,1,8,0:0:0:0:
248,180,124222,1,8,0:0:0:0:
248,180,124293,1,8,0:0:0:0:
248,180,124364,1,0,0:0:0:0:
248,180,124435,1,8,0:0:0:0:
248,180,124506,1,8,0:0:0:0:
248,180,124577,1,0,0:0:0:0:
248,180,124648,1,8,0:0:0:0:
248,180,124719,1,0,0:0:0:0:
248,180,124861,1,8,0:0:0:0:
248,180,125004,1,0,0:0:0:0:
248,180,125146,1,8,0:0:0:0:
248,180,125288,1,0,0:0:0:0:
248,180,125359,1,0,0:0:0:0:
248,180,125430,1,0,0:0:0:0:
248,180,125572,1,8,0:0:0:0:
248,180,125643,1,8,0:0:0:0:
248,180,125715,1,8,0:0:0:0:
248,180,125786,1,0,0:0:0:0:
248,180,125857,1,8,0:0:0:0:
248,180,125928,1,0,0:0:0:0:
248,180,125999,1,0,0:0:0:0:
248,180,126141,1,12,0:0:0:0:
248,180,127563,1,4,0:0:0:0:
248,180,128132,1,8,0:0:0:0:
248,180,128416,1,8,0:0:0:0:
248,180,128700,1,4,0:0:0:0:
248,180,128985,1,0,0:0:0:0:
248,180,129269,1,8,0:0:0:0:
248,180,129553,1,0,0:0:0:0:
248,180,129838,1,12,0:0:0:0:
248,180,130406,1,0,0:0:0:0:
248,180,130691,1,0,0:0:0:0:
248,180,130975,1,12,0:0:0:0:
248,180,131260,1,0,0:0:0:0:
248,180,131544,1,12,0:0:0:0:
248,180,131828,1,0,0:0:0:0:
248,180,131970,1,8,0:0:0:0:
248,180,132113,1,4,0:0:0:0:
248,180,132397,1,8,0:0:0:0:
248,180,132539,1,0,0:0:0:0:
248,180,132681,1,8,0:0:0:0:
248,180,132824,1,8,0:0:0:0:
248,180,132966,1,0,0:0:0:0:
248,180,133108,1,0,0:0:0:0:
248,180,133250,1,0,0:0:0:0:
248,180,133392,1,0,0:0:0:0:
248,180,133534,1,0,0:0:0:0:
248,180,133819,1,8,0:0:0:0:
248,180,133961,1,8,0:0:0:0:
248,180,134103,1,0,0:0:0:0:
248,180,134245,1,8,0:0:0:0:
248,180,134388,1,4,0:0:0:0:
248,180,134672,1,8,0:0:0:0:
248,180,134814,1,8,0:0:0:0:
248,180,134956,1,0,0:0:0:0:
248,180,135241,1,8,0:0:0:0:
248,180,135383,1,8,0:0:0:0:
248,180,135525,1,8,0:0:0:0:
248,180,135667,1,8,0:0:0:0:
248,180,135809,1,8,0:0:0:0:
248,180,136094,1,0,0:0:0:0:
248,180,136378,1,8,0:0:0:0:
248,180,136662,1,4,0:0:0:0:
248,180,137231,1,8,0:0:0:0:
248,180,137515,1,8,0:0:0:0:
248,180,137800,1,0,0:0:0:0:
248,180,138369,1,8,0:0:0:0:
248,180,138653,1,0,0:0:0:0:
248,180,138937,1,8,0:0:0:0:
248,180,139222,1,8,0:0:0:0:
248,180,139506,1,0,0:0:0:0:
248,180,139790,1,0,0:0:0:0:
248,180,140075,1,8,0:0:0:0:
248,180,140359,1,0,0:0:0:0:
248,180,140643,1,8,0:0:0:0:
248,180,140928,1,8,0:0:0:0:
248,180,141212,1,0,0:0:0:0:
248,180,141497,1,8,0:0:0:0:
248,180,142065,1,0,0:0:0:0:
248,180,142207,1,0,0:0:0:0:
248,180,142350,1,0,0:0:0:0:
248,180,142492,1,0,0:0:0:0:
248,180,142634,1,0,0:0:0:0:
248,180,142918,1,8,0:0:0:0:
248,180,143203,1,8,0:0:0:0:
248,180,143487,1,0,0:0:0:0:
248,180,143771,1,8,0:0:0:0:
248,180,144340,1,0,0:0:0:0:
248,180,144482,1,0,0:0:0:0:
248,180,144624,1,0,0:0:0:0:
248,180,144767,1,0,0:0:0:0:
248,180,144909,1,8,0:0:0:0:
248,180,145478,1,8,0:0:0:0:
248,180,145762,1,4,0:0:0:0:
248,180,146046,1,8,0:0:0:0:
248,180,146331,1,8,0:0:0:0:
248,180,146615,1,0,0:0:0:0:
248,180,146757,1,8,0:0:0:0:
248,180,146899,1,0,0:0:0:0:
248,180,147042,1,0,0:0:0:0:
248,180,147184,1,8,0:0:0:0:
248,180,147468,1,8,0:0:0:0:
248,180,147752,1,0,0:0:0:0:
248,180,148037,1,8,0:0:0:0:
248,180,148321,1,0,0:0:0:0:
248,180,148606,1,8,0:0:0:0:
248,180,148890,1,0,0:0:0:0:
248,180,149032,1,8,0:0:0:0:
248,180,149174,1,0,0:0:0:0:
248,180,149459,1,0,0:0:0:0:
248,180,149601,1,8,0:0:0:0:
248,180,149672,1,8,0:0:0:0:
248,180,149743,1,8,0:0:0:0:
248,180,150027,1,0,0:0:0:0:
248,180,150312,1,8,0:0:0:0:
248,180,150596,1,0,0:0:0:0:
248,180,150880,1,8,0:0:0:0:
248,180,151165,1,0,0:0:0:0:
248,180,151307,1,8,0:0:0:0:
248,180,151449,1,0,0:0:0:0:
248,180,151591,1,0,0:0:0:0:
248,180,151733,1,8,0:0:0:0:
248,180,152018,1,8,0:0:0:0:
248,180,152302,1,0,0:0:0:0:
248,180,152444,1,0,0:0:0:0:
248,180,152587,1,8,0:0:0:0:
248,180,152871,1,8,0:0:0:0:
248,180,153013,1,0,0:0:0:0:
248,180,153155,1,8,0:0:0:0:
248,180,153440,1,8,0:0:0:0:
248,180,153582,1,8,0:0:0:0:
248,180,153724,1,0,0:0:0:0:
248,180,154008,1,0,0:0:0:0:
248,180,154151,1,8,0:0:0:0:
248,180,154293,1,0,0:0:0:0:
248,180,154577,1,8,0:0:0:0:
248,180,154861,1,4,0:0:0:0:
248,180,155146,1,8,0:0:0:0:
248,180,155430,1,8,0:0:0:0:
248,180,155715,1,0,0:0:0:0:
248,180,155857,1,8,0:0:0:0:
248,180,155999,1,0,0:0:0:0:
248,180,156283,1,8,0:0:0:0:
248,180,156425,1,0,0:0:0:0:
248,180,156568,1,8,0:0:0:0:
248,180,156710,1,8,0:0:0:0:
248,180,156852,1,0,0:0:0:0:
248,180,157136,1,8,0:0:0:0:
248,180,157421,1,0,0:0:0:0:
248,180,157563,1,0,0:0:0:0:
248,180,157705,1,8,0:0:0:0:
248,180,157847,1,0,0:0:0:0:
248,180,157989,1,8,0:0:0:0:
248,180,158132,1,8,0:0:0:0:
248,180,158274,1,0,0:0:0:0:
248,180,158558,1,0,0:0:0:0:
248,180,158700,1,8,0:0:0:0:
248,180,158771,1,8,0:0:0:0:
248,180,158842,1,8,0:0:0:0:
248,180,159127,1,0,0:0:0:0:
248,180,159411,1,8,0:0:0:0:
248,180,159696,1,8,0:0:0:0:
248,180,159980,1,0,0:0:0:0:
248,180,160264,1,8,0:0:0:0:
248,180,160406,1,8,0:0:0:0:
248,180,160549,1,0,0:0:0:0:
248,180,160691,1,0,0:0:0:0:
248,180,160833,1,8,0:0:0:0:
248,180,161117,1,8,0:0:0:0:
248,180,161402,1,0,0:0:0:0:
248,180,161544,1,8,0:0:0:0:
248,180,161686,1,0,0:0:0:0:
248,180,161970,1,0,0:0:0:0:
248,180,162255,1,8,0:0:0:0:
248,180,162539,1,8,0:0:0:0:
248,180,162681,1,8,0:0:0:0:
248,180,162824,1,0,0:0:0:0:
248,180,162966,1,0,0:0:0:0:
248,180,163108,1,0,0:0:0:0:
248,180,163392,1,8,0:0:0:0:
248,180,163677,1,0,0:0:0:0:
248,180,163961,1,12,0:0:0:0:
248,180,164245,1,0,0:0:0:0:
248,180,164530,1,0,0:0:0:0:
248,180,164814,1,8,0:0:0:0:
248,180,165098,1,8,0:0:0:0:
248,180,165383,1,0,0:0:0:0:
248,180,165667,1,8,0:0:0:0:
248,180,165951,1,0,0:0:0:0:
248,180,166236,1,8,0:0:0:0:
248,180,166520,1,8,0:0:0:0:
248,180,166805,1,0,0:0:0:0:
248,180,167089,1,8,0:0:0:0:
248,180,167373,1,0,0:0:0:0:
248,180,167942,1,8,0:0:0:0:
248,180,168511,1,0,0:0:0:0:
248,180,168795,1,8,0:0:0:0:
248,180,169079,1,8,0:0:0:0:
248,180,169364,1,0,0:0:0:0:
248,180,169648,1,8,0:0:0:0:
248,180,169933,1,8,0:0:0:0:
248,180,170217,1,0,0:0:0:0:
248,180,170501,1,0,0:0:0:0:
248,180,170786,1,8,0:0:0:0:
248,180,171070,1,0,0:0:0:0:
248,180,171354,1,8,0:0:0:0:
248,180,171639,1,8,0:0:0:0:
248,180,171923,1,8,0:0:0:0:
248,180,172207,1,0,0:0:0:0:
248,180,172492,1,0,0:0:0:0:
248,180,172776,1,0,0:0:0:0:
248,180,173345,1,8,0:0:0:0:
248,180,173629,1,8,0:0:0:0:
248,180,173914,1,0,0:0:0:0:
248,180,174198,1,8,0:0:0:0:
248,180,174482,1,8,0:0:0:0:
248,180,174767,1,0,0:0:0:0:
248,180,175051,1,0,0:0:0:0:
248,180,175335,1,8,0:0:0:0:
248,180,175620,1,0,0:0:0:0:
248,180,175904,1,8,0:0:0:0:
248,180,176188,1,8,0:0:0:0:
248,180,176473,1,0,0:0:0:0:
248,180,177042,1,8,0:0:0:0:
248,180,177895,1,8,0:0:0:0:
248,180,178179,1,8,0:0:0:0:
248,180,178463,1,0,0:0:0:0:
248,180,178748,1,8,0:0:0:0:
248,180,179032,1,8,0:0:0:0:
248,180,179316,1,0,0:0:0:0:
248,180,179601,1,0,0:0:0:0:
248,180,179885,1,8,0:0:0:0:
248,180,180170,1,0,0:0:0:0:
248,180,180454,1,8,0:0:0:0:
248,180,180738,1,8,0:0:0:0:
248,180,181023,1,8,0:0:0:0:
248,180,181307,1,0,0:0:0:0:
248,180,181591,1,0,0:0:0:0:
248,180,181876,1,8,0:0:0:0:
