osu file format v14

[General]
AudioFilename: audio.mp3
AudioLeadIn: 0
PreviewTime: 109283
Countdown: 0
SampleSet: Soft
StackLeniency: 0.7
Mode: 3
LetterboxInBreaks: 0
EpilepsyWarning: 1
SpecialStyle: 0
WidescreenStoryboard: 1

[Editor]
Bookmarks: 37126,50776,72956,109354
DistanceSpacing: 0.95
BeatDivisor: 4
GridSize: 32
TimelineZoom: 1.8

[Metadata]
Title:1xMISS
TitleUnicode:1xMISS
Artist:BilliumMoto
ArtistUnicode:BilliumMoto
Creator:FAMoss
Version:RAVE'S GREAT
Source:osu!
Tags:peter petereu raveille mappers' guild mg featured artist fa xishiora
BeatmapID:2078881
BeatmapSetID:989512

[Difficulty]
HPDrainRate:7.5
CircleSize:4
OverallDifficulty:7
ApproachRate:5
SliderMultiplier:1.4
SliderTickRate:1

[Events]
//Background and Video events
0,0,"osu!next bg.jpg",0,0
//Break Periods
//Storyboard Layer 0 (Background)
//Storyboard Layer 1 (Fail)
//Storyboard Layer 2 (Pass)
//Storyboard Layer 3 (Foreground)
//Storyboard Layer 4 (Overlay)
//Storyboard Sound Samples
Sample,19638,0,"tick.wav",50
Sample,21913,0,"tick.wav",50
Sample,22624,0,"tick.wav",50
Sample,24188,0,"tick.wav",50
Sample,27174,0,"tick.wav",50
Sample,28738,0,"tick.wav",50
Sample,31013,0,"tick.wav",50
Sample,31723,0,"tick.wav",50
Sample,33287,0,"tick.wav",50
Sample,56747,0,"clap.wav",50
Sample,57885,0,"clap.wav",50
Sample,60160,0,"clap.wav",50
Sample,60728,0,"clap2.wav",50
Sample,62434,0,"clap.wav",50
Sample,63003,0,"clap2.wav",50
Sample,64141,0,"clap2.wav",50
Sample,64709,0,"clap.wav",50
Sample,65278,0,"clap2.wav",50
Sample,66984,0,"clap.wav",50
Sample,69259,0,"clap.wav",50
Sample,69828,0,"clap2.wav",50
Sample,71534,0,"clap.wav",50
Sample,83335,0,"tick.wav",50
Sample,85610,0,"tick.wav",50
Sample,86321,0,"tick.wav",50
Sample,87885,0,"tick.wav",50
Sample,90160,0,"tick.wav",50
Sample,90302,0,"tick.wav",50
Sample,90870,0,"tick.wav",50
Sample,94709,0,"tick.wav",50
Sample,95136,0,"tick2.wav",70
Sample,97695,0,"tick.wav",50
Sample,99970,0,"tick.wav",50
Sample,107363,0,"tick.wav",50
Sample,107648,0,"tick2.wav",70
Sample,167648,0,"clap.wav",50
Sample,168216,0,"clap2.wav",50

[TimingPoints]
160,284.36018957346,4,2,1,40,1,0
18359,-100,4,2,1,50,0,0
37126,-100,4,2,1,60,0,1
49638,-100,4,2,1,60,0,0
50776,-100,4,2,1,60,0,1
54188,-100,4,2,1,60,0,0
63287,-100,4,2,1,60,0,0
72956,-100,4,2,1,40,0,0
82055,-100,4,2,1,50,0,0
100254,-100,4,2,1,60,0,0
109354,-100,4,2,1,60,0,1
126415,-100,4,2,1,60,0,0
163951,-100,4,2,1,40,0,0

[HitObjects]
448,192,160,128,0,1297:0:0:0:0:
64,192,1297,128,0,2434:0:0:0:0:
320,192,2434,128,0,3572:0:0:0:0:
192,192,3572,128,0,4709:0:0:0:0:
320,192,4709,128,0,5847:0:0:0:0:
64,192,5847,128,0,6984:0:0:0:0:
448,192,6984,128,0,9259:0:0:0:0:
64,192,9259,128,0,10396:0:0:0:0:
448,192,10396,128,0,11534:0:0:0:0:
192,192,11534,128,0,12671:0:0:0:0:
320,192,12671,128,0,13809:0:0:0:0:
192,192,13809,128,0,14946:0:0:0:0:
448,192,14946,128,0,16084:0:0:0:0:
64,192,16084,128,0,17648:0:0:0:0:
192,192,17648,128,0,17790:0:0:0:0:
448,192,17790,128,0,17932:0:0:0:0:
320,192,17932,128,0,18074:0:0:0:0:
192,192,18074,128,0,18216:0:0:0:0:
64,192,18216,128,0,18359:0:0:0:0:
192,192,18359,1,0,0:0:0:100:LR_TomR2.wav
448,192,18359,128,0,18927:0:0:0:0:
320,192,18643,1,0,0:0:0:50:tick.wav
192,192,18927,128,0,19496:0:0:0:0:
320,192,19212,1,0,0:0:0:50:tick.wav
64,192,19496,128,0,20065:0:0:0:0:
320,192,19780,1,0,0:0:0:50:tick.wav
448,192,20065,128,0,20633:0:0:0:0:
320,192,20349,1,0,0:0:0:50:tick.wav
192,192,20633,128,0,21202:0:0:0:0:
64,192,20918,1,0,0:0:0:50:tick.wav
320,192,21202,128,0,21771:0:0:0:0:
64,192,21487,1,0,0:0:0:50:tick.wav
448,192,21771,128,0,22340:0:0:0:0:
64,192,22055,1,0,0:0:0:50:tick.wav
192,192,22340,128,0,22908:0:0:0:0:
64,192,22624,1,0,0:0:0:100:LR_TomR.wav
320,192,22908,128,0,23477:0:0:0:100:LR_TomR1.wav
448,192,22908,1,0,0:0:0:0:
192,192,23193,1,0,0:0:0:50:tick.wav
64,192,23477,128,0,24046:0:0:0:0:
192,192,23761,1,0,0:0:0:50:tick.wav
448,192,24046,128,0,24614:0:0:0:0:
192,192,24330,1,0,0:0:0:50:tick.wav
320,192,24614,1,0,0:0:0:0:
64,192,24757,1,0,0:0:0:0:
448,192,24899,1,0,0:0:0:50:tick.wav
192,192,25041,1,0,0:0:0:0:
320,192,25183,1,0,0:0:0:0:
64,192,25468,128,0,25752:0:0:0:50:tick.wav
320,192,25752,1,0,0:0:0:0:
192,192,25894,1,0,0:0:0:0:
320,192,26036,1,0,0:0:0:50:tick.wav
64,192,26321,1,0,0:0:0:0:
192,192,26463,1,0,0:0:0:50:tick.wav
320,192,26605,128,0,26889:0:0:0:50:tick.wav
64,192,26889,1,0,0:0:0:100:LR_TomR.wav
192,192,27032,1,0,0:0:0:100:LR_TomR.wav
448,192,27174,1,0,0:0:0:100:LR_TomR1.wav
320,192,27316,1,0,0:0:0:100:LR_TomR2.wav
64,192,27458,128,0,28027:0:0:0:100:LR_TomR.wav
192,192,27742,1,0,0:0:0:50:tick.wav
320,192,28027,128,0,28596:0:0:0:0:
192,192,28311,1,0,0:0:0:50:tick.wav
448,192,28596,128,0,29164:0:0:0:0:
192,192,28880,1,0,0:0:0:50:tick.wav
64,192,29164,128,0,29733:0:0:0:0:
192,192,29449,1,0,0:0:0:50:tick.wav
320,192,29733,128,0,30302:0:0:0:0:
448,192,30017,1,0,0:0:0:50:tick.wav
192,192,30302,128,0,30870:0:0:0:0:
448,192,30586,1,0,0:0:0:50:tick.wav
64,192,30870,128,0,31439:0:0:0:0:
448,192,31155,1,0,0:0:0:50:tick.wav
320,192,31439,128,0,32008:0:0:0:0:
448,192,31723,1,0,0:0:0:100:LR_TomR.wav
64,192,32008,1,0,0:0:0:100:LR_TomR1.wav
192,192,32008,128,0,32577:0:0:0:0:
320,192,32292,1,0,0:0:0:50:tick.wav
448,192,32577,128,0,33145:0:0:0:0:
320,192,32861,1,0,0:0:0:50:tick.wav
64,192,33145,128,0,33714:0:0:0:0:
320,192,33430,1,0,0:0:0:50:tick.wav
192,192,33714,1,0,0:0:0:0:
448,192,33856,1,0,0:0:0:0:
64,192,33998,1,0,0:0:0:50:tick.wav
320,192,34141,1,0,0:0:0:0:
192,192,34283,1,0,0:0:0:0:
448,192,34567,1,0,0:0:0:50:tick.wav
192,192,34851,1,0,0:0:0:0:
320,192,34994,1,0,0:0:0:0:
192,192,35136,1,0,0:0:0:50:tick.wav
64,192,35278,1,0,0:0:0:0:
448,192,35989,1,0,0:0:0:0:
320,192,36131,1,0,0:0:0:0:
64,192,36273,1,0,0:0:0:0:
192,192,36415,1,0,0:0:0:0:
320,192,36558,1,2,0:0:0:0:
448,192,36558,1,0,0:0:0:0:
64,192,37126,128,8,37411:0:0:0:0:
448,192,37126,128,4,37411:0:0:0:0:
192,192,37411,1,2,0:0:0:0:
320,192,37411,1,0,0:0:0:0:
64,192,37695,128,2,37979:0:0:0:0:
192,192,37695,128,0,37979:0:0:0:0:
320,192,37979,128,2,38264:0:0:0:0:
448,192,37979,128,0,38264:0:0:0:0:
64,192,38264,128,8,38548:0:0:0:0:
192,192,38264,1,0,0:0:0:0:
320,192,38548,128,0,38832:0:0:0:0:
64,192,38832,1,2,0:0:0:0:
192,192,38832,128,0,39117:0:0:0:0:
320,192,39117,128,0,39401:0:0:0:0:
448,192,39117,128,0,39401:0:0:0:0:
64,192,39401,128,8,39686:0:0:0:0:
448,192,39543,1,0,0:0:0:0:
192,192,39686,128,2,39970:0:0:0:0:
320,192,39686,128,0,39970:0:0:0:0:
64,192,39970,1,2,0:0:0:0:
448,192,39970,1,0,0:0:0:0:
192,192,40254,1,2,0:0:0:0:
320,192,40254,1,0,0:0:0:0:
64,192,40539,128,8,40823:0:0:0:0:
448,192,40539,128,0,40823:0:0:0:0:
192,192,40823,128,0,41107:0:0:0:0:
320,192,41107,1,2,0:0:0:0:
448,192,41107,128,0,41392:0:0:0:0:
64,192,41392,1,0,0:0:0:0:
64,192,41676,128,8,41960:0:0:0:0:
448,192,41676,128,4,41960:0:0:0:0:
192,192,41960,1,2,0:0:0:0:
320,192,41960,1,0,0:0:0:0:
320,192,42245,128,2,42529:0:0:0:0:
448,192,42245,128,0,42529:0:0:0:0:
64,192,42529,128,2,42814:0:0:0:0:
192,192,42529,128,0,42814:0:0:0:0:
320,192,42814,1,8,0:0:0:0:
448,192,42814,128,0,43098:0:0:0:0:
192,192,43098,128,0,43382:0:0:0:0:
320,192,43382,128,2,43667:0:0:0:0:
448,192,43382,1,0,0:0:0:0:
64,192,43667,128,0,43951:0:0:0:0:
192,192,43667,128,0,43951:0:0:0:0:
448,192,43951,128,8,44235:0:0:0:0:
64,192,44093,1,0,0:0:0:0:
192,192,44235,128,2,44520:0:0:0:0:
320,192,44235,128,0,44520:0:0:0:0:
64,192,44520,1,2,0:0:0:0:
448,192,44520,1,0,0:0:0:0:
192,192,44804,1,2,0:0:0:0:
320,192,44804,1,0,0:0:0:0:
64,192,45088,128,8,45373:0:0:0:0:
448,192,45088,128,0,45373:0:0:0:0:
320,192,45373,128,0,45657:0:0:0:100:LR_TomR3.wav
64,192,45657,128,2,45941:0:0:0:0:
192,192,45657,1,0,0:0:0:0:
320,192,45941,1,0,0:0:0:0:
448,192,45941,128,0,46226:0:0:0:0:
64,192,46226,128,12,46510:0:0:0:0:
320,192,46368,1,2,0:0:0:0:
192,192,46510,128,2,46795:0:0:0:0:
320,192,46795,128,2,47079:0:0:0:0:
448,192,46795,128,0,47079:0:0:0:0:
64,192,47079,128,2,47363:0:0:0:0:
192,192,47079,128,0,47363:0:0:0:0:
320,192,47363,128,8,47648:0:0:0:0:
448,192,47363,128,0,47648:0:0:0:0:
192,192,47648,128,0,47932:0:0:0:0:
64,192,47932,1,2,0:0:0:0:
448,192,47932,128,0,48216:0:0:0:0:
320,192,48216,128,0,48501:0:0:0:0:
192,192,48501,128,8,48785:0:0:0:0:
64,192,48785,128,2,49069:0:0:0:0:
320,192,48785,1,0,0:0:0:0:
320,192,49069,1,2,0:0:0:0:
448,192,49069,128,0,49354:0:0:0:0:
64,192,49354,1,2,0:0:0:0:
192,192,49354,128,0,49638:0:0:0:0:
448,192,49638,1,8,0:0:0:0:
320,192,49780,1,2,0:0:0:0:
64,192,49923,1,0,0:0:0:0:
192,192,50065,1,0,0:0:0:0:
320,192,50207,1,2,0:0:0:0:
448,192,50207,128,0,50491:0:0:0:0:
64,192,50491,1,0,0:0:0:0:
64,192,50776,128,8,51060:0:0:0:0:
448,192,50776,128,4,51060:0:0:0:0:
192,192,51060,1,2,0:0:0:0:
320,192,51060,1,0,0:0:0:0:
64,192,51344,128,2,51629:0:0:0:0:
192,192,51344,128,0,51629:0:0:0:0:
320,192,51629,128,2,51913:0:0:0:0:
448,192,51629,128,0,51913:0:0:0:0:
64,192,51913,128,8,52197:0:0:0:0:
192,192,51913,1,0,0:0:0:0:
320,192,52197,128,0,52482:0:0:0:0:
64,192,52482,1,2,0:0:0:0:
192,192,52482,128,0,52766:0:0:0:0:
448,192,52766,128,0,53050:0:0:0:0:
64,192,53050,128,8,53335:0:0:0:0:
192,192,53335,128,2,53619:0:0:0:0:
320,192,53335,128,0,53619:0:0:0:0:
64,192,53619,1,2,0:0:0:0:
448,192,53619,1,0,0:0:0:0:
192,192,53904,1,2,0:0:0:0:
320,192,53904,1,0,0:0:0:0:
64,192,54188,128,12,54472:0:0:0:0:
448,192,54188,128,0,54472:0:0:0:0:
192,192,54472,128,0,54757:0:0:0:0:
448,192,54757,128,0,56463:0:0:0:0:
192,192,55325,1,0,0:0:0:0:
64,192,55894,1,0,0:0:0:0:
64,192,56463,1,12,0:0:0:0:
192,192,56747,1,2,0:0:0:0:
320,192,56889,1,2,0:0:0:0:
64,192,57032,1,2,0:0:0:0:
192,192,57032,1,0,0:0:0:0:
448,192,57316,1,0,0:0:0:50:clap2.wav
192,192,57600,1,8,0:0:0:0:
320,192,57600,1,0,0:0:0:0:
64,192,57885,1,2,0:0:0:0:
192,192,58027,1,2,0:0:0:0:
320,192,58169,1,2,0:0:0:0:
448,192,58169,1,0,0:0:0:0:
192,192,58453,1,2,0:0:0:0:
320,192,58453,1,0,0:0:0:50:clap2.wav
64,192,58738,1,8,0:0:0:0:
192,192,58738,1,0,0:0:0:0:
192,192,59022,1,2,0:0:0:0:
320,192,59022,1,0,0:0:0:50:clap.wav
64,192,59306,1,2,0:0:0:0:
448,192,59306,1,0,0:0:0:0:
448,192,59591,128,0,59733:0:0:0:50:clap2.wav
320,192,59733,128,0,59875:0:0:0:0:
192,192,59875,128,12,60017:0:0:0:0:
64,192,60017,128,0,60160:0:0:0:0:
320,192,60160,128,2,60302:0:0:0:0:
448,192,60302,128,0,60444:0:0:0:0:
64,192,60444,128,2,60586:0:0:0:0:
192,192,60586,128,0,60728:0:0:0:0:
320,192,60728,128,2,60870:0:0:0:0:
448,192,60870,128,0,61013:0:0:0:0:
192,192,61013,128,8,61155:0:0:0:0:
64,192,61155,128,0,61297:0:0:0:0:
320,192,61297,128,0,61439:0:0:0:50:clap.wav
192,192,61439,128,2,61581:0:0:0:0:
448,192,61581,128,2,61723:0:0:0:0:
320,192,61723,128,0,61866:0:0:0:0:
192,192,61866,128,0,62008:0:0:0:50:clap2.wav
64,192,62008,128,0,62150:0:0:0:0:
320,192,62150,128,8,62292:0:0:0:0:
448,192,62292,128,0,62434:0:0:0:0:
64,192,62434,128,2,62577:0:0:0:0:
192,192,62577,128,0,62719:0:0:0:0:
448,192,62719,128,2,62861:0:0:0:0:
320,192,62861,128,0,63003:0:0:0:0:
192,192,63003,128,2,63287:0:0:0:0:
448,192,63287,1,8,0:0:0:0:
320,192,63430,1,0,0:0:0:0:
64,192,63572,1,0,0:0:0:0:
192,192,63714,1,2,0:0:0:0:
320,192,63856,1,2,0:0:0:0:
448,192,63856,128,0,64425:0:0:0:0:
64,192,64425,128,8,64994:0:0:0:0:
192,192,64425,1,4,0:0:0:0:
320,192,64709,1,2,0:0:0:0:
192,192,64994,1,2,0:0:0:0:
448,192,64994,128,0,65562:0:0:0:0:
192,192,65278,1,2,0:0:0:0:
64,192,65562,128,8,66131:0:0:0:0:
320,192,65562,1,0,0:0:0:0:
192,192,65847,1,0,0:0:0:50:clap.wav
320,192,65989,1,2,0:0:0:0:
448,192,66131,1,2,0:0:0:0:
192,192,66415,1,0,0:0:0:50:clap2.wav
320,192,66700,1,8,0:0:0:0:
448,192,66700,1,0,0:0:0:0:
64,192,66984,1,2,0:0:0:0:
192,192,67126,1,2,0:0:0:0:
320,192,67269,1,2,0:0:0:0:
448,192,67269,1,0,0:0:0:0:
192,192,67553,1,2,0:0:0:0:
320,192,67553,1,0,0:0:0:50:clap2.wav
64,192,67837,1,8,0:0:0:0:
192,192,67837,1,0,0:0:0:0:
192,192,68122,1,2,0:0:0:0:
320,192,68122,1,0,0:0:0:0:
320,192,68406,1,2,0:0:0:0:
448,192,68406,1,0,0:0:0:0:
448,192,68690,128,0,68832:0:0:0:50:clap2.wav
320,192,68832,128,0,68975:0:0:0:0:
192,192,68975,128,12,69117:0:0:0:0:
64,192,69117,128,0,69259:0:0:0:0:
320,192,69259,128,2,69401:0:0:0:0:
448,192,69401,128,0,69543:0:0:0:0:
64,192,69543,128,2,69686:0:0:0:0:
192,192,69686,128,0,69828:0:0:0:0:
320,192,69828,128,2,69970:0:0:0:0:
448,192,69970,128,0,70112:0:0:0:0:
192,192,70112,128,8,70254:0:0:0:0:
320,192,70254,128,0,70396:0:0:0:0:
64,192,70396,128,0,70539:0:0:0:50:clap.wav
192,192,70539,128,2,70681:0:0:0:0:
448,192,70681,128,2,70823:0:0:0:0:
320,192,70823,128,0,70965:0:0:0:0:
192,192,70965,128,0,71107:0:0:0:50:clap2.wav
64,192,71107,128,0,71250:0:0:0:0:
320,192,71250,128,8,71392:0:0:0:0:
192,192,71392,128,0,71534:0:0:0:0:
448,192,71534,128,2,71676:0:0:0:0:
320,192,71676,128,0,71818:0:0:0:0:
192,192,71818,128,2,71960:0:0:0:0:
64,192,71960,128,0,72103:0:0:0:0:
320,192,72103,128,2,72245:0:0:0:0:
192,192,72245,128,0,72387:0:0:0:0:
448,192,72387,1,12,0:0:0:0:
64,192,72956,1,0,0:0:0:70:BassKickReverbXD_s.wav
448,192,72956,128,0,73524:0:0:0:70:sparkle.wav
192,192,73524,128,0,74093:0:0:0:0:
320,192,74093,128,0,74662:0:0:0:0:
64,192,74662,128,0,75231:0:0:0:0:
320,192,75231,128,0,75799:0:0:0:0:
64,192,75799,128,0,76368:0:0:0:0:
448,192,76368,128,0,76937:0:0:0:0:
192,192,76937,128,0,77505:0:0:0:0:
320,192,77505,128,0,78074:0:0:0:0:
192,192,78074,128,0,78643:0:0:0:0:
64,192,78643,128,0,79212:0:0:0:0:
320,192,79212,1,0,0:0:0:0:
192,192,79354,1,0,0:0:0:0:
448,192,79496,1,0,0:0:0:0:
64,192,79638,1,0,0:0:0:0:
320,192,79780,128,0,80918:0:0:0:0:
64,192,81202,128,0,81487:0:0:0:0:
448,192,81487,1,0,0:0:0:0:
192,192,81629,1,0,0:0:0:0:
320,192,81771,1,0,0:0:0:0:
64,192,81913,1,0,0:0:0:0:
320,192,82055,1,0,0:0:0:100:LR_TomR.wav
448,192,82055,128,0,82624:0:0:0:0:
64,192,82340,1,0,0:0:0:50:tick.wav
192,192,82624,128,0,83193:0:0:0:0:
448,192,82908,1,0,0:0:0:50:tick.wav
320,192,83193,128,0,83761:0:0:0:0:
448,192,83477,1,0,0:0:0:50:tick.wav
64,192,83761,128,0,84330:0:0:0:0:
448,192,84046,1,0,0:0:0:50:tick.wav
320,192,84330,128,0,84899:0:0:0:0:
192,192,84614,1,0,0:0:0:50:tick.wav
64,192,84899,128,0,85468:0:0:0:0:
192,192,85183,1,0,0:0:0:50:tick.wav
448,192,85468,128,0,86036:0:0:0:0:
192,192,85752,1,0,0:0:0:50:tick.wav
64,192,86036,128,0,86605:0:0:0:0:
192,192,86321,1,0,0:0:0:100:LR_TomR.wav
192,192,86605,1,0,0:0:0:100:LR_TomR1.wav
320,192,86605,128,0,87174:0:0:0:0:
448,192,86889,1,0,0:0:0:50:tick.wav
192,192,87174,128,0,87742:0:0:0:0:
448,192,87458,1,0,0:0:0:50:tick.wav
64,192,87742,128,0,88311:0:0:0:0:
448,192,88027,1,0,0:0:0:50:tick.wav
320,192,88311,1,0,0:0:0:0:
192,192,88453,1,0,0:0:0:0:
448,192,88596,1,0,0:0:0:50:tick.wav
64,192,88738,1,0,0:0:0:0:
320,192,88880,128,0,90017:0:0:0:0:
192,192,89164,1,0,0:0:0:50:tick.wav
192,192,89733,1,0,0:0:0:50:tick.wav
64,192,90017,128,0,90302:0:0:0:0:
192,192,90302,128,0,90586:0:0:0:100:LR_TomR.wav
448,192,90586,128,0,90870:0:0:0:100:LR_TomR.wav
320,192,90870,128,0,91155:0:0:0:100:LR_TomR.wav
64,192,91155,128,0,91723:0:0:0:100:LR_TomR1.wav
192,192,91155,1,0,0:0:0:0:
448,192,91439,1,0,0:0:0:50:tick.wav
192,192,91723,128,0,92008:0:0:0:70:tick2.wav
320,192,92008,128,0,92292:0:0:0:50:tick.wav
448,192,92008,1,0,0:0:0:0:
64,192,92292,1,0,0:0:0:0:
192,192,92434,1,0,0:0:0:50:tick.wav
448,192,92577,1,0,0:0:0:50:tick.wav
64,192,92861,128,0,93145:0:0:0:70:tick2.wav
320,192,93145,1,0,0:0:0:50:tick.wav
448,192,93145,128,0,93430:0:0:0:0:
64,192,93430,1,0,0:0:0:100:LR_TomR.wav
192,192,93430,128,0,93998:0:0:0:0:
320,192,93714,1,0,0:0:0:50:tick.wav
64,192,93998,128,0,94283:0:0:0:70:tick2.wav
320,192,94283,1,0,0:0:0:50:tick.wav
448,192,94283,128,0,94567:0:0:0:0:
192,192,94567,128,0,95136:0:0:0:0:
320,192,94851,1,0,0:0:0:50:tick.wav
448,192,95136,128,0,95420:0:0:0:100:LR_TomR.wav
64,192,95420,128,0,95705:0:0:0:100:LR_TomR.wav
320,192,95420,1,0,0:0:0:50:tick.wav
320,192,95705,1,0,0:0:0:100:LR_TomR1.wav
448,192,95705,128,0,96273:0:0:0:0:
192,192,95989,1,0,0:0:0:50:tick.wav
64,192,96273,1,0,0:0:0:70:tick2.wav
192,192,96558,1,0,0:0:0:50:tick.wav
320,192,96700,1,0,0:0:0:0:
192,192,96842,1,0,0:0:0:0:
320,192,96984,1,0,0:0:0:50:tick.wav
192,192,97126,128,0,97411:0:0:0:50:tick.wav
448,192,97411,1,0,0:0:0:70:tick2.wav
320,192,97553,1,0,0:0:0:100:LR_TomR.wav
64,192,97695,1,0,0:0:0:100:LR_TomR.wav
192,192,97837,1,0,0:0:0:0:
64,192,97979,128,0,98548:0:0:0:100:LR_TomR.wav
448,192,97979,1,0,0:0:0:0:
320,192,98264,1,0,0:0:0:50:tick.wav
448,192,98548,1,0,0:0:0:70:tick2.wav
320,192,98832,1,0,0:0:0:50:tick.wav
192,192,98975,1,0,0:0:0:0:
320,192,99117,1,0,0:0:0:0:
192,192,99259,1,0,0:0:0:50:tick.wav
320,192,99401,128,0,99686:0:0:0:50:tick.wav
64,192,99686,128,0,99970:0:0:0:70:tick2.wav
448,192,99970,128,0,100254:0:0:0:100:LR_TomR3.wav
64,192,100254,128,2,100823:0:0:0:0:
192,192,100254,1,0,0:0:0:50:LR_Snare Drum 2.wav
320,192,100396,1,0,0:0:0:50:LR_Snare Drum 2.wav
448,192,100539,1,0,0:0:0:50:tick.wav
320,192,100681,1,0,0:0:0:50:LR_Snare Drum 2.wav
192,192,100823,128,0,101107:0:0:0:70:tick2.wav
448,192,100823,1,0,0:0:0:50:LR_Snare Drum 2.wav
64,192,101107,1,0,0:0:0:50:tick.wav
320,192,101107,128,0,101392:0:0:0:50:LR_Snare Drum 2.wav
64,192,101392,1,2,0:0:0:0:
448,192,101392,128,0,101960:0:0:0:50:LR_Snare Drum 2.wav
192,192,101534,1,0,0:0:0:50:tick.wav
320,192,101676,1,0,0:0:0:50:tick.wav
64,192,101818,1,0,0:0:0:50:LR_Snare Drum 2.wav
192,192,101960,128,0,102245:0:0:0:70:tick2.wav
320,192,101960,1,0,0:0:0:50:LR_Snare Drum 2.wav
64,192,102245,128,0,102529:0:0:0:50:tick.wav
448,192,102245,1,0,0:0:0:50:LR_Snare Drum 2.wav
320,192,102529,128,2,103098:0:0:0:0:
448,192,102529,1,0,0:0:0:60:LR_Snare Drum 2.wav
192,192,102671,1,0,0:0:0:60:LR_Snare Drum 2.wav
64,192,102814,1,0,0:0:0:50:tick.wav
192,192,102956,1,0,0:0:0:60:LR_Snare Drum 2.wav
64,192,103098,1,0,0:0:0:70:tick2.wav
448,192,103098,128,0,103382:0:0:0:60:LR_Snare Drum 2.wav
64,192,103382,128,0,103667:0:0:0:50:tick.wav
320,192,103382,1,0,0:0:0:60:LR_Snare Drum 2.wav
192,192,103667,128,2,103951:0:0:0:0:
320,192,103667,1,0,0:0:0:60:LR_Snare Drum 2.wav
448,192,103809,1,0,0:0:0:50:tick.wav
64,192,103951,1,0,0:0:0:50:tick.wav
320,192,103951,128,0,104235:0:0:0:60:LR_Snare Drum 2.wav
192,192,104235,1,0,0:0:0:70:tick2.wav
448,192,104235,128,0,104520:0:0:0:60:LR_Snare Drum 2.wav
64,192,104520,128,0,104804:0:0:0:50:tick.wav
320,192,104520,1,0,0:0:0:60:LR_Snare Drum 2.wav
320,192,104804,128,2,105088:0:0:0:0:
448,192,104804,1,0,0:0:0:70:LR_Snare Drum 2.wav
64,192,104946,1,0,0:0:0:70:LR_Snare Drum 2.wav
192,192,105088,1,0,0:0:0:50:tick.wav
448,192,105231,1,0,0:0:0:70:LR_Snare Drum 2.wav
192,192,105373,128,2,105657:0:0:0:0:
320,192,105373,1,0,0:0:0:70:tick2.wav
448,192,105515,1,0,0:0:0:70:LR_Snare Drum 2.wav
64,192,105657,1,0,0:0:0:50:tick.wav
448,192,105799,1,0,0:0:0:70:LR_Snare Drum 2.wav
64,192,105941,1,2,0:0:0:0:
320,192,105941,128,0,106226:0:0:0:70:LR_Snare Drum 2.wav
192,192,106084,1,0,0:0:0:50:tick.wav
448,192,106226,1,0,0:0:0:50:tick.wav
64,192,106368,1,0,0:0:0:70:LR_Snare Drum 2.wav
192,192,106510,128,2,106795:0:0:0:0:
448,192,106510,1,0,0:0:0:70:tick2.wav
320,192,106652,1,0,0:0:0:70:LR_Snare Drum 2.wav
64,192,106795,128,0,107648:0:0:0:50:tick.wav
448,192,106795,1,0,0:0:0:70:LR_Snare Drum 2.wav
320,192,106937,1,0,0:0:0:70:LR_Snare Drum 2.wav
448,192,107079,128,0,107648:0:0:0:70:LR_Snare Drum 2.wav
192,192,107932,1,0,0:0:0:50:tick.wav
320,192,108074,1,0,0:0:0:70:LR_Snare Drum 2.wav
192,192,108216,1,0,0:0:0:70:LR_Snare Drum 2.wav
320,192,108359,1,0,0:0:0:50:tick.wav
192,192,108501,128,0,108785:0:0:0:50:tick.wav
64,192,108785,1,0,0:0:0:50:LS-HKI Big Kick 09.wav
448,192,108785,1,0,0:0:0:0:
192,192,109069,128,0,109212:0:0:0:0:
320,192,109069,128,0,109212:0:0:0:0:
64,192,109354,128,2,109638:0:0:0:0:
448,192,109354,128,4,109638:0:0:0:0:
448,192,109923,1,8,0:0:0:0:
192,192,110065,1,0,0:0:0:0:
320,192,110207,1,2,0:0:0:0:
64,192,110349,1,0,0:0:0:0:
448,192,110491,1,2,0:0:0:0:
192,192,110633,1,0,0:0:0:0:
320,192,110776,1,2,0:0:0:0:
64,192,110918,1,0,0:0:0:0:
320,192,111060,1,8,0:0:0:0:
192,192,111202,1,0,0:0:0:0:
448,192,111344,128,0,111629:0:0:0:0:
64,192,111629,128,2,111913:0:0:0:0:
320,192,111913,128,0,112197:0:0:0:0:
448,192,111913,128,0,112197:0:0:0:0:
192,192,112197,128,8,112482:0:0:0:0:
64,192,112482,128,2,112766:0:0:0:0:
448,192,112482,128,0,112766:0:0:0:0:
192,192,112766,1,2,0:0:0:0:
320,192,112766,1,0,0:0:0:0:
64,192,113050,1,2,0:0:0:0:
448,192,113050,1,0,0:0:0:0:
192,192,113335,128,8,113619:0:0:0:0:
320,192,113335,128,0,113619:0:0:0:0:
64,192,113619,128,0,113904:0:0:0:0:
320,192,113904,1,2,0:0:0:0:
448,192,113904,128,0,114188:0:0:0:0:
192,192,114188,1,0,0:0:0:0:
64,192,114472,1,12,0:0:0:0:
320,192,114614,1,0,0:0:0:0:
192,192,114757,1,2,0:0:0:0:
448,192,114899,1,0,0:0:0:0:
64,192,115041,1,2,0:0:0:0:
320,192,115183,1,0,0:0:0:0:
192,192,115325,1,2,0:0:0:0:
448,192,115468,1,0,0:0:0:0:
192,192,115610,1,8,0:0:0:0:
320,192,115752,1,0,0:0:0:0:
64,192,115894,128,0,116178:0:0:0:0:
448,192,116178,128,2,116463:0:0:0:0:
64,192,116463,128,0,116747:0:0:0:0:
192,192,116463,128,0,116747:0:0:0:0:
320,192,116747,128,8,117032:0:0:0:0:
64,192,117032,128,2,117316:0:0:0:0:
448,192,117032,128,0,117316:0:0:0:0:
192,192,117316,1,2,0:0:0:0:
320,192,117316,1,0,0:0:0:0:
64,192,117600,1,2,0:0:0:0:
448,192,117600,1,0,0:0:0:0:
192,192,117885,128,8,118169:0:0:0:0:
320,192,117885,128,0,118169:0:0:0:0:
448,192,118169,128,0,118453:0:0:0:100:LR_TomR3.wav
64,192,118453,128,2,118738:0:0:0:0:
192,192,118453,1,0,0:0:0:0:
448,192,118738,128,0,118880:0:0:0:0:
320,192,118880,128,0,119022:0:0:0:0:
64,192,119022,128,12,119164:0:0:0:0:
192,192,119164,128,0,119306:0:0:0:0:
448,192,119306,128,0,119449:0:0:0:0:
320,192,119449,128,0,119591:0:0:0:0:
192,192,119591,128,2,119733:0:0:0:0:
64,192,119733,128,0,119875:0:0:0:0:
320,192,119875,128,0,120017:0:0:0:0:
448,192,120017,128,0,120160:0:0:0:0:
192,192,120160,128,8,120302:0:0:0:0:
64,192,120302,128,0,120444:0:0:0:0:
192,192,120444,128,2,120728:0:0:0:0:
448,192,120444,128,0,120728:0:0:0:0:
64,192,120728,128,2,120823:0:0:0:0:
320,192,120728,128,0,120823:0:0:0:0:
448,192,120918,1,0,0:0:0:0:
320,192,121013,128,0,121155:0:0:0:0:
192,192,121155,128,0,121297:0:0:0:0:
64,192,121297,128,8,121439:0:0:0:0:
320,192,121439,128,0,121581:0:0:0:0:
448,192,121581,128,0,121723:0:0:0:0:
64,192,121723,128,0,121866:0:0:0:0:
192,192,121866,128,2,122008:0:0:0:0:
320,192,122008,128,0,122150:0:0:0:0:
448,192,122150,128,2,122434:0:0:0:0:
64,192,122434,1,8,0:0:0:0:
192,192,122577,1,0,0:0:0:0:
320,192,122719,1,0,0:0:0:0:
448,192,122861,1,0,0:0:0:0:
64,192,123003,128,2,123287:0:0:0:0:
192,192,123003,1,0,0:0:0:0:
448,192,123287,128,0,123430:0:0:0:0:
320,192,123430,128,0,123572:0:0:0:0:
64,192,123572,128,12,123714:0:0:0:0:
192,192,123714,128,0,123856:0:0:0:0:
448,192,123856,128,2,123998:0:0:0:0:
320,192,123998,128,0,124141:0:0:0:0:
192,192,124141,128,0,124283:0:0:0:0:
64,192,124283,128,0,124425:0:0:0:0:
320,192,124425,128,2,124567:0:0:0:0:
448,192,124567,128,0,124709:0:0:0:0:
192,192,124709,128,8,124851:0:0:0:0:
64,192,124851,128,0,124994:0:0:0:0:
192,192,124994,128,0,125278:0:0:0:0:
448,192,124994,128,0,125278:0:0:0:0:
64,192,125278,128,2,125373:0:0:0:0:
320,192,125278,128,4,125373:0:0:0:0:
448,192,125468,1,0,0:0:0:0:
320,192,125562,128,0,125705:0:0:0:0:
192,192,125705,128,0,125847:0:0:0:0:
64,192,125847,128,8,125989:0:0:0:0:
448,192,125989,128,0,126131:0:0:0:0:
192,192,126131,128,0,126273:0:0:0:0:
64,192,126415,128,0,126700:0:0:0:0:
192,192,126700,128,0,126984:0:0:0:0:
320,192,126984,128,0,127269:0:0:0:0:
448,192,127269,128,0,127553:0:0:0:0:
64,192,127553,128,2,128122:0:0:0:0:
192,192,127553,1,4,0:0:0:0:
320,192,128122,128,8,128406:0:0:0:0:
448,192,128122,1,0,0:0:0:0:
64,192,128406,1,2,0:0:0:0:
192,192,128406,128,0,128690:0:0:0:0:
64,192,128690,1,4,0:0:0:0:
448,192,128690,128,2,128975:0:0:0:0:
64,192,128975,128,2,129259:0:0:0:0:
192,192,128975,1,0,0:0:0:0:
320,192,129259,1,8,0:0:0:0:
448,192,129259,128,0,129543:0:0:0:0:
192,192,129543,128,0,129828:0:0:0:0:
64,192,129828,1,2,0:0:0:0:
320,192,129828,128,4,130396:0:0:0:0:
64,192,130396,128,8,130681:0:0:0:0:
192,192,130396,1,0,0:0:0:0:
320,192,130681,1,2,0:0:0:0:
448,192,130681,128,0,130965:0:0:0:0:
64,192,130965,1,2,0:0:0:0:
192,192,130965,128,0,131534:0:0:0:0:
448,192,131250,1,2,0:0:0:0:
64,192,131534,128,8,131818:0:0:0:0:
320,192,131534,1,0,0:0:0:0:
448,192,131818,128,0,132103:0:0:0:0:
64,192,132103,128,4,132671:0:0:0:0:
192,192,132103,1,2,0:0:0:0:
320,192,132671,1,8,0:0:0:0:
448,192,132671,128,0,132956:0:0:0:0:
192,192,132956,1,2,0:0:0:0:
320,192,133098,1,0,0:0:0:0:
192,192,133240,1,2,0:0:0:0:
320,192,133382,1,0,0:0:0:0:
192,192,133524,128,2,133809:0:0:0:0:
448,192,133524,1,0,0:0:0:0:
64,192,133809,128,8,134093:0:0:0:0:
320,192,133809,1,0,0:0:0:0:
448,192,134093,128,0,134378:0:0:0:0:
64,192,134378,128,2,134946:0:0:0:0:
192,192,134378,1,4,0:0:0:0:
320,192,134662,1,0,0:0:0:0:
448,192,134946,1,8,0:0:0:0:
320,192,135231,1,2,0:0:0:0:
192,192,135373,1,0,0:0:0:0:
320,192,135515,1,2,0:0:0:0:
192,192,135657,1,0,0:0:0:0:
320,192,135799,128,2,136084:0:0:0:0:
448,192,135799,1,0,0:0:0:0:
64,192,136084,1,8,0:0:0:0:
192,192,136084,128,0,136368:0:0:0:0:
448,192,136368,128,0,136652:0:0:0:0:
64,192,136652,128,0,137221:0:0:0:70:BassKickReverbXD_s.wav
320,192,136937,1,0,0:0:0:50:clap.wav
192,192,137221,128,0,137505:0:0:0:50:clap.wav
320,192,137505,128,0,137790:0:0:0:50:clap2.wav
448,192,137790,128,0,138359:0:0:0:50:clap2.wav
64,192,138074,1,0,0:0:0:50:clap.wav
320,192,138359,128,0,138643:0:0:0:50:clap.wav
64,192,138643,128,0,138927:0:0:0:50:clap2.wav
192,192,138927,128,0,139212:0:0:0:50:clap2.wav
320,192,139212,128,0,139496:0:0:0:50:clap.wav
192,192,139496,128,0,139780:0:0:0:50:clap.wav
448,192,139780,128,0,140065:0:0:0:50:clap2.wav
320,192,140065,128,0,140349:0:0:0:50:clap2.wav
64,192,140349,128,0,140633:0:0:0:50:clap.wav
192,192,140633,128,0,140918:0:0:0:50:clap.wav
320,192,140918,128,0,141202:0:0:0:50:clap2.wav
64,192,141202,128,0,141487:0:0:0:50:clap2.wav
448,192,141487,128,0,142055:0:0:0:50:clap.wav
192,192,141771,1,0,0:0:0:50:clap.wav
320,192,142055,1,0,0:0:0:50:clap2.wav
192,192,142197,1,0,0:0:0:70:LR_Snare Drum 2.wav
320,192,142340,1,0,0:0:0:50:clap2.wav
192,192,142482,1,0,0:0:0:70:LR_Snare Drum 2.wav
320,192,142624,128,0,142908:0:0:0:50:clap.wav
192,192,142908,128,0,143193:0:0:0:50:clap.wav
448,192,143193,128,0,143477:0:0:0:50:clap2.wav
64,192,143477,128,0,143761:0:0:0:50:clap2.wav
448,192,143761,128,0,144330:0:0:0:50:clap.wav
64,192,144046,1,0,0:0:0:50:clap.wav
320,192,144330,1,0,0:0:0:50:clap2.wav
192,192,144472,1,0,0:0:0:70:LR_Snare Drum 2.wav
320,192,144614,1,0,0:0:0:50:clap2.wav
192,192,144757,1,0,0:0:0:70:LR_Snare Drum 2.wav
320,192,144899,128,0,145468:0:0:0:50:clap.wav
64,192,145468,128,0,145752:0:0:0:0:
320,192,145752,1,2,0:0:0:0:
448,192,145752,1,4,0:0:0:0:
192,192,146036,1,2,0:0:0:0:
320,192,146036,128,0,146321:0:0:0:0:
64,192,146321,128,8,146605:0:0:0:0:
448,192,146321,1,0,0:0:0:0:
192,192,146605,128,0,146889:0:0:0:0:
320,192,146747,1,8,0:0:0:0:
448,192,146889,128,0,147174:0:0:0:0:
64,192,147032,1,2,0:0:0:0:
192,192,147174,1,2,0:0:0:0:
320,192,147174,128,0,147458:0:0:0:0:
64,192,147458,1,8,0:0:0:0:
192,192,147458,128,0,147742:0:0:0:0:
448,192,147742,128,0,148027:0:0:0:0:
64,192,148027,128,2,148311:0:0:0:0:
320,192,148027,1,0,0:0:0:0:
192,192,148311,128,2,148596:0:0:0:0:
448,192,148311,1,0,0:0:0:0:
64,192,148596,1,8,0:0:0:0:
320,192,148596,128,0,148880:0:0:0:0:
448,192,148880,128,0,149164:0:0:0:0:
64,192,149022,1,8,0:0:0:0:
192,192,149164,128,0,149733:0:0:0:0:
320,192,149306,1,2,0:0:0:0:
448,192,149449,1,2,0:0:0:0:
64,192,149733,128,8,150302:0:0:0:0:
448,192,149733,1,0,0:0:0:0:
320,192,150302,1,2,0:0:0:0:
448,192,150302,1,0,0:0:0:0:
64,192,150586,128,2,150870:0:0:0:0:
320,192,150586,1,0,0:0:0:0:
192,192,150870,128,8,151155:0:0:0:0:
448,192,150870,1,0,0:0:0:0:
320,192,151155,128,0,151439:0:0:0:0:
64,192,151297,1,8,0:0:0:0:
448,192,151439,128,0,151723:0:0:0:0:
64,192,151581,1,2,0:0:0:0:
192,192,151723,128,2,152008:0:0:0:0:
320,192,151723,1,0,0:0:0:0:
320,192,152008,128,8,152292:0:0:0:0:
448,192,152008,1,0,0:0:0:0:
64,192,152292,128,2,152577:0:0:0:0:
192,192,152292,1,0,0:0:0:0:
192,192,152577,128,2,152861:0:0:0:0:
448,192,152577,1,0,0:0:0:0:
64,192,152861,1,2,0:0:0:0:
320,192,152861,128,0,153145:0:0:0:0:
192,192,153145,128,8,153430:0:0:0:0:
448,192,153145,1,0,0:0:0:0:
64,192,153430,128,8,153714:0:0:0:0:
320,192,153572,1,8,0:0:0:0:
448,192,153714,128,0,153998:0:0:0:0:
192,192,153856,1,2,0:0:0:0:
64,192,153998,1,2,0:0:0:0:
320,192,153998,128,0,154283:0:0:0:0:
64,192,154283,128,8,154567:0:0:0:0:
192,192,154283,1,0,0:0:0:0:
448,192,154567,128,0,154851:0:0:0:0:
64,192,154851,1,4,0:0:0:0:
192,192,154851,1,2,0:0:0:0:
192,192,155136,128,2,155420:0:0:0:0:
320,192,155136,1,0,0:0:0:0:
64,192,155420,1,8,0:0:0:0:
448,192,155420,128,0,155705:0:0:0:0:
320,192,155705,128,0,155989:0:0:0:0:
192,192,155847,1,8,0:0:0:0:
64,192,155989,128,0,156273:0:0:0:0:
448,192,156131,1,2,0:0:0:0:
192,192,156273,128,2,156558:0:0:0:0:
320,192,156273,1,0,0:0:0:0:
320,192,156558,128,8,156842:0:0:0:0:
448,192,156558,1,0,0:0:0:0:
64,192,156842,128,0,157126:0:0:0:0:
192,192,157126,1,2,0:0:0:0:
448,192,157126,128,0,157411:0:0:0:0:
64,192,157411,1,2,0:0:0:0:
320,192,157411,128,0,157695:0:0:0:0:
192,192,157695,128,8,157979:0:0:0:0:
448,192,157695,1,0,0:0:0:0:
64,192,157979,128,0,158264:0:0:0:0:
448,192,158122,1,8,0:0:0:0:
320,192,158264,128,0,158832:0:0:0:0:
192,192,158406,1,2,0:0:0:0:
64,192,158548,1,2,0:0:0:0:
64,192,158832,1,8,0:0:0:0:
448,192,158832,128,0,159401:0:0:0:0:
64,192,159401,1,2,0:0:0:0:
192,192,159401,1,0,0:0:0:0:
320,192,159686,1,2,0:0:0:0:
448,192,159686,128,0,159970:0:0:0:0:
64,192,159970,1,8,0:0:0:0:
320,192,159970,128,0,160254:0:0:0:0:
192,192,160254,128,0,160539:0:0:0:0:
448,192,160396,1,8,0:0:0:0:
64,192,160539,128,0,160823:0:0:0:0:
448,192,160681,1,2,0:0:0:0:
192,192,160823,1,2,0:0:0:0:
320,192,160823,128,0,161107:0:0:0:0:
64,192,161107,1,8,0:0:0:0:
192,192,161107,128,0,161392:0:0:0:0:
320,192,161392,1,2,0:0:0:0:
448,192,161392,128,0,161676:0:0:0:0:
64,192,161676,1,2,0:0:0:0:
320,192,161676,128,0,161960:0:0:0:0:
192,192,161960,128,2,162245:0:0:0:0:
448,192,161960,1,0,0:0:0:0:
64,192,162245,1,8,0:0:0:0:
320,192,162245,128,0,162529:0:0:0:0:
448,192,162529,128,8,162814:0:0:0:0:
192,192,162671,1,8,0:0:0:0:
64,192,162814,128,0,163098:0:0:0:0:
320,192,162956,1,2,0:0:0:0:
192,192,163098,128,2,163382:0:0:0:0:
448,192,163098,1,0,0:0:0:0:
320,192,163382,1,8,0:0:0:0:
448,192,163382,128,0,163667:0:0:0:0:
64,192,163667,128,0,163951:0:0:0:0:
192,192,163951,1,0,0:0:0:70:BassKickReverbXD_s.wav
448,192,163951,1,0,0:0:0:0:
320,192,164235,128,0,164520:0:0:0:50:clap.wav
192,192,164520,128,0,164804:0:0:0:0:
64,192,164804,128,0,165088:0:0:0:50:clap2.wav
448,192,165088,128,0,165373:0:0:0:0:
192,192,165373,128,0,165657:0:0:0:50:clap.wav
320,192,165657,128,0,165941:0:0:0:0:
64,192,165941,128,0,166226:0:0:0:50:clap2.wav
192,192,166226,128,0,166510:0:0:0:0:
320,192,166510,128,0,166795:0:0:0:50:clap.wav
448,192,166795,128,0,167079:0:0:0:0:
192,192,167079,128,0,167363:0:0:0:50:clap2.wav
320,192,167363,128,0,167932:0:0:0:0:
192,192,167932,128,0,168501:0:0:0:0:
320,192,168501,1,0,0:0:0:0:
448,192,168785,128,0,169069:0:0:0:50:clap.wav
320,192,169069,128,0,169354:0:0:0:0:
192,192,169354,128,0,169638:0:0:0:50:clap2.wav
64,192,169638,128,0,169923:0:0:0:0:
320,192,169923,128,0,170207:0:0:0:50:clap.wav
192,192,170207,128,0,170491:0:0:0:0:
448,192,170491,128,0,170776:0:0:0:50:clap2.wav
192,192,170776,128,0,171060:0:0:0:0:
320,192,171060,128,0,171344:0:0:0:50:clap.wav
192,192,171344,128,0,171629:0:0:0:0:
64,192,171629,128,0,171913:0:0:0:50:clap2.wav
320,192,171913,128,0,172197:0:0:0:0:
192,192,172197,128,0,172482:0:0:0:50:clap.wav
320,192,172482,128,0,172766:0:0:0:0:
448,192,172766,128,0,173050:0:0:0:50:clap2.wav
64,192,173050,1,0,0:0:0:0:
448,192,173335,1,0,0:0:0:30:clap.wav
320,192,173619,1,0,0:0:0:0:
192,192,173904,1,0,0:0:0:30:clap2.wav
64,192,174188,1,0,0:0:0:0:
192,192,174472,1,0,0:0:0:30:clap.wav
320,192,174757,1,0,0:0:0:0:
64,192,175041,1,0,0:0:0:30:clap2.wav
192,192,175325,1,0,0:0:0:0:
320,192,175610,1,0,0:0:0:30:clap.wav
448,192,175894,1,0,0:0:0:0:
192,192,176178,1,0,0:0:0:30:clap2.wav
320,192,176463,1,0,0:0:0:0:
64,192,176747,1,0,0:0:0:30:clap.wav
320,192,177032,1,0,0:0:0:0:
192,192,177316,1,0,0:0:0:30:clap2.wav
448,192,177600,1,0,0:0:0:0:
320,192,177885,1,0,0:0:0:30:clap.wav
192,192,178169,1,0,0:0:0:0:
64,192,178453,1,0,0:0:0:30:clap2.wav
192,192,178738,1,0,0:0:0:0:
320,192,179022,1,0,0:0:0:30:clap.wav
448,192,179306,1,0,0:0:0:0:
64,192,179591,1,0,0:0:0:30:clap2.wav
192,192,179875,1,0,0:0:0:0:
320,192,180160,1,0,0:0:0:30:clap.wav
192,192,180444,1,0,0:0:0:0:
64,192,180728,1,0,0:0:0:30:clap2.wav
448,192,181013,1,0,0:0:0:0:
192,192,181297,1,0,0:0:0:30:clap.wav
192,192,181581,1,0,0:0:0:0:
448,192,181866,1,0,0:0:0:30:clap2.wav
