osu file format v14

[General]
AudioFilename: audio.mp3
AudioLeadIn: 0
PreviewTime: 109283
Countdown: 0
SampleSet: Soft
StackLeniency: 0.7
Mode: 3
LetterboxInBreaks: 0
EpilepsyWarning: 1
SpecialStyle: 0
WidescreenStoryboard: 1

[Editor]
Bookmarks: 37126,50776,72956,109354
DistanceSpacing: 0.95
BeatDivisor: 2
GridSize: 32
TimelineZoom: 1.4

[Metadata]
Title:1xMISS
TitleUnicode:1xMISS
Artist:BilliumMoto
ArtistUnicode:BilliumMoto
Creator:FAMoss
Version:PETER'S GOOD
Source:osu!
Tags:peter petereu raveille mappers' guild mg featured artist fa xishiora
BeatmapID:2078880
BeatmapSetID:989512

[Difficulty]
HPDrainRate:7
CircleSize:4
OverallDifficulty:7
ApproachRate:5
SliderMultiplier:1.4
SliderTickRate:1

[Events]
//Background and Video events
0,0,"osu!next bg.jpg",0,0
//Break Periods
//Storyboard Layer 0 (Background)
//Storyboard Layer 1 (Fail)
//Storyboard Layer 2 (Pass)
//Storyboard Layer 3 (Foreground)
//Storyboard Layer 4 (Overlay)
//Storyboard Sound Samples
Sample,18643,0,"tick.wav",50
Sample,19212,0,"tick.wav",50
Sample,19638,0,"tick.wav",50
Sample,19780,0,"tick.wav",50
Sample,20349,0,"tick.wav",50
Sample,20918,0,"tick.wav",50
Sample,21487,0,"tick.wav",50
Sample,21913,0,"tick.wav",50
Sample,22055,0,"tick.wav",50
Sample,22624,0,"tick.wav",50
Sample,23193,0,"tick.wav",50
Sample,23761,0,"tick.wav",50
Sample,24188,0,"tick.wav",50
Sample,24330,0,"tick.wav",50
Sample,25468,0,"tick.wav",50
Sample,26036,0,"tick.wav",50
Sample,26463,0,"tick.wav",50
Sample,27174,0,"tick.wav",50
Sample,27742,0,"tick.wav",50
Sample,28311,0,"tick.wav",50
Sample,28738,0,"tick.wav",50
Sample,28880,0,"tick.wav",50
Sample,29449,0,"tick.wav",50
Sample,30017,0,"tick.wav",50
Sample,30586,0,"tick.wav",50
Sample,31013,0,"tick.wav",50
Sample,31155,0,"tick.wav",50
Sample,31723,0,"tick.wav",50
Sample,32292,0,"tick.wav",50
Sample,32861,0,"tick.wav",50
Sample,33287,0,"tick.wav",50
Sample,33430,0,"tick.wav",50
Sample,34567,0,"tick.wav",50
Sample,56747,0,"clap.wav",50
Sample,57316,0,"clap2.wav",50
Sample,57885,0,"clap.wav",50
Sample,58453,0,"clap2.wav",50
Sample,59022,0,"clap.wav",50
Sample,59591,0,"clap2.wav",50
Sample,60160,0,"clap.wav",50
Sample,60728,0,"clap2.wav",50
Sample,61866,0,"clap2.wav",50
Sample,62434,0,"clap.wav",50
Sample,63003,0,"clap2.wav",50
Sample,64141,0,"clap2.wav",50
Sample,64709,0,"clap.wav",50
Sample,65278,0,"clap2.wav",50
Sample,66415,0,"clap2.wav",50
Sample,66984,0,"clap.wav",50
Sample,67553,0,"clap2.wav",50
Sample,68690,0,"clap2.wav",50
Sample,69259,0,"clap.wav",50
Sample,69828,0,"clap2.wav",50
Sample,70965,0,"clap2.wav",50
Sample,71534,0,"clap.wav",50
Sample,72956,0,"sparkle.wav",70
Sample,82340,0,"tick.wav",50
Sample,82908,0,"tick.wav",50
Sample,83335,0,"tick.wav",50
Sample,83477,0,"tick.wav",50
Sample,84046,0,"tick.wav",50
Sample,84614,0,"tick.wav",50
Sample,85183,0,"tick.wav",50
Sample,85610,0,"tick.wav",50
Sample,85752,0,"tick.wav",50
Sample,86321,0,"tick.wav",50
Sample,86889,0,"tick.wav",50
Sample,87458,0,"tick.wav",50
Sample,87885,0,"tick.wav",50
Sample,88027,0,"tick.wav",50
Sample,89164,0,"tick.wav",50
Sample,90160,0,"tick.wav",50
Sample,90302,0,"tick.wav",50
Sample,90870,0,"tick.wav",50
Sample,91439,0,"tick.wav",50
Sample,92434,0,"tick.wav",50
Sample,92577,0,"tick.wav",50
Sample,93714,0,"tick.wav",50
Sample,94709,0,"tick.wav",50
Sample,94851,0,"tick.wav",50
Sample,95136,0,"tick2.wav",70
Sample,95420,0,"tick.wav",50
Sample,95989,0,"tick.wav",50
Sample,96984,0,"tick.wav",50
Sample,97411,0,"tick2.wav",70
Sample,97695,0,"tick.wav",50
Sample,98264,0,"tick.wav",50
Sample,98548,0,"tick2.wav",70
Sample,99259,0,"tick.wav",50
Sample,99970,0,"tick.wav",50
Sample,100539,0,"tick.wav",50
Sample,101534,0,"tick.wav",50
Sample,102814,0,"tick.wav",50
Sample,103809,0,"tick.wav",50
Sample,105088,0,"tick.wav",50
Sample,105657,0,"tick.wav",50
Sample,106084,0,"tick.wav",50
Sample,106226,0,"tick.wav",50
Sample,136937,0,"clap.wav",50
Sample,138074,0,"clap.wav",50
Sample,141487,0,"clap.wav",50
Sample,141771,0,"clap.wav",50
Sample,142908,0,"clap.wav",50
Sample,143193,0,"clap2.wav",50
Sample,143761,0,"clap.wav",50
Sample,144046,0,"clap.wav",50
Sample,164235,0,"clap.wav",50
Sample,164804,0,"clap2.wav",50
Sample,165373,0,"clap.wav",50
Sample,165941,0,"clap2.wav",50
Sample,166510,0,"clap.wav",50
Sample,167079,0,"clap2.wav",50
Sample,167648,0,"clap.wav",50
Sample,168216,0,"clap2.wav",50
Sample,168785,0,"clap.wav",50
Sample,169354,0,"clap2.wav",50
Sample,169923,0,"clap.wav",50
Sample,170491,0,"clap2.wav",50
Sample,171060,0,"clap.wav",50
Sample,171629,0,"clap2.wav",50
Sample,172197,0,"clap.wav",50
Sample,172766,0,"clap2.wav",50
Sample,173335,0,"clap.wav",30
Sample,173904,0,"clap2.wav",30
Sample,174472,0,"clap.wav",30
Sample,175041,0,"clap2.wav",30
Sample,175610,0,"clap.wav",30
Sample,176178,0,"clap2.wav",30
Sample,176747,0,"clap.wav",30
Sample,177316,0,"clap2.wav",30
Sample,177885,0,"clap.wav",30
Sample,178453,0,"clap2.wav",30
Sample,179022,0,"clap.wav",30
Sample,179591,0,"clap2.wav",30
Sample,180160,0,"clap.wav",30
Sample,180728,0,"clap2.wav",30
Sample,181297,0,"clap.wav",30

[TimingPoints]
160,284.36018957346,4,2,1,40,1,0
18359,-100,4,2,1,50,0,0
37126,-100,4,2,1,60,0,1
49638,-100,4,2,1,60,0,0
50776,-100,4,2,1,60,0,1
54188,-100,4,2,1,60,0,0
63287,-100,4,2,1,60,0,0
72956,-100,4,2,1,40,0,0
82055,-100,4,2,1,50,0,0
100254,-100,4,2,1,60,0,0
109354,-100,4,2,1,60,0,1
126415,-100,4,2,1,60,0,0
163951,-100,4,2,1,40,0,0

[HitObjects]
192,192,160,128,0,2434:0:0:0:0:
320,192,2434,128,0,4709:0:0:0:0:
448,192,4709,128,0,6984:0:0:0:0:
64,192,6984,128,0,9259:0:0:0:0:
448,192,9259,128,0,11534:0:0:0:0:
320,192,11534,128,0,13809:0:0:0:0:
192,192,13809,128,0,15515:0:0:0:0:
448,192,15515,128,0,17221:0:0:0:0:
192,192,17648,128,0,18359:0:0:0:0:
64,192,18359,1,0,0:0:0:100:LR_TomR2.wav
448,192,18359,1,0,0:0:0:0:
192,192,18927,1,0,0:0:0:0:
448,192,19496,1,0,0:0:0:0:
320,192,20065,1,0,0:0:0:0:
64,192,20633,1,0,0:0:0:0:
192,192,21202,1,0,0:0:0:0:
320,192,21771,1,0,0:0:0:0:
448,192,22340,1,0,0:0:0:0:
64,192,22908,1,0,0:0:0:100:LR_TomR1.wav
192,192,22908,1,0,0:0:0:0:
448,192,23477,1,0,0:0:0:0:
320,192,24046,1,0,0:0:0:0:
192,192,24614,1,0,0:0:0:0:
64,192,24899,1,0,0:0:0:50:tick.wav
448,192,25183,128,0,25752:0:0:0:0:
320,192,26605,1,0,0:0:0:50:tick.wav
192,192,26889,1,0,0:0:0:100:LR_TomR.wav
64,192,27174,1,0,0:0:0:100:LR_TomR1.wav
320,192,27458,1,0,0:0:0:100:LR_TomR.wav
448,192,27458,1,0,0:0:0:0:
192,192,28027,1,0,0:0:0:0:
64,192,28596,1,0,0:0:0:0:
448,192,29164,1,0,0:0:0:0:
64,192,29733,1,0,0:0:0:0:
192,192,30302,1,0,0:0:0:0:
320,192,30870,1,0,0:0:0:0:
448,192,31439,1,0,0:0:0:0:
64,192,32008,1,0,0:0:0:100:LR_TomR1.wav
192,192,32008,1,0,0:0:0:0:
320,192,32577,1,0,0:0:0:0:
448,192,33145,1,0,0:0:0:0:
192,192,33714,1,0,0:0:0:0:
320,192,33998,1,0,0:0:0:50:tick.wav
64,192,34283,128,0,34851:0:0:0:0:
320,192,34851,1,0,0:0:0:0:
192,192,35136,1,0,0:0:0:50:tick.wav
448,192,35989,128,0,36273:0:0:0:0:
320,192,36273,128,0,36558:0:0:0:0:
64,192,36558,1,2,0:0:0:0:
320,192,37126,1,8,0:0:0:0:
448,192,37126,1,4,0:0:0:0:
64,192,37411,1,2,0:0:0:0:
192,192,37695,1,2,0:0:0:0:
320,192,37979,1,2,0:0:0:0:
64,192,38264,1,8,0:0:0:0:
448,192,38548,128,0,38832:0:0:0:0:
320,192,38832,1,2,0:0:0:0:
192,192,39117,1,0,0:0:0:0:
64,192,39401,128,8,39686:0:0:0:0:
448,192,39686,1,2,0:0:0:0:
192,192,39970,1,2,0:0:0:0:
320,192,40254,1,2,0:0:0:0:
448,192,40539,1,8,0:0:0:0:
192,192,40823,128,0,41107:0:0:0:0:
320,192,41107,1,2,0:0:0:0:
448,192,41107,1,0,0:0:0:0:
64,192,41676,1,12,0:0:0:0:
320,192,41960,1,2,0:0:0:0:
192,192,42245,1,2,0:0:0:0:
64,192,42529,1,2,0:0:0:0:
448,192,42814,1,8,0:0:0:0:
192,192,43098,128,0,43382:0:0:0:0:
64,192,43382,1,2,0:0:0:0:
320,192,43667,1,0,0:0:0:0:
448,192,43951,128,8,44235:0:0:0:0:
192,192,44235,1,2,0:0:0:0:
64,192,44520,1,2,0:0:0:0:
320,192,44804,1,2,0:0:0:0:
448,192,45088,1,8,0:0:0:0:
64,192,45373,128,0,45657:0:0:0:100:LR_TomR3.wav
320,192,45657,128,2,45941:0:0:0:0:
448,192,45657,1,0,0:0:0:0:
192,192,45941,128,0,46226:0:0:0:0:
64,192,46226,1,12,0:0:0:0:
448,192,46510,128,2,46795:0:0:0:0:
64,192,46795,1,2,0:0:0:0:
192,192,47079,1,2,0:0:0:0:
320,192,47363,1,8,0:0:0:0:
64,192,47648,128,0,47932:0:0:0:0:
320,192,47932,1,2,0:0:0:0:
448,192,47932,1,0,0:0:0:0:
192,192,48216,128,0,48501:0:0:0:0:
64,192,48501,128,8,48785:0:0:0:0:
320,192,48785,1,2,0:0:0:0:
64,192,49069,1,2,0:0:0:0:
192,192,49354,1,2,0:0:0:0:
448,192,49638,1,8,0:0:0:0:
320,192,49923,1,0,0:0:0:0:
64,192,50207,1,2,0:0:0:0:
192,192,50207,1,0,0:0:0:0:
320,192,50776,1,8,0:0:0:0:
448,192,50776,1,4,0:0:0:0:
64,192,51060,1,2,0:0:0:0:
192,192,51344,1,2,0:0:0:0:
320,192,51629,1,2,0:0:0:0:
64,192,51913,1,8,0:0:0:0:
192,192,52197,128,0,52482:0:0:0:0:
64,192,52482,1,2,0:0:0:0:
448,192,52482,1,0,0:0:0:0:
320,192,52766,128,0,53050:0:0:0:0:
448,192,53050,128,8,53335:0:0:0:0:
64,192,53335,1,2,0:0:0:0:
192,192,53335,1,0,0:0:0:0:
320,192,53619,1,2,0:0:0:0:
448,192,53619,1,0,0:0:0:0:
64,192,53904,1,2,0:0:0:0:
448,192,53904,1,0,0:0:0:0:
192,192,54188,128,12,54757:0:0:0:0:
448,192,54757,1,0,0:0:0:0:
64,192,55325,1,0,0:0:0:0:
192,192,55894,1,0,0:0:0:0:
320,192,56463,1,12,0:0:0:0:
64,192,56747,1,2,0:0:0:0:
448,192,57032,1,2,0:0:0:0:
64,192,57600,1,8,0:0:0:0:
448,192,57885,1,2,0:0:0:0:
320,192,58169,1,2,0:0:0:0:
192,192,58453,1,2,0:0:0:0:
448,192,58738,1,8,0:0:0:0:
64,192,59022,1,2,0:0:0:0:
320,192,59306,1,2,0:0:0:0:
64,192,59875,1,12,0:0:0:0:
320,192,60160,1,2,0:0:0:0:
192,192,60444,1,2,0:0:0:0:
64,192,60728,1,2,0:0:0:0:
448,192,61013,1,8,0:0:0:0:
64,192,61297,1,0,0:0:0:50:clap.wav
192,192,61581,1,2,0:0:0:0:
448,192,62150,1,8,0:0:0:0:
320,192,62434,1,2,0:0:0:0:
192,192,62719,1,2,0:0:0:0:
448,192,63003,1,2,0:0:0:0:
320,192,63287,128,8,63856:0:0:0:0:
64,192,63856,128,2,64425:0:0:0:0:
192,192,64425,128,12,64994:0:0:0:0:
320,192,64994,128,2,65562:0:0:0:0:
448,192,65562,128,8,65847:0:0:0:0:
64,192,65847,1,0,0:0:0:50:clap.wav
192,192,65989,1,2,0:0:0:0:
320,192,66131,1,2,0:0:0:0:
448,192,66700,1,8,0:0:0:0:
64,192,66984,1,2,0:0:0:0:
192,192,67126,1,2,0:0:0:0:
320,192,67269,1,2,0:0:0:0:
64,192,67553,1,2,0:0:0:0:
448,192,67837,1,8,0:0:0:0:
192,192,68122,1,2,0:0:0:0:
320,192,68406,1,2,0:0:0:0:
64,192,68975,1,12,0:0:0:0:
448,192,69259,1,2,0:0:0:0:
192,192,69543,1,2,0:0:0:0:
320,192,69828,1,2,0:0:0:0:
64,192,70112,1,8,0:0:0:0:
448,192,70396,1,0,0:0:0:50:clap.wav
320,192,70539,1,2,0:0:0:0:
192,192,70681,1,2,0:0:0:0:
64,192,71250,1,8,0:0:0:0:
448,192,71534,1,2,0:0:0:0:
320,192,71818,1,2,0:0:0:0:
192,192,72103,1,2,0:0:0:0:
448,192,72387,1,12,0:0:0:0:
64,192,72956,1,0,0:0:0:70:BassKickReverbXD_s.wav
192,192,73524,1,0,0:0:0:0:
448,192,74093,1,0,0:0:0:0:
320,192,74662,1,0,0:0:0:0:
64,192,75231,1,0,0:0:0:0:
192,192,75799,1,0,0:0:0:0:
320,192,76368,1,0,0:0:0:0:
448,192,76937,1,0,0:0:0:0:
192,192,77505,1,0,0:0:0:0:
64,192,78074,1,0,0:0:0:0:
448,192,78643,1,0,0:0:0:0:
192,192,79212,1,0,0:0:0:0:
320,192,79496,1,0,0:0:0:0:
448,192,79780,1,0,0:0:0:0:
320,192,81202,1,0,0:0:0:0:
192,192,81487,1,0,0:0:0:0:
64,192,81771,1,0,0:0:0:0:
320,192,82055,1,0,0:0:0:100:LR_TomR.wav
448,192,82624,1,0,0:0:0:0:
192,192,83193,1,0,0:0:0:0:
64,192,83761,1,0,0:0:0:0:
448,192,84330,1,0,0:0:0:0:
320,192,84899,1,0,0:0:0:0:
192,192,85468,1,0,0:0:0:0:
64,192,86036,1,0,0:0:0:0:
448,192,86321,1,0,0:0:0:100:LR_TomR.wav
192,192,86605,1,0,0:0:0:100:LR_TomR1.wav
64,192,87174,1,0,0:0:0:0:
192,192,87742,1,0,0:0:0:0:
448,192,88311,1,0,0:0:0:0:
320,192,88596,1,0,0:0:0:50:tick.wav
64,192,88880,1,0,0:0:0:0:
448,192,89733,1,0,0:0:0:50:tick.wav
64,192,90017,1,0,0:0:0:0:
192,192,90302,1,0,0:0:0:100:LR_TomR.wav
320,192,90586,1,0,0:0:0:100:LR_TomR.wav
448,192,90870,1,0,0:0:0:100:LR_TomR.wav
64,192,91155,1,0,0:0:0:100:LR_TomR1.wav
192,192,91155,128,0,91723:0:0:0:0:
320,192,91723,1,0,0:0:0:70:tick2.wav
448,192,92008,1,0,0:0:0:50:tick.wav
64,192,92292,128,0,92861:0:0:0:0:
192,192,92861,1,0,0:0:0:70:tick2.wav
320,192,93145,1,0,0:0:0:50:tick.wav
64,192,93430,1,0,0:0:0:100:LR_TomR.wav
448,192,93430,128,0,93998:0:0:0:0:
192,192,93998,1,0,0:0:0:70:tick2.wav
64,192,94283,1,0,0:0:0:50:tick.wav
320,192,94567,128,0,95136:0:0:0:0:
192,192,95136,1,0,0:0:0:100:LR_TomR.wav
448,192,95420,128,0,95705:0:0:0:100:LR_TomR.wav
64,192,95705,1,0,0:0:0:100:LR_TomR1.wav
192,192,95705,128,0,96273:0:0:0:0:
448,192,96273,1,0,0:0:0:70:tick2.wav
64,192,96558,1,0,0:0:0:50:tick.wav
192,192,96842,1,0,0:0:0:0:
320,192,97126,1,0,0:0:0:50:tick.wav
448,192,97695,1,0,0:0:0:100:LR_TomR.wav
64,192,97979,1,0,0:0:0:100:LR_TomR.wav
192,192,97979,128,0,98548:0:0:0:0:
320,192,98832,1,0,0:0:0:50:tick.wav
64,192,99117,1,0,0:0:0:0:
192,192,99401,1,0,0:0:0:50:tick.wav
320,192,99686,1,0,0:0:0:70:tick2.wav
448,192,99970,1,0,0:0:0:100:LR_TomR3.wav
64,192,100254,1,2,0:0:0:0:
192,192,100254,1,0,0:0:0:50:LR_Snare Drum 2.wav
320,192,100823,1,0,0:0:0:70:tick2.wav
192,192,101107,1,0,0:0:0:50:tick.wav
320,192,101392,1,2,0:0:0:0:
448,192,101392,1,0,0:0:0:50:LR_Snare Drum 2.wav
192,192,101960,1,0,0:0:0:70:tick2.wav
320,192,102245,1,0,0:0:0:50:tick.wav
64,192,102529,1,2,0:0:0:0:
192,192,102529,1,0,0:0:0:60:LR_Snare Drum 2.wav
64,192,103098,1,0,0:0:0:70:tick2.wav
192,192,103382,1,0,0:0:0:50:tick.wav
320,192,103667,1,2,0:0:0:0:
448,192,103667,1,0,0:0:0:60:LR_Snare Drum 2.wav
192,192,103951,1,0,0:0:0:50:tick.wav
448,192,104235,128,0,104520:0:0:0:70:tick2.wav
64,192,104520,128,0,104804:0:0:0:50:tick.wav
192,192,104804,1,2,0:0:0:0:
320,192,104804,1,0,0:0:0:70:LR_Snare Drum 2.wav
320,192,105373,1,2,0:0:0:0:
448,192,105373,1,0,0:0:0:70:tick2.wav
64,192,105941,1,2,0:0:0:0:
192,192,105941,1,0,0:0:0:70:LR_Snare Drum 2.wav
192,192,106510,1,2,0:0:0:0:
448,192,106510,1,0,0:0:0:70:tick2.wav
64,192,106795,128,0,107079:0:0:0:50:tick.wav
448,192,107079,128,0,107363:0:0:0:70:LR_Snare Drum 2.wav
192,192,107363,1,0,0:0:0:50:tick.wav
320,192,107648,1,0,0:0:0:70:tick2.wav
192,192,107932,1,0,0:0:0:50:tick.wav
320,192,108216,1,0,0:0:0:70:LR_Snare Drum 2.wav
64,192,108359,1,0,0:0:0:50:tick.wav
192,192,108501,128,0,108785:0:0:0:50:tick.wav
320,192,108785,1,0,0:0:0:50:LS-HKI Big Kick 09.wav
64,192,109069,1,0,0:0:0:0:
320,192,109354,1,2,0:0:0:0:
448,192,109354,1,4,0:0:0:0:
64,192,109923,1,8,0:0:0:0:
448,192,110207,1,2,0:0:0:0:
320,192,110491,1,2,0:0:0:0:
192,192,110776,1,2,0:0:0:0:
64,192,111060,1,8,0:0:0:0:
448,192,111344,128,0,111629:0:0:0:0:
320,192,111629,128,2,111913:0:0:0:0:
192,192,111913,1,0,0:0:0:0:
64,192,112197,128,8,112482:0:0:0:0:
448,192,112482,1,2,0:0:0:0:
320,192,112766,1,2,0:0:0:0:
192,192,113050,1,2,0:0:0:0:
448,192,113335,1,8,0:0:0:0:
64,192,113619,128,0,113904:0:0:0:0:
192,192,113904,1,2,0:0:0:0:
320,192,113904,1,0,0:0:0:0:
64,192,114472,1,12,0:0:0:0:
320,192,114757,1,2,0:0:0:0:
192,192,115041,1,2,0:0:0:0:
448,192,115325,128,2,115610:0:0:0:0:
320,192,115610,1,8,0:0:0:0:
64,192,115894,128,0,116178:0:0:0:0:
320,192,116178,128,2,116463:0:0:0:0:
448,192,116463,1,0,0:0:0:0:
64,192,116747,128,8,117032:0:0:0:0:
192,192,117032,1,2,0:0:0:0:
320,192,117316,1,2,0:0:0:0:
448,192,117600,1,2,0:0:0:0:
64,192,117885,1,8,0:0:0:0:
448,192,118169,128,0,118453:0:0:0:100:LR_TomR3.wav
64,192,118453,1,2,0:0:0:0:
320,192,118453,1,0,0:0:0:0:
192,192,118738,1,0,0:0:0:0:
320,192,119022,1,12,0:0:0:0:
448,192,119306,1,0,0:0:0:0:
192,192,119591,1,2,0:0:0:0:
64,192,119875,1,0,0:0:0:0:
320,192,120160,1,8,0:0:0:0:
192,192,120444,128,2,120728:0:0:0:0:
320,192,120728,1,2,0:0:0:0:
448,192,120728,1,0,0:0:0:0:
64,192,121013,128,0,121297:0:0:0:0:
320,192,121297,128,8,121581:0:0:0:0:
192,192,121581,128,0,121866:0:0:0:0:
448,192,121866,1,2,0:0:0:0:
64,192,122150,128,2,122434:0:0:0:0:
192,192,122434,1,8,0:0:0:0:
320,192,122719,1,0,0:0:0:0:
64,192,123003,1,2,0:0:0:0:
448,192,123003,1,0,0:0:0:0:
320,192,123287,1,0,0:0:0:0:
192,192,123572,1,12,0:0:0:0:
320,192,123856,1,2,0:0:0:0:
448,192,124141,1,0,0:0:0:0:
64,192,124425,1,2,0:0:0:0:
448,192,124709,1,8,0:0:0:0:
320,192,124851,1,0,0:0:0:0:
192,192,124994,1,0,0:0:0:0:
64,192,125278,1,2,0:0:0:0:
448,192,125278,1,4,0:0:0:0:
320,192,125562,1,0,0:0:0:0:
192,192,125847,1,8,0:0:0:0:
320,192,126131,1,0,0:0:0:0:
64,192,126415,1,0,0:0:0:0:
192,192,126700,1,0,0:0:0:0:
320,192,126984,1,0,0:0:0:0:
448,192,127269,1,0,0:0:0:0:
64,192,127553,1,2,0:0:0:0:
192,192,127553,1,4,0:0:0:0:
448,192,128122,1,8,0:0:0:0:
320,192,128406,1,2,0:0:0:0:
64,192,128690,1,4,0:0:0:0:
192,192,128690,1,2,0:0:0:0:
320,192,128975,1,2,0:0:0:0:
448,192,128975,1,0,0:0:0:0:
192,192,129259,1,8,0:0:0:0:
320,192,129543,1,0,0:0:0:0:
64,192,129828,1,2,0:0:0:0:
448,192,129828,1,4,0:0:0:0:
64,192,130396,1,8,0:0:0:0:
192,192,130681,1,2,0:0:0:0:
320,192,130965,1,2,0:0:0:0:
448,192,130965,1,0,0:0:0:0:
64,192,131250,1,2,0:0:0:0:
192,192,131250,1,0,0:0:0:0:
320,192,131534,1,8,0:0:0:0:
448,192,131818,128,0,132103:0:0:0:0:
64,192,132103,1,4,0:0:0:0:
192,192,132103,1,2,0:0:0:0:
64,192,132671,1,8,0:0:0:0:
192,192,132956,1,2,0:0:0:0:
320,192,133240,1,2,0:0:0:0:
448,192,133524,1,2,0:0:0:0:
192,192,133809,128,8,134093:0:0:0:0:
320,192,134093,128,0,134378:0:0:0:0:
64,192,134378,1,2,0:0:0:0:
448,192,134378,1,4,0:0:0:0:
192,192,134946,1,8,0:0:0:0:
64,192,135231,1,2,0:0:0:0:
448,192,135515,1,2,0:0:0:0:
320,192,135799,1,2,0:0:0:0:
192,192,136084,1,8,0:0:0:0:
64,192,136368,128,0,136652:0:0:0:0:
448,192,136652,1,0,0:0:0:70:BassKickReverbXD_s.wav
64,192,137221,1,0,0:0:0:50:clap.wav
448,192,137505,1,0,0:0:0:50:clap2.wav
64,192,137790,128,0,138359:0:0:0:50:clap2.wav
192,192,138359,1,0,0:0:0:50:clap.wav
320,192,138643,1,0,0:0:0:50:clap2.wav
448,192,138927,128,0,139212:0:0:0:50:clap2.wav
64,192,139212,1,0,0:0:0:50:clap.wav
192,192,139496,1,0,0:0:0:50:clap.wav
320,192,139780,1,0,0:0:0:50:clap2.wav
192,192,140065,128,0,140349:0:0:0:50:clap2.wav
64,192,140349,1,0,0:0:0:50:clap.wav
320,192,140633,1,0,0:0:0:50:clap.wav
448,192,140918,1,0,0:0:0:50:clap2.wav
64,192,141202,128,0,141771:0:0:0:50:clap2.wav
192,192,142055,1,0,0:0:0:50:clap2.wav
320,192,142340,1,0,0:0:0:50:clap2.wav
192,192,142624,1,0,0:0:0:50:clap.wav
192,192,143477,128,0,144046:0:0:0:50:clap2.wav
448,192,144330,1,0,0:0:0:50:clap2.wav
320,192,144614,1,0,0:0:0:50:clap2.wav
192,192,144899,1,0,0:0:0:50:clap.wav
320,192,145468,1,0,0:0:0:0:
64,192,145752,1,2,0:0:0:0:
192,192,145752,1,4,0:0:0:0:
320,192,146036,1,2,0:0:0:0:
448,192,146321,1,8,0:0:0:0:
448,192,146747,1,8,0:0:0:0:
192,192,147032,1,2,0:0:0:0:
320,192,147174,1,2,0:0:0:0:
64,192,147458,1,8,0:0:0:0:
448,192,148027,1,2,0:0:0:0:
192,192,148311,1,2,0:0:0:0:
320,192,148596,1,8,0:0:0:0:
320,192,149022,1,8,0:0:0:0:
64,192,149306,1,2,0:0:0:0:
448,192,149449,1,2,0:0:0:0:
320,192,149733,128,8,150017:0:0:0:0:
192,192,150017,128,0,150302:0:0:0:0:
448,192,150302,1,2,0:0:0:0:
64,192,150586,1,2,0:0:0:0:
320,192,150870,1,8,0:0:0:0:
320,192,151297,1,8,0:0:0:0:
64,192,151581,1,2,0:0:0:0:
192,192,151723,1,2,0:0:0:0:
448,192,152008,1,8,0:0:0:0:
320,192,152292,1,2,0:0:0:0:
192,192,152577,1,2,0:0:0:0:
64,192,152861,1,2,0:0:0:0:
448,192,153145,1,8,0:0:0:0:
64,192,153430,1,8,0:0:0:0:
192,192,153572,1,8,0:0:0:0:
448,192,153856,1,2,0:0:0:0:
64,192,153998,1,2,0:0:0:0:
320,192,154283,128,8,154851:0:0:0:0:
64,192,154851,1,6,0:0:0:0:
320,192,155136,1,2,0:0:0:0:
192,192,155420,1,8,0:0:0:0:
192,192,155847,1,8,0:0:0:0:
448,192,156131,1,2,0:0:0:0:
320,192,156273,1,2,0:0:0:0:
64,192,156558,1,8,0:0:0:0:
320,192,157126,1,2,0:0:0:0:
64,192,157411,1,2,0:0:0:0:
448,192,157695,1,8,0:0:0:0:
448,192,158122,1,8,0:0:0:0:
192,192,158406,1,2,0:0:0:0:
320,192,158548,1,2,0:0:0:0:
448,192,158832,128,8,159117:0:0:0:0:
64,192,159117,128,0,159401:0:0:0:0:
192,192,159401,1,2,0:0:0:0:
320,192,159686,1,2,0:0:0:0:
448,192,159970,1,8,0:0:0:0:
448,192,160396,1,8,0:0:0:0:
192,192,160681,1,2,0:0:0:0:
320,192,160823,1,2,0:0:0:0:
64,192,161107,1,8,0:0:0:0:
192,192,161392,1,2,0:0:0:0:
320,192,161676,1,2,0:0:0:0:
64,192,161960,1,2,0:0:0:0:
448,192,162245,1,8,0:0:0:0:
192,192,162529,1,8,0:0:0:0:
320,192,162671,1,8,0:0:0:0:
64,192,162956,1,2,0:0:0:0:
192,192,163098,1,2,0:0:0:0:
448,192,163382,1,8,0:0:0:0:
64,192,163951,128,0,164520:0:0:0:70:BassKickReverbXD_s.wav
192,192,163951,1,0,0:0:0:0:
448,192,164520,128,0,165088:0:0:0:0:
320,192,165088,128,0,165657:0:0:0:0:
192,192,165657,128,0,166226:0:0:0:0:
448,192,166226,128,0,166795:0:0:0:0:
320,192,166795,128,0,167363:0:0:0:0:
64,192,167363,128,0,167932:0:0:0:0:
192,192,167932,128,0,168501:0:0:0:0:
448,192,168501,128,0,169069:0:0:0:0:
320,192,169069,128,0,169638:0:0:0:0:
64,192,169638,128,0,170207:0:0:0:0:
192,192,170207,128,0,170776:0:0:0:0:
320,192,170776,128,0,171344:0:0:0:0:
64,192,171344,128,0,171913:0:0:0:0:
192,192,171913,128,0,172482:0:0:0:0:
448,192,172482,128,0,173050:0:0:0:0:
64,192,173050,1,0,0:0:0:0:
320,192,173619,1,0,0:0:0:0:
448,192,174188,1,0,0:0:0:0:
64,192,174757,1,0,0:0:0:0:
192,192,175325,1,0,0:0:0:0:
448,192,175894,1,0,0:0:0:0:
320,192,176463,1,0,0:0:0:0:
192,192,177032,1,0,0:0:0:0:
64,192,177600,1,0,0:0:0:0:
192,192,178169,1,0,0:0:0:0:
320,192,178738,1,0,0:0:0:0:
448,192,179306,1,0,0:0:0:0:
192,192,179875,1,0,0:0:0:0:
320,192,180444,1,0,0:0:0:0:
64,192,181013,1,0,0:0:0:0:
320,192,181581,1,0,0:0:0:0:
192,192,181866,1,0,0:0:0:30:clap2.wav
