osu file format v14

[General]
AudioFilename: audio.mp3
AudioLeadIn: 0
PreviewTime: -1
Countdown: 1
SampleSet: None
StackLeniency: 0.7
Mode: 0
LetterboxInBreaks: 0
WidescreenStoryboard: 0

[Editor]
DistanceSpacing: 1.1
BeatDivisor: 4
GridSize: 32
TimelineZoom: 0.9

[Metadata]
Title:Copycat
TitleUnicode:Copycat
Artist:Billie_Eilish
ArtistUnicode:Billie_Eilish
Creator:Runin-2
Version:Easy Hard
Source:
Tags:Pop.
BeatmapID:1709080
BeatmapSetID:814948

[Difficulty]
HPDrainRate:5
CircleSize:5
OverallDifficulty:5
ApproachRate:5
SliderMultiplier:1.4
SliderTickRate:1

[Events]
//Background and Video events
0,0,"Projeto Map A.jpg",0,0
//Break Periods
//Storyboard Layer 0 (Background)
//Storyboard Layer 1 (Fail)
//Storyboard Layer 2 (Pass)
//Storyboard Layer 3 (Foreground)
//Storyboard Sound Samples

[TimingPoints]
108,479.990476190477,4,1,0,100,1,0

[HitObjects]
88,111,347,5,0,0:0:0:0:
93,157,587,2,0,P|97:202|179:238,1,140
326,111,2147,2,0,P|270:165|271:166,1,105
272,218,2627,1,0,0:0:0:0:
291,101,3707,1,0,0:0:0:0:
291,101,3827,2,0,L|215:187,1,105
186,224,4307,1,0,0:0:0:0:
125,213,5627,2,0,P|133:141|246:209,1,245
128,87,7787,5,0,0:0:0:0:
164,133,7907,2,0,L|242:224,1,105
305,165,8387,1,0,0:0:0:0:
271,118,8507,2,0,L|192:41,1,105
271,60,9227,2,0,L|305:85,1,35
318,102,9467,2,0,L|345:125,1,35
307,190,9947,1,0,0:0:0:0:
270,239,10067,2,0,P|133:288|113:265,1,175
82,68,12107,6,0,P|222:60|240:98,1,175
169,124,12947,1,0,0:0:0:0:
244,82,13907,1,0,0:0:0:0:
320,97,14147,1,0,0:0:0:0:
257,156,14387,1,0,0:0:0:0:
254,169,14627,2,0,B|231:196|134:203|153:203|76:97,1,210
132,98,15827,1,0,0:0:0:0:
189,129,15947,1,0,0:0:0:0:
239,165,16067,1,0,0:0:0:0:
268,193,16307,2,0,P|368:218|328:321,1,210
204,104,17627,1,0,0:0:0:0:
271,103,17867,1,0,0:0:0:0:
236,164,18107,1,0,0:0:0:0:
367,90,18587,1,0,0:0:0:0:
365,166,18827,1,0,0:0:0:0:
327,233,19067,1,0,0:0:0:0:
260,271,19307,1,0,0:0:0:0:
183,272,19547,1,0,0:0:0:0:
107,259,19787,1,0,0:0:0:0:
153,197,20027,1,0,0:0:0:0:
202,137,20267,1,0,0:0:0:0:
250,77,20507,1,0,0:0:0:0:
290,142,20747,1,0,0:0:0:0:
320,212,20987,1,0,0:0:0:0:
275,274,21227,1,0,0:0:0:0:
199,291,21467,2,0,P|48:260|250:159,1,560
262,139,23747,2,0,P|318:209|317:268,1,140
267,151,24947,1,0,0:0:0:0:
254,170,25067,1,0,0:0:0:0:
75,171,26027,5,0,0:0:0:0:
97,110,26267,2,0,P|239:95|254:112,1,175
274,151,27227,1,0,0:0:0:0:
264,163,27347,2,0,P|218:239|125:184,1,210
253,106,28427,1,0,0:0:0:0:
297,119,28547,1,0,0:0:0:0:
344,136,28667,1,0,0:0:0:0:
379,170,29027,2,0,P|416:210|226:256,1,385
179,126,31907,2,0,L|227:119,1,35
249,118,32267,2,0,L|307:125,1,35
321,152,32507,2,0,P|332:217|323:228,1,70
360,260,33227,1,0,0:0:0:0:
287,255,33467,2,0,L|210:208,1,70
192,188,33827,2,0,P|155:143|187:89,1,105
343,211,34787,1,0,0:0:0:0:
326,146,35027,2,0,P|215:70|139:101,1,210
126,150,36107,1,0,0:0:0:0:
204,191,36347,1,0,0:0:0:0:
201,116,36587,1,0,0:0:0:0:
256,116,36827,2,0,P|379:123|277:234,1,350
210,113,38507,2,0,P|148:195|196:240,1,175
235,250,39227,2,0,P|298:242|251:122,1,210
245,179,40187,1,0,0:0:0:0:
240,185,40427,2,0,P|378:201|233:90,1,455
85,159,42347,1,0,0:0:0:0:
153,159,42587,1,0,0:0:0:0:
217,161,42827,1,0,0:0:0:0:
281,161,43067,1,0,0:0:0:0:
264,224,43307,1,0,0:0:0:0:
211,261,43547,1,0,0:0:0:0:
160,279,43787,2,0,P|46:239|164:173,1,315
191,208,44987,1,0,0:0:0:0:
262,178,45227,1,0,0:0:0:0:
295,108,45467,1,0,0:0:0:0:
189,60,45827,6,0,P|109:109|126:134,1,140
146,182,46907,1,0,0:0:0:0:
155,175,47027,1,0,0:0:0:0:
209,147,47267,1,0,0:0:0:0:
250,135,47507,2,0,P|291:127|411:246,1,210
186,146,49307,1,0,0:0:0:0:
242,159,49547,1,0,0:0:0:0:
296,167,49787,1,0,0:0:0:0:
345,179,50027,1,0,0:0:0:0:
340,237,51106,1,0,0:0:0:0:
326,249,51226,1,0,0:0:0:0:
260,268,51466,1,0,0:0:0:0:
215,240,51706,1,0,0:0:0:0:
194,193,51946,1,0,0:0:0:0:
194,138,52186,1,0,0:0:0:0:
201,88,52426,1,0,0:0:0:0:
280,169,53146,2,0,P|303:230|307:255,1,70
296,274,53626,2,0,P|178:327|118:293,1,175
145,287,54466,2,0,P|78:262|75:188,1,140
115,158,54946,1,0,0:0:0:0:
164,134,55186,1,0,0:0:0:0:
203,177,55426,1,0,0:0:0:0:
168,230,55666,2,0,L|121:270,4,35
232,210,56506,1,0,0:0:0:0:
279,163,56746,2,0,P|326:104|295:43,1,140
268,105,57706,1,0,0:0:0:0:
216,148,57946,1,0,0:0:0:0:
198,168,58186,2,0,P|147:217|85:132,1,175
96,97,59146,1,0,0:0:0:0:
142,64,59386,1,0,0:0:0:0:
196,86,59626,1,0,0:0:0:0:
214,141,59866,2,0,P|167:226|220:267,1,175
248,215,61306,1,0,0:0:0:0:
302,228,61546,1,0,0:0:0:0:
349,198,61786,1,0,0:0:0:0:
354,137,62026,1,0,0:0:0:0:
339,92,62266,1,0,0:0:0:0:
308,66,62506,2,0,B|171:45|158:124|234:197,1,245
263,131,63466,1,0,0:0:0:0:
323,160,63706,1,0,0:0:0:0:
375,216,63946,1,0,0:0:0:0:
330,278,64186,2,0,P|198:302|194:211,1,245
265,240,65266,5,0,0:0:0:0:
305,186,65626,1,0,0:0:0:0:
322,137,65986,1,0,0:0:0:0:
310,100,66106,1,0,0:0:0:0:
286,69,66226,1,0,0:0:0:0:
247,69,66346,2,0,P|164:117|220:198,1,210
226,124,67306,1,0,0:0:0:0:
272,142,67546,1,0,0:0:0:0:
307,187,67786,2,0,P|300:290|208:207,1,280
256,192,70426,12,0,71626,0:0:0:0:
225,167,73066,5,0,0:0:0:0:
201,204,73306,1,0,0:0:0:0:
156,202,73546,1,0,0:0:0:0:
121,163,73786,2,0,P|106:127|237:94,1,210
192,128,74986,1,0,0:0:0:0:
224,192,75226,1,0,0:0:0:0:
192,256,75466,1,0,0:0:0:0:
128,224,75706,2,0,P|64:192|160:96,1,245
192,160,77386,1,0,0:0:0:0:
256,128,77626,1,0,0:0:0:0:
320,160,77866,1,0,0:0:0:0:
288,224,78106,2,0,P|192:256|160:160,1,210
192,96,79066,1,0,0:0:0:0:
256,96,79306,1,0,0:0:0:0:
288,160,79546,2,0,P|256:224|160:128,1,245
162,127,81346,2,0,P|206:134|284:161,1,105
293,179,81946,1,0,0:0:0:0:
318,228,82186,2,0,P|329:272|189:296,1,210
243,268,83146,1,0,0:0:0:0:
271,196,83386,1,0,0:0:0:0:
307,128,83626,1,0,0:0:0:0:
359,188,84106,1,0,0:0:0:0:
380,261,84346,5,0,0:0:0:0:
317,306,84586,1,0,0:0:0:0:
247,272,84826,1,0,0:0:0:0:
243,195,85066,1,0,0:0:0:0:
302,146,85306,1,0,0:0:0:0:
369,183,85546,1,0,0:0:0:0:
402,252,85786,1,0,0:0:0:0:
335,291,86026,1,0,0:0:0:0:
305,219,86266,1,0,0:0:0:0:
228,225,86506,2,0,P|174:284|173:142,1,350
190,173,88066,2,0,L|230:116,1,70
272,86,88426,2,0,L|353:139,1,70
348,190,88906,2,0,L|288:238,1,70
233,244,89266,2,0,L|160:174,1,70
259,159,89866,5,0,0:0:0:0:
259,159,90106,1,0,0:0:0:0:
316,177,90346,2,0,P|338:265|202:139,1,560
268,170,92506,1,0,0:0:0:0:
245,223,92746,2,0,L|163:284,1,70
160,236,93346,1,0,0:0:0:0:
168,151,93706,1,0,0:0:0:0:
259,193,94066,1,0,0:0:0:0:
339,234,94426,1,0,0:0:0:0:
369,290,94666,1,0,0:0:0:0:
340,305,94906,1,0,0:0:0:0:
292,318,95026,2,0,P|195:340|177:179,1,280
248,239,96346,5,0,0:0:0:0:
277,193,96586,1,0,0:0:0:0:
304,151,96826,1,0,0:0:0:0:
329,107,97066,1,0,0:0:0:0:
362,186,97306,1,0,0:0:0:0:
368,198,97786,1,0,0:0:0:0:
373,220,98266,1,0,0:0:0:0:
373,220,98506,1,0,0:0:0:0:
374,222,98746,2,0,P|417:247|312:286,1,245
250,274,99946,1,0,0:0:0:0:
209,224,100186,2,0,L|225:151,1,70
243,142,100666,1,0,0:0:0:0:
278,126,100906,2,0,L|368:166,1,70
358,188,101265,2,0,L|324:245,1,35
381,106,101625,1,0,0:0:0:0:
337,86,101865,2,0,P|179:77|189:147,1,280
107,139,103665,6,0,L|164:113,1,35
206,141,104025,2,0,L|244:181,1,35
259,204,104385,2,0,L|235:244,1,35
153,193,104745,1,0,0:0:0:0:
139,132,104985,1,0,0:0:0:0:
158,68,105225,1,0,0:0:0:0:
223,62,105465,1,0,0:0:0:0:
276,107,105705,1,0,0:0:0:0:
264,174,105945,1,0,0:0:0:0:
240,221,106065,2,0,P|149:250|71:162,1,210
167,193,107745,2,0,L|210:139,1,70
239,109,108225,2,0,L|279:71,1,35
306,111,108585,2,0,L|294:175,1,35
287,172,108945,2,0,L|254:206,1,35
182,173,109305,5,0,0:0:0:0:
190,111,109545,1,0,0:0:0:0:
198,49,109785,2,0,P|307:57|337:192,1,245
260,176,111105,1,0,0:0:0:0:
222,208,111345,1,0,0:0:0:0:
171,220,111585,2,0,P|45:154|84:127,1,280
138,181,112785,1,0,0:0:0:0:
179,130,113025,2,0,L|222:100,1,35
253,81,113385,2,0,P|319:57|325:55,1,70
363,122,113865,1,0,0:0:0:0:
322,182,114105,1,0,0:0:0:0:
268,183,114345,2,0,P|215:183|183:97,1,140
245,167,115185,5,0,0:0:0:0:
300,150,115425,1,0,0:0:0:0:
363,159,115665,1,0,0:0:0:0:
361,211,115905,1,0,0:0:0:0:
336,230,116145,1,0,0:0:0:0:
326,215,116385,2,0,L|334:174,11,35
360,150,117945,2,0,L|356:89,1,35
323,64,118305,2,0,L|246:45,1,70
275,165,120105,1,0,0:0:0:0:
342,135,120345,1,0,0:0:0:0:
407,173,120585,1,0,0:0:0:0:
342,227,120825,1,0,0:0:0:0:
190,97,124305,1,0,0:0:0:0:
249,118,124545,1,0,0:0:0:0:
277,183,124785,1,0,0:0:0:0:
206,139,125865,1,0,0:0:0:0:
212,142,125985,2,0,P|290:138|235:245,1,245
252,189,127065,5,0,0:0:0:0:
220,259,127305,1,0,0:0:0:0:
146,234,127545,1,0,0:0:0:0:
145,157,127785,1,0,0:0:0:0:
185,91,128025,1,0,0:0:0:0:
257,66,128265,1,0,0:0:0:0:
257,143,128505,1,0,0:0:0:0:
232,216,128745,1,0,0:0:0:0:
157,234,128985,1,0,0:0:0:0:
133,160,129225,1,0,0:0:0:0:
127,83,129465,1,0,0:0:0:0:
202,96,129705,2,0,P|291:148|275:262,1,210
228,180,130665,5,0,0:0:0:0:
275,119,130905,1,0,0:0:0:0:
344,86,131145,1,0,0:0:0:0:
269,104,131385,1,0,0:0:0:0:
346,233,131625,1,0,0:0:0:0:
272,257,131865,1,0,0:0:0:0:
196,242,132105,1,0,0:0:0:0:
165,171,132345,1,0,0:0:0:0:
223,121,132585,2,0,P|306:122|330:240,1,210
249,194,133545,1,0,0:0:0:0:
245,155,133665,1,0,0:0:0:0:
254,117,133785,1,0,0:0:0:0:
307,61,134025,1,0,0:0:0:0:
361,115,134265,1,0,0:0:0:0:
348,190,134505,2,0,P|210:214|185:184,1,175
179,116,135345,1,0,0:0:0:0:
255,117,135585,1,0,0:0:0:0:
272,191,135825,1,0,0:0:0:0:
204,227,136065,1,0,0:0:0:0:
190,132,137385,5,0,0:0:0:0:
266,125,137625,1,0,0:0:0:0:
258,201,137865,1,0,0:0:0:0:
204,256,138105,1,0,0:0:0:0:
265,301,138345,1,0,0:0:0:0:
258,151,139545,1,0,0:0:0:0:
321,194,139785,1,0,0:0:0:0:
294,266,140025,2,0,L|281:304,2,35
230,192,141225,1,0,0:0:0:0:
308,165,141465,1,0,0:0:0:0:
314,257,141945,1,0,0:0:0:0:
238,273,142185,1,0,0:0:0:0:
174,229,142425,1,0,0:0:0:0:
192,154,142665,1,0,0:0:0:0:
250,114,143025,1,0,0:0:0:0:
328,198,143385,5,0,0:0:0:0:
269,248,143625,1,0,0:0:0:0:
192,252,143865,1,0,0:0:0:0:
147,189,144105,1,0,0:0:0:0:
179,119,144345,1,0,0:0:0:0:
245,80,144585,1,0,0:0:0:0:
321,89,144825,1,0,0:0:0:0:
227,184,145425,1,0,0:0:0:0:
222,178,145545,1,0,0:0:0:0:
223,101,145785,1,0,0:0:0:0:
299,104,146025,2,0,P|366:134|353:235,1,175
266,160,146985,5,0,0:0:0:0:
201,117,147225,2,0,L|141:95,2,35
213,193,147705,1,0,0:0:0:0:
255,109,149865,1,0,0:0:0:0:
274,142,149985,2,0,P|314:215|327:237,1,105
271,161,151784,1,0,0:0:0:0:
295,212,152024,2,0,P|279:301|345:259,1,210
379,215,153344,1,0,0:0:0:0:
342,150,153584,1,0,0:0:0:0:
319,89,153704,1,0,0:0:0:0:
257,128,153944,1,0,0:0:0:0:
234,202,154184,1,0,0:0:0:0:
229,106,156584,1,0,0:0:0:0:
242,109,156704,1,0,0:0:0:0:
261,122,156944,2,0,P|356:170|223:195,1,315
127,126,158504,1,0,0:0:0:0:
195,161,158744,1,0,0:0:0:0:
258,116,158984,2,0,P|361:99|412:186,1,210
411,244,159824,1,0,0:0:0:0:
250,126,161384,5,0,0:0:0:0:
281,196,161624,1,0,0:0:0:0:
245,264,161864,1,0,0:0:0:0:
168,252,162104,1,0,0:0:0:0:
128,186,162344,1,0,0:0:0:0:
159,115,162584,1,0,0:0:0:0:
240,151,162824,1,0,0:0:0:0:
245,227,163064,2,0,P|220:304|332:285,1,210
341,239,164024,1,0,0:0:0:0:
385,176,164264,1,0,0:0:0:0:
336,116,164504,1,0,0:0:0:0:
259,123,164744,1,0,0:0:0:0:
259,123,164864,2,0,P|179:160|268:273,1,245
282,214,165944,1,0,0:0:0:0:
297,138,166184,1,0,0:0:0:0:
220,149,166424,1,0,0:0:0:0:
225,225,166664,2,0,P|312:254|358:159,1,210
291,135,169904,1,0,0:0:0:0:
293,139,170024,1,0,0:0:0:0:
313,213,170264,1,0,0:0:0:0:
236,221,170504,1,0,0:0:0:0:
191,157,170744,1,0,0:0:0:0:
213,83,170984,1,0,0:0:0:0:
213,83,171224,2,0,B|284:57|296:107|365:76|367:73|375:65,1,140
193,157,172904,5,0,0:0:0:0:
254,110,173144,1,0,0:0:0:0:
330,115,173384,1,0,0:0:0:0:
333,191,173624,1,0,0:0:0:0:
281,248,173864,1,0,0:0:0:0:
207,224,174104,1,0,0:0:0:0:
188,149,174344,1,0,0:0:0:0:
239,91,174584,1,0,0:0:0:0:
288,149,174824,1,0,0:0:0:0:
331,212,175064,1,0,0:0:0:0:
376,150,175304,1,0,0:0:0:0:
372,73,175544,1,0,0:0:0:0:
297,54,175784,1,0,0:0:0:0:
258,120,176024,2,0,P|255:198|305:245,1,140
356,193,176744,2,0,L|386:140,1,35
390,127,176984,2,0,L|401:86,1,35
389,48,177464,2,0,B|260:33|253:150|101:145,1,280
105,171,178544,1,0,0:0:0:0:
194,243,178904,5,0,0:0:0:0:
219,170,179144,1,0,0:0:0:0:
278,121,179384,2,0,P|439:195|297:272,1,420
240,220,181064,1,0,0:0:0:0:
203,152,181304,1,0,0:0:0:0:
265,107,181544,2,0,P|352:116|377:263,1,245
308,240,182624,1,0,0:0:0:0:
259,180,182864,1,0,0:0:0:0:
323,138,183104,2,0,B|242:39|193:119|87:234,1,280
89,248,184184,1,0,0:0:0:0:
156,284,184424,1,0,0:0:0:0:
227,254,184664,1,0,0:0:0:0:
240,178,184904,1,0,0:0:0:0:
225,102,185144,1,0,0:0:0:0:
171,46,185384,1,0,0:0:0:0:
247,44,185624,5,0,0:0:0:0:
316,76,185864,1,0,0:0:0:0:
324,152,186104,1,0,0:0:0:0:
273,210,186344,1,0,0:0:0:0:
200,237,186584,2,0,P|92:245|184:331,1,280
177,262,187784,1,0,0:0:0:0:
