osu file format v14

[General]
AudioFilename: audio.mp3
AudioLeadIn: 0
PreviewTime: 51453
Countdown: 0
SampleSet: Soft
StackLeniency: 0.7
Mode: 0
LetterboxInBreaks: 0
WidescreenStoryboard: 0

[Editor]
Bookmarks: 12180,23816,32544,38362,51453,61634,77634,79816
DistanceSpacing: 0.9
BeatDivisor: 4
GridSize: 4
TimelineZoom: 1.7

[Metadata]
Title:&burn
TitleUnicode:&burn
Artist:Billie Eilish, Vince Staples
ArtistUnicode:Billie Eilish, Vince Staples
Creator:SrSkyPlayer
Version:Normal
Source:
Tags:
BeatmapID:2007764
BeatmapSetID:958975

[Difficulty]
HPDrainRate:5
CircleSize:4
OverallDifficulty:5
ApproachRate:8
SliderMultiplier:0.999999999999999
SliderTickRate:1

[Events]
//Background and Video events
0,0,"ineedanotherbg.jpg",0,0
//Break Periods
2,51653,60157
//Storyboard Layer 0 (Background)
//Storyboard Layer 1 (Fail)
//Storyboard Layer 2 (Pass)
//Storyboard Layer 3 (Foreground)
//Storyboard Sound Samples

[TimingPoints]
544,363.636363636364,4,2,0,100,1,0
38362,-100,4,2,0,100,0,1
51453,-100,4,2,0,100,0,0
61634,-100,4,2,0,100,0,1
77634,-100,4,2,0,100,0,0

[Colours]
Combo1 : 255,9,9
Combo2 : 255,160,66

[HitObjects]
336,32,12180,6,0,P|392:12|448:24,1,99.9999999999999,2|0,0:0|0:0,0:0:0:0:
396,100,12907,2,0,P|444:109|484:139,1,99.9999999999999,2|0,0:0|0:0,0:0:0:0:
408,192,13634,2,0,P|436:232|442:281,1,99.9999999999999,2|0,0:0|0:0,0:0:0:0:
352,268,14362,2,0,B|297:282|297:282|272:309|272:309|208:328,1,150,2|2,0:0|0:0,0:0:0:0:
176,312,15089,5,2,0:0:0:0:
108,368,15453,1,2,0:0:0:0:
36,316,15816,2,0,L|24:216,1,99.9999999999999,2|2,0:0|0:0,0:0:0:0:
44,128,16544,5,2,0:0:0:0:
112,184,16907,1,2,0:0:0:0:
184,132,17271,2,0,L|196:32,1,99.9999999999999,2|2,0:0|0:0,0:0:0:0:
280,60,17998,6,0,L|380:48,1,99.9999999999999,2|0,0:0|0:0,0:0:0:0:
396,136,18725,2,0,L|496:148,1,99.9999999999999,2|0,0:0|0:0,0:0:0:0:
468,232,19453,2,0,L|368:220,1,99.9999999999999,2|0,0:0|0:0,0:0:0:0:
304,156,20180,2,0,P|256:148|172:208,1,150,2|2,0:0|0:0,0:0:0:0:
156,244,20907,5,2,0:0:0:0:
192,328,21271,1,2,0:0:0:0:
276,296,21634,1,2,0:0:0:0:
240,212,21998,1,2,0:0:0:0:
328,224,22362,5,2,0:0:0:0:
368,144,22725,1,2,0:0:0:0:
320,68,23089,2,0,L|220:56,1,99.9999999999999,2|2,0:0|0:0,0:0:0:0:
152,112,23816,6,0,P|102:108|56:127,1,99.9999999999999,2|0,0:0|0:0,0:0:0:0:
28,160,24362,1,2,0:0:0:0:
28,160,24544,2,0,P|15:207|26:256,1,99.9999999999999,8|0,0:0|1:0,0:0:0:0:
96,312,25271,2,0,L|196:324,1,99.9999999999999,2|0,0:0|0:0,0:0:0:0:
228,356,25816,1,2,0:0:0:0:
228,356,25998,2,0,L|328:344,1,99.9999999999999,2|0,0:0|0:0,0:0:0:0:
412,376,26725,5,0,1:0:0:0:
468,304,27089,1,2,0:0:0:0:
412,236,27453,2,0,L|312:248,1,99.9999999999999,2|0,0:0|0:0,0:0:0:0:
244,188,28180,5,2,0:0:0:0:
292,112,28544,1,2,0:0:0:0:
292,112,28725,1,2,0:0:0:0:
292,112,28907,2,0,P|364:104|423:148,1,150,2|2,0:0|0:0,0:0:0:0:
440,192,29634,6,0,L|428:292,1,99.9999999999999,0|0,1:0|0:0,0:0:0:0:
404,328,30180,1,2,0:0:0:0:
404,328,30362,2,0,P|356:340|307:329,1,99.9999999999999,8|0,0:0|1:0,0:0:0:0:
224,364,31089,2,0,P|175:353|127:365,1,99.9999999999999,2|0,0:0|0:0,0:0:0:0:
88,344,31634,1,2,0:0:0:0:
88,344,31816,2,0,L|80:281,2,50,8|0|0,0:0|0:0|0:0,0:0:0:0:
4,380,32544,6,0,P|52:276|32:180,1,200,0|8,1:0|0:0,0:0:0:0:
20,108,33634,2,0,B|92:128|92:128|128:164|128:164|200:184,1,200,2|0,0:0|1:0,0:0:0:0:
268,124,34725,1,8,0:0:0:0:
356,144,35089,1,2,0:0:0:0:
356,144,35271,1,2,0:0:0:0:
356,144,35453,6,0,P|400:232|360:332,1,200,0|8,1:0|0:0,0:0:0:0:
288,360,36544,2,0,L|128:376,1,150,2|0,0:0|0:0,0:0:0:0:
100,352,37271,1,2,0:0:0:0:
32,296,37634,1,2,0:0:0:0:
88,224,37998,1,2,0:0:0:0:
156,280,38362,5,0,1:0:0:0:
156,280,38544,2,0,L|258:270,1,99.9999999999999,2|2,0:0|0:0,0:0:0:0:
288,240,39089,1,8,0:0:0:0:
360,184,39453,2,0,L|459:193,1,99.9999999999999,0|0,1:0|0:0,0:0:0:0:
496,168,39998,2,0,P|506:118|492:70,1,99.9999999999999,2|2,0:0|0:0,0:0:0:0:
460,40,40544,1,8,0:0:0:0:
376,12,40907,2,0,L|276:2,1,99.9999999999999,0|0,1:0|0:0,0:0:0:0:
240,28,41453,1,2,0:0:0:0:
172,84,41816,5,2,0:0:0:0:
172,84,41998,2,0,L|72:93,1,99.9999999999999,8|0,0:0|1:0,0:0:0:0:
100,180,42725,5,0,1:0:0:0:
100,180,42907,2,0,L|199:170,1,99.9999999999999,2|2,0:0|0:0,0:0:0:0:
236,196,43453,1,8,0:0:0:0:
308,252,43816,2,0,P|320:299|310:348,1,99.9999999999999,0|0,1:0|0:0,0:0:0:0:
272,372,44362,2,0,L|172:381,1,99.9999999999999,2|2,0:0|0:0,0:0:0:0:
136,356,44907,2,0,L|140:296,2,50,8|2|0,0:0|0:0|1:0,0:0:0:0:
48,376,45634,5,0,1:0:0:0:
48,376,45816,2,0,P|37:327|50:279,1,99.9999999999999,2|2,0:0|0:0,0:0:0:0:
40,236,46362,2,0,P|44:200|40:172,1,50,8|2,0:0|0:0,0:0:0:0:
80,160,46725,2,0,L|179:169,1,99.9999999999999,0|0,1:0|0:0,0:0:0:0:
216,144,47271,2,0,L|212:84,2,50,2|2|2,0:0|0:0|0:0,0:0:0:0:
260,156,47816,1,8,0:0:0:0:
336,108,48180,1,2,0:0:0:0:
400,172,48544,5,0,1:0:0:0:
400,172,48725,2,0,P|411:219|400:268,1,99.9999999999999,2|2,0:0|0:0,0:0:0:0:
368,300,49271,1,8,0:0:0:0:
296,352,49634,2,0,P|247:340|199:352,1,99.9999999999999,2|0,0:0|0:0,0:0:0:0:
164,328,50180,2,0,P|115:339|67:328,1,99.9999999999999,2|2,0:0|0:0,0:0:0:0:
35,296,50725,2,0,B|48:241|48:241|37:205|37:205|50:150,1,150,8|2,0:0|0:0,0:0:0:0:
33,108,51453,5,0,0:0:0:0:
88,152,60907,6,0,P|76:199|86:248,1,99.9999999999999,2|2,0:0|0:0,0:0:0:0:
148,316,61634,5,0,1:0:0:0:
148,316,61816,2,0,P|195:326|244:314,1,99.9999999999999,2|2,0:0|0:0,0:0:0:0:
272,278,62362,1,8,0:0:0:0:
343,332,62725,2,0,P|392:337|434:363,1,99.9999999999999,0|0,1:0|0:0,0:0:0:0:
477,350,63271,2,0,L|487:248,1,99.9999999999999,2|2,0:0|0:0,0:0:0:0:
495,206,63816,2,0,P|491:170|495:142,1,50,8|2,0:0|0:0,0:0:0:0:
459,125,64180,1,0,1:0:0:0:
383,75,64544,5,0,1:0:0:0:
383,75,64725,2,0,P|371:123|381:171,1,99.9999999999999,2|2,0:0|0:0,0:0:0:0:
363,213,65271,2,0,P|314:201|266:211,1,99.9999999999999,8|2,0:0|0:0,0:0:0:0:
316,285,65998,5,0,1:0:0:0:
316,285,66180,2,0,P|269:301|234:336,1,99.9999999999999,2|2,0:0|0:0,0:0:0:0:
203,369,66725,1,8,0:0:0:0:
123,325,67089,2,0,P|74:337|26:326,1,99.9999999999999
11,284,67634,2,0,L|1:182,1,99.9999999999999
33,152,68180,2,0,L|41:97,1,50
14,65,68544,1,0,0:0:0:0:
84,9,68907,5,0,0:0:0:0:
84,9,69089,2,0,L|183:18,1,99.9999999999999
216,49,69634,2,0,L|265:41,1,50
294,76,69998,2,0,L|393:85,1,99.9999999999999
436,65,70544,2,0,L|443:15,2,50
476,84,71089,1,0,0:0:0:0:
484,172,71453,1,0,0:0:0:0:
396,176,71816,5,0,0:0:0:0:
396,176,71998,2,0,P|384:224|394:272,1,99.9999999999999
372,312,72544,1,0,0:0:0:0:
296,364,72907,2,0,P|247:352|199:362,1,99.9999999999999
172,328,73453,2,0,P|123:338|75:326,1,99.9999999999999
44,296,73998,1,0,0:0:0:0:
12,212,74362,1,0,0:0:0:0:
68,140,74725,5,0,0:0:0:0:
68,140,74907,2,0,P|116:129|164:141,1,99.9999999999999
208,160,75453,1,0,0:0:0:0:
292,196,75816,2,0,L|282:295,1,99.9999999999999
252,332,76362,2,0,L|192:340,2,50
268,376,76907,6,0,B|196:356|196:356|160:320|160:320|88:300,1,200
24,184,78180,5,0,0:0:0:0:
112,76,78725,6,0,P|176:64|288:240,1,300
