osu file format v14

[General]
AudioFilename: audio.mp3
AudioLeadIn: 0
PreviewTime: 32365
Countdown: 0
SampleSet: Soft
StackLeniency: 0.7
Mode: 0
LetterboxInBreaks: 0
WidescreenStoryboard: 0

[Editor]
Bookmarks: 65908,82179,98450,101501,130993,147433,149298,163535,179806,204213,208281,210908
DistanceSpacing: 1
BeatDivisor: 6
GridSize: 32
TimelineZoom: 2

[Metadata]
Title:wish you were gay
TitleUnicode:wish you were gay
Artist:Billie Eilish
ArtistUnicode:Billie Eilish
Creator:Haruto
Version:feelings
Source:
Tags:pop english o'connell haruto_aizawa blixys cubby imaginative when we all fall asleep where do we go? wwafawdwg? album finneas pride shota on osu
BeatmapID:2351054
BeatmapSetID:1125233

[Difficulty]
HPDrainRate:6
CircleSize:4.1
OverallDifficulty:8.5
ApproachRate:9
SliderMultiplier:1.6
SliderTickRate:1

[Events]
//Background and Video events
0,0,"creepy billie.jpg",0,0
//Break Periods
2,147433,148698
//Storyboard Layer 0 (Background)
//Storyboard Layer 1 (Fail)
//Storyboard Layer 2 (Pass)
//Storyboard Layer 3 (Foreground)
//Storyboard Layer 4 (Overlay)
//Storyboard Sound Samples

[TimingPoints]
798,508.474576271186,4,2,1,40,1,0
798,-181.818181818181,4,2,1,40,0,0
1730,-181.818181818181,4,2,1,10,0,0
1814,-181.818181818181,4,2,2,40,0,0
2153,-181.818181818181,4,2,1,40,0,0
2831,-222.222222222221,4,2,1,40,0,0
3764,-222.222222222221,4,2,1,10,0,0
3848,-222.222222222221,4,2,2,40,0,0
4357,-222.222222222221,4,2,1,40,0,0
4865,-399.999999999997,4,2,1,40,0,0
5797,-399.999999999997,4,2,1,10,0,0
5882,-399.999999999997,4,2,2,40,0,0
6221,-399.999999999997,4,2,1,40,0,0
6899,-222.222222222221,4,2,1,40,0,0
7831,-222.222222222221,4,2,1,10,0,0
7916,-222.222222222221,4,2,2,40,0,0
8255,-222.222222222221,4,2,1,40,0,0
9950,-222.222222222221,4,2,2,40,0,0
10459,-222.222222222221,4,2,1,40,0,0
11984,-222.222222222221,4,2,2,40,0,0
12323,-222.222222222221,4,2,1,40,0,0
13001,-399.999999999997,4,2,1,40,0,0
13933,-399.999999999997,4,2,1,10,0,0
14018,-133.333333333333,4,2,2,40,0,0
15035,-222.222222222221,4,2,2,40,0,0
15967,-222.222222222221,4,2,2,10,0,0
16052,-222.222222222221,4,2,2,40,0,0
16391,-222.222222222221,4,2,1,40,0,0
17069,-133.333333333333,4,2,1,40,0,0
17577,-105.263157894737,4,2,1,40,0,0
18086,-153.846153846153,4,2,2,40,0,0
18425,-153.846153846153,4,2,1,40,0,0
19103,-133.333333333333,4,2,1,40,0,0
19611,-105.263157894736,4,2,1,40,0,0
20120,-153.846153846153,4,2,2,40,0,0
20628,-153.846153846153,4,2,1,40,0,0
21136,-133.333333333333,4,2,1,40,0,0
21645,-117.647058823529,4,2,1,40,0,0
22153,-153.846153846154,4,2,1,40,0,0
22154,-153.846153846154,4,2,2,40,0,0
22492,-153.846153846154,4,2,1,40,0,0
23170,-133.333333333334,4,2,1,40,0,0
23679,-222.222222222223,4,2,1,40,0,0
24187,-222.222222222223,4,2,2,40,0,0
24696,-222.222222222223,4,2,1,40,0,0
25204,-86.9565217391306,4,2,1,40,0,0
25713,-117.647058823529,4,2,1,40,0,0
26221,-153.846153846154,4,2,2,40,0,0
26560,-153.846153846154,4,2,1,40,0,0
27238,-86.9565217391305,4,2,1,40,0,0
27747,-117.647058823529,4,2,1,40,0,0
28255,-117.647058823529,4,2,2,40,0,0
28764,-117.647058823529,4,2,1,40,0,0
29272,-79.9999999999998,4,2,1,40,0,0
29781,-117.647058823529,4,2,1,40,0,0
30289,-117.647058823529,4,2,2,40,0,0
31306,-285.714285714283,4,2,2,40,0,0
32323,-399.999999999995,4,2,2,40,0,0
33255,-399.999999999995,4,2,2,10,0,0
33366,508.474576271186,4,2,1,65,1,0
33366,-58.8235294117647,4,2,1,65,0,0
33789,-58.8235294117647,4,2,1,15,0,0
33874,-125,4,2,2,65,0,0
34382,-200,4,2,2,65,0,0
35399,-83.3333333333333,4,2,1,65,0,0
35823,-83.3333333333333,4,2,1,15,0,0
35908,-111.111111111111,4,2,3,65,0,0
36416,-50,4,2,3,65,0,0
36925,-133.333333333333,4,2,3,65,0,0
37433,-66.6666666666667,4,2,1,65,0,0
37942,-66.6666666666667,4,2,2,65,0,0
38959,-100,4,2,2,65,0,0
39467,-58.8235294117647,4,2,1,65,0,0
40145,-58.8235294117647,4,2,2,65,0,0
40484,-58.8235294117647,4,2,1,65,0,0
40654,-58.8235294117647,4,2,2,65,0,0
40993,-58.8235294117647,4,2,1,65,0,0
41162,-58.8235294117647,4,2,2,65,0,0
41501,-55.5555555555556,4,2,1,65,0,0
42010,-100,4,2,2,65,0,0
42518,-200,4,2,2,65,0,0
43535,-66.6666666666667,4,2,1,65,0,0
44043,-125,4,2,3,65,0,0
44552,-50,4,2,3,65,0,0
45569,-100,4,2,1,65,0,0
46077,-100,4,2,3,65,0,0
46925,-100,4,2,4,65,0,0
47094,-100,4,2,2,65,0,0
47603,-66.6666666666667,4,2,1,65,0,0
48111,-62.5,4,2,1,65,0,0
48281,-62.5,4,2,2,65,0,0
48620,-55.5555555555556,4,2,1,65,0,0
48789,-55.5555555555556,4,2,2,65,0,0
49128,-50,4,2,1,65,0,0
49298,-50,4,2,2,65,0,0
49637,-100,4,2,1,65,0,0
50145,-83.3333333333333,4,2,3,65,0,0
50654,-66.6666666666667,4,2,3,65,0,0
51671,-58.8235294117647,4,2,1,65,0,0
52094,-58.8235294117647,4,2,1,15,0,0
52179,-125,4,2,2,65,0,0
52518,-100,4,2,1,65,0,0
52688,-55.5555555555556,4,2,3,65,0,0
53027,-71.4285714285714,4,2,1,65,0,0
53196,-71.4285714285714,4,2,2,65,0,0
53535,-71.4285714285714,4,2,1,65,0,0
53704,-62.5,4,2,1,65,0,0
54213,-62.5,4,2,3,65,0,0
55060,-74.0740740740741,4,2,4,65,0,0
55230,-74.0740740740741,4,2,2,65,0,0
55738,-100,4,2,1,65,0,0
56416,-100,4,2,2,65,0,0
56755,-100,4,2,1,65,0,0
56925,-100,4,2,2,65,0,0
57264,-100,4,2,1,65,0,0
57433,-100,4,2,2,65,0,0
57772,-62.5,4,2,1,65,0,0
58281,-66.6666666666667,4,2,2,65,0,0
58789,-50,4,2,3,65,0,0
58959,-62.5,4,2,2,65,0,0
59806,-58.8235294117647,4,2,1,65,0,0
60315,-100,4,2,3,65,0,0
60823,-66.6666666666667,4,2,3,65,0,0
61247,-100,4,2,3,15,0,0
61332,-76.9230769230769,4,2,3,65,0,0
61840,-66.6666666666667,4,2,1,65,0,0
62264,-100,4,2,1,15,0,0
62349,-100,4,2,3,65,0,0
63196,-100,4,2,4,65,0,0
63365,-100,4,2,2,65,0,0
63874,-100,4,2,1,65,0,0
64891,-200,4,2,1,65,0,0
65399,-200,4,2,1,20,0,0
65908,-200,4,2,2,45,0,0
66247,-200,4,2,1,45,0,0
66840,-200,4,2,1,45,0,0
66925,-100,4,2,1,45,0,0
67094,-100,4,2,1,20,0,0
67942,-80,4,2,2,45,0,0
68450,-166.666666666667,4,2,2,45,0,0
68874,-166.666666666667,4,2,2,15,0,0
68959,-100,4,2,1,45,0,0
69128,-100,4,2,1,20,0,0
69976,-100,4,2,2,45,0,0
70399,-100,4,2,2,15,0,0
70484,-125,4,2,1,45,0,0
70908,-125,4,2,1,15,0,0
70993,-100,4,2,1,45,0,0
71332,-100,4,2,1,45,0,0
71586,-100,4,2,1,45,0,0
72010,-76.9230769230769,4,2,2,45,0,0
72518,-76.9230769230769,4,2,2,45,0,0
72942,-76.9230769230769,4,2,2,15,0,0
73027,-133.333333333333,4,2,1,45,0,0
73365,-100,4,2,1,20,0,0
73535,-100,4,2,1,45,0,0
74043,-100,4,2,2,45,0,0
74552,-125,4,2,1,45,0,0
74976,-125,4,2,1,15,0,0
75060,-133.333333333333,4,2,1,45,0,0
75399,-100,4,2,1,45,0,0
75908,-83.3333333333333,4,2,1,45,0,0
76077,-83.3333333333333,4,2,2,45,0,0
76586,-153.846153846153,4,2,2,45,0,0
76924,-153.846153846153,4,2,1,45,0,0
77094,-66.6666666666667,4,2,1,45,0,0
78111,-83.3333333333333,4,2,2,45,0,0
78451,-83.3333333333333,4,2,1,45,0,0
78620,-125,4,2,1,45,0,0
80145,-80,4,2,2,45,0,0
80569,-80,4,2,2,15,0,0
80654,-133.333333333333,4,2,1,45,0,0
81162,-66.6666666666667,4,2,1,45,0,0
81586,-66.6666666666667,4,2,1,15,0,0
81671,-83.3333333333333,4,2,1,45,0,0
82179,-133.333333333333,4,2,2,45,0,0
82518,-133.333333333333,4,2,1,45,0,0
83196,-62.5,4,2,1,45,0,0
83450,-62.5,4,2,1,10,0,0
83535,-62.5,4,2,1,40,0,0
84213,-100,4,2,2,45,0,0
84721,-83.3333333333333,4,2,2,45,0,0
84722,-83.3333333333333,4,2,1,45,0,0
85230,-62.5,4,2,1,45,0,0
85484,-62.5,4,2,1,15,0,0
85569,-62.5,4,2,1,45,0,0
86247,-133.333333333333,4,2,2,45,0,0
86586,-133.333333333333,4,2,1,45,0,0
87264,-62.5,4,2,1,45,0,0
87518,-62.5,4,2,1,15,0,0
87603,-62.5,4,2,1,45,0,0
88281,-83.3333333333333,4,2,2,45,0,0
88789,-133.333333333333,4,2,2,45,0,0
89298,-62.5,4,2,1,45,0,0
89552,-62.5,4,2,1,15,0,0
89637,-62.5,4,2,1,45,0,0
90315,-166.666666666667,4,2,2,45,0,0
90823,-166.666666666667,4,2,1,45,0,0
91332,-62.5,4,2,1,45,0,0
91586,-62.5,4,2,1,15,0,0
91671,-62.5,4,2,1,45,0,0
92349,-71.4285714285714,4,2,2,45,0,0
92857,-133.333333333333,4,2,1,45,0,0
93365,-62.5,4,2,1,45,0,0
93620,-62.5,4,2,1,15,0,0
93704,-62.5,4,2,1,45,0,0
94382,-71.4285714285714,4,2,2,45,0,0
94891,-125,4,2,2,45,0,0
95399,-95.2380952380952,4,2,1,45,0,0
95654,-95.2380952380952,4,2,1,15,0,0
95738,-95.2380952380952,4,2,1,45,0,0
96416,-181.818181818182,4,2,2,45,0,0
97349,-181.818181818182,4,2,2,15,0,0
97433,-100,4,2,1,45,0,0
97603,-100,4,2,1,15,0,0
98450,-100,4,2,3,45,0,0
100993,-66.6666666666667,4,2,3,45,0,0
101077,-66.6666666666667,4,2,3,45,0,0
101162,-66.6666666666667,4,2,3,45,0,0
101247,-66.6666666666667,4,2,3,45,0,0
101332,-66.6666666666667,4,2,3,45,0,0
101501,-35.7142857142857,4,2,3,45,0,0
101840,-33.3333333333333,4,2,3,25,0,0
102010,-100,4,2,3,45,0,0
102518,-55.5555555555556,4,2,1,65,0,0
102942,-55.5555555555556,4,2,1,15,0,0
103027,-166.666666666667,4,2,2,65,0,0
103535,-80,4,2,1,65,0,0
103790,-95.2380952380952,4,2,2,15,0,0
103874,-95.2380952380952,4,2,2,65,0,0
104552,-62.5,4,2,1,65,0,0
105230,-62.5,4,2,2,65,0,0
105569,-62.5,4,2,1,65,0,0
105738,-62.5,4,2,2,65,0,0
106077,-62.5,4,2,1,65,0,0
106247,-62.5,4,2,2,65,0,0
106586,-58.8235294117647,4,2,1,65,0,0
107010,-58.8235294117647,4,2,1,15,0,0
107094,-125,4,2,2,65,0,0
107433,-125,4,2,2,15,0,0
107603,-66.6666666666667,4,2,1,65,0,0
108027,-66.6666666666667,4,2,2,15,0,0
108111,-66.6666666666667,4,2,2,65,0,0
108620,-55.5555555555556,4,2,1,65,0,0
109128,-142.857142857143,4,2,3,65,0,0
109552,-142.857142857143,4,2,3,15,0,0
109637,-66.6666666666667,4,2,3,65,0,0
110654,-58.8235294117647,4,2,1,65,0,0
111162,-58.8235294117647,4,2,3,65,0,0
112010,-58.8235294117647,4,2,4,65,0,0
112179,-58.8235294117647,4,2,2,65,0,0
112433,-58.8235294117647,4,2,1,65,0,0
112518,-58.8235294117647,4,2,2,65,0,0
112688,-62.5,4,2,1,65,0,0
113365,-62.5,4,2,2,65,0,0
113704,-62.5,4,2,1,65,0,0
113874,-62.5,4,2,2,65,0,0
114213,-62.5,4,2,1,65,0,0
114382,-62.5,4,2,2,65,0,0
114721,-50,4,2,1,65,0,0
115230,-62.5,4,2,3,65,0,0
115738,-133.333333333333,4,2,3,65,0,0
116162,-133.333333333333,4,2,3,15,0,0
116247,-133.333333333333,4,2,3,65,0,0
116755,-52.6315789473684,4,2,1,65,0,0
117264,-62.5,4,2,2,65,0,0
117603,-62.5,4,2,1,65,0,0
117772,-55.5555555555556,4,2,3,65,0,0
118027,-55.5555555555556,4,2,3,15,0,0
118111,-55.5555555555556,4,2,1,65,0,0
118281,-55.5555555555556,4,2,2,65,0,0
118620,-55.5555555555556,4,2,1,65,0,0
118789,-66.6666666666667,4,2,1,65,0,0
119298,-66.6666666666667,4,2,3,65,0,0
120145,-66.6666666666667,4,2,4,65,0,0
120315,-66.6666666666667,4,2,2,65,0,0
120823,-55.5555555555556,4,2,1,65,0,0
121501,-55.5555555555556,4,2,2,65,0,0
121840,-55.5555555555556,4,2,1,65,0,0
122010,-55.5555555555556,4,2,2,65,0,0
122349,-55.5555555555556,4,2,1,65,0,0
122518,-55.5555555555556,4,2,2,65,0,0
122857,-62.5,4,2,1,65,0,0
123365,-125,4,2,3,65,0,0
123874,-66.6666666666667,4,2,3,65,0,0
124891,-66.6666666666667,4,2,1,65,0,0
125399,-71.4285714285714,4,2,3,65,0,0
125908,-76.9230769230769,4,2,3,65,0,0
126332,-76.9230769230769,4,2,3,15,0,0
126416,-133.333333333333,4,2,3,65,0,0
126925,-66.6666666666667,4,2,1,65,0,0
127433,-66.6666666666667,4,2,3,65,0,0
128281,-66.6666666666667,4,2,4,65,0,0
128450,-66.6666666666667,4,2,2,65,0,0
128959,-166.666666666667,4,2,1,65,0,0
129891,-166.666666666667,4,2,1,15,0,0
129976,-125,4,2,1,65,0,0
130315,-125,4,2,1,25,0,0
130484,-166.666666666667,4,2,1,65,0,0
130993,-125,4,2,1,55,0,0
131501,-125,4,2,2,55,0,0
132857,-125,4,2,1,55,0,0
133535,-156.25,4,2,2,55,0,0
133874,-156.25,4,2,1,55,0,0
133959,-156.25,4,2,1,15,0,0
134043,-156.25,4,2,2,55,0,0
134891,-156.25,4,2,1,55,0,0
135060,-125,4,2,1,55,0,0
135569,-125,4,2,2,55,0,0
135908,-125,4,2,1,55,0,0
136077,-125,4,2,2,55,0,0
137094,-125,4,2,1,55,0,0
137772,-125,4,2,2,55,0,0
138111,-100,4,2,4,55,0,0
138281,-100,4,2,2,55,0,0
138620,-76.9230769230769,4,2,1,55,0,0
138789,-76.9230769230769,4,2,2,55,0,0
139128,-125,4,2,1,55,0,0
139637,-125,4,2,2,55,0,0
141162,-71.4285714285714,4,2,1,55,0,0
141671,-71.4285714285714,4,2,2,55,0,0
142010,-71.4285714285714,4,2,1,55,0,0
142179,-71.4285714285714,4,2,2,55,0,0
142518,-71.4285714285714,4,2,1,55,0,0
142688,-71.4285714285714,4,2,2,55,0,0
143027,-71.4285714285714,4,2,1,55,0,0
143196,-62.5,4,2,1,55,0,0
143704,-62.5,4,2,2,55,0,0
144552,-62.5,4,2,4,55,0,0
144721,-62.5,4,2,2,55,0,0
145230,-55.5555555555556,4,2,1,55,0,0
145738,-62.5,4,2,1,55,0,0
145908,-62.5,4,2,2,55,0,0
146247,-62.5,4,2,4,55,0,0
146416,-62.5,4,2,2,55,0,0
146755,-62.5,4,2,1,55,0,0
146925,-62.5,4,2,2,55,0,0
147264,-62.5,4,2,1,55,0,0
149806,-71.4285714285714,4,2,1,55,0,0
150230,-71.4285714285714,4,2,1,15,0,0
150315,-200,4,2,3,55,0,0
151162,-200,4,2,1,55,0,0
151332,-62.5,4,2,1,55,0,0
151840,-62.5,4,2,3,55,0,0
152688,-62.5,4,2,4,55,0,0
152857,-62.5,4,2,2,55,0,0
153196,-62.5,4,2,4,55,0,0
153365,-62.5,4,2,4,55,0,0
154043,-62.5,4,2,2,55,0,0
154382,-62.5,4,2,1,55,0,0
154552,-62.5,4,2,2,55,0,0
154891,-62.5,4,2,1,55,0,0
155060,-62.5,4,2,2,55,0,0
155399,-62.5,4,2,1,55,0,0
155908,-76.9230769230769,4,2,2,55,0,0
156247,-76.9230769230769,4,2,1,55,0,0
156332,-76.9230769230769,4,2,1,15,0,0
156416,-100,4,2,3,55,0,0
156925,-100,4,2,2,55,0,0
157433,-55.5555555555556,4,2,1,55,0,0
157942,-71.4285714285714,4,2,3,55,0,0
158450,-62.5,4,2,3,55,0,0
159467,-55.5555555555556,4,2,1,55,0,0
159976,-55.5555555555556,4,2,2,55,0,0
160315,-55.5555555555556,4,2,1,55,0,0
160484,-100,4,2,3,55,0,0
160823,-100,4,2,1,55,0,0
160993,-100,4,2,2,55,0,0
161332,-100,4,2,1,55,0,0
161501,-62.5,4,2,1,55,0,0
163535,493.827160493827,4,2,1,30,1,0
163535,-400,4,2,1,30,0,0
165510,512.820512820513,4,2,1,30,1,0
165510,-400,4,2,1,30,0,0
167561,-500,4,2,1,30,0,0
169612,-500,4,2,1,5,0,0
171151,-500,4,2,1,30,0,0
171663,500,4,2,1,30,1,0
171663,-399.999999999997,4,2,1,30,0,0
173663,508.474576271186,4,2,1,30,1,0
173663,-399.999999999997,4,2,1,30,0,0
175696,-666.666666666667,4,2,1,30,0,0
178747,-666.666666666667,4,2,1,10,0,0
178832,-50,4,2,1,30,0,0
179679,-50,4,2,1,20,0,0
179806,508.474576271186,4,2,1,65,1,0
179806,-62.5,4,2,1,65,0,0
180314,-62.5,4,2,3,65,0,0
180822,-166.666666666667,4,2,3,65,0,0
181246,-166.666666666667,4,2,3,15,0,0
181331,-125,4,2,3,65,0,0
181839,-62.5,4,2,1,65,0,0
182348,-83.3333333333333,4,2,3,65,0,0
182856,-62.5,4,2,3,65,0,0
183873,-58.8235294117647,4,2,1,65,0,0
184382,-58.8235294117647,4,2,3,65,0,0
185229,-62.5,4,2,4,65,0,0
185399,-62.5,4,2,2,65,0,0
185738,-62.5,4,2,4,65,0,0
185907,-58.8235294117647,4,2,4,65,0,0
186585,-58.8235294117647,4,2,2,65,0,0
186924,-58.8235294117647,4,2,1,65,0,0
187094,-58.8235294117647,4,2,2,65,0,0
187433,-58.8235294117647,4,2,1,65,0,0
187602,-58.8235294117647,4,2,2,65,0,0
187941,-55.5555555555556,4,2,1,65,0,0
188450,-83.3333333333333,4,2,3,65,0,0
188958,-62.5,4,2,3,65,0,0
189467,-58.8235294117647,4,2,3,65,0,0
189975,-62.5,4,2,1,65,0,0
190483,-71.4285714285714,4,2,3,65,0,0
190992,-58.8235294117647,4,2,3,65,0,0
192009,-55.5555555555556,4,2,1,65,0,0
192517,-55.5555555555556,4,2,3,65,0,0
193365,-55.5555555555556,4,2,4,65,0,0
193534,-55.5555555555556,4,2,2,65,0,0
194043,-58.8235294117647,4,2,1,65,0,0
194721,-58.8235294117647,4,2,2,65,0,0
195060,-58.8235294117647,4,2,1,65,0,0
195229,-58.8235294117647,4,2,2,65,0,0
195568,-58.8235294117647,4,2,1,65,0,0
195738,-58.8235294117647,4,2,2,65,0,0
196077,-58.8235294117647,4,2,1,65,0,0
196585,-58.8235294117647,4,2,3,65,0,0
197094,-125,4,2,3,65,0,0
198111,-62.5,4,2,1,65,0,0
198619,-76.9230769230769,4,2,3,65,0,0
199128,-62.5,4,2,3,65,0,0
200144,-62.5,4,2,1,65,0,0
200653,-62.5,4,2,3,65,0,0
201500,-62.5,4,2,4,65,0,0
201670,-62.5,4,2,2,65,0,0
202178,-58.8235294117647,4,2,1,65,0,0
202856,-58.8235294117647,4,2,2,65,0,0
203195,-58.8235294117647,4,2,1,65,0,0
203365,-58.8235294117647,4,2,2,65,0,0
203704,-58.8235294117647,4,2,1,65,0,0
203873,-58.8235294117647,4,2,2,65,0,0
204212,504.201680672269,4,2,1,40,1,0
204212,-333.333333333333,4,2,1,40,0,0
205136,-333.333333333333,4,2,1,10,0,0
205220,491.803278688525,4,2,1,40,1,0
205220,-333.333333333333,4,2,1,40,0,0
206203,512.820512820513,4,2,1,40,1,0
206203,-333.333333333333,4,2,1,40,0,0
207143,-333.333333333333,4,2,1,15,0,0
207228,-333.333333333333,4,2,1,40,0,0
208254,-500,4,2,1,40,0,0
210818,-500,4,2,1,40,0,0
210903,-500,4,2,1,40,0,0
220134,-58.8235294117647,4,2,1,10,0,0

[Colours]
Combo1 : 193,200,200
Combo2 : 140,140,140
Combo3 : 199,126,46
Combo4 : 202,159,132

[HitObjects]
159,223,798,6,0,B|156:132|209:161|203:70,1,161.333338256836,2|0,2:2|0:0,0:0:0:0:
203,61,1814,1,0,2:2:0:0:
97,284,2831,6,0,P|125:341|179:307,1,131.99999597168,0|0,0:0|0:0,0:0:0:0:
180,306,3848,1,2,2:2:0:0:
451,31,4865,6,0,L|442:107,1,73.3333333333333,2|0,2:2|0:0,0:0:0:0:
442,115,5882,1,0,2:2:0:0:
400,326,6899,6,0,L|383:188,1,131.99999597168,0|0,0:0|0:0,0:0:0:0:
383,183,7916,1,0,2:2:0:0:
114,83,8933,6,0,P|88:64|42:64,1,71.9999978027344,2|2,2:2|2:2,0:0:0:0:
243,249,9950,1,0,2:2:0:0:
243,249,10967,6,0,P|262:223|262:177,1,71.9999978027344,2|2,2:2|2:2,0:0:0:0:
38,354,11984,1,2,2:2:0:0:
38,354,13001,6,0,P|63:372|108:372,1,73.3333333333333,0|0,0:0|0:0,0:0:0:0:
116,368,14018,6,0,B|121:319|121:319|123:321|123:321|140:168,1,200.000007629395,0|0,2:2|0:0,0:0:0:0:
286,24,15035,6,0,P|344:28|376:89,1,131.99999597168,0|0,0:0|0:0,0:0:0:0:
375,99,16052,1,0,2:2:0:0:
116,368,17069,6,0,L|125:288,1,80.0000030517579,2|0,2:2|0:0,0:0:0:0:
88,211,17577,6,0,P|30:215|-3:274,1,101.333330627441,2|0,2:2|0:0,0:0:0:0:
172,212,18086,2,0,P|210:168|193:102,1,103.999995239258,2|0,2:2|0:0,0:0:0:0:
409,61,19103,6,0,L|418:140,1,80.0000030517579,0|0,0:0|0:0,0:0:0:0:
381,217,19611,6,0,P|331:218|295:183,1,101.333330627441,2|0,2:2|0:0,0:0:0:0:
465,217,20120,2,0,P|503:260|486:327,1,103.999995239258,2|2,2:2|2:2,0:0:0:0:
171,150,21136,6,0,P|204:119|244:120,1,80.0000030517579,2|2,2:2|2:2,0:0:0:0:
321,98,21645,2,0,P|315:53|282:24,1,90.6666683959961,0|2,0:0|2:2,0:0:0:0:
111,57,22153,2,0,P|83:93|86:153,1,103.999995239258,0|0,2:2|0:0,0:0:0:0:
286,263,23170,6,0,L|295:184,1,80.0000030517579,0|0,0:0|0:0,0:0:0:0:
367,255,23679,2,0,L|373:196,1,47.9999985351563,0|0,0:0|0:0,0:0:0:0:
448,240,24187,5,0,2:2:0:0:
238,335,25204,6,0,B|182:328|182:328|168:331|168:331|116:324,1,122.666669006348,2|0,2:2|0:0,0:0:0:0:
42,280,25713,2,0,P|44:231|94:194,1,90.6666683959961,2|2,2:2|2:2,0:0:0:0:
222,191,26221,6,0,P|267:214|285:262,1,103.999995239258,0|2,2:2|2:2,0:0:0:0:
416,373,27238,6,0,B|500:362|500:362|474:356|463:348,1,122.666669006348,0|0,0:0|0:0,0:0:0:0:
429,269,27747,2,0,P|430:239|480:197,1,90.6666683959961,2|0,2:2|0:0,0:0:0:0:
512,276,28255,5,2,2:2:0:0:
207,59,29272,6,0,L|223:205,1,133.333333333333,0|0,0:0|0:0,0:0:0:0:
295,235,29781,2,0,P|326:208|327:158,1,90.6666683959961,0|0,0:0|0:0,0:0:0:0:
126,5,30289,5,0,2:2:0:0:
133,12,31136,1,0,0:0:0:0:
133,12,31221,1,0,0:0:0:0:
133,12,31306,2,0,P|102:39|102:91,1,93.3333304850261,0|0,0:0|0:0,0:0:0:0:
207,59,32323,6,0,L|280:51,1,73.3333333333333,0|0,2:2|0:0,0:0:0:0:
91,353,33366,6,0,B|167:300|148:179|46:215|57:270,1,226.66667098999,2|0,3:2|0:0,0:0:0:0:
204,348,33874,2,0,P|249:353|291:360,1,85.3333333333333,2|0,2:2|0:0,0:0:0:0:
299,274,34382,2,0,P|255:269|215:262,1,80,10|2,2:2|2:2,0:0:0:0:
19,159,35399,6,0,P|40:101|138:110,1,159.999995117188,2|0,3:2|0:0,0:0:0:0:
207,59,35908,2,0,P|242:104|297:101,1,95.9999970703126,2|0,2:2|0:0,0:0:0:0:
376,5,36416,6,0,B|364:95|364:95|368:117|368:117|355:220,1,213.333333333333,10|0,2:2|0:0,0:0:0:0:
448,81,36925,2,0,L|459:160,1,80,2|0,2:2|0:0,0:0:0:0:
379,308,37433,6,0,P|304:315|270:248,1,159.999995117188,2|0,3:2|0:0,0:0:0:0:
198,318,37942,2,0,P|152:333|127:367,2,80.0000030517579,0|0|0,2:2|0:0|0:0,0:0:0:0:
421,384,38450,5,8,2:2:0:0:
180,225,38789,1,0,0:0:0:0:
180,225,38959,2,0,L|171:164,2,53.3333333333333,0|0|0,2:2|2:2|2:2,0:0:0:0:
250,73,39467,6,0,B|154:48|173:118|75:98,1,181.333336791992,0|0,3:3|0:0,0:0:0:0:
263,164,39976,5,0,3:3:0:0:
471,54,40145,1,0,2:2:0:0:
312,5,40315,1,0,2:2:0:0:
422,213,40484,1,8,3:2:0:0:
354,80,40654,5,0,2:2:0:0:
354,153,40823,1,0,2:2:0:0:
398,93,40993,1,2,3:2:0:0:
326,115,41162,1,0,2:2:0:0:
398,139,41332,1,0,2:2:0:0:
242,301,41501,6,0,B|262:163|262:163|246:194|224:205,1,191.999994140625,2|0,3:2|0:0,0:0:0:0:
101,75,42010,2,0,P|134:117|201:116,1,106.666666666667,2|0,2:2|0:0,0:0:0:0:
280,1,42518,2,0,P|252:29|214:38,1,80,10|2,2:2|2:2,0:0:0:0:
242,301,43365,5,0,0:0:0:0:
242,301,43450,1,0,0:0:0:0:
242,301,43535,2,0,B|314:291|314:291|318:294|318:294|401:282,1,160.000006103516,2|0,3:2|0:0,0:0:0:0:
349,129,44043,2,0,P|325:163|332:204,1,85.3333333333333,2|0,2:2|0:0,0:0:0:0:
486,247,44552,2,0,P|514:151|434:92,1,213.333333333333,10|0,2:2|0:0,0:0:0:0:
347,316,45060,5,2,2:2:0:0:
347,316,45569,2,0,L|241:300,1,106.666666666667,2|0,3:2|0:0,0:0:0:0:
58,188,46077,5,0,2:2:0:0:
32,355,46247,1,0,2:2:0:0:
199,381,46416,1,0,2:2:0:0:
225,214,46586,1,8,2:2:0:0:
98,308,46925,5,8,2:2:0:0:
160,262,47095,1,2,2:2:0:0:
107,255,47264,1,0,2:2:0:0:
151,315,47434,1,8,2:2:0:0:
349,167,47603,6,0,P|306:150|224:236,1,160.000006103516,0|0,3:3|0:0,0:0:0:0:
120,68,48111,2,0,P|172:79|198:119,2,85.3333333333333,0|0|0,3:3|2:2|2:2,0:0:0:0:
312,339,48620,2,0,P|295:288|318:242,2,95.9999970703126,8|0|0,3:2|2:2|2:2,0:0:0:0:
454,10,49128,2,0,P|428:55|379:73,2,106.666666666667,0|0|0,3:3|2:2|2:2,0:0:0:0:
224,213,49637,6,0,B|175:206|175:206|173:208|173:208|118:200,1,106.666666666667,2|0,3:2|0:0,0:0:0:0:
52,307,50145,2,0,B|110:298|110:298|112:301|112:301|178:291,1,127.99999609375,2|0,0:2|0:0,0:0:0:0:
169,117,50654,2,0,P|59:110|29:217,1,240.000009155274,8|2,0:0|0:0,0:0:0:0:
334,365,51671,6,0,B|310:205|310:205|329:241|354:254,1,226.66667098999,2|0,3:2|0:0,0:0:0:0:
462,135,52179,2,0,P|434:167|393:175,1,85.3333333333333,2|2,2:2|2:2,0:0:0:0:
267,58,52688,6,0,P|285:102|327:122,1,95.9999970703126,10|0,2:2|0:0,0:0:0:0:
504,225,53027,1,2,2:2:0:0:
504,225,53196,2,0,P|479:252|443:262,2,74.6666643880209,2|0|2,2:2|0:0|2:2,0:0:0:0:
246,378,53704,6,0,L|218:193,1,170.666666666667,2|2,3:2|2:2,0:0:0:0:
272,0,54213,5,2,2:2:0:0:
105,26,54383,1,0,0:0:0:0:
131,193,54552,1,0,0:0:0:0:
298,167,54722,1,8,2:2:0:0:
195,60,55060,6,0,L|207:134,1,72.0000002746582,8|2,2:2|2:2,0:0:0:0:
370,384,55569,5,10,2:2:0:0:
384,306,55738,2,0,L|402:195,1,106.666666666667,0|0,3:3|0:0,0:0:0:0:
295,273,56247,5,0,3:3:0:0:
477,301,56416,1,0,2:2:0:0:
508,116,56586,1,0,2:2:0:0:
323,88,56755,1,8,3:2:0:0:
389,262,56925,5,0,2:2:0:0:
444,159,57094,1,0,2:2:0:0:
340,210,57264,1,0,3:3:0:0:
454,231,57433,1,0,2:2:0:0:
373,145,57603,1,0,2:2:0:0:
233,340,57772,6,0,B|143:318|163:382|69:365,1,170.666666666667,2|0,3:2|0:0,0:0:0:0:
204,130,58281,2,0,B|186:241|186:241|200:216|217:207,1,160.000006103516,2|0,2:2|0:0,0:0:0:0:
81,164,58789,6,0,L|99:270,1,106.666666666667,10|0,2:2|0:0,0:0:0:0:
297,85,59128,1,0,0:0:0:0:
297,85,59298,2,0,L|315:-26,2,85.3333333333333,2|0|0,2:2|0:0|0:0,0:0:0:0:
360,377,59806,6,0,B|363:273|429:327|439:217,1,181.333336791992,2|0,3:2|0:0,0:0:0:0:
456,371,60315,2,0,P|495:355|506:278,1,106.666666666667,2|0,2:2|0:0,0:0:0:0:
428,84,60823,2,0,P|342:123|345:217,1,200.000007629395,10|0,2:2|0:0,0:0:0:0:
350,225,61332,2,0,B|281:215|281:215|277:217|277:217|214:208,1,138.666660319011,2|0,2:2|0:0,0:0:0:0:
8,55,61840,6,0,B|63:53|100:88|100:88|117:39|170:20,1,200.000007629395,0|0,3:3|0:0,0:0:0:0:
187,109,62349,5,0,2:2:0:0:
325,311,62518,1,0,2:2:0:0:
357,141,62688,1,0,2:2:0:0:
155,279,62857,1,8,2:2:0:0:
292,187,63196,5,8,2:2:0:0:
233,176,63365,1,0,2:2:0:0:
222,234,63535,1,0,2:2:0:0:
281,245,63704,1,8,2:2:0:0:
148,31,63874,5,0,3:3:0:0:
384,380,64891,2,0,P|404:357|408:299,1,80,8|0,2:2|2:2,0:0:0:0:
153,111,65908,6,0,B|85:94|79:142|11:129,1,146.666666666667,2|0,3:2|0:0,0:0:0:0:
11,129,66925,2,0,L|22:201,1,53.3333333333333,8|0,2:2|0:0,0:0:0:0:
283,361,67942,6,0,P|339:369|372:293,1,133.333333333333,0|0,3:3|0:0,0:0:0:0:
323,242,68450,2,0,L|239:255,1,80
243,254,68959,2,0,L|178:264,1,53.3333333333333,8|0,2:2|0:0,0:0:0:0:
139,25,69976,6,0,P|201:20|232:75,1,133.333333333333,2|0,3:2|0:0,0:0:0:0:
312,114,70484,2,0,P|362:105|386:59,1,106.666666666667,2|0,2:2|0:0,0:0:0:0:
386,59,70993,2,0,L|507:77,1,106.666666666667,10|0,2:2|0:0,0:0:0:0:
238,165,71501,1,2,0:0:0:0:
11,259,71840,5,2,2:2:0:0:
11,259,72010,6,0,P|74:260|92:188,1,138.666660319011,0|0,3:3|0:0,0:0:0:0:
126,110,72518,2,0,P|204:91|237:164,1,173.333325398763,0|0,3:3|0:0,0:0:0:0:
237,164,73027,2,0,L|221:261,1,80.0000030517579,8|0,2:2|0:0,0:0:0:0:
265,0,73535,5,2,2:2:0:0:
207,330,73874,1,2,2:2:0:0:
207,330,74043,6,0,B|256:337|256:337|258:335|258:335|313:343,1,106.666666666667,2|0,3:2|0:0,0:0:0:0:
328,255,74552,2,0,B|275:248|275:248|273:250|273:250|224:243,1,106.666666666667,2|0,2:2|0:0,0:0:0:0:
224,243,75060,2,0,L|140:230,1,80,10|2,2:2|2:2,0:0:0:0:
435,139,75908,5,2,2:2:0:0:
435,139,76077,2,0,P|406:78|349:88,1,127.99999609375,0|0,3:3|0:0,0:0:0:0:
280,35,76586,2,0,P|249:75|201:73,1,86.6666626993817,0|0,0:0|0:0,0:0:0:0:
216,78,77094,6,0,L|203:157,1,80,10|0,2:2|0:0,0:0:0:0:
192,236,77433,1,2,2:2:0:0:
461,340,77942,5,2,2:2:0:0:
450,264,78111,2,0,B|440:199|440:199|443:197|443:197|434:138,1,127.99999609375,2|2,3:2|2:2,0:0:0:0:
373,81,78620,2,0,P|331:89|309:124,1,85.3333333333333
461,340,79128,5,8,2:2:0:0:
387,314,79467,5,0,0:0:0:0:
360,304,79637,1,0,0:0:0:0:
94,221,79976,5,0,0:0:0:0:
166,193,80145,2,0,B|89:167|82:221|3:200,1,166.666666666667,0|0,3:3|0:0,0:0:0:0:
3,200,80654,6,0,L|16:279,1,80,2|0,2:2|0:0,0:0:0:0:
93,221,81162,2,0,P|160:224|94:209,1,200.000007629395,10|0,2:2|0:0,0:0:0:0:
241,199,81671,6,0,B|299:179|305:220|365:204,1,127.99999609375,2|0,2:2|0:0,0:0:0:0:
405,19,82179,6,0,L|326:32,1,80,2|2,3:2|2:2,0:0:0:0:
338,117,82688,2,0,L|417:104,1,80,2|0,2:2|0:0,0:0:0:0:
506,287,83196,6,0,B|482:250|436:256|436:256|421:280|399:287,1,127.99999609375,8|0,2:2|0:0,0:0:0:0:
393,308,83535,1,2,2:2:0:0:
317,323,83704,1,0,0:0:0:0:
93,221,84043,5,2,2:2:0:0:
17,206,84213,2,0,B|24:153|24:153|22:151|22:151|29:102,1,106.666666666667,0|0,3:3|0:0,0:0:0:0:
45,23,84721,6,0,P|90:16|135:93,1,127.99999609375,2|0,2:2|0:0,0:0:0:0:
254,189,85230,2,0,P|299:196|355:106,1,128,10|0,2:2|0:0,0:0:0:0:
356,128,85569,1,0,0:0:0:0:
279,111,85738,1,2,2:2:0:0:
93,221,86077,5,0,0:0:0:0:
16,238,86247,2,0,L|29:317,1,80,2|2,3:2|2:2,0:0:0:0:
93,221,86755,2,0,L|106:300,1,80,0|2,0:0|2:2,0:0:0:0:
171,75,87264,6,0,P|109:74|78:126,1,127.99999609375,8|0,2:2|0:0,0:0:0:0:
80,142,87603,1,2,2:2:0:0:
93,221,87772,1,0,0:0:0:0:
328,285,88111,5,2,2:2:0:0:
341,206,88281,2,0,B|400:191|405:233|465:221,1,127.99999609375,0|0,3:3|0:0,0:0:0:0:
441,134,88789,6,0,P|413:98|376:92,1,80.0000030517579,0|0,0:0|0:0,0:0:0:0:
261,233,89298,2,0,P|243:275|164:285,1,128,8|0,2:2|0:0,0:0:0:0:
155,303,89637,5,2,2:2:0:0:
80,286,89806,1,2,2:2:0:0:
231,125,90145,5,2,2:2:0:0:
381,91,90315,2,0,B|338:85|338:85|336:86|336:86|296:81,2,79.9999975585938,2|0|2,3:2|0:0|2:2,0:0:0:0:
208,220,91332,2,0,P|269:224|305:174,1,127.99999609375,8|0,2:2|0:0,0:0:0:0:
306,164,91671,5,2,2:2:0:0:
381,203,91840,1,2,2:2:0:0:
171,298,92179,5,0,0:0:0:0:
21,376,92349,2,0,B|23:291|76:335|84:246,1,149.333328776042,2|0,3:2|0:0,0:0:0:0:
16,206,92857,6,0,L|3:127,1,80,2|2,2:2|2:2,0:0:0:0:
171,298,93365,2,0,B|179:234|179:234|177:231|177:231|185:172,1,128,8|0,2:2|0:0,0:0:0:0:
189,155,93704,5,2,2:2:0:0:
201,77,93874,1,2,2:2:0:0:
430,15,94213,5,0,0:0:0:0:
457,190,94382,2,0,P|398:165|396:75,1,149.333328776042,8|0,3:2|0:0,0:0:0:0:
349,18,94891,2,0,P|308:11|266:43,1,85.3333333333333,0|0,0:0|0:0,0:0:0:0:
318,282,95399,6,0,P|359:288|394:267,1,83.9999974365235,8|0,2:2|0:0,0:0:0:0:
403,258,95738,1,0,0:0:0:0:
479,292,95908,1,0,0:0:0:0:
189,155,96247,5,0,0:0:0:0:
189,155,96332,1,0,0:0:0:0:
189,155,96416,2,0,B|114:134|107:189|32:173,1,161.333338256836,8|0,3:2|0:0,0:0:0:0:
32,174,97433,6,0,L|43:104,1,53.3333333333333,8|0,2:2|0:0,0:0:0:0:
312,371,98450,5,2,2:2:0:0:
383,59,98959,1,2,2:2:0:0:
78,156,99467,1,2,2:2:0:0:
438,235,99976,5,2,2:2:0:0:
202,19,100484,1,2,2:2:0:0:
132,331,100993,2,0,L|165:325,9,20.0000007629395,2|0|0|0|0|0|0|0|0|0,2:2|0:0|0:0|0:0|0:0|0:0|0:0|0:0|0:0|0:0,0:0:0:0:
144,239,101501,6,0,B|268:261|268:261|298:286|298:286|431:310,1,298.666657552084,10|0,2:2|0:0,0:0:0:0:
58,222,102010,5,2,2:2:0:0:
395,128,102518,6,0,B|410:90|383:60|383:60|317:69|294:139|345:199,1,239.999992675781,2|0,3:2|0:0,0:0:0:0:
429,301,103027,2,0,P|463:291|498:288,1,63.9999980468751,0|0,2:2|0:0,0:0:0:0:
514,195,103535,2,0,P|465:206|416:213,1,100,8|0,2:2|0:0,0:0:0:0:
416,214,103874,1,0,0:0:0:0:
336,325,104043,6,0,L|346:270,2,55.9999982910157,0|0|0,2:2|2:2|2:2,0:0:0:0:
238,125,104552,2,0,B|160:104|151:158|68:141,1,170.666666666667,0|0,3:3|0:0,0:0:0:0:
192,34,105060,5,0,3:3:0:0:
25,227,105230,1,0,2:2:0:0:
204,213,105399,1,0,2:2:0:0:
12,47,105569,1,8,3:2:0:0:
150,150,105738,5,0,2:2:0:0:
92,96,105908,1,0,2:2:0:0:
107,174,106077,1,2,3:2:0:0:
141,102,106247,1,0,2:2:0:0:
71,141,106416,1,0,2:2:0:0:
323,359,106586,6,0,B|297:197|297:197|317:233|342:246,1,226.66667098999,2|0,3:2|0:0,0:0:0:0:
230,295,107094,2,0,P|185:301|142:310,1,85.3333333333333,2|0,2:2|0:0,0:0:0:0:
285,0,107603,6,0,P|358:50|378:165,1,200.000007629395,10|0,2:2|0:0,0:0:0:0:
380,165,108111,1,2,2:2:0:0:
50,309,108620,6,0,B|28:325|27:359|27:359|75:302|147:311,1,191.999994140625,2|0,3:2|0:0,0:0:0:0:
182,229,109128,2,0,P|185:195|139:166,1,93.3333304850261,2|0,2:2|0:0,0:0:0:0:
236,301,109637,2,0,P|300:322|338:234,1,160.000006103516,10|0,2:2|0:0,0:0:0:0:
315,75,110145,5,2,2:2:0:0:
315,75,110654,2,0,L|347:269,1,181.333336791992,2|0,3:2|0:0,0:0:0:0:
422,29,111162,5,0,2:2:0:0:
196,74,111332,1,0,2:2:0:0:
242,300,111501,1,0,2:2:0:0:
467,254,111671,1,8,2:2:0:0:
268,171,112010,5,8,2:2:0:0:
348,224,112180,1,2,2:2:0:0:
401,143,112349,1,0,2:2:0:0:
321,90,112519,1,8,2:2:0:0:
165,350,112688,6,0,B|84:327|77:386|-4:369,1,170.666666666667,0|0,3:3|0:0,0:0:0:0:
161,261,113196,5,0,3:3:0:0:
401,177,113365,1,0,2:2:0:0:
323,339,113535,1,0,2:2:0:0:
239,99,113704,1,8,3:2:0:0:
267,267,113874,5,0,2:2:0:0:
269,185,114043,1,0,2:2:0:0:
315,251,114213,1,0,3:3:0:0:
239,226,114382,1,0,2:2:0:0:
317,201,114552,1,0,2:2:0:0:
29,74,114721,6,0,B|126:87|126:87|130:83|130:83|240:99,1,213.333333333333,2|0,3:2|0:0,0:0:0:0:
433,280,115230,2,0,P|454:268|380:189,1,170.666666666667,2|0,2:2|0:0,0:0:0:0:
170,287,115738,2,0,P|189:332|235:347,1,100.000003814697,10|0,2:2|0:0,0:0:0:0:
235,347,116247,1,2,2:2:0:0:
324,51,116755,6,0,B|379:75|379:75|239:98,1,202.666661254883,2|0,3:2|0:0,0:0:0:0:
49,126,117264,2,0,L|62:41,2,85.3333333333333,2|0|2,2:2|0:0|2:2,0:0:0:0:
161,159,117772,6,0,B|151:86|151:86|154:82|154:82|146:16,1,143.999995605469,10|0,2:2|0:0,0:0:0:0:
145,7,118111,1,2,2:2:0:0:
172,247,118281,1,2,2:2:0:0:
373,367,118620,5,2,2:2:0:0:
397,174,118789,2,0,B|326:152|319:208|243:192,1,160.000006103516,2|2,3:2|2:2,0:0:0:0:
75,119,119298,5,2,2:2:0:0:
273,86,119467,1,0,0:0:0:0:
306,285,119637,1,0,0:0:0:0:
107,317,119806,1,8,2:2:0:0:
243,192,120145,6,0,L|164:205,1,80,8|2,2:2|2:2,0:0:0:0:
377,28,120654,1,10,2:2:0:0:
469,345,120823,6,0,B|463:230|403:291|397:174,1,191.999994140625,2|0,3:2|0:0,0:0:0:0:
465,107,121332,5,0,3:3:0:0:
371,329,121501,1,0,2:2:0:0:
149,235,121671,1,0,2:2:0:0:
243,13,121840,1,8,3:2:0:0:
332,248,122010,5,0,2:2:0:0:
251,104,122179,1,0,2:2:0:0:
397,174,122349,1,0,3:3:0:0:
240,202,122518,1,0,2:2:0:0:
349,85,122688,1,0,2:2:0:0:
128,359,122857,6,0,B|147:235|147:235|132:262|113:272,1,170.666666666667,2|0,3:2|0:0,0:0:0:0:
10,140,123365,2,0,P|29:177|68:191,1,85.3333333333333,2|0,2:2|0:0,0:0:0:0:
151,146,123874,2,0,P|162:107|61:49,1,160.000006103516,10|0,2:2|0:0,0:0:0:0:
36,313,124382,5,2,2:2:0:0:
240,202,124891,6,0,B|315:192|315:192|321:194|321:194|399:184,1,160.000006103516,2|0,3:2|0:0,0:0:0:0:
414,100,125399,2,0,P|379:52|286:66,1,149.333328776042,2|0,2:2|0:0,0:0:0:0:
166,258,125908,2,0,P|119:323|32:310,1,173.333325398763,10|0,2:2|0:0,0:0:0:0:
35,312,126416,6,0,L|48:233,1,80.0000030517579,2|0,2:2|0:0,0:0:0:0:
295,57,126925,2,0,B|305:132|305:132|303:138|303:138|313:216,1,160.000006103516,0|0,3:3|0:0,0:0:0:0:
185,115,127433,5,0,2:2:0:0:
412,81,127603,1,0,2:2:0:0:
445,310,127772,1,0,2:2:0:0:
217,342,127942,1,8,2:2:0:0:
352,146,128281,5,8,2:2:0:0:
329,291,128451,1,0,2:2:0:0:
262,158,128620,1,0,2:2:0:0:
390,227,128790,1,8,2:2:0:0:
248,244,128959,2,0,B|174:257|174:257|154:272|154:272|77:286,1,175.999994628906,0|0,3:3|0:0,0:0:0:0:
45,158,129976,6,0,P|90:163|124:203,1,85.3333333333333,10|0,2:2|0:0,0:0:0:0:
186,356,130484,2,0,P|224:350|252:326,1,63.9999980468751,2|0,2:2|0:0,0:0:0:0:
352,146,130993,6,0,L|339:61,1,85.3333333333333,2|0,3:2|0:0,0:0:0:0:
438,139,131501,2,0,L|425:54,1,85.3333333333333,0|0,2:2|0:0,0:0:0:0:
266,118,132010,5,8,2:2:0:0:
511,186,132518,1,2,2:2:0:0:
242,292,133027,6,0,L|255:207,1,85.3333333333333,0|2,3:3|2:2,0:0:0:0:
156,285,133535,2,0,L|167:209,1,68.2666666666667,2|0,2:2|0:0,0:0:0:0:
328,264,134044,5,10,2:2:0:0:
83,332,134552,1,2,2:2:0:0:
198,24,134891,5,2,2:2:0:0:
198,24,135060,2,0,P|244:16|283:37,1,85.3333333333333,0|2,3:3|2:2,0:0:0:0:
266,118,135569,2,0,P|220:126|181:105,1,85.3333333333333,0|2,2:2|2:2,0:0:0:0:
347,88,136077,5,10,2:2:0:0:
119,57,136586,2,0,L|60:48,2,42.6666666666667,2|0|2,2:2|2:2|2:2,0:0:0:0:
337,179,137094,6,0,P|345:225|324:264,1,85.3333333333333,0|2,3:3|2:2,0:0:0:0:
248,272,137603,2,0,L|189:280,2,42.6666666666667,0|0|2,3:3|2:2|2:2,0:0:0:0:
421,244,138111,2,0,L|480:234,2,53.3333333333333,10|0|2,3:2|2:2|2:2,0:0:0:0:
220,368,138620,6,0,L|151:357,1,69.3333301595054,2|0,3:2|2:2,0:0:0:0:
75,345,138959,1,2,2:2:0:0:
185,110,139128,6,0,P|231:102|270:123,1,85.3333333333333,0|2,3:3|2:2,0:0:0:0:
416,186,139637,2,0,P|370:194|331:173,1,85.3333333333333,0|0,2:2|0:0,0:0:0:0:
158,30,140145,5,8,2:2:0:0:
443,266,140654,1,0,2:2:0:0:
105,384,141162,6,0,B|114:314|114:314|112:308|112:308|121:235,1,149.333328776042,0|2,3:3|2:2,0:0:0:0:
133,152,141671,1,2,2:2:0:0:
25,331,142010,5,2,2:2:0:0:
1,163,142179,1,10,2:2:0:0:
200,285,142518,5,2,2:2:0:0:
228,83,142687,1,2,2:2:0:0:
375,239,143027,5,2,2:2:0:0:
343,0,143196,2,0,B|338:100|403:55|397:157,1,170.666666666667,2|2,3:2|2:2,0:0:0:0:
352,323,143704,2,0,P|312:305|289:256,2,85.3333333333333,2|0|2,2:2|2:2|2:2,0:0:0:0:
436,347,144213,1,10,2:2:0:0:
201,285,144552,5,10,2:2:0:0:
112,335,144721,2,0,B|117:295|117:295|115:292|115:292|120:251,1,85.3333333333333,2|0,2:2|2:2,0:0:0:0:
133,167,145060,1,10,2:2:0:0:
28,378,145230,6,0,B|16:288|16:288|19:281|19:281|7:188,1,191.999994140625,0|2,3:3|2:2,0:0:0:0:
1,98,145738,2,0,P|72:92|101:111,1,85.3333333333333,0|0,3:3|2:2,0:0:0:0:
133,167,146077,1,0,2:2:0:0:
294,7,146247,6,0,P|282:48|253:78,1,85.3333333333333,10|0,3:2|2:2,0:0:0:0:
168,87,146586,1,0,2:2:0:0:
225,306,146755,6,0,P|194:276|183:236,1,85.3333333333333,2|0,3:2|2:2,0:0:0:0:
220,158,147094,1,0,2:2:0:0:
455,307,149298,6,0,B|466:258|427:225|428:237|391:207|397:152,1,170.666666666667,0|0,3:3|0:0,0:0:0:0:
289,45,149806,2,0,P|245:38|210:158,1,186.666660970052,2|0,3:2|0:0,0:0:0:0:
298,208,150315,6,0,L|313:119,1,79.9999975585938,10|2,2:2|2:2,0:0:0:0:
269,378,151332,6,0,B|189:367|189:367|182:370|182:370|100:359,1,170.666666666667,0|2,3:3|2:2,0:0:0:0:
10,169,151840,1,0,2:2:0:0:
22,300,152010,1,0,2:2:0:0:
154,288,152179,1,2,2:2:0:0:
141,156,152349,1,8,2:2:0:0:
84,231,152688,5,8,2:2:0:0:
84,231,152857,1,2,2:2:0:0:
215,216,153196,5,10,2:2:0:0:
296,206,153365,2,0,L|474:183,1,170.666666666667,0|0,3:3|0:0,0:0:0:0:
262,56,153874,6,0,P|246:95|247:137,1,85.3333333333333,0|0,3:3|2:2,0:0:0:0:
296,206,154213,1,2,2:2:0:0:
102,320,154382,6,0,P|144:315|181:293,1,85.3333333333333,10|0,3:2|2:2,0:0:0:0:
215,216,154721,1,0,2:2:0:0:
411,328,154891,6,0,P|385:294|347:274,1,85.3333333333333,2|0,3:2|2:2,0:0:0:0:
264,282,155230,1,0,2:2:0:0:
342,21,155399,6,0,L|520:-2,1,170.666666666667,2|0,3:2|0:0,0:0:0:0:
335,107,155908,2,0,L|513:84,1,173.333325398763,0|0,2:2|0:0,0:0:0:0:
506,84,156416,6,0,L|494:173,1,80,10|0,2:2|0:0,0:0:0:0:
466,374,156925,1,2,2:2:0:0:
188,335,157433,6,0,B|176:245|176:245|179:238|179:238|167:145,1,191.999994140625,0|0,3:3|0:0,0:0:0:0:
0,299,157942,2,0,P|19:231|89:214,1,149.333328776042,0|0,2:2|0:0,0:0:0:0:
257,141,158450,2,0,P|253:29|146:59,1,256,8|0,2:2|0:0,0:0:0:0:
102,330,159467,6,0,B|76:352|74:385|74:385|118:332|189:335,1,191.999994140625,2|0,3:2|0:0,0:0:0:0:
251,239,159976,2,0,B|277:261|279:294|279:294|235:241|164:244,1,191.999994140625,0|2,2:2|2:2,0:0:0:0:
100,178,160484,2,0,P|90:136|130:85,1,106.666666666667,10|2,2:2|2:2,0:0:0:0:
190,157,160993,5,0,2:2:0:0:
471,328,161332,5,2,2:2:0:0:
415,186,161501,2,0,L|400:270,1,85.3333333333333,0|0,3:3|0:0,0:0:0:0:
415,45,161840,5,0,0:0:0:0:
273,101,162010,2,0,L|357:115,1,85.3333333333333,0|0,3:3|0:0,0:0:0:0:
132,101,162349,5,0,0:0:0:0:
188,243,162518,2,0,L|202:158,1,85.3333333333333,8|0,3:2|0:0,0:0:0:0:
188,384,162858,5,0,0:0:0:0:
330,328,163027,2,0,L|245:313,2,85.3333333333333,0|0|0,3:3|0:0|0:0,0:0:0:0:
112,291,163535,6,0,L|28:277,1,80,2|2,2:2|2:2,0:0:0:0:
275,227,165510,6,0,L|359:212,1,80,2|2,2:2|2:2,0:0:0:0:
132,101,167561,6,0,L|6:79,1,128
6,80,171151,5,2,2:2:0:0:
275,227,171663,6,0,P|289:203|291:147,1,80,2|2,2:2|2:2,0:0:0:0:
129,22,173663,6,0,P|115:46|113:102,1,80,0|2,0:0|2:2,0:0:0:0:
182,216,175696,6,0,B|164:149|214:142|199:77,1,143.999995605469
197,76,178832,2,0,P|408:111|253:268,1,533.333333333333
267,181,179806,6,0,P|350:168|424:214,1,170.666666666667,2|0,3:2|0:0,0:0:0:0:
407,297,180314,2,0,P|324:310|250:264,1,170.666666666667,0|0,2:2|0:0,0:0:0:0:
364,87,180822,2,0,L|378:2,1,79.9999975585938,8|0,2:2|0:0,0:0:0:0:
378,2,181331,1,0,2:2:0:0:
155,169,181839,6,0,B|165:251|165:251|162:257|162:257|173:337,1,170.666666666667,0|0,3:3|0:0,0:0:0:0:
78,232,182348,2,0,P|36:220|3:147,1,127.99999609375,0|0,2:2|0:0,0:0:0:0:
247,280,182856,2,0,P|289:268|320:155,1,170.666666666667,8|0,2:2|0:0,0:0:0:0:
141,84,183365,2,0,L|155:169,2,85.3333333333333,0|0|0,2:2|0:0|0:0,0:0:0:0:
247,280,183873,6,0,B|330:301|338:240|425:268,1,181.333336791992,0|0,3:3|0:0,0:0:0:0:
272,171,184382,1,0,2:2:0:0:
263,369,184551,1,0,2:2:0:0:
461,378,184721,1,0,2:2:0:0:
470,180,184890,1,8,2:2:0:0:
339,281,185229,6,0,L|424:267,1,85.3333333333333,8|0,2:2|2:2,0:0:0:0:
225,100,185738,5,8,2:2:0:0:
140,83,185907,2,0,P|59:109|50:194,1,181.333336791992,0|0,3:3|0:0,0:0:0:0:
402,251,186416,5,0,3:3:0:0:
308,76,186585,1,0,2:2:0:0:
133,170,186755,1,0,2:2:0:0:
227,345,186924,1,8,3:2:0:0:
285,155,187094,5,0,2:2:0:0:
216,257,187263,1,0,2:2:0:0:
332,217,187433,1,0,3:3:0:0:
213,181,187602,1,0,2:2:0:0:
293,283,187772,1,0,2:2:0:0:
479,4,187941,6,0,B|463:129|413:47|398:170,1,191.999994140625,2|0,3:2|0:0,0:0:0:0:
308,76,188450,2,0,P|321:21|395:18,1,127.99999609375,2|0,2:2|0:0,0:0:0:0:
493,164,188958,2,0,P|510:219|414:258,1,170.666666666667,10|0,2:2|0:0,0:0:0:0:
424,263,189467,1,2,2:2:0:0:
225,100,189975,6,0,B|144:89|144:89|138:93|138:93|56:83,1,170.666666666667,2|0,3:2|0:0,0:0:0:0:
41,216,190483,2,0,P|112:234|161:169,1,149.333328776042,2|0,2:2|0:0,0:0:0:0:
266,17,190992,2,0,P|337:-1|391:87,1,181.333336791992,10|0,2:2|0:0,0:0:0:0:
392,78,191500,1,2,2:2:0:0:
304,380,192009,6,0,B|325:244|325:244|309:274|288:285,1,191.999994140625,0|0,3:3|0:0,0:0:0:0:
246,193,192517,5,0,2:2:0:0:
505,118,192687,1,0,2:2:0:0:
413,285,192856,1,0,2:2:0:0:
338,26,193026,1,8,2:2:0:0:
323,172,193365,5,8,2:2:0:0:
428,141,193535,1,0,2:2:0:0:
391,209,193704,1,0,2:2:0:0:
360,103,193874,1,8,2:2:0:0:
102,330,194043,6,0,B|77:350|75:381|75:381|117:331|183:334,1,181.333336791992,0|0,3:3|0:0,0:0:0:0:
242,274,194551,5,0,3:3:0:0:
22,228,194721,1,0,2:2:0:0:
68,8,194890,1,0,2:2:0:0:
288,54,195060,1,8,3:2:0:0:
92,185,195229,5,0,2:2:0:0:
175,58,195398,1,0,2:2:0:0:
189,214,195568,1,0,3:3:0:0:
85,91,195737,1,0,2:2:0:0:
234,131,195907,1,0,2:2:0:0:
447,188,196077,6,0,P|367:250|290:221,1,181.333336791992,2|0,3:2|0:0,0:0:0:0:
234,131,196585,2,0,P|154:69|77:98,1,181.333336791992,2|0,2:2|0:0,0:0:0:0:
302,0,197094,6,0,P|321:41|316:82,1,85.3333333333333,10|0,2:2|0:0,0:0:0:0:
316,79,197602,1,2,2:2:0:0:
165,290,198111,6,0,B|83:265|76:323|-2:304,1,170.666666666667,2|0,3:2|0:0,0:0:0:0:
21,176,198619,2,0,P|91:159|133:228,1,138.666660319011,2|0,2:2|0:0,0:0:0:0:
223,363,199128,2,0,P|293:380|339:297,1,170.666666666667,10|0,2:2|0:0,0:0:0:0:
340,306,199636,1,2,2:2:0:0:
229,8,200144,6,0,B|219:90|219:90|222:96|222:96|211:176,1,170.666666666667,0|0,3:3|0:0,0:0:0:0:
324,50,200653,1,0,2:2:0:0:
126,24,200822,1,0,2:2:0:0:
100,222,200992,1,0,2:2:0:0:
298,248,201161,1,8,2:2:0:0:
222,74,201500,5,8,2:2:0:0:
145,131,201669,1,0,2:2:0:0:
204,208,201839,1,0,2:2:0:0:
281,151,202008,1,8,2:2:0:0:
19,297,202178,6,0,B|53:242|117:253|117:253|139:287|170:297,1,181.333336791992,0|0,3:3|0:0,0:0:0:0:
449,37,202687,1,0,3:3:0:0:
241,0,202856,1,0,2:2:0:0:
204,208,203026,1,0,2:2:0:0:
412,245,203195,1,8,3:2:0:0:
343,51,203365,5,0,2:2:0:0:
273,167,203534,1,0,2:2:0:0:
397,112,203704,1,0,3:3:0:0:
265,84,203873,1,0,2:2:0:0:
355,186,204043,1,0,2:2:0:0:
182,67,204212,6,0,L|88:51,1,87.9999973144532,2|0,2:2|0:0,0:0:0:0:
84,50,205220,1,0,0:0:0:0:
278,346,206203,6,0,L|293:252,1,87.9999973144532
294,247,207228,1,0,0:0:0:0:
204,208,208254,6,0,B|130:188|123:241|47:226,1,160
256,192,210903,12,0,220134,0:0:0:0:
