osu file format v14

[General]
AudioFilename: audio.mp3
AudioLeadIn: 0
PreviewTime: -1
Countdown: 1
SampleSet: None
StackLeniency: 0.7
Mode: 3
LetterboxInBreaks: 0
SpecialStyle: 0
WidescreenStoryboard: 0

[Editor]
Bookmarks: 40052,72052
DistanceSpacing: 0.6
BeatDivisor: 4
GridSize: 8
TimelineZoom: 1.1

[Metadata]
Title:ilomilo
TitleUnicode:ilomilo
Artist:Billie Eilish
ArtistUnicode:Billie Eilish
Creator:Hydria
Version:Hard
Source:
Tags:
BeatmapID:2026403
BeatmapSetID:968442

[Difficulty]
HPDrainRate:8
CircleSize:4
OverallDifficulty:8
ApproachRate:5
SliderMultiplier:1.4
SliderTickRate:1

[Events]
//Background and Video events
//Break Periods
//Storyboard Layer 0 (Background)
//Storyboard Layer 1 (Fail)
//Storyboard Layer 2 (Pass)
//Storyboard Layer 3 (Foreground)
//Storyboard Sound Samples

[TimingPoints]
52,500,4,1,0,40,1,0

[HitObjects]
64,192,52,5,0,0:0:0:0:
448,192,302,1,0,0:0:0:0:
192,192,552,1,0,0:0:0:0:
448,192,802,1,0,0:0:0:0:
320,192,1177,1,0,0:0:0:0:
192,192,1302,1,0,0:0:0:0:
64,192,1552,1,0,0:0:0:0:
320,192,1802,1,0,0:0:0:0:
64,192,2052,1,0,0:0:0:0:
448,192,2302,1,0,0:0:0:0:
192,192,2552,1,0,0:0:0:0:
448,192,2802,1,0,0:0:0:0:
320,192,3177,1,0,0:0:0:0:
192,192,3302,1,0,0:0:0:0:
64,192,3552,1,0,0:0:0:0:
320,192,3802,1,0,0:0:0:0:
64,192,4052,1,0,0:0:0:0:
448,192,4302,1,0,0:0:0:0:
192,192,4552,1,0,0:0:0:0:
448,192,4802,1,0,0:0:0:0:
320,192,5177,1,0,0:0:0:0:
192,192,5302,1,0,0:0:0:0:
64,192,5552,1,0,0:0:0:0:
320,192,5802,1,0,0:0:0:0:
64,192,6052,1,0,0:0:0:0:
448,192,6302,1,0,0:0:0:0:
192,192,6552,1,0,0:0:0:0:
448,192,6802,1,0,0:0:0:0:
320,192,7052,128,0,7302:0:0:0:0:
64,192,7177,1,0,0:0:0:0:
192,192,7302,128,0,7552:0:0:0:0:
64,192,7552,128,0,7802:0:0:0:0:
320,192,7802,128,0,8052:0:0:0:0:
192,192,8052,128,0,8302:0:0:0:0:
448,192,8302,128,0,8552:0:0:0:0:
64,192,8552,1,0,0:0:0:0:
448,192,8802,128,0,9052:0:0:0:0:
64,192,9177,1,0,0:0:0:0:
448,192,9302,128,0,9552:0:0:0:0:
64,192,9552,1,0,0:0:0:0:
448,192,9802,128,0,10052:0:0:0:0:
64,192,10052,1,0,0:0:0:0:
448,192,10302,128,0,10552:0:0:0:0:
64,192,10552,1,0,0:0:0:0:
192,192,10802,128,0,11052:0:0:0:0:
320,192,11052,128,0,11302:0:0:0:0:
64,192,11177,1,0,0:0:0:0:
448,192,11302,128,0,11552:0:0:0:0:
192,192,11552,128,0,11802:0:0:0:0:
320,192,11802,128,0,12052:0:0:0:0:
64,192,11802,1,0,0:0:0:0:
64,192,12052,128,0,12177:0:0:0:0:
192,192,12302,128,0,12552:0:0:0:0:
448,192,12552,1,0,0:0:0:0:
192,192,12802,128,0,13052:0:0:0:0:
448,192,13177,1,0,0:0:0:0:
192,192,13302,128,0,13552:0:0:0:0:
448,192,13552,1,0,0:0:0:0:
448,192,13802,128,0,14052:0:0:0:0:
64,192,14052,1,0,0:0:0:0:
320,192,14302,128,0,14552:0:0:0:0:
64,192,14552,1,0,0:0:0:0:
320,192,14802,128,0,15052:0:0:0:0:
192,192,15052,128,0,15302:0:0:0:0:
64,192,15177,1,0,0:0:0:0:
448,192,15302,128,0,15552:0:0:0:0:
320,192,15552,128,0,15802:0:0:0:0:
192,192,15802,128,0,16052:0:0:0:0:
64,192,15802,1,0,0:0:0:0:
64,192,16052,128,0,16302:0:0:0:0:
320,192,16302,128,0,16552:0:0:0:0:
192,192,16552,1,0,0:0:0:0:
320,192,16802,128,0,17052:0:0:0:0:
192,192,17177,1,0,0:0:0:0:
320,192,17302,128,0,17552:0:0:0:0:
192,192,17552,1,0,0:0:0:0:
320,192,17802,128,0,18052:0:0:0:0:
192,192,18052,1,0,0:0:0:0:
320,192,18302,128,0,18552:0:0:0:0:
192,192,18552,1,0,0:0:0:0:
320,192,18802,128,0,19052:0:0:0:0:
64,192,19052,128,0,19302:0:0:0:0:
192,192,19177,1,0,0:0:0:0:
320,192,19302,128,0,19552:0:0:0:0:
448,192,19552,128,0,19802:0:0:0:0:
192,192,19802,128,0,20052:0:0:0:0:
64,192,19802,1,0,0:0:0:0:
64,192,20052,128,0,20552:0:0:0:0:
192,192,20302,128,0,20552:0:0:0:0:
448,192,20552,1,0,0:0:0:0:
192,192,20802,128,0,21052:0:0:0:0:
448,192,21177,1,0,0:0:0:0:
192,192,21302,128,0,21552:0:0:0:0:
448,192,21552,1,0,0:0:0:0:
192,192,21802,128,0,22052:0:0:0:0:
448,192,22052,1,0,0:0:0:0:
192,192,22302,128,0,22552:0:0:0:0:
448,192,22552,1,0,0:0:0:0:
320,192,22802,128,0,23052:0:0:0:0:
64,192,23052,128,0,23302:0:0:0:0:
448,192,23177,1,0,0:0:0:0:
192,192,23302,128,0,23552:0:0:0:0:
448,192,23552,128,0,23802:0:0:0:0:
192,192,23802,128,0,24052:0:0:0:0:
64,192,23802,1,0,0:0:0:0:
320,192,24052,128,0,24302:0:0:0:0:
192,192,24302,128,0,24552:0:0:0:0:
64,192,24302,1,0,0:0:0:0:
192,192,24802,128,0,25052:0:0:0:0:
64,192,24802,1,0,0:0:0:0:
448,192,25052,128,0,25302:0:0:0:0:
64,192,25177,1,0,0:0:0:0:
320,192,25302,128,0,25552:0:0:0:0:
448,192,25552,128,0,25802:0:0:0:0:
64,192,25802,1,0,0:0:0:0:
192,192,25802,128,0,26052:0:0:0:0:
320,192,26052,128,0,26302:0:0:0:0:
448,192,26302,128,0,26552:0:0:0:0:
64,192,26302,1,0,0:0:0:0:
64,192,26802,1,0,0:0:0:0:
192,192,26802,128,0,27052:0:0:0:0:
320,192,27052,128,0,27302:0:0:0:0:
64,192,27177,1,0,0:0:0:0:
192,192,27302,128,0,27552:0:0:0:0:
448,192,27552,128,0,27802:0:0:0:0:
192,192,27802,128,0,28052:0:0:0:0:
64,192,27802,1,0,0:0:0:0:
320,192,28052,128,0,28302:0:0:0:0:
448,192,28302,128,0,28552:0:0:0:0:
64,192,28302,1,0,0:0:0:0:
320,192,28802,128,0,29052:0:0:0:0:
64,192,28802,1,0,0:0:0:0:
192,192,29052,128,0,29302:0:0:0:0:
64,192,29177,1,0,0:0:0:0:
448,192,29302,128,0,29552:0:0:0:0:
64,192,29802,1,0,0:0:0:0:
320,192,29802,128,0,30052:0:0:0:0:
192,192,30052,128,0,30552:0:0:0:0:
64,192,30302,1,0,0:0:0:0:
320,192,30552,128,0,30802:0:0:0:0:
64,192,30802,1,0,0:0:0:0:
192,192,31177,1,0,0:0:0:0:
64,192,31302,1,0,0:0:0:0:
320,192,31552,1,0,0:0:0:0:
64,192,31802,1,0,0:0:0:0:
192,192,32052,128,0,32302:0:0:0:0:
64,192,32052,1,0,0:0:0:0:
320,192,32302,128,0,32552:0:0:0:0:
448,192,32552,128,0,32802:0:0:0:0:
64,192,32552,1,0,0:0:0:0:
192,192,32802,128,0,33302:0:0:0:0:
64,192,32802,1,0,0:0:0:0:
320,192,33302,128,0,33552:0:0:0:0:
448,192,33552,128,0,33802:0:0:0:0:
64,192,33552,1,0,0:0:0:0:
192,192,33802,128,0,34302:0:0:0:0:
64,192,33802,1,0,0:0:0:0:
320,192,34302,128,0,34552:0:0:0:0:
64,192,34302,1,0,0:0:0:0:
448,192,34552,128,0,34802:0:0:0:0:
64,192,34552,1,0,0:0:0:0:
192,192,34802,128,0,35302:0:0:0:0:
320,192,35302,128,0,35552:0:0:0:0:
64,192,35302,1,0,0:0:0:0:
448,192,35552,128,0,35802:0:0:0:0:
64,192,35552,1,0,0:0:0:0:
192,192,35802,128,0,36052:0:0:0:0:
64,192,36052,128,0,36302:0:0:0:0:
448,192,36052,1,0,0:0:0:0:
192,192,36302,128,0,36552:0:0:0:0:
320,192,36552,128,0,36802:0:0:0:0:
64,192,36552,1,0,0:0:0:0:
448,192,36802,128,0,37302:0:0:0:0:
64,192,36802,1,0,0:0:0:0:
192,192,37302,128,0,37552:0:0:0:0:
64,192,37302,1,0,0:0:0:0:
320,192,37552,128,0,37802:0:0:0:0:
64,192,37552,1,0,0:0:0:0:
448,192,37802,128,0,38302:0:0:0:0:
192,192,38302,128,0,38552:0:0:0:0:
320,192,38552,128,0,38802:0:0:0:0:
64,192,38552,1,0,0:0:0:0:
448,192,38802,128,0,39052:0:0:0:0:
64,192,38802,1,0,0:0:0:0:
192,192,39177,1,0,0:0:0:0:
64,192,39302,1,0,0:0:0:0:
320,192,39552,128,0,40052:0:0:0:0:
192,192,39552,1,0,0:0:0:0:
64,192,40052,1,0,0:0:0:0:
64,192,40177,1,0,0:0:0:0:
64,192,40302,1,0,0:0:0:0:
448,192,40302,1,0,0:0:0:0:
64,192,40427,1,0,0:0:0:0:
64,192,40552,1,0,0:0:0:0:
64,192,40677,1,0,0:0:0:0:
64,192,40802,1,0,0:0:0:0:
448,192,40802,1,0,0:0:0:0:
64,192,40927,1,0,0:0:0:0:
64,192,41052,1,0,0:0:0:0:
64,192,41177,1,0,0:0:0:0:
320,192,41177,1,0,0:0:0:0:
64,192,41302,1,0,0:0:0:0:
448,192,41302,1,0,0:0:0:0:
64,192,41427,1,0,0:0:0:0:
64,192,41552,1,0,0:0:0:0:
64,192,41677,1,0,0:0:0:0:
64,192,41802,1,0,0:0:0:0:
448,192,41802,1,0,0:0:0:0:
64,192,41927,1,0,0:0:0:0:
448,192,42302,1,0,0:0:0:0:
320,192,42552,128,0,42802:0:0:0:0:
192,192,42802,128,0,43052:0:0:0:0:
64,192,42802,1,0,0:0:0:0:
448,192,43052,128,0,43302:0:0:0:0:
64,192,43177,1,0,0:0:0:0:
320,192,43302,128,0,43552:0:0:0:0:
192,192,43302,1,0,0:0:0:0:
448,192,43552,128,0,43802:0:0:0:0:
64,192,43552,1,0,0:0:0:0:
192,192,43802,128,0,44052:0:0:0:0:
320,192,43802,1,0,0:0:0:0:
64,192,44052,128,0,44552:0:0:0:0:
320,192,44052,1,0,0:0:0:0:
320,192,44177,1,0,0:0:0:0:
320,192,44302,1,0,0:0:0:0:
192,192,44302,1,0,0:0:0:0:
320,192,44427,1,0,0:0:0:0:
320,192,44552,1,0,0:0:0:0:
320,192,44677,1,0,0:0:0:0:
320,192,44802,1,0,0:0:0:0:
192,192,44802,1,0,0:0:0:0:
320,192,44927,1,0,0:0:0:0:
320,192,45052,1,0,0:0:0:0:
320,192,45177,1,0,0:0:0:0:
64,192,45177,1,0,0:0:0:0:
320,192,45302,1,0,0:0:0:0:
192,192,45302,1,0,0:0:0:0:
320,192,45427,1,0,0:0:0:0:
320,192,45552,1,0,0:0:0:0:
320,192,45677,1,0,0:0:0:0:
320,192,45802,1,0,0:0:0:0:
448,192,45802,1,0,0:0:0:0:
320,192,45927,1,0,0:0:0:0:
192,192,46052,1,0,0:0:0:0:
448,192,46302,1,0,0:0:0:0:
192,192,46552,1,0,0:0:0:0:
448,192,46802,1,0,0:0:0:0:
192,192,47177,1,0,0:0:0:0:
448,192,47302,1,0,0:0:0:0:
192,192,47552,1,0,0:0:0:0:
448,192,47802,1,0,0:0:0:0:
192,192,48052,1,0,0:0:0:0:
64,192,48052,128,0,48114:0:0:0:0:
192,192,48177,1,0,0:0:0:0:
64,192,48177,128,0,48239:0:0:0:0:
192,192,48302,1,0,0:0:0:0:
64,192,48302,128,0,48364:0:0:0:0:
192,192,48427,1,0,0:0:0:0:
64,192,48427,128,0,48489:0:0:0:0:
192,192,48552,1,0,0:0:0:0:
64,192,48552,128,0,48614:0:0:0:0:
192,192,48677,1,0,0:0:0:0:
64,192,48677,128,0,48739:0:0:0:0:
192,192,48802,1,0,0:0:0:0:
64,192,48802,128,0,48864:0:0:0:0:
192,192,48927,1,0,0:0:0:0:
64,192,48927,128,0,48989:0:0:0:0:
192,192,49052,1,0,0:0:0:0:
64,192,49052,128,0,49114:0:0:0:0:
192,192,49177,1,0,0:0:0:0:
64,192,49177,128,0,49239:0:0:0:0:
192,192,49302,1,0,0:0:0:0:
64,192,49302,128,0,49364:0:0:0:0:
192,192,49427,1,0,0:0:0:0:
64,192,49427,128,0,49489:0:0:0:0:
192,192,49552,1,0,0:0:0:0:
64,192,49552,128,0,49614:0:0:0:0:
192,192,49677,1,0,0:0:0:0:
64,192,49677,128,0,49739:0:0:0:0:
192,192,49802,1,0,0:0:0:0:
64,192,49802,128,0,49864:0:0:0:0:
192,192,49927,1,0,0:0:0:0:
64,192,49927,128,0,49989:0:0:0:0:
64,192,50052,1,0,0:0:0:0:
192,192,50052,128,0,50114:0:0:0:0:
64,192,50177,1,0,0:0:0:0:
192,192,50177,128,0,50239:0:0:0:0:
64,192,50302,1,0,0:0:0:0:
192,192,50302,128,0,50364:0:0:0:0:
64,192,50427,1,0,0:0:0:0:
192,192,50427,128,0,50489:0:0:0:0:
64,192,50552,1,0,0:0:0:0:
192,192,50552,128,0,50614:0:0:0:0:
64,192,50677,1,0,0:0:0:0:
192,192,50677,128,0,50739:0:0:0:0:
64,192,50802,1,0,0:0:0:0:
192,192,50802,128,0,50864:0:0:0:0:
64,192,50927,1,0,0:0:0:0:
192,192,50927,128,0,50989:0:0:0:0:
64,192,51052,1,0,0:0:0:0:
192,192,51052,1,0,0:0:0:0:
192,192,51552,1,0,0:0:0:0:
320,192,51552,128,0,51614:0:0:0:0:
192,192,51677,1,0,0:0:0:0:
320,192,51677,128,0,51739:0:0:0:0:
192,192,51802,1,0,0:0:0:0:
320,192,51802,128,0,51864:0:0:0:0:
192,192,51927,1,0,0:0:0:0:
320,192,51927,128,0,51989:0:0:0:0:
320,192,52052,1,0,0:0:0:0:
448,192,52052,128,0,52114:0:0:0:0:
320,192,52177,1,0,0:0:0:0:
448,192,52177,128,0,52239:0:0:0:0:
320,192,52302,1,0,0:0:0:0:
448,192,52302,128,0,52364:0:0:0:0:
320,192,52427,1,0,0:0:0:0:
448,192,52427,128,0,52489:0:0:0:0:
320,192,52552,1,0,0:0:0:0:
448,192,52552,128,0,52614:0:0:0:0:
320,192,52677,1,0,0:0:0:0:
448,192,52677,128,0,52739:0:0:0:0:
320,192,52802,1,0,0:0:0:0:
448,192,52802,128,0,52864:0:0:0:0:
320,192,52927,1,0,0:0:0:0:
448,192,52927,128,0,52989:0:0:0:0:
320,192,53052,1,0,0:0:0:0:
448,192,53052,128,0,53114:0:0:0:0:
320,192,53177,1,0,0:0:0:0:
448,192,53177,128,0,53239:0:0:0:0:
320,192,53302,1,0,0:0:0:0:
448,192,53302,128,0,53364:0:0:0:0:
320,192,53427,1,0,0:0:0:0:
448,192,53427,128,0,53489:0:0:0:0:
320,192,53552,1,0,0:0:0:0:
448,192,53552,128,0,53614:0:0:0:0:
320,192,53677,1,0,0:0:0:0:
448,192,53677,128,0,53739:0:0:0:0:
320,192,53802,1,0,0:0:0:0:
448,192,53802,128,0,53864:0:0:0:0:
320,192,53927,1,0,0:0:0:0:
448,192,53927,128,0,53989:0:0:0:0:
448,192,54052,1,0,0:0:0:0:
192,192,54052,128,0,54114:0:0:0:0:
448,192,54177,1,0,0:0:0:0:
192,192,54177,128,0,54239:0:0:0:0:
448,192,54302,1,0,0:0:0:0:
192,192,54302,128,0,54364:0:0:0:0:
448,192,54427,1,0,0:0:0:0:
192,192,54427,128,0,54489:0:0:0:0:
448,192,54552,1,0,0:0:0:0:
192,192,54552,128,0,54614:0:0:0:0:
448,192,54677,1,0,0:0:0:0:
192,192,54677,128,0,54739:0:0:0:0:
448,192,54802,1,0,0:0:0:0:
64,192,54802,128,0,55052:0:0:0:0:
320,192,55052,128,0,55302:0:0:0:0:
64,192,55177,1,0,0:0:0:0:
448,192,55302,128,0,55552:0:0:0:0:
192,192,55302,1,0,0:0:0:0:
192,192,55552,128,0,55802:0:0:0:0:
64,192,55552,1,0,0:0:0:0:
320,192,55802,128,0,56052:0:0:0:0:
448,192,55802,1,0,0:0:0:0:
64,192,56052,128,0,56302:0:0:0:0:
320,192,56302,128,0,56552:0:0:0:0:
448,192,56302,1,0,0:0:0:0:
448,192,56802,1,0,0:0:0:0:
320,192,57177,1,0,0:0:0:0:
448,192,57302,1,0,0:0:0:0:
320,192,57552,1,0,0:0:0:0:
320,192,57677,1,0,0:0:0:0:
64,192,57802,1,0,0:0:0:0:
320,192,57802,1,0,0:0:0:0:
320,192,57927,1,0,0:0:0:0:
320,192,58052,1,0,0:0:0:0:
448,192,58052,1,0,0:0:0:0:
448,192,58302,1,0,0:0:0:0:
448,192,58802,1,0,0:0:0:0:
192,192,58802,128,0,59052:0:0:0:0:
64,192,59052,128,0,59302:0:0:0:0:
320,192,59177,1,0,0:0:0:0:
448,192,59302,128,0,59552:0:0:0:0:
192,192,59552,128,0,59802:0:0:0:0:
320,192,59802,128,0,60052:0:0:0:0:
64,192,60052,128,0,60302:0:0:0:0:
448,192,60302,1,0,0:0:0:0:
192,192,60552,1,0,0:0:0:0:
448,192,60802,1,0,0:0:0:0:
192,192,61052,1,0,0:0:0:0:
192,192,61177,1,0,0:0:0:0:
192,192,61302,1,0,0:0:0:0:
448,192,61302,1,0,0:0:0:0:
192,192,61427,1,0,0:0:0:0:
192,192,61552,1,0,0:0:0:0:
192,192,61677,1,0,0:0:0:0:
192,192,61802,1,0,0:0:0:0:
448,192,61802,1,0,0:0:0:0:
192,192,61927,1,0,0:0:0:0:
192,192,62052,1,0,0:0:0:0:
64,192,62052,1,0,0:0:0:0:
320,192,62302,1,0,0:0:0:0:
192,192,62552,1,0,0:0:0:0:
320,192,62802,1,0,0:0:0:0:
64,192,62802,128,0,63052:0:0:0:0:
448,192,63052,128,0,63302:0:0:0:0:
192,192,63177,1,0,0:0:0:0:
320,192,63302,128,0,63552:0:0:0:0:
64,192,63552,128,0,63802:0:0:0:0:
192,192,63552,1,0,0:0:0:0:
192,192,63802,128,0,64052:0:0:0:0:
448,192,63802,1,0,0:0:0:0:
320,192,64052,128,0,64302:0:0:0:0:
448,192,64052,1,0,0:0:0:0:
64,192,64302,128,0,64552:0:0:0:0:
192,192,64302,1,0,0:0:0:0:
320,192,64552,128,0,64802:0:0:0:0:
192,192,64552,1,0,0:0:0:0:
64,192,64802,128,0,65052:0:0:0:0:
448,192,64802,1,0,0:0:0:0:
320,192,65052,128,0,65302:0:0:0:0:
192,192,65177,1,0,0:0:0:0:
64,192,65302,128,0,65552:0:0:0:0:
448,192,65302,1,0,0:0:0:0:
192,192,65552,128,0,65802:0:0:0:0:
320,192,65552,1,0,0:0:0:0:
320,192,65677,1,0,0:0:0:0:
64,192,65802,128,0,66052:0:0:0:0:
320,192,65802,1,0,0:0:0:0:
320,192,65927,1,0,0:0:0:0:
192,192,66052,128,0,66302:0:0:0:0:
448,192,66052,1,0,0:0:0:0:
64,192,66302,128,0,66552:0:0:0:0:
320,192,66302,1,0,0:0:0:0:
192,192,66552,128,0,66802:0:0:0:0:
448,192,66552,1,0,0:0:0:0:
320,192,66802,128,0,67052:0:0:0:0:
64,192,66802,1,0,0:0:0:0:
448,192,67052,128,0,67427:0:0:0:0:
192,192,67177,1,0,0:0:0:0:
64,192,67302,1,0,0:0:0:0:
192,192,67427,128,0,67552:0:0:0:0:
320,192,67552,128,0,67802:0:0:0:0:
448,192,67552,1,0,0:0:0:0:
448,192,67802,128,0,68052:0:0:0:0:
64,192,67802,1,0,0:0:0:0:
192,192,68052,1,0,0:0:0:0:
320,192,68052,128,0,68427:0:0:0:0:
192,192,68302,128,0,68427:0:0:0:0:
64,192,68552,1,0,0:0:0:0:
320,192,68552,128,0,68927:0:0:0:0:
64,192,68677,1,0,0:0:0:0:
64,192,68802,1,0,0:0:0:0:
64,192,68927,1,0,0:0:0:0:
320,192,69052,128,0,69427:0:0:0:0:
64,192,69052,1,0,0:0:0:0:
64,192,69177,1,0,0:0:0:0:
64,192,69302,1,0,0:0:0:0:
64,192,69427,1,0,0:0:0:0:
320,192,69552,128,0,69927:0:0:0:0:
64,192,69552,1,0,0:0:0:0:
64,192,69677,1,0,0:0:0:0:
64,192,69802,1,0,0:0:0:0:
64,192,69927,1,0,0:0:0:0:
320,192,70052,128,0,70427:0:0:0:0:
64,192,70052,1,0,0:0:0:0:
192,192,70552,128,0,70802:0:0:0:0:
64,192,70802,128,0,71052:0:0:0:0:
320,192,71052,1,0,0:0:0:0:
192,192,71302,1,0,0:0:0:0:
448,192,71552,1,0,0:0:0:0:
64,192,71802,1,0,0:0:0:0:
320,192,72052,1,0,0:0:0:0:
192,192,72052,128,0,72302:0:0:0:0:
320,192,72177,1,0,0:0:0:0:
320,192,72302,1,0,0:0:0:0:
320,192,72427,1,0,0:0:0:0:
320,192,72552,1,0,0:0:0:0:
320,192,72677,1,0,0:0:0:0:
320,192,72802,1,0,0:0:0:0:
64,192,72802,128,0,73052:0:0:0:0:
320,192,72927,1,0,0:0:0:0:
320,192,73052,1,0,0:0:0:0:
192,192,73052,128,0,73552:0:0:0:0:
320,192,73177,1,0,0:0:0:0:
320,192,73302,1,0,0:0:0:0:
320,192,73427,1,0,0:0:0:0:
320,192,73552,1,0,0:0:0:0:
320,192,73677,1,0,0:0:0:0:
320,192,73802,1,0,0:0:0:0:
192,192,73802,128,0,74052:0:0:0:0:
320,192,73927,1,0,0:0:0:0:
320,192,74052,1,0,0:0:0:0:
448,192,74052,1,0,0:0:0:0:
64,192,74052,128,0,74552:0:0:0:0:
192,192,74302,1,0,0:0:0:0:
320,192,74552,1,0,0:0:0:0:
448,192,74552,1,0,0:0:0:0:
192,192,74802,1,0,0:0:0:0:
320,192,75052,1,0,0:0:0:0:
64,192,75052,128,0,75302:0:0:0:0:
192,192,75177,1,0,0:0:0:0:
448,192,75302,128,0,75552:0:0:0:0:
192,192,75552,128,0,75802:0:0:0:0:
64,192,75552,1,0,0:0:0:0:
320,192,75802,128,0,76052:0:0:0:0:
448,192,76052,1,0,0:0:0:0:
64,192,76052,1,0,0:0:0:0:
64,192,76177,1,0,0:0:0:0:
64,192,76302,1,0,0:0:0:0:
64,192,76427,1,0,0:0:0:0:
64,192,76552,1,0,0:0:0:0:
64,192,76677,1,0,0:0:0:0:
320,192,76802,128,0,77052:0:0:0:0:
64,192,76802,1,0,0:0:0:0:
64,192,76927,1,0,0:0:0:0:
448,192,77052,128,0,77552:0:0:0:0:
64,192,77052,1,0,0:0:0:0:
64,192,77177,1,0,0:0:0:0:
64,192,77302,1,0,0:0:0:0:
64,192,77427,1,0,0:0:0:0:
64,192,77552,1,0,0:0:0:0:
64,192,77677,1,0,0:0:0:0:
64,192,77802,1,0,0:0:0:0:
448,192,77802,128,0,78052:0:0:0:0:
64,192,77927,1,0,0:0:0:0:
64,192,78052,1,0,0:0:0:0:
320,192,78052,128,0,78552:0:0:0:0:
192,192,78302,1,0,0:0:0:0:
64,192,78552,1,0,0:0:0:0:
448,192,78552,1,0,0:0:0:0:
192,192,78802,1,0,0:0:0:0:
320,192,79052,1,0,0:0:0:0:
192,192,79177,1,0,0:0:0:0:
448,192,79302,1,0,0:0:0:0:
320,192,79552,1,0,0:0:0:0:
64,192,79552,128,0,80052:0:0:0:0:
448,192,80052,1,0,0:0:0:0:
320,192,80052,1,0,0:0:0:0:
448,192,80177,1,0,0:0:0:0:
448,192,80302,1,0,0:0:0:0:
192,192,80302,1,0,0:0:0:0:
448,192,80427,1,0,0:0:0:0:
448,192,80552,1,0,0:0:0:0:
64,192,80552,1,0,0:0:0:0:
448,192,80677,1,0,0:0:0:0:
448,192,80802,1,0,0:0:0:0:
192,192,80802,128,0,81302:0:0:0:0:
448,192,80927,1,0,0:0:0:0:
448,192,81052,1,0,0:0:0:0:
448,192,81177,1,0,0:0:0:0:
448,192,81302,1,0,0:0:0:0:
64,192,81302,1,0,0:0:0:0:
448,192,81427,1,0,0:0:0:0:
448,192,81552,1,0,0:0:0:0:
320,192,81552,1,0,0:0:0:0:
448,192,81677,1,0,0:0:0:0:
448,192,81802,1,0,0:0:0:0:
64,192,81802,128,0,82302:0:0:0:0:
448,192,81927,1,0,0:0:0:0:
448,192,82052,1,0,0:0:0:0:
320,192,82302,1,0,0:0:0:0:
192,192,82552,1,0,0:0:0:0:
448,192,82802,128,0,83302:0:0:0:0:
320,192,83302,1,0,0:0:0:0:
192,192,83552,1,0,0:0:0:0:
64,192,83802,1,0,0:0:0:0:
192,192,84052,1,0,0:0:0:0:
64,192,84052,1,0,0:0:0:0:
192,192,84177,1,0,0:0:0:0:
192,192,84302,1,0,0:0:0:0:
320,192,84302,1,0,0:0:0:0:
192,192,84427,1,0,0:0:0:0:
192,192,84552,1,0,0:0:0:0:
448,192,84552,1,0,0:0:0:0:
192,192,84677,1,0,0:0:0:0:
192,192,84802,1,0,0:0:0:0:
320,192,84802,128,0,85302:0:0:0:0:
192,192,84927,1,0,0:0:0:0:
192,192,85052,1,0,0:0:0:0:
192,192,85177,1,0,0:0:0:0:
192,192,85302,1,0,0:0:0:0:
448,192,85302,1,0,0:0:0:0:
192,192,85427,1,0,0:0:0:0:
192,192,85552,1,0,0:0:0:0:
64,192,85552,1,0,0:0:0:0:
192,192,85677,1,0,0:0:0:0:
192,192,85802,1,0,0:0:0:0:
448,192,85802,128,0,86302:0:0:0:0:
192,192,85927,1,0,0:0:0:0:
192,192,86052,1,0,0:0:0:0:
64,192,86302,1,0,0:0:0:0:
448,192,86552,128,0,86677:0:0:0:0:
192,192,86802,128,0,87302:0:0:0:0:
64,192,87552,128,0,88052:0:0:0:0:
320,192,88052,1,0,0:0:0:0:
192,192,88052,1,0,0:0:0:0:
320,192,88177,1,0,0:0:0:0:
320,192,88302,1,0,0:0:0:0:
64,192,88302,1,0,0:0:0:0:
320,192,88427,1,0,0:0:0:0:
320,192,88552,1,0,0:0:0:0:
192,192,88552,1,0,0:0:0:0:
320,192,88677,1,0,0:0:0:0:
320,192,88802,1,0,0:0:0:0:
64,192,88802,1,0,0:0:0:0:
320,192,88927,1,0,0:0:0:0:
320,192,89052,1,0,0:0:0:0:
320,192,89177,1,0,0:0:0:0:
64,192,89177,1,0,0:0:0:0:
320,192,89302,1,0,0:0:0:0:
192,192,89302,1,0,0:0:0:0:
320,192,89427,1,0,0:0:0:0:
320,192,89552,1,0,0:0:0:0:
64,192,89552,1,0,0:0:0:0:
320,192,89677,1,0,0:0:0:0:
320,192,89802,1,0,0:0:0:0:
192,192,89802,1,0,0:0:0:0:
320,192,89927,1,0,0:0:0:0:
320,192,90052,1,0,0:0:0:0:
64,192,90052,1,0,0:0:0:0:
448,192,90302,128,0,90427:0:0:0:0:
64,192,90552,128,0,90802:0:0:0:0:
448,192,90802,128,0,90927:0:0:0:0:
320,192,90802,128,0,91052:0:0:0:0:
192,192,91052,128,0,91302:0:0:0:0:
64,192,91052,1,0,0:0:0:0:
448,192,91302,128,0,91552:0:0:0:0:
64,192,91302,128,0,91427:0:0:0:0:
320,192,91552,128,0,91802:0:0:0:0:
192,192,91552,1,0,0:0:0:0:
192,192,91802,128,0,92052:0:0:0:0:
448,192,91802,128,0,91927:0:0:0:0:
64,192,92052,1,0,0:0:0:0:
320,192,92052,1,0,0:0:0:0:
64,192,92177,1,0,0:0:0:0:
64,192,92302,1,0,0:0:0:0:
448,192,92302,1,0,0:0:0:0:
64,192,92427,1,0,0:0:0:0:
64,192,92552,1,0,0:0:0:0:
320,192,92552,1,0,0:0:0:0:
64,192,92677,1,0,0:0:0:0:
64,192,92802,1,0,0:0:0:0:
448,192,92802,1,0,0:0:0:0:
64,192,92927,1,0,0:0:0:0:
64,192,93052,1,0,0:0:0:0:
64,192,93177,1,0,0:0:0:0:
448,192,93177,1,0,0:0:0:0:
64,192,93302,1,0,0:0:0:0:
320,192,93302,1,0,0:0:0:0:
64,192,93427,1,0,0:0:0:0:
64,192,93552,1,0,0:0:0:0:
320,192,93552,1,0,0:0:0:0:
64,192,93677,1,0,0:0:0:0:
64,192,93802,1,0,0:0:0:0:
448,192,93802,128,0,93927:0:0:0:0:
64,192,93927,1,0,0:0:0:0:
64,192,94052,1,0,0:0:0:0:
192,192,94052,1,0,0:0:0:0:
448,192,94302,128,0,94427:0:0:0:0:
64,192,94552,1,0,0:0:0:0:
448,192,94802,128,0,94927:0:0:0:0:
192,192,94802,128,0,95052:0:0:0:0:
320,192,95052,128,0,95302:0:0:0:0:
64,192,95052,1,0,0:0:0:0:
448,192,95302,128,0,95552:0:0:0:0:
64,192,95302,128,0,95427:0:0:0:0:
192,192,95552,128,0,95802:0:0:0:0:
320,192,95552,1,0,0:0:0:0:
64,192,95802,128,0,96052:0:0:0:0:
448,192,95802,128,0,95927:0:0:0:0:
320,192,96052,1,0,0:0:0:0:
192,192,96052,128,0,96552:0:0:0:0:
320,192,96177,1,0,0:0:0:0:
320,192,96302,1,0,0:0:0:0:
320,192,96427,1,0,0:0:0:0:
320,192,96552,1,0,0:0:0:0:
64,192,96552,128,0,97052:0:0:0:0:
320,192,96677,1,0,0:0:0:0:
320,192,96802,1,0,0:0:0:0:
320,192,96927,1,0,0:0:0:0:
320,192,97052,1,0,0:0:0:0:
192,192,97052,128,0,97552:0:0:0:0:
320,192,97177,1,0,0:0:0:0:
320,192,97302,1,0,0:0:0:0:
320,192,97427,1,0,0:0:0:0:
320,192,97552,1,0,0:0:0:0:
64,192,97552,128,0,98052:0:0:0:0:
320,192,97677,1,0,0:0:0:0:
320,192,97802,1,0,0:0:0:0:
320,192,97927,1,0,0:0:0:0:
320,192,98052,1,0,0:0:0:0:
192,192,98052,128,0,98552:0:0:0:0:
320,192,98177,1,0,0:0:0:0:
320,192,98302,1,0,0:0:0:0:
320,192,98427,1,0,0:0:0:0:
320,192,98552,1,0,0:0:0:0:
64,192,98552,128,0,99052:0:0:0:0:
320,192,98677,1,0,0:0:0:0:
320,192,98802,1,0,0:0:0:0:
320,192,98927,1,0,0:0:0:0:
320,192,99052,1,0,0:0:0:0:
448,192,99052,128,0,99302:0:0:0:0:
192,192,99302,128,0,99552:0:0:0:0:
320,192,99552,128,0,99802:0:0:0:0:
192,192,99802,128,0,100052:0:0:0:0:
64,192,100052,1,0,0:0:0:0:
448,192,100052,128,0,100552:0:0:0:0:
64,192,100177,1,0,0:0:0:0:
64,192,100302,1,0,0:0:0:0:
64,192,100427,1,0,0:0:0:0:
64,192,100552,1,0,0:0:0:0:
320,192,100552,128,0,101052:0:0:0:0:
64,192,100677,1,0,0:0:0:0:
64,192,100802,1,0,0:0:0:0:
64,192,100927,1,0,0:0:0:0:
64,192,101052,1,0,0:0:0:0:
448,192,101052,128,0,101552:0:0:0:0:
64,192,101177,1,0,0:0:0:0:
64,192,101302,1,0,0:0:0:0:
64,192,101427,1,0,0:0:0:0:
64,192,101552,1,0,0:0:0:0:
320,192,101552,128,0,102052:0:0:0:0:
64,192,101677,1,0,0:0:0:0:
64,192,101802,1,0,0:0:0:0:
64,192,101927,1,0,0:0:0:0:
64,192,102052,1,0,0:0:0:0:
448,192,102052,128,0,102552:0:0:0:0:
64,192,102177,1,0,0:0:0:0:
64,192,102302,1,0,0:0:0:0:
64,192,102427,1,0,0:0:0:0:
64,192,102552,1,0,0:0:0:0:
320,192,102552,128,0,103052:0:0:0:0:
64,192,102677,1,0,0:0:0:0:
64,192,102802,1,0,0:0:0:0:
64,192,102927,1,0,0:0:0:0:
64,192,103052,1,0,0:0:0:0:
448,192,103052,128,0,103552:0:0:0:0:
320,192,103552,128,0,104052:0:0:0:0:
448,192,104052,1,0,0:0:0:0:
192,192,104052,128,0,105052:0:0:0:0:
448,192,104177,1,0,0:0:0:0:
448,192,104302,1,0,0:0:0:0:
448,192,104427,1,0,0:0:0:0:
448,192,104552,1,0,0:0:0:0:
448,192,104677,1,0,0:0:0:0:
448,192,104802,1,0,0:0:0:0:
448,192,104927,1,0,0:0:0:0:
448,192,105052,1,0,0:0:0:0:
64,192,105052,128,0,106052:0:0:0:0:
448,192,105177,1,0,0:0:0:0:
448,192,105302,1,0,0:0:0:0:
448,192,105427,1,0,0:0:0:0:
448,192,105552,1,0,0:0:0:0:
448,192,105677,1,0,0:0:0:0:
448,192,105802,1,0,0:0:0:0:
448,192,105927,1,0,0:0:0:0:
448,192,106052,1,0,0:0:0:0:
192,192,106052,1,0,0:0:0:0:
320,192,106302,128,0,106427:0:0:0:0:
64,192,106552,1,0,0:0:0:0:
448,192,106802,128,0,107052:0:0:0:0:
192,192,107052,128,0,107302:0:0:0:0:
320,192,107302,128,0,107552:0:0:0:0:
64,192,107552,128,0,107802:0:0:0:0:
320,192,107802,128,0,108052:0:0:0:0:
192,192,108052,1,0,0:0:0:0:
448,192,108052,128,0,108177:0:0:0:0:
192,192,108177,1,0,0:0:0:0:
192,192,108302,1,0,0:0:0:0:
320,192,108302,1,0,0:0:0:0:
192,192,108427,1,0,0:0:0:0:
192,192,108552,1,0,0:0:0:0:
448,192,108552,128,0,108677:0:0:0:0:
192,192,108677,1,0,0:0:0:0:
192,192,108802,1,0,0:0:0:0:
320,192,108802,1,0,0:0:0:0:
192,192,108927,1,0,0:0:0:0:
192,192,109052,1,0,0:0:0:0:
192,192,109177,1,0,0:0:0:0:
320,192,109177,1,0,0:0:0:0:
192,192,109302,1,0,0:0:0:0:
448,192,109302,1,0,0:0:0:0:
192,192,109427,1,0,0:0:0:0:
192,192,109552,1,0,0:0:0:0:
320,192,109552,1,0,0:0:0:0:
192,192,109677,1,0,0:0:0:0:
192,192,109802,1,0,0:0:0:0:
448,192,109802,1,0,0:0:0:0:
192,192,109927,1,0,0:0:0:0:
192,192,110052,1,0,0:0:0:0:
64,192,110052,1,0,0:0:0:0:
320,192,110302,128,0,110427:0:0:0:0:
64,192,110552,1,0,0:0:0:0:
320,192,110802,1,0,0:0:0:0:
192,192,111052,1,0,0:0:0:0:
64,192,111177,1,0,0:0:0:0:
320,192,111302,1,0,0:0:0:0:
64,192,111552,128,0,111677:0:0:0:0:
320,192,111802,128,0,111927:0:0:0:0:
192,192,112052,1,0,0:0:0:0:
64,192,112052,128,0,112114:0:0:0:0:
192,192,112177,1,0,0:0:0:0:
64,192,112177,128,0,112239:0:0:0:0:
192,192,112302,1,0,0:0:0:0:
64,192,112302,128,0,112364:0:0:0:0:
192,192,112427,1,0,0:0:0:0:
64,192,112427,128,0,112489:0:0:0:0:
192,192,112552,1,0,0:0:0:0:
64,192,112552,128,0,112614:0:0:0:0:
192,192,112677,1,0,0:0:0:0:
64,192,112677,128,0,112739:0:0:0:0:
192,192,112802,1,0,0:0:0:0:
64,192,112802,128,0,112864:0:0:0:0:
192,192,112927,1,0,0:0:0:0:
64,192,112927,128,0,112989:0:0:0:0:
192,192,113052,1,0,0:0:0:0:
64,192,113052,128,0,113114:0:0:0:0:
192,192,113177,1,0,0:0:0:0:
64,192,113177,128,0,113239:0:0:0:0:
192,192,113302,1,0,0:0:0:0:
64,192,113302,128,0,113364:0:0:0:0:
192,192,113427,1,0,0:0:0:0:
64,192,113427,128,0,113489:0:0:0:0:
192,192,113552,1,0,0:0:0:0:
64,192,113552,128,0,113614:0:0:0:0:
192,192,113677,1,0,0:0:0:0:
64,192,113677,128,0,113739:0:0:0:0:
192,192,113802,1,0,0:0:0:0:
64,192,113802,128,0,113864:0:0:0:0:
192,192,113927,1,0,0:0:0:0:
64,192,113927,128,0,113989:0:0:0:0:
64,192,114052,1,0,0:0:0:0:
192,192,114052,128,0,114114:0:0:0:0:
64,192,114177,1,0,0:0:0:0:
192,192,114177,128,0,114239:0:0:0:0:
64,192,114302,1,0,0:0:0:0:
192,192,114302,128,0,114364:0:0:0:0:
64,192,114427,1,0,0:0:0:0:
192,192,114427,128,0,114489:0:0:0:0:
64,192,114552,1,0,0:0:0:0:
192,192,114552,128,0,114614:0:0:0:0:
64,192,114677,1,0,0:0:0:0:
192,192,114677,128,0,114739:0:0:0:0:
64,192,114802,1,0,0:0:0:0:
192,192,114802,128,0,114864:0:0:0:0:
64,192,114927,1,0,0:0:0:0:
192,192,114927,128,0,114989:0:0:0:0:
64,192,115052,1,0,0:0:0:0:
192,192,115052,1,0,0:0:0:0:
192,192,115552,1,0,0:0:0:0:
320,192,115552,128,0,115614:0:0:0:0:
192,192,115677,1,0,0:0:0:0:
320,192,115677,128,0,115739:0:0:0:0:
192,192,115802,1,0,0:0:0:0:
320,192,115802,128,0,115864:0:0:0:0:
192,192,115927,1,0,0:0:0:0:
320,192,115927,128,0,115989:0:0:0:0:
320,192,116052,1,0,0:0:0:0:
448,192,116052,128,0,116114:0:0:0:0:
320,192,116177,1,0,0:0:0:0:
448,192,116177,128,0,116239:0:0:0:0:
320,192,116302,1,0,0:0:0:0:
448,192,116302,128,0,116364:0:0:0:0:
320,192,116427,1,0,0:0:0:0:
448,192,116427,128,0,116489:0:0:0:0:
320,192,116552,1,0,0:0:0:0:
448,192,116552,128,0,116614:0:0:0:0:
320,192,116677,1,0,0:0:0:0:
448,192,116677,128,0,116739:0:0:0:0:
320,192,116802,1,0,0:0:0:0:
448,192,116802,128,0,116864:0:0:0:0:
320,192,116927,1,0,0:0:0:0:
448,192,116927,128,0,116989:0:0:0:0:
320,192,117052,1,0,0:0:0:0:
448,192,117052,128,0,117114:0:0:0:0:
320,192,117177,1,0,0:0:0:0:
448,192,117177,128,0,117239:0:0:0:0:
320,192,117302,1,0,0:0:0:0:
448,192,117302,128,0,117364:0:0:0:0:
320,192,117427,1,0,0:0:0:0:
448,192,117427,128,0,117489:0:0:0:0:
320,192,117552,1,0,0:0:0:0:
448,192,117552,128,0,117614:0:0:0:0:
320,192,117677,1,0,0:0:0:0:
448,192,117677,128,0,117739:0:0:0:0:
320,192,117802,1,0,0:0:0:0:
448,192,117802,128,0,117864:0:0:0:0:
320,192,117927,1,0,0:0:0:0:
448,192,117927,128,0,117989:0:0:0:0:
448,192,118052,1,0,0:0:0:0:
192,192,118052,128,0,118114:0:0:0:0:
448,192,118177,1,0,0:0:0:0:
192,192,118177,128,0,118239:0:0:0:0:
448,192,118302,1,0,0:0:0:0:
192,192,118302,128,0,118364:0:0:0:0:
448,192,118427,1,0,0:0:0:0:
192,192,118427,128,0,118489:0:0:0:0:
448,192,118552,1,0,0:0:0:0:
192,192,118552,128,0,118614:0:0:0:0:
448,192,118677,1,0,0:0:0:0:
192,192,118677,128,0,118739:0:0:0:0:
320,192,118802,1,0,0:0:0:0:
64,192,119052,1,0,0:0:0:0:
448,192,119177,1,0,0:0:0:0:
192,192,119302,1,0,0:0:0:0:
320,192,119552,1,0,0:0:0:0:
64,192,119802,1,0,0:0:0:0:
448,192,120052,1,0,0:0:0:0:
64,192,120052,1,0,0:0:0:0:
448,192,120177,1,0,0:0:0:0:
448,192,120302,1,0,0:0:0:0:
192,192,120302,128,0,120427:0:0:0:0:
448,192,120427,1,0,0:0:0:0:
448,192,120552,1,0,0:0:0:0:
64,192,120552,1,0,0:0:0:0:
448,192,120677,1,0,0:0:0:0:
448,192,120802,1,0,0:0:0:0:
192,192,120802,128,0,120927:0:0:0:0:
448,192,120927,1,0,0:0:0:0:
448,192,121052,1,0,0:0:0:0:
448,192,121177,1,0,0:0:0:0:
64,192,121177,1,0,0:0:0:0:
448,192,121302,1,0,0:0:0:0:
192,192,121302,128,0,121427:0:0:0:0:
448,192,121427,1,0,0:0:0:0:
448,192,121552,1,0,0:0:0:0:
64,192,121552,1,0,0:0:0:0:
448,192,121677,1,0,0:0:0:0:
448,192,121802,1,0,0:0:0:0:
192,192,121802,128,0,121927:0:0:0:0:
448,192,121927,1,0,0:0:0:0:
448,192,122052,1,0,0:0:0:0:
64,192,122052,1,0,0:0:0:0:
320,192,122302,128,0,122427:0:0:0:0:
192,192,122552,1,0,0:0:0:0:
448,192,122802,1,0,0:0:0:0:
192,192,123177,1,0,0:0:0:0:
448,192,123302,1,0,0:0:0:0:
192,192,123552,1,0,0:0:0:0:
448,192,123802,1,0,0:0:0:0:
192,192,124052,1,0,0:0:0:0:
320,192,124052,1,0,0:0:0:0:
192,192,124177,1,0,0:0:0:0:
192,192,124302,1,0,0:0:0:0:
448,192,124302,128,0,124427:0:0:0:0:
192,192,124427,1,0,0:0:0:0:
192,192,124552,1,0,0:0:0:0:
320,192,124552,1,0,0:0:0:0:
192,192,124677,1,0,0:0:0:0:
192,192,124802,1,0,0:0:0:0:
448,192,124802,128,0,124927:0:0:0:0:
192,192,124927,1,0,0:0:0:0:
192,192,125052,1,0,0:0:0:0:
320,192,125052,1,0,0:0:0:0:
192,192,125177,1,0,0:0:0:0:
192,192,125302,1,0,0:0:0:0:
448,192,125302,128,0,125427:0:0:0:0:
192,192,125427,1,0,0:0:0:0:
192,192,125552,1,0,0:0:0:0:
320,192,125552,1,0,0:0:0:0:
192,192,125677,1,0,0:0:0:0:
192,192,125802,1,0,0:0:0:0:
448,192,125802,128,0,125927:0:0:0:0:
192,192,125927,1,0,0:0:0:0:
192,192,126052,1,0,0:0:0:0:
64,192,126052,1,0,0:0:0:0:
448,192,126302,128,0,126427:0:0:0:0:
64,192,126552,1,0,0:0:0:0:
320,192,126802,1,0,0:0:0:0:
64,192,127177,1,0,0:0:0:0:
320,192,127302,1,0,0:0:0:0:
64,192,127552,1,0,0:0:0:0:
320,192,127802,1,0,0:0:0:0:
192,192,128052,128,0,128302:0:0:0:0:
64,192,128302,128,0,128552:0:0:0:0:
448,192,128302,1,0,0:0:0:0:
320,192,128552,128,0,128802:0:0:0:0:
192,192,128552,1,0,0:0:0:0:
448,192,128802,128,0,129302:0:0:0:0:
64,192,128802,1,0,0:0:0:0:
64,192,129302,128,0,129552:0:0:0:0:
320,192,129302,1,0,0:0:0:0:
320,192,129552,128,0,129802:0:0:0:0:
192,192,129552,1,0,0:0:0:0:
448,192,129802,128,0,130302:0:0:0:0:
64,192,129802,1,0,0:0:0:0:
64,192,130302,128,0,130552:0:0:0:0:
320,192,130302,1,0,0:0:0:0:
320,192,130552,128,0,130802:0:0:0:0:
192,192,130552,1,0,0:0:0:0:
448,192,130802,128,0,131302:0:0:0:0:
64,192,130802,1,0,0:0:0:0:
192,192,131302,128,0,131552:0:0:0:0:
320,192,131302,1,0,0:0:0:0:
64,192,131552,128,0,131802:0:0:0:0:
448,192,131552,1,0,0:0:0:0:
320,192,131802,128,0,132052:0:0:0:0:
192,192,131802,1,0,0:0:0:0:
192,192,132052,128,0,132302:0:0:0:0:
64,192,132302,128,0,132552:0:0:0:0:
448,192,132302,1,0,0:0:0:0:
320,192,132552,128,0,132802:0:0:0:0:
192,192,132552,1,0,0:0:0:0:
448,192,132802,128,0,133302:0:0:0:0:
64,192,132802,1,0,0:0:0:0:
64,192,133302,128,0,133552:0:0:0:0:
320,192,133302,1,0,0:0:0:0:
320,192,133552,128,0,133802:0:0:0:0:
192,192,133552,1,0,0:0:0:0:
448,192,133802,128,0,134302:0:0:0:0:
64,192,133802,1,0,0:0:0:0:
64,192,134302,128,0,134552:0:0:0:0:
192,192,134302,1,0,0:0:0:0:
192,192,134552,128,0,134802:0:0:0:0:
320,192,134552,1,0,0:0:0:0:
448,192,134802,128,0,135302:0:0:0:0:
64,192,134802,1,0,0:0:0:0:
320,192,135302,1,0,0:0:0:0:
192,192,135552,128,0,136052:0:0:0:0:
320,192,136052,1,0,0:0:0:0:
192,192,136302,1,0,0:0:0:0:
64,192,136802,1,0,0:0:0:0:
192,192,137302,1,0,0:0:0:0:
320,192,137802,1,0,0:0:0:0:
448,192,138302,1,0,0:0:0:0:
320,192,138552,128,0,138802:0:0:0:0:
192,192,138802,128,0,139052:0:0:0:0:
448,192,139135,128,0,139552:0:0:0:0:
320,192,139552,128,0,139802:0:0:0:0:
64,192,139802,128,0,140052:0:0:0:0:
192,192,140052,1,0,0:0:0:0:
320,192,140302,128,0,140552:0:0:0:0:
448,192,140552,128,0,140802:0:0:0:0:
64,192,140802,1,0,0:0:0:0:
192,192,141302,1,0,0:0:0:0:
320,192,141802,1,0,0:0:0:0:
448,192,142302,1,0,0:0:0:0:
192,192,144052,1,0,0:0:0:0:
64,192,144302,1,0,0:0:0:0:
448,192,144552,1,0,0:0:0:0:
320,192,144802,1,0,0:0:0:0:
64,192,145302,1,0,0:0:0:0:
448,192,145552,1,0,0:0:0:0:
320,192,145802,1,0,0:0:0:0:
64,192,146302,1,0,0:0:0:0:
448,192,146552,1,0,0:0:0:0:
320,192,146802,1,0,0:0:0:0:
64,192,147302,1,0,0:0:0:0:
448,192,147552,1,0,0:0:0:0:
320,192,147802,1,0,0:0:0:0:
64,192,148052,1,0,0:0:0:0:
192,192,148302,1,0,0:0:0:0:
320,192,148552,1,0,0:0:0:0:
192,192,148802,1,0,0:0:0:0:
448,192,149302,1,0,0:0:0:0:
320,192,149552,1,0,0:0:0:0:
192,192,149802,1,0,0:0:0:0:
320,192,150302,1,0,0:0:0:0:
448,192,150552,1,0,0:0:0:0:
192,192,150802,1,0,0:0:0:0:
64,192,151552,1,0,0:0:0:0:
