osu file format v14

[General]
AudioFilename: audio.mp3
AudioLeadIn: 0
PreviewTime: 84840
Countdown: 0
SampleSet: Soft
StackLeniency: 0.5
Mode: 0
LetterboxInBreaks: 0
WidescreenStoryboard: 0

[Editor]
Bookmarks: 34017,42487,50958,59428,67899,76369,84840,93311,101781,110252,118722,127193,135664,144134,152605,161075,169546,178016,186487,195012
DistanceSpacing: 1.3
BeatDivisor: 3
GridSize: 32
TimelineZoom: 1

[Metadata]
Title:idontwannabeyouanymore
TitleUnicode:idontwannabeyouanymore
Artist:Billie Eilish
ArtistUnicode:Billie Eilish
Creator:eiri-
Version:Simple
Source:
Tags:Ayyri English Pop dont smile at me i don't wanna be you anymore
BeatmapID:2191835
BeatmapSetID:1011319

[Difficulty]
HPDrainRate:3
CircleSize:3
OverallDifficulty:4
ApproachRate:5.5
SliderMultiplier:1
SliderTickRate:1

[Events]
//Background and Video events
0,0,"idontwannabeyouanymore.jpg",0,0
//Break Periods
//Storyboard Layer 0 (Background)
//Storyboard Layer 1 (Fail)
//Storyboard Layer 2 (Pass)
//Storyboard Layer 3 (Foreground)
//Storyboard Layer 4 (Overlay)
//Storyboard Sound Samples

[TimingPoints]
34017,352.941176470588,3,2,1,50,1,0
50958,-100,3,2,1,75,0,0
84840,-100,3,2,1,50,0,0
93311,-100,3,2,1,60,0,0
101781,-100,3,2,1,70,0,0
135664,-100,3,2,1,75,0,0
152605,-100,3,2,1,80,0,0
169546,-100,3,2,1,75,0,0
186487,-100,3,2,1,50,0,0
194369,444.444444444444,3,2,1,30,1,0
194665,521.739130434783,3,2,1,30,1,0

[Colours]
Combo1 : 156,202,248
Combo2 : 250,112,133
Combo3 : 200,154,250
Combo4 : 150,211,159

[HitObjects]
43,111,34017,6,0,B|29:62|81:28|81:28|170:94|95:236,1,300,10|0,0:0|1:0,0:0:0:0:
55,328,35428,1,2,0:0:0:0:
177,372,35781,1,2,0:0:0:0:
256,310,36017,1,8,0:0:0:0:
256,310,36134,2,0,L|245:185,2,100,10|0|0,0:0|0:0|0:0,0:0:0:0:
378,355,37193,1,2,1:2:0:0:
473,266,37546,2,0,P|484:225|476:158,1,100,2|2,0:0|0:0,0:0:0:0:
432,46,38252,6,0,B|285:-12|302:108|141:107,1,300,10|0,0:0|1:0,0:0:0:0:
27,67,39664,1,2,0:0:0:0:
142,6,40017,1,2,0:0:0:0:
236,37,40252,1,8,0:0:0:0:
236,37,40369,2,0,L|226:157,2,100,10|0|0,0:0|0:0|0:0,0:0:0:0:
363,7,41428,1,2,1:2:0:0:
453,99,41781,2,0,P|448:145|423:200,1,100,2|2,0:0|0:0,0:0:0:0:
337,288,42487,6,0,B|240:265|240:265|204:360|204:360|97:387,1,300,10|0,0:0|1:0,0:0:0:0:
6,302,43899,1,2,0:0:0:0:
107,220,44252,1,2,0:0:0:0:
57,132,44487,1,8,0:0:0:0:
57,132,44605,2,0,L|47:29,2,100,10|0|0,0:0|0:0|0:0,0:0:0:0:
169,66,45664,1,2,1:2:0:0:
277,137,46017,2,0,P|325:148|390:140,1,100,2|2,0:0|0:0,0:0:0:0:
501,113,46722,5,10,0:0:0:0:
485,242,47075,1,0,0:0:0:0:
469,371,47428,1,0,0:0:0:0:
344,333,47781,6,0,L|230:343,1,100,2|0,1:2|0:0,0:0:0:0:
114,350,48487,1,0,0:0:0:0:
142,254,48722,1,8,0:0:0:0:
142,254,48840,2,0,L|158:151,1,100,10|0,0:0|0:0,0:0:0:0:
106,35,49546,1,0,0:0:0:0:
6,118,49899,1,2,1:2:0:0:
57,238,50252,2,0,L|41:336,1,100,10|10,0:0|0:0,0:0:0:0:
166,375,50958,6,0,P|229:372|302:285,1,166.666666666667,10|0,0:0|0:0,0:0:0:0:
348,297,51664,2,0,P|345:243|319:193,1,100,2|0,0:0|1:0,0:0:0:0:
239,104,52369,1,2,0:0:0:0:
125,167,52722,1,2,0:0:0:0:
30,77,53075,6,0,P|102:47|223:85,1,200,10|0,0:0|0:0,0:0:0:0:
305,173,54134,1,0,1:0:0:0:
405,90,54487,1,10,0:0:0:0:
405,90,54840,1,10,0:0:0:0:
413,219,55193,6,0,L|423:341,1,100,10|2,0:0|0:0,0:0:0:0:
312,247,55899,2,0,L|302:125,1,100,2|0,0:0|1:0,0:0:0:0:
296,17,56605,1,2,0:0:0:0:
199,104,56958,1,2,0:0:0:0:
68,96,57311,6,0,L|53:-17,2,100,10|0|0,0:0|0:0|0:0,0:0:0:0:
91,223,58369,1,0,1:0:0:0:
45,344,58722,1,10,0:0:0:0:
45,344,59075,1,10,0:0:0:0:
169,305,59428,6,0,B|245:285|243:386|337:390,1,166.666666666667,10|0,0:0|0:0,0:0:0:0:
355,377,60134,2,0,P|378:336|376:276,1,100,2|0,0:0|1:0,0:0:0:0:
316,169,60840,1,2,0:0:0:0:
350,43,61193,1,10,0:0:0:0:
226,84,61546,6,0,P|149:91|46:35,1,166.666666666667,10|0,0:0|0:0,0:0:0:0:
39,16,62252,2,0,P|76:27|137:72,1,100,2|0,0:0|1:0,0:0:0:0:
78,317,63311,1,10,0:0:0:0:
185,243,63664,6,0,L|307:256,2,100,10|0|0,0:0|0:0|0:0,0:0:0:0:
64,192,64722,1,2,1:2:0:0:
170,116,65075,1,0,0:0:0:0:
292,160,65428,1,0,0:0:0:0:
235,277,65781,6,0,L|113:290,2,100,10|0|0,0:0|0:0|0:0,0:0:0:0:
365,267,66840,1,2,1:2:0:0:
450,169,67193,1,10,0:0:0:0:
455,39,67546,1,10,0:0:0:0:
327,63,67899,6,0,B|251:78|251:78|268:192,1,166.666666666667,10|0,0:0|0:0,0:0:0:0:
270,215,68605,2,0,L|160:204,1,100,2|0,0:0|1:0,0:0:0:0:
81,299,69311,1,2,0:0:0:0:
189,371,69664,1,2,0:0:0:0:
285,284,70017,6,0,P|351:278|491:315,1,200,10|0,0:0|0:0,0:0:0:0:
370,379,71075,1,0,1:0:0:0:
258,311,71428,1,10,0:0:0:0:
258,311,71781,1,10,0:0:0:0:
312,192,72134,6,0,B|296:116|347:107|317:10,1,166.666666666667,10|0,0:0|0:0,0:0:0:0:
274,10,72840,2,0,P|211:40|165:39,1,100,2|0,0:0|1:0,0:0:0:0:
53,20,73546,1,2,0:0:0:0:
81,146,73899,1,2,0:0:0:0:
51,272,74252,6,0,L|30:376,2,100,10|0|0,0:0|0:0|0:0,0:0:0:0:
81,146,75311,1,0,1:0:0:0:
207,175,75664,1,10,0:0:0:0:
223,46,76017,1,10,0:0:0:0:
344,100,76369,6,0,B|419:102|417:9|519:35,1,166.666666666667,10|0,0:0|0:0,0:0:0:0:
508,77,77075,2,0,L|492:189,1,100,2|0,0:0|1:0,0:0:0:0:
472,304,77781,1,2,0:0:0:0:
344,277,78134,1,10,0:0:0:0:
254,371,78487,6,0,P|172:363|124:276,1,166.666666666667,10|0,0:0|0:0,0:0:0:0:
147,253,79193,2,0,L|135:125,1,100,2|0,0:0|1:0,0:0:0:0:
366,298,80252,1,10,0:0:0:0:
315,171,80605,6,0,L|319:54,2,100,10|0|0,0:0|0:0|0:0,0:0:0:0:
366,298,81664,1,2,1:2:0:0:
256,368,82017,1,0,0:0:0:0:
146,298,82369,1,0,0:0:0:0:
197,171,82722,6,0,L|193:54,2,100,10|0|0,0:0|0:0|0:0,0:0:0:0:
256,288,83781,1,10,0:0:0:0:
347,196,84134,1,10,0:0:0:0:
476,198,84487,1,10,0:0:0:0:
455,69,84840,6,0,B|336:43|340:183|173:182,1,300,10|2,0:0|0:0,0:0:0:0:
189,182,86958,6,0,B|286:152|286:152|310:249|310:249|398:292,1,300,10|2,0:0|0:0,0:0:0:0:
398,292,89075,6,0,B|326:265|302:344|244:335,1,166.666666666667,10|0,0:0|0:0,0:0:0:0:
204,298,89781,2,0,P|234:260|481:389,1,400,2|0,0:0|0:0,0:0:0:0:
481,378,93311,6,0,L|489:264,2,100,10|0|0,0:0|0:0|0:0,0:0:0:0:
362,324,94369,1,0,1:0:0:0:
362,324,95428,6,0,P|296:350|247:341,1,100,10|2,0:0|0:0,0:0:0:0:
145,302,96134,1,2,0:0:0:0:
210,189,96487,2,0,P|276:163|325:172,1,100,2|2,1:2|0:0,0:0:0:0:
427,211,97193,1,2,0:0:0:0:
413,81,97546,6,0,L|291:70,2,100,10|0|0,0:0|0:0|0:0,0:0:0:0:
427,211,98605,1,2,1:2:0:0:
305,164,98958,1,2,0:0:0:0:
315,293,99311,1,2,0:0:0:0:
196,244,99664,6,0,P|160:253|94:299,1,100,10|2,0:0|0:0,0:0:0:0:
19,382,100369,1,2,0:0:0:0:
0,283,100605,1,8,0:0:0:0:
0,283,100722,2,0,L|13:192,1,66.6666666666667,2|8,1:2|0:0,0:0:0:0:
33,173,101075,2,0,L|20:82,1,66.6666666666667,10|8,0:0|0:0,0:0:0:0:
14,57,101428,1,10,0:0:0:0:
136,12,101781,6,0,P|184:16|234:51,1,100,10|10,0:0|0:0,0:0:0:0:
278,121,102369,1,8,0:0:0:0:
441,58,102840,1,0,1:0:0:0:
475,183,103193,6,0,L|465:273,1,66.6666666666667,10|8,0:0|0:0,0:0:0:0:
456,298,103546,2,0,L|366:308,1,66.6666666666667,2|8,0:0|0:0,0:0:0:0:
340,312,103899,1,10,0:0:0:0:
234,235,104252,1,10,0:0:0:0:
124,305,104605,1,2,0:0:0:0:
76,183,104958,6,0,P|103:153|162:128,1,100,2|10,1:2|0:0,0:0:0:0:
286,144,105664,1,2,0:0:0:0:
239,22,106017,6,0,L|122:37,1,100,10|10,0:0|0:0,0:0:0:0:
47,49,106605,1,8,0:0:0:0:
78,219,107075,6,0,L|63:311,1,66.6666666666667,2|0,1:2|0:0,0:0:0:0:
60,334,107428,2,0,L|152:319,1,66.6666666666667,10|8,0:0|0:0,0:0:0:0:
175,315,107781,1,2,0:0:0:0:
251,369,108017,1,8,0:0:0:0:
251,369,108134,5,10,0:0:0:0:
352,288,108487,1,10,0:0:0:0:
319,162,108840,1,2,0:0:0:0:
188,162,109193,2,0,L|201:68,1,66.6666666666667,2|0,1:2|0:0,0:0:0:0:
206,46,109546,2,0,P|245:32|280:32,1,66.6666666666667,10|8,0:0|0:0,0:0:0:0:
316,49,109899,1,2,0:0:0:0:
441,16,110252,6,0,L|428:137,1,100,10|10,0:0|0:0,0:0:0:0:
409,244,110958,2,0,L|354:224,2,33.3333333333333,2|2|2,0:0|0:0|0:0,0:0:0:0:
453,267,111311,2,0,P|445:306|388:362,1,100,2|10,1:2|0:0,0:0:0:0:
280,380,112017,2,0,L|201:372,1,66.6666666666667,2|8,0:0|0:0,0:0:0:0:
164,365,112369,1,10,0:0:0:0:
229,252,112722,6,0,L|218:167,1,66.6666666666667,10|8,0:0|0:0,0:0:0:0:
197,141,113075,2,0,L|208:56,1,66.6666666666667,2|0,0:0|0:0,0:0:0:0:
213,25,113428,2,0,P|176:7|108:18,1,100,2|10,1:2|0:0,0:0:0:0:
27,106,114134,6,0,L|40:211,1,100,2|10,0:0|0:0,0:0:0:0:
57,334,114840,1,10,0:0:0:0:
140,292,115075,1,8,0:0:0:0:
140,292,115193,2,0,L|229:309,1,66.6666666666667,2|0,0:0|0:0,0:0:0:0:
251,313,115546,6,0,L|234:189,1,100,2|8,1:2|0:0,0:0:0:0:
221,84,116252,2,0,P|274:86|310:99,1,66.6666666666667,2|10,0:0|0:0,0:0:0:0:
332,109,116605,1,10,0:0:0:0:
450,56,116958,1,10,0:0:0:0:
503,174,117311,1,2,0:0:0:0:
385,227,117664,2,0,L|402:351,2,100,2|10|10,1:2|0:0|0:0,0:0:0:0:
371,97,118722,6,0,P|346:66|271:39,1,100,10|8,0:0|0:0,0:0:0:0:
199,28,119311,1,8,0:0:0:0:
235,197,119781,1,2,1:2:0:0:
105,182,120134,2,0,L|116:267,1,66.6666666666667,10|8,0:0|0:0,0:0:0:0:
148,283,120487,2,0,L|137:368,1,66.6666666666667,2|8,0:0|0:0,0:0:0:0:
99,378,120840,5,10,0:0:0:0:
13,280,121193,1,10,0:0:0:0:
72,164,121546,1,2,0:0:0:0:
29,41,121899,6,0,L|143:52,1,100,2|2,1:2|0:0,0:0:0:0:
257,68,122605,1,2,0:0:0:0:
235,199,122958,2,0,L|349:188,1,100,10|10,0:0|0:0,0:0:0:0:
317,281,123546,1,8,0:0:0:0:
489,266,124016,1,2,1:2:0:0:
504,136,124369,6,0,P|477:108|440:91,1,66.6666666666667,10|8,0:0|0:0,0:0:0:0:
429,50,124722,2,0,P|390:49|351:63,1,66.6666666666667,2|8,0:0|0:0,0:0:0:0:
324,87,125075,1,10,0:0:0:0:
346,215,125428,1,10,0:0:0:0:
249,302,125781,1,2,0:0:0:0:
130,248,126134,5,2,1:2:0:0:
183,129,126487,2,0,L|176:33,1,66.6666666666667,10|8,0:0|0:0,0:0:0:0:
172,12,126840,1,2,0:0:0:0:
43,89,127193,6,0,L|51:197,1,100,10|10,0:0|0:0,0:0:0:0:
58,281,127781,1,8,0:0:0:0:
215,208,128252,1,2,1:2:0:0:
279,320,128605,2,0,P|321:344|345:347,1,66.6666666666667,10|8,0:0|0:0,0:0:0:0:
374,311,128958,2,0,P|416:287|440:284,1,66.6666666666667,2|8,0:0|0:0,0:0:0:0:
478,306,129311,5,10,0:0:0:0:
511,180,129664,1,10,0:0:0:0:
394,122,130016,1,2,0:0:0:0:
427,3,130369,2,0,L|321:12,1,100,2|10,1:2|0:0,0:0:0:0:
244,56,130958,1,8,0:0:0:0:
244,56,131075,2,0,L|149:47,1,66.6666666666667,2|0,0:0|0:0,0:0:0:0:
127,44,131428,5,10,0:0:0:0:
99,171,131781,1,8,0:0:0:0:
71,298,132134,1,2,0:0:0:0:
188,354,132487,6,0,P|234:355|268:340,1,66.6666666666667,2|0,1:2|0:0,0:0:0:0:
293,318,132840,1,10,0:0:0:0:
276,189,133193,1,2,0:0:0:0:
367,205,133428,1,8,0:0:0:0:
367,205,133546,6,0,L|360:115,1,66.6666666666667,10|0,0:0|0:0,0:0:0:0:
356,88,133899,1,10,0:0:0:0:
256,0,134252,1,2,0:0:0:0:
156,88,134605,6,0,L|69:92,1,66.6666666666667,2|0,1:2|0:0,0:0:0:0:
39,93,134958,2,0,L|50:179,1,66.6666666666667,10|8,0:0|0:0,0:0:0:0:
55,208,135311,1,10,0:0:0:0:
28,335,135664,6,0,B|108:307|102:372|205:372,1,166.666666666667,10|0,0:0|0:0,0:0:0:0:
230,351,136369,2,0,L|214:246,1,100,2|0,0:0|1:0,0:0:0:0:
193,123,137075,1,2,0:0:0:0:
311,167,137428,1,2,0:0:0:0:
407,79,137781,6,0,P|371:41|211:6,1,200,10|0,0:0|0:0,0:0:0:0:
193,123,138840,1,0,1:0:0:0:
60,100,139193,1,10,0:0:0:0:
60,100,139546,1,10,0:0:0:0:
73,229,139899,6,0,L|83:351,1,100,10|2,0:0|0:0,0:0:0:0:
201,379,140605,2,0,P|247:373|294:333,1,100,2|0,0:0|1:0,0:0:0:0:
340,221,141311,1,2,0:0:0:0:
216,179,141664,1,2,0:0:0:0:
318,98,142017,6,0,L|303:-15,2,100,10|0|0,0:0|0:0|0:0,0:0:0:0:
340,221,143075,1,0,1:0:0:0:
462,177,143428,1,10,0:0:0:0:
462,177,143781,1,10,0:0:0:0:
495,309,144134,6,0,B|415:306|416:228|320:258,1,166.666666666667,10|0,0:0|0:0,0:0:0:0:
311,291,144840,2,0,P|352:314|412:312,1,100,2|0,0:0|1:0,0:0:0:0:
471,203,145546,1,2,0:0:0:0:
456,73,145899,1,10,0:0:0:0:
336,125,146252,6,0,P|259:132|156:76,1,166.666666666667,10|0,0:0|0:0,0:0:0:0:
142,62,146958,2,0,P|131:99|86:160,1,100,2|0,0:0|1:0,0:0:0:0:
265,348,148017,1,10,0:0:0:0:
342,243,148370,6,0,L|464:230,2,100,10|0|0,0:0|0:0|0:0,0:0:0:0:
221,193,149428,1,2,1:2:0:0:
304,92,149781,1,0,0:0:0:0:
426,136,150134,1,0,0:0:0:0:
342,243,150487,6,0,L|220:230,2,100,10|0|0,0:0|0:0|0:0,0:0:0:0:
471,257,151546,1,2,1:2:0:0:
432,132,151899,1,10,0:0:0:0:
466,6,152252,1,10,0:0:0:0:
336,13,152605,6,0,L|251:18,1,66.6666666666667,10|0,0:0|0:0,0:0:0:0:
219,20,152958,2,0,L|234:103,1,66.6666666666667,10|0,0:0|0:0,0:0:0:0:
265,121,153311,2,0,L|250:204,1,66.6666666666667,10|0,0:0|0:0,0:0:0:0:
241,235,153664,1,4,1:2:0:0:
241,235,154722,6,0,P|281:218|318:217,1,66.6666666666667,10|0,0:0|0:0,0:0:0:0:
344,186,155075,2,0,P|384:202|411:227,1,66.6666666666667,10|0,0:0|0:0,0:0:0:0:
452,224,155428,2,0,P|469:264|470:301,1,66.6666666666667,10|0,0:0|0:0,0:0:0:0:
459,335,155781,1,4,1:2:0:0:
334,372,156134,1,10,0:0:0:0:
334,372,156487,1,10,0:0:0:0:
240,282,156840,6,0,L|161:267,1,66.6666666666667,10|0,0:0|0:0,0:0:0:0:
140,233,157193,2,0,L|61:248,1,66.6666666666667,10|0,0:0|0:0,0:0:0:0:
25,257,157546,2,0,P|13:211|19:178,1,66.6666666666667,10|0,0:0|0:0,0:0:0:0:
30,145,157899,1,4,1:2:0:0:
30,145,158958,6,0,P|74:159|109:159,1,66.6666666666667,10|0,0:0|0:0,0:0:0:0:
141,142,159311,2,0,P|152:97|176:61,1,66.6666666666667,10|0,0:0|0:0,0:0:0:0:
210,67,159664,2,0,P|254:81|289:81,1,66.6666666666667,10|0,0:0|0:0,0:0:0:0:
320,64,160016,1,4,1:2:0:0:
286,189,160369,1,10,0:0:0:0:
286,189,160722,1,10,0:0:0:0:
392,263,161075,6,0,L|400:357,1,66.6666666666667,10|0,0:0|0:0,0:0:0:0:
399,379,161428,2,0,P|346:362|325:342,1,66.6666666666667,10|0,0:0|0:0,0:0:0:0:
300,322,161781,2,0,P|271:339|238:345,1,66.6666666666667,10|0,0:0|0:0,0:0:0:0:
189,340,162134,1,4,1:2:0:0:
189,340,163193,6,0,L|197:246,1,66.6666666666667,10|0,0:0|0:0,0:0:0:0:
220,230,163546,2,0,L|212:136,1,66.6666666666667,10|0,0:0|0:0,0:0:0:0:
182,124,163899,2,0,L|190:30,1,66.6666666666667,10|0,0:0|0:0,0:0:0:0:
197,8,164252,1,4,1:2:0:0:
449,71,164958,1,10,0:0:0:0:
449,71,165311,6,0,P|406:44|366:36,1,66.6666666666667,10|0,0:0|0:0,0:0:0:0:
354,4,165664,2,0,P|304:15|270:37,1,66.6666666666667,10|0,0:0|0:0,0:0:0:0:
260,61,166016,1,10,0:0:0:0:
343,160,166369,6,0,P|300:187|260:195,1,66.6666666666667,6|8,1:2|0:0,0:0:0:0:
248,227,166722,2,0,P|198:215|164:193,1,66.6666666666667,10|8,0:0|0:0,0:0:0:0:
154,170,167074,1,10,0:0:0:0:
52,255,167428,6,0,L|67:328,1,66.6666666666667,10|0,0:0|0:0,0:0:0:0:
78,368,167781,2,0,L|151:353,1,66.6666666666667,10|0,0:0|0:0,0:0:0:0:
192,345,168134,1,10,0:0:0:0:
320,345,168487,6,0,L|385:358,1,66.6666666666667,6|8,1:2|0:0,0:0:0:0:
434,368,168840,2,0,L|447:302,1,66.6666666666667,10|8,0:0|0:0,0:0:0:0:
460,255,169193,1,10,0:0:0:0:
426,129,169546,5,10,0:0:0:0:
86,255,170605,1,2,0:0:0:0:
426,255,171664,1,10,0:0:0:0:
86,129,172723,1,2,0:0:0:0:
86,129,173781,6,0,B|167:97|161:192|251:190,1,166.666666666667,10|8,0:0|0:0,0:0:0:0:
276,166,174487,2,0,P|259:131|195:134,1,100,2|2,0:0|0:0,0:0:0:0:
203,127,175899,1,8,0:0:0:0:
203,127,176958,1,2,0:0:0:0:
203,127,178016,5,10,0:0:0:0:
480,352,179075,1,2,0:0:0:0:
203,127,180134,1,10,0:0:0:0:
480,352,181193,1,2,0:0:0:0:
203,127,182252,6,0,B|122:95|128:190|38:188,1,166.666666666667,10|0,0:0|0:0,0:0:0:0:
13,164,182958,2,0,P|30:129|94:132,1,100,2|2,0:0|0:0,0:0:0:0:
86,125,184370,1,8,0:0:0:0:
86,125,185429,1,2,0:0:0:0:
480,192,186487,5,2,0:0:0:0:
256,352,187546,1,2,0:0:0:0:
32,192,188605,1,2,0:0:0:0:
256,32,189664,1,2,0:0:0:0:
256,32,190722,6,0,L|256:256,1,200,2|0,0:0|0:0,0:0:0:0:
256,275,191546,2,0,B|406:209|359:362|503:369,1,266.666666666667,2|0,0:0|0:0,0:0:0:0:
480,366,194369,6,0,L|387:360,1,66.6666666666667,2|2,0:0|0:0,0:0:0:0:
284,355,195012,1,6,0:0:0:0:
