osu file format v14

[General]
AudioFilename: audio.mp3
AudioLeadIn: 0
PreviewTime: 84840
Countdown: 0
SampleSet: Soft
StackLeniency: 0.5
Mode: 0
LetterboxInBreaks: 0
WidescreenStoryboard: 0

[Editor]
Bookmarks: 34017,42487,50958,59428,67899,76369,84840,93311,101781,110252,118722,127193,135664,144134,152605,161075,169546,178016,186487,195012
DistanceSpacing: 1.3
BeatDivisor: 3
GridSize: 32
TimelineZoom: 1

[Metadata]
Title:idontwannabeyouanymore
TitleUnicode:idontwannabeyouanymore
Artist:Billie Eilish
ArtistUnicode:Billie Eilish
Creator:eiri-
Version:Dearest
Source:
Tags:Ayyri English Pop dont smile at me i don't wanna be you anymore
BeatmapID:2116756
BeatmapSetID:1011319

[Difficulty]
HPDrainRate:5
CircleSize:5
OverallDifficulty:8
ApproachRate:9
SliderMultiplier:1.4
SliderTickRate:1

[Events]
//Background and Video events
0,0,"idontwannabeyouanymore.jpg",0,0
//Break Periods
//Storyboard Layer 0 (Background)
//Storyboard Layer 1 (Fail)
//Storyboard Layer 2 (Pass)
//Storyboard Layer 3 (Foreground)
//Storyboard Layer 4 (Overlay)
//Storyboard Sound Samples

[TimingPoints]
34017,352.941176470588,3,2,1,50,1,0
50958,-100,3,2,1,75,0,0
84840,-100,3,2,1,50,0,0
93311,-100,3,2,1,60,0,0
101781,-100,3,2,1,70,0,0
135664,-100,3,2,1,75,0,0
152605,-100,3,2,1,80,0,0
169546,-100,3,2,1,75,0,0
186487,-100,3,2,1,50,0,0
194369,444.444444444444,3,2,1,30,1,0
194665,521.739130434783,3,2,1,30,1,0

[Colours]
Combo1 : 156,202,248
Combo2 : 250,112,133
Combo3 : 200,154,250
Combo4 : 150,211,159

[HitObjects]
37,62,31899,5,2,0:0:0:0:
37,62,32958,1,2,0:0:0:0:
37,62,34017,6,0,B|265:-4|149:193|438:189,1,420,10|0,0:0|1:0,0:0:0:0:
411,189,35428,1,2,0:0:0:0:
411,189,35781,1,2,0:0:0:0:
353,226,36017,1,8,0:0:0:0:
353,226,36134,2,0,L|374:384,2,140,10|0|0,0:0|0:0|0:0,0:0:0:0:
381,346,37193,5,2,1:2:0:0:
310,384,37546,1,2,0:0:0:0:
268,278,37899,1,2,0:0:0:0:
21,379,38252,6,0,B|153:331|153:331|231:215|231:215|310:200|377:250,1,420,10|0,0:0|1:0,0:0:0:0:
365,241,39664,1,2,0:0:0:0:
365,241,40017,1,2,0:0:0:0:
294,176,40252,1,8,0:0:0:0:
294,176,40369,2,0,L|311:22,2,140,10|0|0,0:0|0:0|0:0,0:0:0:0:
310,384,41428,5,2,1:2:0:0:
351,277,41781,1,2,0:0:0:0:
221,227,42134,1,2,0:0:0:0:
79,383,42487,6,0,B|-34:181|263:173|99:-25,1,420,10|0,0:0|1:0,0:0:0:0:
119,1,43899,1,2,0:0:0:0:
119,1,44252,1,2,0:0:0:0:
191,121,44487,1,8,0:0:0:0:
191,121,44605,2,0,L|50:133,2,140,10|0|0,0:0|0:0|0:0,0:0:0:0:
352,32,45664,5,2,1:2:0:0:
365,169,46017,1,2,0:0:0:0:
278,133,46369,1,2,0:0:0:0:
200,261,46722,6,0,P|76:253|34:230,2,140,10|0|0,0:0|0:0|0:0,0:0:0:0:
352,185,47781,5,2,1:2:0:0:
345,214,48134,1,0,0:0:0:0:
356,258,48487,1,0,0:0:0:0:
325,349,48722,1,8,0:0:0:0:
325,349,48840,5,10,0:0:0:0:
224,320,49193,1,0,0:0:0:0:
160,352,49546,1,0,0:0:0:0:
197,212,49899,5,2,1:2:0:0:
225,319,50252,1,10,0:0:0:0:
65,287,50605,2,0,P|46:265|83:272,1,93.3333333333333,10|0,0:0|0:0,0:0:0:0:
65,271,50958,6,0,B|175:209|186:318|301:300,1,233.333333333333,10|0,0:0|0:0,0:0:0:0:
407,286,51664,2,0,P|380:225|312:248,1,140,2|0,0:0|1:0,0:0:0:0:
319,238,52369,5,2,0:0:0:0:
392,233,52722,1,2,0:0:0:0:
452,343,53075,6,0,P|501:300|500:198,2,140,10|0|0,0:0|0:0|0:0,0:0:0:0:
319,238,54134,1,0,1:0:0:0:
319,238,54487,5,10,0:0:0:0:
407,286,54840,1,10,0:0:0:0:
435,118,55193,6,0,P|366:124|343:145,1,93.3333333333333,10|0,0:0|0:0,0:0:0:0:
285,180,55546,2,0,P|216:174|193:153,1,93.3333333333333,2|0,0:0|0:0,0:0:0:0:
167,82,55899,2,0,P|224:53|256:109,1,140,2|0,0:0|1:0,0:0:0:0:
256,107,56605,5,2,0:0:0:0:
216,52,56958,1,2,0:0:0:0:
147,211,57311,6,0,L|0:227,2,140,10|0|0,0:0|0:0|0:0,0:0:0:0:
256,107,58369,1,0,1:0:0:0:
256,107,58722,5,10,0:0:0:0:
167,82,59075,1,10,0:0:0:0:
368,8,59428,6,0,P|464:11|501:151,1,233.333333333333,10|0,0:0|0:0,0:0:0:0:
466,200,60134,2,0,B|400:211|406:127|320:177,1,140,2|0,0:0|1:0,0:0:0:0:
338,168,60840,5,2,0:0:0:0:
466,200,61193,1,10,0:0:0:0:
376,366,61546,6,0,B|260:379|283:255|135:322,1,233.333333333333,10|0,0:0|0:0,0:0:0:0:
96,350,62252,2,0,P|144:298|127:217,1,140,2|0,0:0|1:0,0:0:0:0:
138,233,63311,6,0,L|151:111,1,93.3333333333333,10|0,0:0|0:0,0:0:0:0:
163,4,63664,6,0,L|20:25,2,140,10|0|0,0:0|0:0|0:0,0:0:0:0:
138,233,64722,5,2,1:2:0:0:
214,209,65075,1,0,0:0:0:0:
279,276,65428,1,0,0:0:0:0:
138,233,65781,5,10,0:0:0:0:
234,215,66134,1,0,0:0:0:0:
299,304,66487,1,0,0:0:0:0:
138,233,66840,5,2,1:2:0:0:
258,244,67193,1,10,0:0:0:0:
303,384,67546,1,10,0:0:0:0:
388,135,67899,6,0,P|282:159|142:164,1,233.333333333333,10|0,0:0|0:0,0:0:0:0:
70,121,68605,2,0,P|80:80|180:75,1,140,2|0,0:0|1:0,0:0:0:0:
166,62,69311,5,2,0:0:0:0:
78,84,69664,1,2,0:0:0:0:
44,243,70017,6,0,L|202:227,2,140,10|0|0,0:0|0:0|0:0,0:0:0:0:
172,145,71075,1,0,1:0:0:0:
172,145,71428,5,10,0:0:0:0:
224,288,71781,1,10,0:0:0:0:
480,192,72134,6,0,B|418:162|418:162|348:214|348:214|235:223,1,233.333333333333,10|0,0:0|0:0,0:0:0:0:
173,225,72840,2,0,P|191:183|291:194,1,140,2|0,0:0|1:0,0:0:0:0:
276,177,73546,5,2,0:0:0:0:
202,174,73899,1,2,0:0:0:0:
160,364,74252,6,0,L|309:348,2,140,10|0|0,0:0|0:0|0:0,0:0:0:0:
0,224,75311,1,0,1:0:0:0:
0,224,75664,5,10,0:0:0:0:
95,308,76017,1,10,0:0:0:0:
86,87,76369,6,0,B|219:34|179:145|337:134,1,233.333333333333,10|0,0:0|0:0,0:0:0:0:
408,115,77075,2,0,P|389:65|294:76,1,140,2|0,0:0|1:0,0:0:0:0:
311,59,77781,5,2,0:0:0:0:
408,115,78134,1,10,0:0:0:0:
216,203,78487,6,0,B|154:189|154:189|117:122|117:122|-3:104,1,233.333333333333,10|0,0:0|0:0,0:0:0:0:
77,181,79193,2,0,L|241:155,1,140,2|0,0:0|1:0,0:0:0:0:
215,159,80252,6,0,P|240:102|233:57,1,93.3333333333333,10|0,0:0|0:0,0:0:0:0:
217,0,80605,6,0,P|295:35|371:19,2,140,10|0|0,0:0|0:0|0:0,0:0:0:0:
117,122,81664,5,2,1:2:0:0:
211,87,82017,1,0,0:0:0:0:
293,177,82369,1,0,0:0:0:0:
150,111,82722,5,10,0:0:0:0:
246,101,83075,1,0,0:0:0:0:
297,223,83428,1,0,0:0:0:0:
191,94,83781,5,10,0:0:0:0:
308,142,84134,1,10,0:0:0:0:
281,316,84487,1,10,0:0:0:0:
281,316,84840,6,0,B|230:201|135:158|53:178|12:248|29:333|113:340|177:301,1,420,10|2,0:0|0:0,0:0:0:0:
135,317,86958,6,0,B|208:248|234:141|149:73|149:73|61:106|94:216,1,420,10|2,0:0|0:0,0:0:0:0:
87,183,89075,6,0,P|179:140|309:135,1,233.333333333333,10|0,0:0|0:0,0:0:0:0:
316,237,89781,2,0,P|217:179|379:209,1,560,2|0,0:0|0:0,0:0:0:0:
383,204,93311,6,0,L|401:48,2,140,10|0|0,0:0|0:0|0:0,0:0:0:0:
408,337,94369,1,0,1:0:0:0:
408,337,95428,6,0,P|349:317|278:317,1,93.3333333333333,10|0,0:0|0:0,0:0:0:0:
329,221,95781,2,0,P|273:248|222:298,1,93.3333333333333,2|0,0:0|0:0,0:0:0:0:
193,215,96134,2,0,P|173:274|173:345,1,93.3333333333333,2|0,0:0|0:0,0:0:0:0:
123,108,96487,6,0,L|215:119,1,93.3333333333333,2|0,1:2|0:0,0:0:0:0:
282,158,96840,2,0,L|374:146,1,93.3333333333333,2|0,0:0|0:0,0:0:0:0:
441,136,97193,2,0,L|452:43,1,93.3333333333333,2|0,0:0|0:0,0:0:0:0:
452,43,97546,6,0,L|472:221,2,140,10|0|0,0:0|0:0|0:0,0:0:0:0:
405,240,98605,1,2,1:2:0:0:
405,240,98958,6,0,P|448:219|502:223,1,93.3333333333333,2|0,0:0|0:0,0:0:0:0:
405,240,99311,2,0,P|363:260|317:259,1,93.3333333333333,2|0,0:0|0:0,0:0:0:0:
197,212,99664,6,0,P|154:191|100:195,1,93.3333333333333,10|0,0:0|0:0,0:0:0:0:
80,321,100017,2,0,P|123:342|177:338,1,93.3333333333333,2|0,0:0|0:0,0:0:0:0:
139,266,100369,2,0,L|120:132,1,93.3333333333333,2|8,0:0|0:0,0:0:0:0:
152,358,100722,5,2,1:2:0:0:
288,288,100958,1,8,0:0:0:0:
288,288,101075,1,10,0:0:0:0:
246,369,101311,1,8,0:0:0:0:
246,369,101428,1,10,0:0:0:0:
245,202,101664,1,8,0:0:0:0:
245,202,101781,6,0,P|347:195|375:182,1,93.3333333333333,10|0,0:0|0:0,0:0:0:0:
379,178,102134,2,0,L|359:290,1,93.3333333333333,10|8,0:0|0:0,0:0:0:0:
377,346,102487,1,2,0:0:0:0:
339,92,102840,1,0,1:0:0:0:
339,92,103193,6,0,L|236:102,1,93.3333333333333,10|8,0:0|0:0,0:0:0:0:
196,109,103546,2,0,P|167:65|172:7,1,93.3333333333333,2|8,0:0|0:0,0:0:0:0:
165,25,103899,5,10,0:0:0:0:
220,121,104252,1,10,0:0:0:0:
192,213,104487,1,8,0:0:0:0:
192,213,104605,1,2,0:0:0:0:
278,349,104958,1,2,1:2:0:0:
278,349,105311,6,0,P|227:310|174:318,1,93.3333333333333,10|8,0:0|0:0,0:0:0:0:
144,353,105664,2,0,L|46:346,1,93.3333333333333,2|0,0:0|0:0,0:0:0:0:
3,266,106017,6,0,P|54:227|107:235,1,93.3333333333333,10|0,0:0|0:0,0:0:0:0:
149,262,106369,2,0,L|169:146,1,93.3333333333333,10|8,0:0|0:0,0:0:0:0:
145,94,106722,1,2,0:0:0:0:
213,377,107075,6,0,L|334:363,1,93.3333333333333,2|0,1:2|0:0,0:0:0:0:
379,384,107428,1,10,0:0:0:0:
274,281,107664,1,8,0:0:0:0:
274,281,107781,1,2,0:0:0:0:
361,216,108016,1,8,0:0:0:0:
361,216,108134,6,0,L|373:81,1,93.3333333333333,10|0,0:0|0:0,0:0:0:0:
371,76,108487,2,0,L|236:88,1,93.3333333333333,10|8,0:0|0:0,0:0:0:0:
219,132,108840,1,2,0:0:0:0:
512,224,109193,1,2,1:2:0:0:
512,224,109546,6,0,P|465:263|417:276,1,93.3333333333333,10|8,0:0|0:0,0:0:0:0:
344,249,109899,2,0,P|312:214|295:171,1,93.3333333333333,2|0,0:0|0:0,0:0:0:0:
343,109,110252,6,0,L|352:1,1,93.3333333333333,10|0,0:0|0:0,0:0:0:0:
350,15,110605,1,10,0:0:0:0:
404,157,110840,1,10,0:0:0:0:
404,157,110958,2,0,L|467:148,2,46.6666666666667,2|2|2,0:0|0:0|0:0,0:0:0:0:
267,100,111311,6,0,L|155:84,1,93.3333333333333,2|0,1:2|0:0,0:0:0:0:
109,126,111664,2,0,L|221:110,1,93.3333333333333,10|8,0:0|0:0,0:0:0:0:
99,52,112017,1,2,0:0:0:0:
60,247,112252,1,8,0:0:0:0:
60,247,112369,6,0,P|32:190|6:162,1,93.3333333333333,10|0,0:0|0:0,0:0:0:0:
2,319,112722,2,0,P|60:285|103:277,1,93.3333333333333,10|8,0:0|0:0,0:0:0:0:
165,325,113075,2,0,P|223:359|266:367,1,93.3333333333333,2|0,0:0|0:0,0:0:0:0:
356,340,113428,6,0,P|390:308|414:268,1,93.3333333333333,2|0,1:2|0:0,0:0:0:0:
435,194,113781,1,10,0:0:0:0:
504,372,114017,1,8,0:0:0:0:
504,372,114134,2,0,P|465:345|421:331,1,93.3333333333333,2|0,0:0|0:0,0:0:0:0:
259,341,114487,6,0,P|214:326|176:300,1,93.3333333333333,10|0,0:0|0:0,0:0:0:0:
136,228,114840,1,10,0:0:0:0:
315,242,115075,1,8,0:0:0:0:
315,242,115193,2,0,L|290:120,1,93.3333333333333,2|0,0:0|0:0,0:0:0:0:
279,62,115546,6,0,L|423:92,1,140,2|8,1:2|0:0,0:0:0:0:
268,157,116134,1,8,0:0:0:0:
268,157,116252,2,0,L|186:174,1,46.6666666666667,2|2,0:0|0:0,0:0:0:0:
126,189,116487,1,10,0:0:0:0:
126,189,116605,6,0,P|90:131|106:39,1,140,10|10,0:0|0:0,0:0:0:0:
71,141,117193,1,8,0:0:0:0:
71,141,117311,1,2,0:0:0:0:
302,82,117664,6,0,L|405:103,1,93.3333333333333,2|0,1:2|0:0,0:0:0:0:
300,179,118016,2,0,L|197:200,1,93.3333333333333,10|8,0:0|0:0,0:0:0:0:
342,265,118369,1,10,0:0:0:0:
342,265,118722,6,0,P|394:241|456:253,1,93.3333333333333,10|0,0:0|0:0,0:0:0:0:
500,274,119075,1,8,0:0:0:0:
359,367,119311,1,8,0:0:0:0:
359,367,119428,2,0,L|467:379,1,93.3333333333333,2|0,0:0|0:0,0:0:0:0:
251,291,119781,6,0,L|158:301,1,93.3333333333333,2|0,1:2|0:0,0:0:0:0:
75,288,120134,2,0,P|100:241|165:219,1,93.3333333333333,10|8,0:0|0:0,0:0:0:0:
134,381,120487,2,0,P|95:356|75:314,1,93.3333333333333,2|8,0:0|0:0,0:0:0:0:
164,222,120840,6,0,L|173:91,1,93.3333333333333,10|0,0:0|0:0,0:0:0:0:
178,44,121193,1,10,0:0:0:0:
272,158,121428,1,8,0:0:0:0:
272,158,121546,2,0,P|325:130|346:93,1,93.3333333333333,2|0,0:0|0:0,0:0:0:0:
377,11,121899,6,0,B|412:1|412:1|398:71,1,93.3333333333333,2|2,1:2|0:0,0:0:0:0:
367,185,122252,2,0,B|332:195|332:195|346:125,1,93.3333333333333,2|2,0:0|0:0,0:0:0:0:
494,174,122605,1,2,0:0:0:0:
189,260,122840,1,0,0:0:0:0:
189,260,122958,6,0,L|296:250,1,93.3333333333333,10|0,0:0|0:0,0:0:0:0:
371,245,123311,1,10,0:0:0:0:
300,362,123546,1,8,0:0:0:0:
300,362,123664,2,0,L|310:253,1,93.3333333333333,2|0,0:0|0:0,0:0:0:0:
321,169,124016,6,0,P|369:141|394:98,1,93.3333333333333,2|0,1:2|0:0,0:0:0:0:
419,40,124369,2,0,L|295:61,1,93.3333333333333,10|8,0:0|0:0,0:0:0:0:
238,23,124722,2,0,L|114:2,1,93.3333333333333,2|8,0:0|0:0,0:0:0:0:
73,145,125075,6,0,P|140:130|166:85,1,93.3333333333333,10|0,0:0|0:0,0:0:0:0:
200,46,125428,2,0,L|186:174,1,93.3333333333333,10|8,0:0|0:0,0:0:0:0:
225,208,125781,2,0,L|211:336,1,93.3333333333333,2|0,0:0|0:0,0:0:0:0:
101,215,126134,1,2,1:2:0:0:
101,215,126487,6,0,P|161:187|209:180,1,93.3333333333333,10|8,0:0|0:0,0:0:0:0:
281,199,126840,2,0,P|317:228|345:265,1,93.3333333333333,2|0,0:0|0:0,0:0:0:0:
402,373,127193,6,0,P|386:290|397:214,1,140,10|10,0:0|0:0,0:0:0:0:
366,307,127781,1,8,0:0:0:0:
366,307,127899,2,0,L|238:320,1,93.3333333333333,2|0,0:0|0:0,0:0:0:0:
172,255,128252,6,0,L|44:242,1,93.3333333333333,2|0,1:2|0:0,0:0:0:0:
1,199,128605,2,0,P|48:165|102:141,1,93.3333333333333,10|8,0:0|0:0,0:0:0:0:
179,99,128958,2,0,P|137:77|100:49,1,93.3333333333333,2|8,0:0|0:0,0:0:0:0:
268,0,129311,6,0,L|257:132,1,93.3333333333333,10|0,0:0|0:0,0:0:0:0:
249,187,129664,1,10,0:0:0:0:
429,107,129899,1,8,0:0:0:0:
429,107,130016,2,0,P|381:75|305:71,1,93.3333333333333,2|0,0:0|0:0,0:0:0:0:
413,216,130369,5,2,1:2:0:0:
413,216,130722,2,0,L|423:98,1,93.3333333333333,10|8,0:0|0:0,0:0:0:0:
278,279,131075,2,0,L|268:161,1,93.3333333333333,2|0,0:0|0:0,0:0:0:0:
372,374,131428,6,0,P|428:348|459:299,1,93.3333333333333,10|0,0:0|0:0,0:0:0:0:
471,251,131781,1,8,0:0:0:0:
282,314,132016,1,8,0:0:0:0:
282,314,132134,2,0,P|226:288|195:239,1,93.3333333333333,2|2,0:0|0:0,0:0:0:0:
174,169,132487,6,0,L|243:158,2,46.6666666666667,2|2|2,1:2|0:0|0:0,0:0:0:0:
92,203,132840,2,0,L|-11:185,1,93.3333333333333,10|8,0:0|0:0,0:0:0:0:
0,186,133193,1,2,0:0:0:0:
192,140,133428,1,8,0:0:0:0:
192,140,133546,6,0,P|151:77|119:53,1,93.3333333333333,10|0,0:0|0:0,0:0:0:0:
65,223,133899,2,0,P|111:222|156:209,1,93.3333333333333,10|8,0:0|0:0,0:0:0:0:
61,76,134252,2,0,P|34:114|20:158,1,93.3333333333333,2|0,0:0|0:0,0:0:0:0:
208,71,134605,6,0,L|323:86,1,93.3333333333333,2|0,1:2|0:0,0:0:0:0:
154,176,134958,2,0,L|39:191,1,93.3333333333333,10|8,0:0|0:0,0:0:0:0:
264,241,135311,2,0,L|379:256,1,93.3333333333333,10|0,0:0|0:0,0:0:0:0:
496,68,135664,6,0,P|414:65|324:184,1,233.333333333333,10|0,0:0|0:0,0:0:0:0:
306,296,136369,2,0,P|341:252|288:269,1,140,2|0,0:0|1:0,0:0:0:0:
289,260,137075,5,2,0:0:0:0:
324,174,137428,1,2,0:0:0:0:
145,189,137781,6,0,L|-2:206,2,140,10|0|0,0:0|0:0|0:0,0:0:0:0:
322,329,138840,1,0,1:0:0:0:
322,329,139193,5,10,0:0:0:0:
301,155,139546,1,10,0:0:0:0:
329,359,139899,6,0,P|357:307|353:240,1,93.3333333333333,10|0,0:0|0:0,0:0:0:0:
151,273,140252,2,0,P|158:319|183:359,1,93.3333333333333,2|0,0:0|0:0,0:0:0:0:
256,192,140605,2,0,L|256:32,1,140,2|0,0:0|1:0,0:0:0:0:
256,52,141311,5,2,0:0:0:0:
256,128,141664,1,2,0:0:0:0:
256,320,142016,6,0,L|419:294,2,140,10|0|0,0:0|0:0|0:0,0:0:0:0:
68,262,143075,1,0,1:0:0:0:
68,262,143428,5,10,0:0:0:0:
220,313,143781,1,10,0:0:0:0:
168,96,144134,6,0,B|286:54|280:144|422:146,1,233.333333333333,10|0,0:0|0:0,0:0:0:0:
485,120,144840,2,0,P|461:66|365:75,1,140,2|0,0:0|1:0,0:0:0:0:
387,57,145546,5,2,0:0:0:0:
485,120,145899,1,10,0:0:0:0:
320,256,146252,6,0,P|192:240|96:195,1,233.333333333333,10|0,0:0|0:0,0:0:0:0:
36,125,146958,2,0,P|88:68|141:94,1,140,2|0,0:0|1:0,0:0:0:0:
137,88,148016,6,0,L|258:79,1,93.3333333333333,10|0,0:0|0:0,0:0:0:0:
442,68,148369,6,0,P|381:33|280:31,2,140,10|0|0,0:0|0:0|0:0,0:0:0:0:
361,286,149428,5,2,1:2:0:0:
270,250,149781,1,0,0:0:0:0:
188,343,150134,1,0,0:0:0:0:
341,276,150487,5,10,0:0:0:0:
243,269,150840,1,0,0:0:0:0:
176,368,151193,1,0,0:0:0:0:
292,265,151546,5,2,1:2:0:0:
183,301,151899,1,10,0:0:0:0:
288,384,152252,1,10,0:0:0:0:
197,142,152605,6,0,L|213:10,1,93.3333333333333,10|0,0:0|0:0,0:0:0:0:
224,157,152958,2,0,L|240:25,1,93.3333333333333,10|0,0:0|0:0,0:0:0:0:
251,172,153311,2,0,L|267:40,1,93.3333333333333,10|0,0:0|0:0,0:0:0:0:
320,288,153664,1,4,1:2:0:0:
116,364,153899,1,8,0:0:0:0:
116,364,154016,6,0,P|164:317|201:296,1,93.3333333333333,10|8,0:0|0:0,0:0:0:0:
215,214,154369,2,0,P|275:243|307:270,1,93.3333333333333,10|8,0:0|0:0,0:0:0:0:
418,113,154722,6,0,L|402:-19,1,93.3333333333333,10|0,0:0|0:0,0:0:0:0:
391,128,155075,2,0,L|375:-4,1,93.3333333333333,10|0,0:0|0:0,0:0:0:0:
364,143,155428,2,0,L|348:11,1,93.3333333333333,10|0,0:0|0:0,0:0:0:0:
295,259,155781,1,4,1:2:0:0:
499,335,156016,1,8,0:0:0:0:
499,335,156133,6,0,P|451:288|414:267,1,93.3333333333333,10|8,0:0|0:0,0:0:0:0:
400,185,156486,2,0,P|339:214|307:241,1,93.3333333333333,10|8,0:0|0:0,0:0:0:0:
123,159,156840,6,0,L|139:27,1,93.3333333333333,10|0,0:0|0:0,0:0:0:0:
150,174,157193,2,0,L|166:42,1,93.3333333333333,10|0,0:0|0:0,0:0:0:0:
177,189,157546,2,0,L|193:57,1,93.3333333333333,10|0,0:0|0:0,0:0:0:0:
246,305,157899,1,4,1:2:0:0:
42,381,158134,1,8,0:0:0:0:
42,381,158251,6,0,P|90:334|127:313,1,93.3333333333333,10|8,0:0|0:0,0:0:0:0:
141,231,158604,2,0,P|201:260|233:287,1,93.3333333333333,10|8,0:0|0:0,0:0:0:0:
396,143,158958,6,0,L|380:11,1,93.3333333333333,10|0,0:0|0:0,0:0:0:0:
369,158,159311,2,0,L|353:26,1,93.3333333333333,10|0,0:0|0:0,0:0:0:0:
342,173,159664,2,0,L|326:41,1,93.3333333333333,10|0,0:0|0:0,0:0:0:0:
273,289,160017,1,4,1:2:0:0:
477,365,160252,1,8,0:0:0:0:
477,365,160369,6,0,P|429:318|392:297,1,93.3333333333333,10|8,0:0|0:0,0:0:0:0:
378,215,160722,2,0,P|317:244|285:271,1,93.3333333333333,10|8,0:0|0:0,0:0:0:0:
91,138,161075,6,0,L|107:6,1,93.3333333333333,10|0,0:0|0:0,0:0:0:0:
118,153,161428,2,0,L|134:21,1,93.3333333333333,10|0,0:0|0:0,0:0:0:0:
145,168,161781,2,0,L|161:36,1,93.3333333333333,10|0,0:0|0:0,0:0:0:0:
214,284,162134,1,4,1:2:0:0:
10,360,162369,1,8,0:0:0:0:
10,360,162486,6,0,P|58:313|95:292,1,93.3333333333333,10|8,0:0|0:0,0:0:0:0:
109,210,162839,2,0,P|169:239|201:266,1,93.3333333333333,10|8,0:0|0:0,0:0:0:0:
417,132,163193,6,0,L|401:0,1,93.3333333333333,10|0,0:0|0:0,0:0:0:0:
390,147,163546,2,0,L|374:15,1,93.3333333333333,10|0,0:0|0:0,0:0:0:0:
363,162,163899,2,0,L|347:30,1,93.3333333333333,10|0,0:0|0:0,0:0:0:0:
294,278,164252,1,4,1:2:0:0:
498,354,164487,1,8,0:0:0:0:
498,354,164605,5,10,0:0:0:0:
399,204,164840,1,8,0:0:0:0:
399,204,164957,2,0,P|338:233|306:260,1,93.3333333333333,10|8,0:0|0:0,0:0:0:0:
82,134,165311,6,0,L|98:2,1,93.3333333333333,10|0,0:0|0:0,0:0:0:0:
109,149,165664,2,0,L|125:17,1,93.3333333333333,10|0,0:0|0:0,0:0:0:0:
136,164,166017,2,0,L|152:32,1,93.3333333333333,10|0,0:0|0:0,0:0:0:0:
205,280,166369,6,0,L|189:148,1,93.3333333333333,6|8,1:2|0:0,0:0:0:0:
178,295,166722,2,0,L|162:163,1,93.3333333333333,10|8,0:0|0:0,0:0:0:0:
151,310,167075,2,0,L|135:178,1,93.3333333333333,10|8,0:0|0:0,0:0:0:0:
430,134,167428,6,0,L|418:41,1,93.3333333333333,10|0,0:0|0:0,0:0:0:0:
403,149,167781,2,0,L|391:56,1,93.3333333333333,10|0,0:0|0:0,0:0:0:0:
376,164,168134,2,0,L|364:71,1,93.3333333333333,10|0,0:0|0:0,0:0:0:0:
307,280,168486,6,0,L|318:187,1,93.3333333333333,6|8,1:2|0:0,0:0:0:0:
334,295,168839,2,0,L|345:202,1,93.3333333333333,10|8,0:0|0:0,0:0:0:0:
361,310,169192,2,0,L|372:217,1,93.3333333333333,10|8,0:0|0:0,0:0:0:0:
256,384,169546,6,0,L|256:288,1,93.3333333333333,10|0,0:0|0:0,0:0:0:0:
256,192,169899,1,8,0:0:0:0:
256,384,170134,1,8,0:0:0:0:
256,0,170605,6,0,L|256:96,1,93.3333333333333,2|0,0:0|0:0,0:0:0:0:
256,192,170958,1,8,0:0:0:0:
256,46,171193,1,8,0:0:0:0:
448,192,171664,6,0,L|352:192,1,93.3333333333333,10|0,0:0|0:0,0:0:0:0:
256,192,172017,1,8,0:0:0:0:
354,192,172252,1,8,0:0:0:0:
64,192,172722,6,0,L|160:192,1,93.3333333333333,2|0,0:0|0:0,0:0:0:0:
256,192,173075,1,8,0:0:0:0:
64,192,173310,1,8,0:0:0:0:
256,384,173781,6,0,L|256:288,1,93.3333333333333,10|0,0:0|0:0,0:0:0:0:
256,192,174134,1,8,0:0:0:0:
256,384,174369,1,8,0:0:0:0:
256,384,174840,5,2,0:0:0:0:
256,192,175193,1,8,0:0:0:0:
256,338,175428,1,8,0:0:0:0:
256,384,175899,5,8,0:0:0:0:
256,192,176252,1,8,0:0:0:0:
256,290,176487,1,8,0:0:0:0:
256,384,176958,5,2,0:0:0:0:
256,192,177311,1,8,0:0:0:0:
256,384,177546,1,8,0:0:0:0:
256,0,178016,6,0,L|256:96,1,93.3333333333333,10|0,0:0|0:0,0:0:0:0:
256,192,178369,1,8,0:0:0:0:
256,0,178604,1,8,0:0:0:0:
256,384,179075,6,0,L|256:288,1,93.3333333333333,2|0,0:0|0:0,0:0:0:0:
256,192,179428,1,8,0:0:0:0:
256,338,179663,1,8,0:0:0:0:
64,192,180134,6,0,L|160:192,1,93.3333333333333,10|0,0:0|0:0,0:0:0:0:
256,192,180487,1,8,0:0:0:0:
158,192,180722,1,8,0:0:0:0:
448,192,181192,6,0,L|354:192,1,93.3333333333333,2|0,0:0|0:0,0:0:0:0:
256,192,181545,1,8,0:0:0:0:
448,192,181780,1,8,0:0:0:0:
256,0,182251,6,0,L|256:96,1,93.3333333333333,10|0,0:0|0:0,0:0:0:0:
256,192,182604,1,8,0:0:0:0:
256,0,182839,1,8,0:0:0:0:
256,0,183310,5,2,0:0:0:0:
256,192,183663,1,8,0:0:0:0:
256,46,183898,1,8,0:0:0:0:
256,0,184369,5,8,0:0:0:0:
256,192,184722,1,8,0:0:0:0:
256,94,184957,1,8,0:0:0:0:
256,0,185428,5,2,0:0:0:0:
256,192,185781,1,8,0:0:0:0:
256,0,186016,5,8,0:0:0:0:
256,192,186487,5,2,0:0:0:0:
256,224,187546,1,2,0:0:0:0:
256,288,188605,1,2,0:0:0:0:
256,384,189664,1,2,0:0:0:0:
256,192,190722,6,0,P|367:200|455:62,1,280,2|0,0:0|0:0,0:0:0:0:
446,28,191546,2,0,B|278:-58|274:145|64:101,1,373.333333333333,2|0,0:0|0:0,0:0:0:0:
101,106,194369,5,2,0:0:0:0:
139,168,194665,1,2,0:0:0:0:
80,298,195012,1,6,0:0:0:0:
