osu file format v14

[General]
AudioFilename: audio.mp3
AudioLeadIn: 0
PreviewTime: 84840
Countdown: 0
SampleSet: Soft
StackLeniency: 0.5
Mode: 0
LetterboxInBreaks: 0
WidescreenStoryboard: 0

[Editor]
Bookmarks: 34017,42487,50958,59428,67899,76369,84840,93311,101781,110252,118722,127193,135664,144134,152605,161075,169546,178016,186487,195012
DistanceSpacing: 1.3
BeatDivisor: 3
GridSize: 32
TimelineZoom: 1

[Metadata]
Title:idontwannabeyouanymore
TitleUnicode:idontwannabeyouanymore
Artist:Billie Eilish
ArtistUnicode:Billie Eilish
Creator:eiri-
Version:Advanced
Source:
Tags:Ayyri English Pop dont smile at me i don't wanna be you anymore
BeatmapID:2204016
BeatmapSetID:1011319

[Difficulty]
HPDrainRate:4
CircleSize:4
OverallDifficulty:6
ApproachRate:7
SliderMultiplier:1.2
SliderTickRate:1

[Events]
//Background and Video events
0,0,"idontwannabeyouanymore.jpg",0,0
//Break Periods
//Storyboard Layer 0 (Background)
//Storyboard Layer 1 (Fail)
//Storyboard Layer 2 (Pass)
//Storyboard Layer 3 (Foreground)
//Storyboard Layer 4 (Overlay)
//Storyboard Sound Samples

[TimingPoints]
34017,352.941176470588,3,2,1,50,1,0
50958,-100,3,2,1,75,0,0
84840,-100,3,2,1,50,0,0
93311,-100,3,2,1,60,0,0
101781,-100,3,2,1,70,0,0
135664,-100,3,2,1,75,0,0
152605,-100,3,2,1,80,0,0
169546,-100,3,2,1,75,0,0
186487,-100,3,2,1,50,0,0
194369,444.444444444444,3,2,1,30,1,0
194665,521.739130434783,3,2,1,30,1,0

[Colours]
Combo1 : 156,202,248
Combo2 : 250,112,133
Combo3 : 200,154,250
Combo4 : 150,211,159

[HitObjects]
32,288,34017,6,0,B|181:297|230:161|405:219,1,360,10|0,0:0|1:0,0:0:0:0:
277,332,35428,1,2,0:0:0:0:
227,183,35781,1,2,0:0:0:0:
129,219,36017,1,8,0:0:0:0:
129,219,36134,2,0,L|146:85,2,120,10|0|0,0:0|0:0|0:0,0:0:0:0:
113,374,37193,5,2,1:2:0:0:
236,278,37546,1,2,0:0:0:0:
389,307,37899,1,2,0:0:0:0:
484,183,38252,6,0,B|366:162|366:162|285:246|285:246|135:257,1,360,10|0,0:0|1:0,0:0:0:0:
6,270,39664,1,2,0:0:0:0:
120,163,40017,1,2,0:0:0:0:
183,245,40252,1,8,0:0:0:0:
183,245,40369,2,0,L|46:240,2,120,10|0|0,0:0|0:0|0:0,0:0:0:0:
323,175,41428,1,2,1:2:0:0:
462,244,41781,1,2,0:0:0:0:
462,244,42134,1,2,0:0:0:0:
459,87,42487,6,0,P|343:70|229:265,1,360,10|0,0:0|1:0,0:0:0:0:
382,254,43899,1,2,0:0:0:0:
320,110,44252,1,2,0:0:0:0:
225,152,44487,1,8,0:0:0:0:
225,152,44605,2,0,L|99:143,2,120,10|0|0,0:0|0:0|0:0,0:0:0:0:
380,165,45664,5,2,1:2:0:0:
320,309,46017,1,2,0:0:0:0:
320,309,46369,1,2,0:0:0:0:
173,254,46722,6,0,L|47:263,2,120,10|0|0,0:0|0:0|0:0,0:0:0:0:
320,309,47781,5,2,1:2:0:0:
340,154,48134,1,0,0:0:0:0:
320,309,48487,1,0,0:0:0:0:
400,242,48722,1,8,0:0:0:0:
400,242,48840,5,10,0:0:0:0:
380,87,49193,1,0,0:0:0:0:
225,110,49546,1,0,0:0:0:0:
372,162,49899,5,2,1:2:0:0:
293,27,50252,1,10,0:0:0:0:
204,155,50605,2,0,L|100:148,1,80,10|0,0:0|0:0,0:0:0:0:
95,106,50958,6,0,P|193:46|297:89,1,200,10|0,0:0|0:0,0:0:0:0:
310,97,51664,2,0,L|296:242,1,120,2|0,0:0|1:0,0:0:0:0:
279,371,52369,5,2,0:0:0:0:
428,326,52722,1,2,0:0:0:0:
290,252,53075,6,0,L|150:265,2,120,10|0|0,0:0|0:0|0:0,0:0:0:0:
428,326,54134,1,0,1:0:0:0:
470,175,54487,5,10,0:0:0:0:
470,175,54840,1,10,0:0:0:0:
338,91,55193,6,0,L|236:104,1,80,10|0,0:0|0:0,0:0:0:0:
216,131,55546,2,0,L|114:118,1,80,2|0,0:0|0:0,0:0:0:0:
85,109,55899,2,0,P|88:63|182:37,1,120,2|0,0:0|1:0,0:0:0:0:
190,176,56605,5,2,0:0:0:0:
39,216,56958,1,2,0:0:0:0:
135,338,57311,6,0,L|1:326,2,120,10|0|0,0:0|0:0|0:0,0:0:0:0:
288,288,58369,1,0,1:0:0:0:
419,372,58722,5,10,0:0:0:0:
419,372,59075,1,10,0:0:0:0:
483,229,59428,6,0,B|456:173|456:173|297:203,1,200,10|0,0:0|0:0,0:0:0:0:
269,208,60134,2,0,L|129:193,1,120,2|0,0:0|1:0,0:0:0:0:
223,332,60840,5,2,0:0:0:0:
294,193,61193,1,10,0:0:0:0:
443,238,61546,6,0,P|496:134|463:30,1,200,10|0,0:0|0:0,0:0:0:0:
447,15,62252,2,0,P|389:37|313:18,1,120,2|0,0:0|1:0,0:0:0:0:
333,28,63311,1,10,0:0:0:0:
350,182,63664,6,0,L|366:334,2,120,10|0|0,0:0|0:0|0:0,0:0:0:0:
333,28,64722,5,2,1:2:0:0:
197,105,65075,1,0,0:0:0:0:
55,38,65428,1,0,0:0:0:0:
197,105,65781,6,0,L|189:250,1,120,10|0,0:0|0:0,0:0:0:0:
183,381,66487,1,0,0:0:0:0:
191,225,66840,5,2,1:2:0:0:
326,147,67193,1,10,0:0:0:0:
468,214,67546,1,10,0:0:0:0:
326,147,67899,6,0,B|219:101|228:197|114:197,1,200,10|0,0:0|0:0,0:0:0:0:
91,187,68605,2,0,P|124:147|195:184,1,120,2|0,0:0|1:0,0:0:0:0:
119,305,69311,5,2,0:0:0:0:
256,384,69664,1,2,0:0:0:0:
393,305,70017,6,0,L|382:161,2,120,10|0|0,0:0|0:0|0:0,0:0:0:0:
256,384,71075,1,0,1:0:0:0:
282,230,71428,5,10,0:0:0:0:
282,230,71781,1,10,0:0:0:0:
126,225,72134,6,0,B|63:189|72:127|72:127|165:143,1,200,10|0,0:0|0:0,0:0:0:0:
202,146,72840,2,0,P|239:106|240:29,1,120,2|0,0:0|1:0,0:0:0:0:
88,44,73546,5,2,0:0:0:0:
202,146,73899,1,2,0:0:0:0:
345,83,74252,6,0,L|481:95,2,120,10|0|0,0:0|0:0|0:0,0:0:0:0:
202,146,75311,1,0,1:0:0:0:
320,256,75664,5,10,0:0:0:0:
320,256,76017,1,10,0:0:0:0:
457,182,76369,6,0,B|483:269|483:269|427:369,1,200,10|0,0:0|0:0,0:0:0:0:
380,345,77075,2,0,L|249:362,1,120,2|0,0:0|1:0,0:0:0:0:
106,382,77781,5,2,0:0:0:0:
168,239,78134,1,10,0:0:0:0:
103,96,78487,6,0,B|166:79|166:79|208:114|208:114|321:129,1,200,10|0,0:0|0:0,0:0:0:0:
339,129,79193,2,0,P|365:79|334:7,1,120,2|0,0:0|1:0,0:0:0:0:
348,20,80252,1,10,0:0:0:0:
316,172,80605,6,0,L|450:158,2,120,10|0|0,0:0|0:0|0:0,0:0:0:0:
160,191,81664,5,2,1:2:0:0:
230,330,82017,1,0,0:0:0:0:
381,293,82369,1,0,0:0:0:0:
230,330,82722,6,0,L|77:323,1,120,10|0,0:0|0:0,0:0:0:0:
177,183,83428,1,0,0:0:0:0:
311,262,83781,5,10,0:0:0:0:
450,192,84134,1,10,0:0:0:0:
413,41,84486,1,10,0:0:0:0:
450,192,84840,6,0,B|331:205|331:205|237:281|237:281|118:301,1,360,10|2,0:0|0:0,0:0:0:0:
119,301,86958,6,0,P|79:250|237:261,1,360,10|2,0:0|0:0,0:0:0:0:
243,235,89075,6,0,B|335:211|335:211|436:282,1,200,10|0,0:0|0:0,0:0:0:0:
461,303,89781,2,0,B|510:67|510:67|393:13|271:88,1,480,2|0,0:0|0:0,0:0:0:0:
280,82,93311,6,0,L|129:77,2,120,10|0|0,0:0|0:0|0:0,0:0:0:0:
435,86,94369,1,0,1:0:0:0:
435,86,95428,6,0,P|449:139|423:195,1,80,10|0,0:0|0:0,0:0:0:0:
415,206,95781,2,0,P|401:259|427:315,1,80,2|0,0:0|0:0,0:0:0:0:
424,331,96134,1,2,0:0:0:0:
291,248,96487,6,0,P|238:234|182:260,1,80,2|0,1:2|0:0,0:0:0:0:
171,268,96840,2,0,P|118:282|62:256,1,80,2|0,0:0|0:0,0:0:0:0:
46,259,97193,1,2,0:0:0:0:
119,121,97546,6,0,L|135:264,2,120,10|0|0,0:0|0:0|0:0,0:0:0:0:
256,32,98605,1,2,1:2:0:0:
393,121,98958,2,0,L|383:208,1,80,2|0,0:0|0:0,0:0:0:0:
409,245,99311,2,0,L|399:332,1,80,2|0,0:0|0:0,0:0:0:0:
389,375,99664,6,0,P|329:364|302:328,1,80,10|0,0:0|0:0,0:0:0:0:
265,343,100017,2,0,P|254:282|279:245,1,80,2|0,0:0|0:0,0:0:0:0:
294,227,100369,1,2,0:0:0:0:
384,278,100605,1,8,0:0:0:0:
384,278,100722,6,0,L|480:270,1,80,2|8,1:2|0:0,0:0:0:0:
463,271,101075,1,10,0:0:0:0:
432,171,101311,1,8,0:0:0:0:
432,171,101428,2,0,L|449:66,1,80,10|8,0:0|0:0,0:0:0:0:
454,40,101781,6,0,P|410:22|347:38,1,80,10|0,0:0|0:0,0:0:0:0:
336,55,102134,2,0,P|292:73|229:57,1,80,10|8,0:0|0:0,0:0:0:0:
213,48,102487,1,2,0:0:0:0:
241,201,102840,1,0,1:0:0:0:
96,143,103193,2,0,L|2:153,1,80,10|8,0:0|0:0,0:0:0:0:
40,197,103546,2,0,L|50:291,1,80,2|8,0:0|0:0,0:0:0:0:
54,328,103899,5,10,0:0:0:0:
159,213,104252,1,10,0:0:0:0:
256,248,104487,1,8,0:0:0:0:
256,248,104605,1,2,0:0:0:0:
392,172,104958,6,0,L|401:73,1,80,2|0,1:2|0:0,0:0:0:0:
407,40,105311,2,0,P|462:50|486:86,1,80,10|8,0:0|0:0,0:0:0:0:
477,118,105664,2,0,P|446:142|406:143,1,80,2|0,0:0|0:0,0:0:0:0:
354,136,106017,6,0,L|254:149,1,80,10|0,0:0|0:0,0:0:0:0:
223,155,106369,1,10,0:0:0:0:
155,234,106605,1,8,0:0:0:0:
45,57,107075,6,0,L|145:70,1,80,2|0,1:2|0:0,0:0:0:0:
175,76,107428,1,10,0:0:0:0:
121,165,107664,1,8,0:0:0:0:
121,165,107781,2,0,L|133:266,1,80,2|8,0:0|0:0,0:0:0:0:
138,296,108134,6,0,L|38:283,1,80,10|0,0:0|0:0,0:0:0:0:
58,285,108487,1,10,0:0:0:0:
189,370,108840,1,2,0:0:0:0:
280,243,109193,6,0,L|380:230,1,80,2|0,1:2|0:0,0:0:0:0:
411,225,109546,2,0,P|442:178|433:129,1,80,10|8,0:0|0:0,0:0:0:0:
460,107,109899,2,0,P|426:61|377:53,1,80,2|0,0:0|0:0,0:0:0:0:
355,66,110252,6,0,P|320:82|256:55,1,80,10|0,0:0|0:0,0:0:0:0:
240,41,110605,1,10,0:0:0:0:
179,184,110958,2,0,L|186:255,2,40,2|2|2,0:0|0:0|0:0,0:0:0:0:
172,132,111311,6,0,P|120:120|74:139,1,80,2|0,1:2|0:0,0:0:0:0:
46,145,111664,2,0,L|55:48,1,80,10|8,0:0|0:0,0:0:0:0:
60,13,112017,1,2,0:0:0:0:
160,45,112252,1,8,0:0:0:0:
160,45,112369,6,0,L|258:39,1,80,10|0,0:0|0:0,0:0:0:0:
291,38,112722,2,0,P|322:90|330:123,1,80,10|8,0:0|0:0,0:0:0:0:
370,138,113075,2,0,P|392:105|406:67,1,80,2|0,0:0|0:0,0:0:0:0:
400,15,113428,6,0,L|535:45,1,120,2|10,1:2|0:0,0:0:0:0:
469,134,114017,1,8,0:0:0:0:
469,134,114134,2,0,L|480:218,1,80,2|0,0:0|0:0,0:0:0:0:
487,264,114487,6,0,P|433:248|383:260,1,80,10|0,0:0|0:0,0:0:0:0:
366,278,114840,1,10,0:0:0:0:
268,241,115075,1,8,0:0:0:0:
268,241,115193,2,0,L|257:325,1,80,2|0,0:0|0:0,0:0:0:0:
247,371,115546,2,0,P|207:371|170:357,1,80,2|0,1:2|0:0,0:0:0:0:
137,316,115899,1,8,0:0:0:0:
195,171,116252,2,0,L|187:95,2,40,2|2|10,0:0|0:0|0:0,0:0:0:0:
200,222,116605,6,0,L|69:210,1,120,10|10,0:0|0:0,0:0:0:0:
185,91,117311,1,2,0:0:0:0:
281,213,117664,2,0,P|340:207|368:199,1,80,2|0,1:2|0:0,0:0:0:0:
390,160,118016,2,0,P|449:166|477:174,1,80,10|8,0:0|0:0,0:0:0:0:
512,199,118369,1,10,0:0:0:0:
499,43,118722,6,0,L|389:65,1,80,10|0,0:0|0:0,0:0:0:0:
376,86,119075,2,0,L|266:64,1,80,8|8,0:0|0:0,0:0:0:0:
247,57,119428,1,2,0:0:0:0:
281,213,119781,1,2,1:2:0:0:
129,173,120134,2,0,P|87:168|35:183,1,80,10|8,0:0|0:0,0:0:0:0:
28,224,120487,2,0,L|41:319,1,80,2|8,0:0|0:0,0:0:0:0:
47,354,120840,5,10,0:0:0:0:
179,271,121193,1,10,0:0:0:0:
236,357,121428,1,8,0:0:0:0:
236,357,121546,1,2,0:0:0:0:
145,229,121899,6,0,B|130:192|130:192|149:120,1,80,2|2,1:2|0:0,0:0:0:0:
156,103,122252,2,0,B|119:118|119:118|47:99,1,80,2|2,0:0|0:0,0:0:0:0:
32,87,122605,1,2,0:0:0:0:
170,15,122958,6,0,L|183:115,1,80,10|0,0:0|0:0,0:0:0:0:
189,146,123310,1,10,0:0:0:0:
151,243,123546,1,8,0:0:0:0:
332,343,124016,6,0,L|432:330,1,80,2|0,1:2|0:0,0:0:0:0:
462,324,124369,1,10,0:0:0:0:
428,225,124605,1,8,0:0:0:0:
428,225,124722,2,0,L|440:124,1,80,2|8,0:0|0:0,0:0:0:0:
445,94,125075,6,0,L|345:81,1,80,10|0,0:0|0:0,0:0:0:0:
314,74,125428,1,10,0:0:0:0:
342,174,125664,1,8,0:0:0:0:
342,174,125781,1,2,0:0:0:0:
186,165,126134,6,0,L|86:178,1,80,2|0,1:2|0:0,0:0:0:0:
54,176,126487,2,0,P|23:129|32:80,1,80,10|8,0:0|0:0,0:0:0:0:
5,58,126840,2,0,P|39:12|88:4,1,80,2|0,0:0|0:0,0:0:0:0:
103,34,127193,6,0,L|97:145,1,80,10|0,0:0|0:0,0:0:0:0:
96,166,127546,1,10,0:0:0:0:
197,142,127781,1,8,0:0:0:0:
249,343,128252,6,0,P|288:339|321:317,1,80,2|0,1:2|0:0,0:0:0:0:
348,272,128605,2,0,L|339:175,1,80,10|8,0:0|0:0,0:0:0:0:
334,140,128958,1,2,0:0:0:0:
236,186,129193,1,8,0:0:0:0:
236,186,129310,6,0,L|138:180,1,80,10|0,0:0|0:0,0:0:0:0:
104,179,129663,2,0,P|135:231|143:264,1,80,10|8,0:0|0:0,0:0:0:0:
180,282,130016,2,0,P|166:319|144:352,1,80,2|0,0:0|0:0,0:0:0:0:
97,377,130369,6,0,L|238:361,1,120,2|10,1:2|0:0,0:0:0:0:
320,354,130958,1,8,0:0:0:0:
320,354,131075,2,0,L|309:270,1,80,2|0,0:0|0:0,0:0:0:0:
302,223,131428,6,0,P|356:207|406:219,1,80,10|0,0:0|0:0,0:0:0:0:
423,237,131781,1,8,0:0:0:0:
439,136,132016,1,8,0:0:0:0:
439,136,132134,2,0,L|350:117,1,80,2|2,0:0|0:0,0:0:0:0:
322,84,132487,6,0,L|314:8,2,40,2|2|2,1:2|0:0|0:0,0:0:0:0:
285,121,132840,2,0,L|295:212,1,80,10|8,0:0|0:0,0:0:0:0:
297,252,133193,1,2,0:0:0:0:
235,335,133428,1,8,0:0:0:0:
235,335,133546,6,0,L|104:323,1,120,10|10,0:0|0:0,0:0:0:0:
98,221,134134,1,8,0:0:0:0:
98,221,134252,1,2,0:0:0:0:
251,195,134605,2,0,P|275:140|282:112,1,80,2|0,1:2|0:0,0:0:0:0:
271,70,134957,2,0,P|309:61|349:58,1,80,10|8,0:0|0:0,0:0:0:0:
399,75,135310,1,10,0:0:0:0:
498,195,135664,6,0,B|481:259|481:259|333:243,1,200,10|0,0:0|0:0,0:0:0:0:
296,237,136369,2,0,L|313:365,1,120,2|0,0:0|1:0,0:0:0:0:
168,293,137075,5,2,0:0:0:0:
38,380,137428,1,2,0:0:0:0:
1,228,137781,6,0,L|14:88,2,120,10|0|0,0:0|0:0|0:0,0:0:0:0:
65,370,138840,1,0,1:0:0:0:
194,282,139193,5,10,0:0:0:0:
194,282,139546,1,10,0:0:0:0:
137,136,139899,6,0,L|239:149,1,80,10|0,0:0|0:0,0:0:0:0:
268,151,140252,2,0,L|255:49,1,80,2|0,0:0|0:0,0:0:0:0:
253,19,140605,2,0,P|300:64|369:53,1,120,2|0,0:0|1:0,0:0:0:0:
276,199,141311,5,2,0:0:0:0:
152,104,141664,1,2,0:0:0:0:
119,256,142017,6,0,L|-15:244,2,120,10|0|0,0:0|0:0|0:0,0:0:0:0:
273,274,143075,1,0,1:0:0:0:
238,121,143428,5,10,0:0:0:0:
238,121,143781,1,10,0:0:0:0:
357,20,144134,6,0,B|413:47|413:47|383:206,1,200,10|0,0:0|0:0,0:0:0:0:
375,233,144840,2,0,L|235:248,1,120,2|0,0:0|1:0,0:0:0:0:
99,261,145546,5,2,0:0:0:0:
149,113,145899,1,10,0:0:0:0:
274,206,146252,6,0,P|368:172|383:72,1,200,10|0,0:0|0:0,0:0:0:0:
362,36,146958,2,0,P|315:61|257:20,1,120,2|0,0:0|1:0,0:0:0:0:
230,341,148017,1,10,0:0:0:0:
348,239,148370,6,0,L|364:391,2,120,10|0|0,0:0|0:0|0:0,0:0:0:0:
332,83,149428,5,2,1:2:0:0:
190,148,149781,1,0,0:0:0:0:
113,11,150134,1,0,0:0:0:0:
190,148,150487,6,0,L|174:300,1,120,10|0,0:0|0:0,0:0:0:0:
341,206,151193,1,0,0:0:0:0:
190,148,151546,5,2,1:2:0:0:
332,83,151899,1,10,0:0:0:0:
409,220,152252,1,10,0:0:0:0:
332,83,152605,6,0,L|234:63,1,80,10|0,0:0|0:0,0:0:0:0:
214,31,152958,2,0,L|116:51,1,80,10|0,0:0|0:0,0:0:0:0:
86,63,153311,2,0,L|106:161,1,80,10|0,0:0|0:0,0:0:0:0:
113,192,153664,1,4,1:2:0:0:
62,339,154016,6,0,P|104:317|150:324,1,80,10|8,0:0|0:0,0:0:0:0:
108,363,154369,1,10,0:0:0:0:
14,237,154722,6,0,L|34:139,1,80,10|0,0:0|0:0,0:0:0:0:
77,136,155075,2,0,L|57:38,1,80,10|0,0:0|0:0,0:0:0:0:
47,7,155428,2,0,L|145:27,1,80,10|0,0:0|0:0,0:0:0:0:
175,36,155781,1,4,1:2:0:0:
327,5,156134,6,0,P|343:50|330:93,1,80,10|8,0:0|0:0,0:0:0:0:
294,110,156487,2,0,P|339:126|382:113,1,80,10|8,0:0|0:0,0:0:0:0:
418,97,156840,6,0,L|393:206,1,80,10|0,0:0|0:0,0:0:0:0:
381,223,157193,2,0,L|475:210,1,80,10|0,0:0|0:0,0:0:0:0:
512,206,157546,2,0,L|499:300,1,80,10|0,0:0|0:0,0:0:0:0:
491,336,157899,1,4,1:2:0:0:
339,374,158252,6,0,P|314:329|320:294,1,80,10|8,0:0|0:0,0:0:0:0:
362,327,158605,1,10,0:0:0:0:
218,379,158958,6,0,L|129:363,1,80,10|0,0:0|0:0,0:0:0:0:
107,323,159311,2,0,L|91:234,1,80,10|0,0:0|0:0,0:0:0:0:
82,193,159664,2,0,L|171:177,1,80,10|0,0:0|0:0,0:0:0:0:
211,168,160016,1,4,1:2:0:0:
339,256,160369,6,0,P|386:220|391:183,1,80,10|8,0:0|0:0,0:0:0:0:
348,174,160722,2,0,P|382:155|422:160,1,80,10|8,0:0|0:0,0:0:0:0:
469,182,161075,6,0,L|484:72,1,80,10|0,0:0|0:0,0:0:0:0:
483,50,161428,2,0,L|373:65,1,80,10|0,0:0|0:0,0:0:0:0:
364,94,161781,2,0,L|254:109,1,80,10|0,0:0|0:0,0:0:0:0:
233,113,162134,1,4,1:2:0:0:
110,15,162487,6,0,P|66:8|30:33,1,80,10|8,0:0|0:0,0:0:0:0:
77,57,162840,1,10,0:0:0:0:
226,12,163193,6,0,L|216:108,1,80,10|0,0:0|0:0,0:0:0:0:
242,137,163546,2,0,L|252:233,1,80,10|0,0:0|0:0,0:0:0:0:
256,268,163899,2,0,L|160:258,1,80,10|0,0:0|0:0,0:0:0:0:
124,252,164252,1,4,1:2:0:0:
166,346,164487,1,8,0:0:0:0:
166,346,164605,1,10,0:0:0:0:
313,295,164958,1,10,0:0:0:0:
444,378,165311,6,0,L|431:285,1,80,10|0,0:0|0:0,0:0:0:0:
467,260,165664,2,0,L|454:167,1,80,10|0,0:0|0:0,0:0:0:0:
490,142,166016,2,0,L|477:49,1,80,10|0,0:0|0:0,0:0:0:0:
468,11,166369,6,0,L|375:-2,1,80,6|8,1:2|0:0,0:0:0:0:
343,25,166722,2,0,L|250:12,1,80,10|8,0:0|0:0,0:0:0:0:
218,39,167075,1,10,0:0:0:0:
68,6,167428,6,0,L|81:99,1,80,10|0,0:0|0:0,0:0:0:0:
45,124,167781,2,0,L|58:217,1,80,10|0,0:0|0:0,0:0:0:0:
22,242,168133,2,0,L|35:335,1,80,10|0,0:0|0:0,0:0:0:0:
44,373,168486,6,0,L|137:386,1,80,6|8,1:2|0:0,0:0:0:0:
169,359,168839,2,0,L|262:372,1,80,10|8,0:0|0:0,0:0:0:0:
294,345,169192,1,10,0:0:0:0:
256,192,169546,6,0,P|313:148|387:158,1,120,10|8,0:0|0:0,0:0:0:0:
454,188,170134,1,8,0:0:0:0:
256,192,170605,6,0,P|199:148|125:158,1,120,2|8,0:0|0:0,0:0:0:0:
58,188,171193,1,8,0:0:0:0:
256,192,171664,6,0,P|313:236|387:226,1,120,10|8,0:0|0:0,0:0:0:0:
454,196,172252,1,8,0:0:0:0:
256,192,172723,6,0,P|199:236|125:226,1,120,2|8,0:0|0:0,0:0:0:0:
58,196,173311,1,8,0:0:0:0:
256,192,173781,6,0,L|256:96,1,80,10|0,0:0|0:0,0:0:0:0:
256,60,174134,1,8,0:0:0:0:
348,108,174369,1,8,0:0:0:0:
164,280,174840,5,2,0:0:0:0:
348,280,175193,1,8,0:0:0:0:
256,328,175428,1,8,0:0:0:0:
256,100,175899,5,8,0:0:0:0:
256,260,176252,1,8,0:0:0:0:
164,212,176487,1,8,0:0:0:0:
256,33,176958,5,2,0:0:0:0:
256,192,177311,1,8,0:0:0:0:
348,144,177546,1,8,0:0:0:0:
144,96,178016,6,0,L|20:120,1,120,10|8,0:0|0:0,0:0:0:0:
100,192,178605,1,8,0:0:0:0:
368,96,179075,6,0,L|492:120,1,120,2|8,0:0|0:0,0:0:0:0:
412,192,179664,1,8,0:0:0:0:
144,288,180134,6,0,L|20:264,1,120,10|8,0:0|0:0,0:0:0:0:
100,192,180723,1,8,0:0:0:0:
368,288,181193,6,0,L|492:264,1,120,2|8,0:0|0:0,0:0:0:0:
412,192,181782,1,8,0:0:0:0:
256,192,182252,6,0,L|256:288,1,80,10|0,0:0|0:0,0:0:0:0:
256,324,182605,1,8,0:0:0:0:
348,276,182840,1,8,0:0:0:0:
164,104,183311,5,2,0:0:0:0:
348,104,183664,1,8,0:0:0:0:
256,56,183899,1,8,0:0:0:0:
256,284,184370,5,8,0:0:0:0:
256,124,184723,1,8,0:0:0:0:
164,172,184958,1,8,0:0:0:0:
256,351,185429,5,2,0:0:0:0:
256,192,185782,1,8,0:0:0:0:
348,240,186017,1,8,0:0:0:0:
256,32,186487,5,2,0:0:0:0:
256,384,187546,1,2,0:0:0:0:
512,192,188605,1,2,0:0:0:0:
32,192,189664,1,2,0:0:0:0:
256,32,190722,6,0,P|283:159|351:253,1,240,2|0,0:0|0:0,0:0:0:0:
381,281,191546,2,0,B|230:226|253:391|60:380,1,320,2|0,0:0|0:0,0:0:0:0:
93,380,194369,5,2,0:0:0:0:
159,321,194665,1,2,0:0:0:0:
253,363,195012,1,6,0:0:0:0:
