osu file format v14

[General]
AudioFilename: audio.mp3
AudioLeadIn: 0
PreviewTime: 136734
Countdown: 0
SampleSet: Normal
StackLeniency: 0.7
Mode: 3
LetterboxInBreaks: 0
SpecialStyle: 0
WidescreenStoryboard: 1

[Editor]
DistanceSpacing: 0.5
BeatDivisor: 3
GridSize: 16
TimelineZoom: 1

[Metadata]
Title:bury a friend (Cut Ver.)
TitleUnicode:bury a friend (Cut Ver.)
Artist:Billie Eilish
ArtistUnicode:Billie Eilish
Creator:Monheim
Version:normal
Source:
Tags:When We All Fall Asleep Where Do We Go electropop horror synth alternative r&b electro-industrial tech stream guden minimalistic -mint- mint qqqant pop english alt-pop
BeatmapID:2700856
BeatmapSetID:1039475

[Difficulty]
HPDrainRate:7
CircleSize:4
OverallDifficulty:7
ApproachRate:5
SliderMultiplier:1.4
SliderTickRate:1

[Events]
//Background and Video events
0,0,"it_s_raining___huh_by_neytirix_dd503g0-fullview.jpg",0,0
//Break Periods
//Storyboard Layer 0 (Background)
//Storyboard Layer 1 (Fail)
//Storyboard Layer 2 (Pass)
//Storyboard Layer 3 (Foreground)
//Storyboard Layer 4 (Overlay)
//Storyboard Sound Samples
Sample,42234,0,"glass.wav",70
Sample,105234,0,"hat.wav",70
Sample,105734,0,"hat.wav",70
Sample,106234,0,"hat.wav",70
Sample,109234,0,"hat.wav",70
Sample,109734,0,"hat.wav",70
Sample,110234,0,"hat.wav",70
Sample,113234,0,"hat.wav",70
Sample,113734,0,"hat.wav",70
Sample,114234,0,"hat.wav",70
Sample,117234,0,"hat.wav",70
Sample,117734,0,"hat.wav",70
Sample,118234,0,"hat.wav",70
Sample,138234,0,"glass.wav",70

[TimingPoints]
734,500,2,1,1,50,1,0

[HitObjects]
448,192,1234,5,10,0:0:0:0:
192,192,2067,1,0,0:0:0:0:
448,192,2234,1,10,0:0:0:0:
192,192,2567,1,0,0:0:0:0:
448,192,3234,1,10,0:0:0:0:
320,192,3900,1,0,0:0:0:0:
192,192,4067,1,0,0:0:0:0:
448,192,4234,1,10,0:0:0:0:
192,192,4400,1,0,0:0:0:0:
320,192,4567,1,0,0:0:0:0:
448,192,5234,1,10,0:0:0:0:
192,192,6067,1,0,0:0:0:0:
448,192,6234,1,10,0:0:0:0:
192,192,6567,1,0,0:0:0:0:
448,192,7234,1,10,0:0:0:0:
64,192,8734,1,2,0:0:0:0:
192,192,9067,1,0,0:0:0:0:
448,192,9234,1,10,0:0:0:0:
192,192,9567,1,0,0:0:0:0:
64,192,9734,1,2,0:0:0:0:
448,192,10067,1,0,0:0:0:0:
320,192,10234,1,10,0:0:0:0:
448,192,10567,1,0,0:0:0:0:
64,192,10734,1,2,0:0:0:0:
192,192,11067,1,0,0:0:0:0:
320,192,11234,1,10,0:0:0:0:
192,192,11567,1,0,0:0:0:0:
64,192,11734,1,2,0:0:0:0:
320,192,11900,1,0,0:0:0:0:
192,192,12067,1,0,0:0:0:0:
448,192,12234,1,10,0:0:0:0:
192,192,12400,1,0,0:0:0:0:
320,192,12567,1,0,0:0:0:0:
64,192,12734,1,2,0:0:0:0:
192,192,13067,1,0,0:0:0:0:
448,192,13234,1,10,0:0:0:0:
192,192,13567,1,0,0:0:0:0:
64,192,13734,1,2,0:0:0:0:
448,192,14067,1,0,0:0:0:0:
320,192,14234,1,10,0:0:0:0:
448,192,14567,1,0,0:0:0:0:
64,192,14734,1,2,0:0:0:0:
192,192,15067,1,0,0:0:0:0:
320,192,15234,1,10,0:0:0:0:
192,192,15567,1,0,0:0:0:0:
64,192,15734,1,2,0:0:0:0:
448,192,15900,1,0,0:0:0:0:
192,192,16067,1,0,0:0:0:0:
320,192,16234,1,10,0:0:0:0:
192,192,16400,1,0,0:0:0:0:
448,192,16567,1,0,0:0:0:0:
64,192,16734,1,2,0:0:0:0:
192,192,17067,1,0,0:0:0:0:
448,192,17234,1,10,0:0:0:0:
192,192,17567,1,0,0:0:0:0:
64,192,17734,1,2,0:0:0:0:
448,192,18067,1,0,0:0:0:0:
320,192,18234,1,10,0:0:0:0:
448,192,18567,1,0,0:0:0:0:
64,192,18734,1,2,0:0:0:0:
192,192,19067,1,0,0:0:0:0:
320,192,19234,1,10,0:0:0:0:
192,192,19567,1,0,0:0:0:0:
64,192,19734,1,2,0:0:0:0:
320,192,19900,1,0,0:0:0:0:
192,192,20067,1,0,0:0:0:0:
448,192,20234,1,10,0:0:0:0:
192,192,20400,1,0,0:0:0:0:
320,192,20567,1,0,0:0:0:0:
64,192,20734,1,2,0:0:0:0:
192,192,21067,1,0,0:0:0:0:
448,192,21234,1,10,0:0:0:0:
192,192,21567,1,0,0:0:0:0:
320,192,24734,1,2,0:0:0:0:
448,192,24734,1,0,0:0:0:0:
192,192,25067,1,0,0:0:0:0:
448,192,25234,128,10,25400:0:0:0:0:
64,192,25400,128,0,25567:0:0:0:0:
320,192,25567,1,0,0:0:0:0:
192,192,25734,1,2,0:0:0:0:
192,192,26067,1,0,0:0:0:0:
448,192,26234,1,10,0:0:0:0:
320,192,26567,1,0,0:0:0:0:
192,192,26734,1,2,0:0:0:0:
192,192,27067,1,0,0:0:0:0:
448,192,27234,1,10,0:0:0:0:
64,192,28734,1,2,0:0:0:0:
64,192,29067,1,0,0:0:0:0:
320,192,29234,128,10,29400:0:0:0:0:
192,192,29400,128,0,29567:0:0:0:0:
448,192,29567,1,0,0:0:0:0:
64,192,29734,1,2,0:0:0:0:
64,192,30067,1,0,0:0:0:0:
320,192,30234,1,10,0:0:0:0:
448,192,30567,1,0,0:0:0:0:
64,192,30734,128,2,30900:0:0:0:0:
320,192,30900,128,0,31067:0:0:0:0:
64,192,31067,128,0,31234:0:0:0:0:
448,192,31234,128,10,31400:0:0:0:0:
320,192,31567,1,0,0:0:0:0:
64,192,31734,1,2,0:0:0:0:
320,192,31900,1,0,0:0:0:0:
192,192,32067,1,0,0:0:0:0:
448,192,32233,1,10,0:0:0:0:
192,192,32400,1,0,0:0:0:0:
64,192,32567,1,0,0:0:0:0:
320,192,32734,1,2,0:0:0:0:
448,192,32734,1,0,0:0:0:0:
192,192,33067,1,0,0:0:0:0:
448,192,33234,128,10,33400:0:0:0:0:
64,192,33400,1,0,0:0:0:0:
320,192,33567,128,0,33734:0:0:0:0:
192,192,33734,1,2,0:0:0:0:
192,192,34067,1,0,0:0:0:0:
448,192,34234,1,10,0:0:0:0:
320,192,34567,1,0,0:0:0:0:
192,192,34734,1,2,0:0:0:0:
192,192,35067,1,0,0:0:0:0:
448,192,35234,1,10,0:0:0:0:
320,192,35567,1,0,0:0:0:0:
64,192,35734,1,2,0:0:0:0:
448,192,35900,1,0,0:0:0:0:
192,192,36067,1,0,0:0:0:0:
320,192,36234,1,10,0:0:0:0:
192,192,36400,1,0,0:0:0:0:
448,192,36567,1,0,0:0:0:0:
64,192,36734,1,2,0:0:0:0:
64,192,37067,1,0,0:0:0:0:
320,192,37234,128,10,37400:0:0:0:0:
192,192,37400,1,0,0:0:0:0:
448,192,37567,128,0,37734:0:0:0:0:
64,192,37734,1,2,0:0:0:0:
64,192,38067,1,0,0:0:0:0:
320,192,38234,1,10,0:0:0:0:
448,192,38567,1,0,0:0:0:0:
64,192,38734,128,2,38900:0:0:0:0:
192,192,38900,128,0,39067:0:0:0:0:
64,192,39067,128,0,39234:0:0:0:0:
320,192,39234,128,10,39400:0:0:0:0:
448,192,39567,128,0,39734:0:0:0:0:
64,192,39734,128,2,39900:0:0:0:0:
320,192,39900,128,0,40067:0:0:0:0:
192,192,40067,128,0,40234:0:0:0:0:
448,192,40234,128,10,40400:0:0:0:0:
192,192,40400,1,0,0:0:0:0:
64,192,40567,128,0,40734:0:0:0:0:
320,192,40734,1,2,0:0:0:0:
448,192,40734,1,0,0:0:0:0:
320,192,41234,1,2,0:0:0:0:
192,192,41400,1,0,0:0:0:0:
448,192,41567,1,0,0:0:0:0:
320,192,41734,1,2,0:0:0:0:
320,192,42234,1,2,0:0:0:0:
192,192,42734,1,2,0:0:0:0:
64,192,42900,1,0,0:0:0:0:
320,192,43067,1,0,0:0:0:0:
192,192,43234,1,2,0:0:0:0:
192,192,43734,128,0,44234:0:0:0:0:
64,192,44234,128,0,44734:0:0:0:0:
192,192,44734,1,2,0:0:0:0:
192,192,45234,1,2,0:0:0:0:
320,192,45400,1,0,0:0:0:0:
64,192,45567,1,0,0:0:0:0:
192,192,45734,1,2,0:0:0:0:
192,192,46234,1,2,0:0:0:0:
320,192,46734,1,2,0:0:0:0:
448,192,46900,1,0,0:0:0:0:
192,192,47067,1,0,0:0:0:0:
320,192,47234,1,2,0:0:0:0:
320,192,47734,128,0,48234:0:0:0:0:
448,192,48234,128,0,48734:0:0:0:0:
320,192,48734,1,2,0:0:0:0:
448,192,49234,1,10,0:0:0:0:
192,192,49400,1,0,0:0:0:0:
64,192,49567,1,0,0:0:0:0:
320,192,49734,1,2,0:0:0:0:
64,192,50067,1,0,0:0:0:0:
448,192,50234,1,10,0:0:0:0:
64,192,50567,1,0,0:0:0:0:
192,192,50734,1,2,0:0:0:0:
448,192,50900,1,0,0:0:0:0:
320,192,51067,1,0,0:0:0:0:
64,192,51234,1,10,0:0:0:0:
192,192,51734,128,2,52234:0:0:0:0:
448,192,52067,1,0,0:0:0:0:
64,192,52234,128,10,52734:0:0:0:0:
448,192,52567,1,0,0:0:0:0:
192,192,52734,1,2,0:0:0:0:
320,192,53234,1,10,0:0:0:0:
448,192,53400,1,0,0:0:0:0:
64,192,53567,1,0,0:0:0:0:
192,192,53734,1,2,0:0:0:0:
448,192,54067,1,0,0:0:0:0:
320,192,54234,128,10,54734:0:0:0:0:
192,192,54400,128,0,54734:0:0:0:0:
448,192,54567,128,0,54734:0:0:0:0:
64,192,56734,128,0,58734:0:0:0:0:
64,192,60734,128,0,62734:0:0:0:0:
320,192,64733,128,2,65233:0:0:0:0:
64,192,65067,1,0,0:0:0:0:
448,192,65233,128,10,65734:0:0:0:0:
192,192,65400,1,0,0:0:0:0:
64,192,65567,1,0,0:0:0:0:
320,192,65734,128,2,66234:0:0:0:0:
64,192,66067,1,0,0:0:0:0:
448,192,66234,128,10,66734:0:0:0:0:
192,192,66400,1,0,0:0:0:0:
64,192,66567,1,0,0:0:0:0:
320,192,66734,1,2,0:0:0:0:
64,192,67067,1,0,0:0:0:0:
448,192,67234,1,10,0:0:0:0:
192,192,67400,1,0,0:0:0:0:
64,192,67567,1,0,0:0:0:0:
320,192,67734,1,2,0:0:0:0:
448,192,67900,1,0,0:0:0:0:
192,192,68067,1,0,0:0:0:0:
448,192,68234,1,0,0:0:0:0:
320,192,68567,1,0,0:0:0:0:
192,192,68734,128,2,69234:0:0:0:0:
448,192,69067,1,0,0:0:0:0:
64,192,69234,128,10,69734:0:0:0:0:
320,192,69400,1,0,0:0:0:0:
448,192,69567,1,0,0:0:0:0:
192,192,69734,128,2,70234:0:0:0:0:
448,192,70067,1,0,0:0:0:0:
64,192,70234,128,10,70734:0:0:0:0:
320,192,70400,1,0,0:0:0:0:
448,192,70567,1,0,0:0:0:0:
192,192,70734,1,2,0:0:0:0:
448,192,71067,1,0,0:0:0:0:
64,192,71234,1,10,0:0:0:0:
320,192,71400,1,0,0:0:0:0:
448,192,71567,1,0,0:0:0:0:
448,192,73234,1,8,0:0:0:0:
448,192,74234,1,8,0:0:0:0:
320,192,75234,1,8,0:0:0:0:
320,192,76234,1,8,0:0:0:0:
192,192,77234,1,8,0:0:0:0:
192,192,78234,1,8,0:0:0:0:
64,192,79234,1,8,0:0:0:0:
64,192,80234,1,8,0:0:0:0:
192,192,80734,1,2,0:0:0:0:
448,192,81234,1,10,0:0:0:0:
192,192,81734,1,2,0:0:0:0:
448,192,82067,1,0,0:0:0:0:
320,192,82234,1,10,0:0:0:0:
448,192,82567,1,0,0:0:0:0:
64,192,82734,1,2,0:0:0:0:
320,192,83234,1,10,0:0:0:0:
64,192,83734,1,2,0:0:0:0:
320,192,84067,1,0,0:0:0:0:
448,192,84234,1,10,0:0:0:0:
320,192,84567,1,0,0:0:0:0:
192,192,84734,1,2,0:0:0:0:
448,192,85234,1,10,0:0:0:0:
320,192,88734,1,2,0:0:0:0:
448,192,88734,1,0,0:0:0:0:
192,192,89067,1,0,0:0:0:0:
448,192,89234,128,10,89400:0:0:0:0:
64,192,89400,1,0,0:0:0:0:
320,192,89567,128,0,89734:0:0:0:0:
192,192,89734,1,2,0:0:0:0:
192,192,90067,1,0,0:0:0:0:
448,192,90234,1,10,0:0:0:0:
320,192,90567,1,0,0:0:0:0:
192,192,90734,1,2,0:0:0:0:
192,192,91067,1,0,0:0:0:0:
448,192,91234,1,10,0:0:0:0:
64,192,92734,1,2,0:0:0:0:
64,192,93067,1,0,0:0:0:0:
320,192,93234,128,10,93400:0:0:0:0:
448,192,93400,1,0,0:0:0:0:
192,192,93567,128,0,93734:0:0:0:0:
64,192,93734,1,2,0:0:0:0:
64,192,94067,1,0,0:0:0:0:
320,192,94234,1,10,0:0:0:0:
192,192,94567,1,0,0:0:0:0:
64,192,94734,128,2,94900:0:0:0:0:
448,192,94900,128,0,95067:0:0:0:0:
64,192,95067,128,0,95234:0:0:0:0:
320,192,95234,128,10,95400:0:0:0:0:
192,192,95567,1,0,0:0:0:0:
320,192,95734,1,2,0:0:0:0:
64,192,95900,1,0,0:0:0:0:
448,192,96067,1,0,0:0:0:0:
192,192,96234,1,10,0:0:0:0:
448,192,96400,1,0,0:0:0:0:
64,192,96567,1,0,0:0:0:0:
320,192,96734,1,2,0:0:0:0:
448,192,96734,1,0,0:0:0:0:
192,192,97067,1,0,0:0:0:0:
448,192,97234,128,10,97400:0:0:0:0:
64,192,97400,1,0,0:0:0:0:
320,192,97567,128,0,97734:0:0:0:0:
192,192,97734,1,2,0:0:0:0:
192,192,98067,1,0,0:0:0:0:
448,192,98234,1,10,0:0:0:0:
320,192,98567,1,0,0:0:0:0:
192,192,98734,1,2,0:0:0:0:
192,192,99067,1,0,0:0:0:0:
448,192,99234,1,10,0:0:0:0:
320,192,99567,1,0,0:0:0:0:
64,192,99734,1,2,0:0:0:0:
448,192,99900,1,0,0:0:0:0:
192,192,100067,1,0,0:0:0:0:
320,192,100234,1,10,0:0:0:0:
192,192,100400,1,0,0:0:0:0:
448,192,100567,1,0,0:0:0:0:
64,192,100734,1,2,0:0:0:0:
64,192,101067,1,0,0:0:0:0:
320,192,101234,128,10,101400:0:0:0:0:
448,192,101400,1,0,0:0:0:0:
192,192,101567,128,0,101734:0:0:0:0:
64,192,101734,1,2,0:0:0:0:
64,192,102067,1,0,0:0:0:0:
320,192,102234,1,10,0:0:0:0:
320,192,102567,128,0,102734:0:0:0:0:
64,192,102734,128,2,102900:0:0:0:0:
448,192,102900,128,0,103067:0:0:0:0:
64,192,103067,128,0,103234:0:0:0:0:
320,192,103234,128,10,103400:0:0:0:0:
192,192,103567,128,0,103734:0:0:0:0:
64,192,103734,128,2,103900:0:0:0:0:
448,192,103900,128,0,104067:0:0:0:0:
64,192,104067,128,0,104234:0:0:0:0:
192,192,104234,128,10,104400:0:0:0:0:
448,192,104400,1,0,0:0:0:0:
64,192,104567,128,0,104734:0:0:0:0:
320,192,104734,1,2,0:0:0:0:
448,192,104734,1,0,0:0:0:0:
320,192,105067,1,0,0:0:0:70:hat.wav
448,192,105234,1,10,0:0:0:0:
192,192,105400,1,0,0:0:0:70:hat.wav
64,192,105567,1,0,0:0:0:70:hat.wav
320,192,105734,1,2,0:0:0:0:
64,192,105900,1,0,0:0:0:70:hat.wav
192,192,106067,1,0,0:0:0:70:hat.wav
448,192,106234,1,10,0:0:0:0:
192,192,106400,1,0,0:0:0:70:hat.wav
64,192,106567,1,0,0:0:0:70:hat.wav
320,192,106734,1,2,0:0:0:0:
448,192,106734,1,0,0:0:0:0:
320,192,107067,1,2,0:0:0:0:
448,192,107067,1,0,0:0:0:0:
320,192,107400,1,2,0:0:0:0:
448,192,107400,1,0,0:0:0:0:
320,192,108567,1,0,0:0:0:0:
64,192,108734,1,2,0:0:0:0:
192,192,108734,1,0,0:0:0:0:
64,192,109234,1,10,0:0:0:0:
320,192,109400,1,0,0:0:0:70:hat.wav
448,192,109567,1,0,0:0:0:70:hat.wav
192,192,109734,1,2,0:0:0:0:
448,192,109900,1,0,0:0:0:70:hat.wav
320,192,110067,1,0,0:0:0:70:hat.wav
64,192,110234,1,10,0:0:0:0:
320,192,110400,1,0,0:0:0:70:hat.wav
448,192,110567,1,0,0:0:0:70:hat.wav
192,192,110734,1,0,0:0:0:70:hat.wav
192,192,111067,1,0,0:0:0:70:hat.wav
192,192,111400,1,0,0:0:0:70:hat.wav
64,192,111900,1,0,0:0:0:0:
320,192,112067,1,0,0:0:0:0:
192,192,112234,1,0,0:0:0:0:
320,192,112400,1,0,0:0:0:0:
64,192,112567,1,0,0:0:0:0:
320,192,112734,1,2,0:0:0:0:
448,192,112734,1,0,0:0:0:0:
448,192,113234,1,10,0:0:0:0:
192,192,113400,1,0,0:0:0:70:hat.wav
64,192,113567,1,0,0:0:0:70:hat.wav
320,192,113734,1,2,0:0:0:0:
64,192,113900,1,0,0:0:0:70:hat.wav
192,192,114067,1,0,0:0:0:70:hat.wav
448,192,114234,1,10,0:0:0:0:
192,192,114400,1,0,0:0:0:70:hat.wav
64,192,114567,1,0,0:0:0:70:hat.wav
320,192,114734,1,2,0:0:0:0:
448,192,114734,1,0,0:0:0:0:
320,192,115067,1,2,0:0:0:0:
448,192,115067,1,0,0:0:0:0:
320,192,115400,1,2,0:0:0:0:
448,192,115400,1,0,0:0:0:0:
64,192,116734,1,2,0:0:0:0:
192,192,116734,1,0,0:0:0:0:
64,192,117234,1,10,0:0:0:0:
320,192,117400,1,0,0:0:0:70:hat.wav
448,192,117567,1,0,0:0:0:70:hat.wav
192,192,117734,1,2,0:0:0:0:
448,192,117900,1,0,0:0:0:70:hat.wav
320,192,118067,1,0,0:0:0:70:hat.wav
64,192,118234,1,10,0:0:0:0:
320,192,118400,1,0,0:0:0:70:hat.wav
448,192,118567,1,0,0:0:0:70:hat.wav
192,192,118734,1,0,0:0:0:70:hat.wav
320,192,119067,1,0,0:0:0:70:hat.wav
64,192,119400,1,0,0:0:0:70:hat.wav
64,192,119734,1,0,0:0:0:70:hat.wav
320,192,119900,1,0,0:0:0:0:
192,192,120067,1,0,0:0:0:70:hat.wav
448,192,120234,1,0,0:0:0:0:
192,192,120400,1,0,0:0:0:70:hat.wav
320,192,120567,1,0,0:0:0:0:
64,192,120734,1,0,0:0:0:0:
64,192,121234,1,0,0:0:0:0:
64,192,121734,1,0,0:0:0:0:
64,192,122234,1,0,0:0:0:0:
320,192,122734,1,0,0:0:0:0:
320,192,123234,1,0,0:0:0:0:
320,192,123734,1,0,0:0:0:0:
320,192,124234,1,0,0:0:0:0:
448,192,124734,1,0,0:0:0:0:
448,192,125234,1,0,0:0:0:0:
448,192,125734,1,0,0:0:0:0:
448,192,126234,1,0,0:0:0:0:
64,192,126734,1,0,0:0:0:0:
64,192,127234,1,0,0:0:0:0:
64,192,127734,1,0,0:0:0:0:
64,192,128233,1,0,0:0:0:0:
320,192,128567,1,0,0:0:0:0:
64,192,128733,1,2,0:0:0:0:
448,192,129067,1,0,0:0:0:0:
64,192,129233,1,2,0:0:0:0:
320,192,129567,1,0,0:0:0:0:
64,192,129733,1,2,0:0:0:0:
448,192,130067,1,0,0:0:0:0:
64,192,130233,1,2,0:0:0:0:
192,192,130567,1,0,0:0:0:0:
320,192,130733,1,2,0:0:0:0:
64,192,131067,1,0,0:0:0:0:
320,192,131234,1,2,0:0:0:0:
192,192,131567,1,0,0:0:0:0:
320,192,131734,1,2,0:0:0:0:
64,192,132067,1,0,0:0:0:0:
320,192,132234,1,2,0:0:0:0:
192,192,132567,1,0,0:0:0:0:
448,192,132734,1,2,0:0:0:0:
320,192,133067,1,0,0:0:0:0:
448,192,133234,1,2,0:0:0:0:
192,192,133567,1,0,0:0:0:0:
448,192,133734,1,2,0:0:0:0:
320,192,134067,1,0,0:0:0:0:
448,192,134234,1,2,0:0:0:0:
192,192,134567,1,0,0:0:0:0:
320,192,134734,1,2,0:0:0:0:
64,192,135067,1,0,0:0:0:0:
192,192,135234,1,2,0:0:0:0:
64,192,135734,1,0,0:0:0:0:
320,192,136734,1,2,0:0:0:0:
448,192,136734,1,0,0:0:0:0:
320,192,137234,1,10,0:0:0:0:
192,192,137400,1,0,0:0:0:0:
448,192,137567,1,0,0:0:0:0:
320,192,137734,1,2,0:0:0:0:
320,192,138067,1,0,0:0:0:0:
448,192,138234,1,10,0:0:0:0:
320,192,138567,1,0,0:0:0:0:
192,192,138734,1,2,0:0:0:0:
64,192,138900,1,0,0:0:0:0:
320,192,139067,1,0,0:0:0:0:
192,192,139234,1,10,0:0:0:0:
192,192,139734,128,0,140234:0:0:0:0:
64,192,140234,128,0,140734:0:0:0:0:
192,192,140734,1,2,0:0:0:0:
192,192,141234,1,10,0:0:0:0:
320,192,141400,1,0,0:0:0:0:
64,192,141567,1,0,0:0:0:0:
192,192,141734,1,2,0:0:0:0:
192,192,142067,1,0,0:0:0:0:
64,192,142234,1,10,0:0:0:0:
192,192,142567,1,0,0:0:0:0:
320,192,142734,1,2,0:0:0:0:
448,192,142900,1,0,0:0:0:0:
192,192,143067,1,0,0:0:0:0:
320,192,143234,1,10,0:0:0:0:
320,192,143734,128,0,144234:0:0:0:0:
192,192,143900,1,0,0:0:0:0:
64,192,144067,1,0,0:0:0:0:
448,192,144234,128,0,144734:0:0:0:0:
64,192,144400,1,0,0:0:0:0:
192,192,144567,1,0,0:0:0:0:
320,192,144734,1,2,0:0:0:0:
448,192,145234,1,10,0:0:0:0:
192,192,145400,1,0,0:0:0:0:
64,192,145567,1,0,0:0:0:0:
320,192,145734,1,2,0:0:0:0:
64,192,146067,1,0,0:0:0:0:
448,192,146234,1,10,0:0:0:0:
64,192,146567,1,0,0:0:0:0:
192,192,146734,1,2,0:0:0:0:
448,192,146900,1,0,0:0:0:0:
320,192,147067,1,0,0:0:0:0:
64,192,147234,1,10,0:0:0:0:
192,192,147734,128,2,148234:0:0:0:0:
448,192,147900,1,0,0:0:0:0:
320,192,148067,1,0,0:0:0:0:
64,192,148234,128,10,148734:0:0:0:0:
320,192,148400,1,0,0:0:0:0:
448,192,148567,1,0,0:0:0:0:
192,192,148734,1,2,0:0:0:0:
320,192,149234,1,10,0:0:0:0:
448,192,149400,1,0,0:0:0:0:
64,192,149567,1,0,0:0:0:0:
192,192,149734,1,2,0:0:0:0:
448,192,150067,1,0,0:0:0:0:
320,192,150234,128,10,150734:0:0:0:0:
192,192,150400,128,0,150734:0:0:0:0:
448,192,150567,128,0,150734:0:0:0:0:
