osu file format v14

[General]
AudioFilename: audio.mp3
AudioLeadIn: 0
PreviewTime: 136734
Countdown: 0
SampleSet: Normal
StackLeniency: 0.7
Mode: 3
LetterboxInBreaks: 0
SpecialStyle: 0
WidescreenStoryboard: 0

[Editor]
DistanceSpacing: 0.5
BeatDivisor: 3
GridSize: 16
TimelineZoom: 1

[Metadata]
Title:bury a friend (Cut Ver.)
TitleUnicode:bury a friend (Cut Ver.)
Artist:Billie Eilish
ArtistUnicode:Billie Eilish
Creator:Monheim
Version:false awakening
Source:
Tags:When We All Fall Asleep Where Do We Go electropop horror synth alternative r&b electro-industrial tech stream guden minimalistic -mint- mint qqqant pop english alt-pop
BeatmapID:2172838
BeatmapSetID:1039475

[Difficulty]
HPDrainRate:8
CircleSize:4
OverallDifficulty:8
ApproachRate:5
SliderMultiplier:1.4
SliderTickRate:1

[Events]
//Background and Video events
0,0,"it_s_raining___huh_by_neytirix_dd503g0-fullview.jpg",0,0
//Break Periods
//Storyboard Layer 0 (Background)
//Storyboard Layer 1 (Fail)
//Storyboard Layer 2 (Pass)
//Storyboard Layer 3 (Foreground)
//Storyboard Layer 4 (Overlay)
//Storyboard Sound Samples

[TimingPoints]
734,500,2,1,1,50,1,0

[HitObjects]
64,192,734,5,2,0:0:0:0:
192,192,734,1,0,0:0:0:0:
192,192,1067,1,0,0:0:0:0:
320,192,1234,1,8,0:0:0:0:
448,192,1234,1,2,0:0:0:0:
320,192,1567,1,0,0:0:0:0:
64,192,1734,1,2,0:0:0:0:
192,192,1734,1,0,0:0:0:0:
320,192,2067,1,0,0:0:0:0:
320,192,2234,1,8,0:0:0:0:
448,192,2234,1,2,0:0:0:0:
320,192,2567,1,0,0:0:0:0:
64,192,2734,1,2,0:0:0:0:
192,192,2734,1,0,0:0:0:0:
192,192,3067,1,0,0:0:0:0:
320,192,3234,1,8,0:0:0:0:
448,192,3234,1,2,0:0:0:0:
320,192,3567,1,0,0:0:0:0:
64,192,3734,1,2,0:0:0:0:
192,192,3734,1,0,0:0:0:0:
320,192,3900,1,0,0:0:0:0:
320,192,4067,1,0,0:0:0:0:
320,192,4234,1,8,0:0:0:0:
448,192,4234,1,2,0:0:0:0:
320,192,4400,1,0,0:0:0:0:
320,192,4567,1,0,0:0:0:0:
64,192,4734,1,2,0:0:0:0:
192,192,4734,1,0,0:0:0:0:
192,192,5067,1,0,0:0:0:0:
320,192,5234,1,8,0:0:0:0:
448,192,5234,1,2,0:0:0:0:
320,192,5567,1,0,0:0:0:0:
64,192,5734,1,2,0:0:0:0:
192,192,5734,1,0,0:0:0:0:
320,192,6067,1,0,0:0:0:0:
320,192,6234,1,8,0:0:0:0:
448,192,6234,1,2,0:0:0:0:
320,192,6567,1,0,0:0:0:0:
64,192,6734,1,2,0:0:0:0:
192,192,6734,1,0,0:0:0:0:
192,192,7067,1,0,0:0:0:0:
320,192,7234,1,8,0:0:0:0:
448,192,7234,1,2,0:0:0:0:
192,192,7567,1,0,0:0:0:0:
320,192,7734,128,0,7900:0:0:0:0:
448,192,8067,128,0,8234:0:0:0:0:
320,192,8234,128,0,8400:0:0:0:0:
192,192,8567,128,0,8734:0:0:0:0:
320,192,8734,1,2,0:0:0:0:
448,192,8734,1,0,0:0:0:0:
192,192,9067,128,0,9234:0:0:0:0:
64,192,9234,128,8,9400:0:0:0:0:
320,192,9234,1,2,0:0:0:0:
448,192,9234,1,0,0:0:0:0:
320,192,9567,1,0,0:0:0:0:
64,192,9734,1,2,0:0:0:0:
192,192,9734,128,0,9900:0:0:0:0:
448,192,10067,128,0,10234:0:0:0:0:
64,192,10234,1,8,0:0:0:0:
192,192,10234,1,2,0:0:0:0:
320,192,10234,128,0,10400:0:0:0:0:
192,192,10567,128,0,10734:0:0:0:0:
320,192,10734,1,2,0:0:0:0:
448,192,10734,1,0,0:0:0:0:
192,192,11067,128,0,11234:0:0:0:0:
64,192,11234,128,8,11400:0:0:0:0:
320,192,11234,1,2,0:0:0:0:
448,192,11234,1,0,0:0:0:0:
320,192,11567,1,0,0:0:0:0:
64,192,11734,1,2,0:0:0:0:
192,192,11734,128,0,11900:0:0:0:0:
320,192,11900,1,0,0:0:0:0:
448,192,12067,128,0,12234:0:0:0:0:
64,192,12234,1,8,0:0:0:0:
192,192,12234,1,2,0:0:0:0:
320,192,12234,128,0,12400:0:0:0:0:
448,192,12400,1,0,0:0:0:0:
192,192,12567,128,0,12734:0:0:0:0:
320,192,12734,1,2,0:0:0:0:
448,192,12734,1,0,0:0:0:0:
192,192,13067,128,0,13234:0:0:0:0:
64,192,13234,128,8,13400:0:0:0:0:
320,192,13234,1,2,0:0:0:0:
448,192,13234,1,0,0:0:0:0:
320,192,13567,1,0,0:0:0:0:
64,192,13734,1,2,0:0:0:0:
192,192,13734,128,0,13900:0:0:0:0:
320,192,14067,128,0,14234:0:0:0:0:
64,192,14234,1,8,0:0:0:0:
192,192,14234,128,2,14400:0:0:0:0:
448,192,14234,1,0,0:0:0:0:
64,192,14567,128,0,14734:0:0:0:0:
320,192,14734,1,2,0:0:0:0:
448,192,14734,1,0,0:0:0:0:
320,192,15067,1,0,0:0:0:0:
64,192,15234,1,8,0:0:0:0:
192,192,15234,1,2,0:0:0:0:
448,192,15234,1,0,0:0:0:0:
192,192,15567,1,0,0:0:0:0:
320,192,15734,128,2,15900:0:0:0:0:
448,192,15734,1,0,0:0:0:0:
192,192,15900,1,0,0:0:0:0:
448,192,16067,128,0,16234:0:0:0:0:
64,192,16234,1,8,0:0:0:0:
192,192,16234,1,2,0:0:0:0:
320,192,16234,128,0,16400:0:0:0:0:
448,192,16400,1,0,0:0:0:0:
192,192,16567,128,0,16734:0:0:0:0:
320,192,16734,1,2,0:0:0:0:
448,192,16734,1,0,0:0:0:0:
192,192,17067,128,0,17234:0:0:0:0:
64,192,17234,128,8,17400:0:0:0:0:
320,192,17234,1,2,0:0:0:0:
448,192,17234,1,0,0:0:0:0:
320,192,17567,1,0,0:0:0:0:
64,192,17734,1,2,0:0:0:0:
192,192,17734,128,0,17900:0:0:0:0:
448,192,18067,128,0,18234:0:0:0:0:
64,192,18234,1,8,0:0:0:0:
192,192,18234,1,2,0:0:0:0:
320,192,18234,128,0,18400:0:0:0:0:
192,192,18567,128,0,18734:0:0:0:0:
320,192,18734,1,2,0:0:0:0:
448,192,18734,1,0,0:0:0:0:
192,192,19067,128,0,19234:0:0:0:0:
64,192,19234,128,8,19400:0:0:0:0:
320,192,19234,1,2,0:0:0:0:
448,192,19234,1,0,0:0:0:0:
320,192,19567,1,0,0:0:0:0:
64,192,19734,1,2,0:0:0:0:
192,192,19734,128,0,19900:0:0:0:0:
320,192,19900,1,0,0:0:0:0:
448,192,20067,128,0,20234:0:0:0:0:
64,192,20234,1,8,0:0:0:0:
192,192,20234,1,2,0:0:0:0:
320,192,20234,128,0,20400:0:0:0:0:
448,192,20400,1,0,0:0:0:0:
192,192,20567,128,0,20734:0:0:0:0:
320,192,20734,1,2,0:0:0:0:
448,192,20734,1,0,0:0:0:0:
192,192,21067,128,0,21234:0:0:0:0:
64,192,21234,128,8,21400:0:0:0:0:
320,192,21234,1,2,0:0:0:0:
448,192,21234,1,0,0:0:0:0:
64,192,21567,1,0,0:0:0:0:
192,192,21734,128,0,21900:0:0:0:0:
320,192,22067,128,0,22234:0:0:0:0:
192,192,22234,128,0,22400:0:0:0:0:
64,192,22567,128,0,22734:0:0:0:0:
64,192,24734,128,2,24984:0:0:0:0:
192,192,24734,128,0,24796:0:0:0:0:
192,192,25067,1,0,0:0:0:0:
320,192,25234,1,8,0:0:0:0:
448,192,25234,1,2,0:0:0:0:
192,192,25317,1,0,0:0:0:0:
448,192,25400,1,0,0:0:0:0:
64,192,25484,1,0,0:0:0:0:
320,192,25567,1,0,0:0:0:0:
448,192,25650,1,0,0:0:0:0:
64,192,25734,1,2,0:0:0:0:
192,192,25734,1,0,0:0:0:0:
448,192,25900,1,0,0:0:0:0:
64,192,26067,1,0,0:0:0:0:
320,192,26234,1,8,0:0:0:0:
448,192,26234,1,2,0:0:0:0:
448,192,26567,1,0,0:0:0:0:
64,192,26734,1,2,0:0:0:0:
192,192,26734,1,0,0:0:0:0:
64,192,27067,1,0,0:0:0:0:
320,192,27234,1,8,0:0:0:0:
448,192,27234,1,2,0:0:0:0:
64,192,28734,1,2,0:0:0:0:
192,192,28734,1,0,0:0:0:0:
192,192,29067,1,0,0:0:0:0:
64,192,29150,1,0,0:0:0:0:
320,192,29234,1,8,0:0:0:0:
448,192,29234,1,2,0:0:0:0:
192,192,29317,1,0,0:0:0:0:
448,192,29400,1,0,0:0:0:0:
64,192,29484,1,0,0:0:0:0:
320,192,29567,1,0,0:0:0:0:
448,192,29650,1,0,0:0:0:0:
64,192,29734,1,2,0:0:0:0:
192,192,29734,1,0,0:0:0:0:
448,192,29900,1,0,0:0:0:0:
64,192,30067,1,0,0:0:0:0:
320,192,30234,1,8,0:0:0:0:
448,192,30234,1,2,0:0:0:0:
448,192,30567,1,0,0:0:0:0:
64,192,30734,1,2,0:0:0:0:
192,192,30734,1,0,0:0:0:0:
448,192,30817,1,0,0:0:0:0:
192,192,30900,1,0,0:0:0:0:
448,192,30984,1,0,0:0:0:0:
64,192,31067,1,0,0:0:0:0:
192,192,31150,1,0,0:0:0:0:
320,192,31234,1,8,0:0:0:0:
448,192,31234,1,2,0:0:0:0:
192,192,31317,1,0,0:0:0:0:
448,192,31400,1,0,0:0:0:0:
64,192,31567,1,0,0:0:0:0:
320,192,31734,1,2,0:0:0:0:
448,192,31734,1,0,0:0:0:0:
448,192,31900,1,0,0:0:0:0:
64,192,32067,1,0,0:0:0:0:
320,192,32233,1,8,0:0:0:0:
448,192,32233,1,2,0:0:0:0:
320,192,32400,1,0,0:0:0:0:
64,192,32567,1,0,0:0:0:0:
64,192,32734,128,2,32984:0:0:0:0:
192,192,32734,128,0,32796:0:0:0:0:
192,192,33067,1,0,0:0:0:0:
320,192,33234,1,8,0:0:0:0:
448,192,33234,1,2,0:0:0:0:
192,192,33317,1,0,0:0:0:0:
448,192,33400,1,0,0:0:0:0:
64,192,33484,1,0,0:0:0:0:
320,192,33567,1,0,0:0:0:0:
448,192,33650,1,0,0:0:0:0:
64,192,33734,1,2,0:0:0:0:
192,192,33734,1,0,0:0:0:0:
448,192,33900,1,0,0:0:0:0:
64,192,34067,1,0,0:0:0:0:
320,192,34234,1,8,0:0:0:0:
448,192,34234,1,2,0:0:0:0:
448,192,34567,1,0,0:0:0:0:
64,192,34734,1,2,0:0:0:0:
192,192,34734,1,0,0:0:0:0:
64,192,35067,1,0,0:0:0:0:
320,192,35234,1,8,0:0:0:0:
448,192,35234,1,2,0:0:0:0:
448,192,35567,1,0,0:0:0:0:
64,192,35734,1,2,0:0:0:0:
192,192,35734,1,0,0:0:0:0:
448,192,35900,1,0,0:0:0:0:
64,192,36067,1,0,0:0:0:0:
320,192,36234,1,8,0:0:0:0:
448,192,36234,1,2,0:0:0:0:
448,192,36400,1,0,0:0:0:0:
64,192,36567,1,0,0:0:0:0:
64,192,36734,1,2,0:0:0:0:
192,192,36734,1,0,0:0:0:0:
64,192,37067,1,0,0:0:0:0:
320,192,37234,1,8,0:0:0:0:
448,192,37234,1,2,0:0:0:0:
192,192,37317,1,0,0:0:0:0:
448,192,37400,1,0,0:0:0:0:
64,192,37484,1,0,0:0:0:0:
320,192,37567,1,0,0:0:0:0:
448,192,37650,1,0,0:0:0:0:
64,192,37734,1,2,0:0:0:0:
192,192,37734,1,0,0:0:0:0:
448,192,37900,1,0,0:0:0:0:
64,192,38067,1,0,0:0:0:0:
320,192,38234,1,8,0:0:0:0:
448,192,38234,1,2,0:0:0:0:
448,192,38567,1,0,0:0:0:0:
64,192,38734,1,2,0:0:0:0:
192,192,38734,1,0,0:0:0:0:
320,192,38817,1,0,0:0:0:0:
64,192,38900,1,0,0:0:0:0:
448,192,38984,1,0,0:0:0:0:
64,192,39067,1,0,0:0:0:0:
320,192,39150,1,0,0:0:0:0:
64,192,39234,1,8,0:0:0:0:
192,192,39234,1,2,0:0:0:0:
320,192,39317,1,0,0:0:0:0:
448,192,39400,1,0,0:0:0:0:
448,192,39567,1,0,0:0:0:0:
320,192,39650,1,0,0:0:0:0:
64,192,39734,1,2,0:0:0:0:
192,192,39734,1,0,0:0:0:0:
448,192,39817,1,0,0:0:0:0:
64,192,39900,1,0,0:0:0:0:
320,192,39984,1,0,0:0:0:0:
64,192,40067,1,0,0:0:0:0:
448,192,40150,1,0,0:0:0:0:
64,192,40234,1,8,0:0:0:0:
192,192,40234,1,2,0:0:0:0:
320,192,40317,1,0,0:0:0:0:
192,192,40400,1,0,0:0:0:0:
192,192,40567,1,0,0:0:0:0:
64,192,40650,1,0,0:0:0:0:
320,192,40734,128,2,40796:0:0:0:0:
448,192,40734,128,0,40984:0:0:0:0:
320,192,41234,1,2,0:0:0:0:
448,192,41234,1,0,0:0:0:0:
192,192,41317,1,0,0:0:0:0:
320,192,41400,1,0,0:0:0:0:
64,192,41484,1,0,0:0:0:0:
320,192,41567,1,0,0:0:0:0:
192,192,41650,1,0,0:0:0:0:
320,192,41734,1,2,0:0:0:0:
448,192,41734,1,0,0:0:0:0:
320,192,42234,128,2,42275:0:0:0:0:
448,192,42234,128,0,42275:0:0:0:70:glass.wav
64,192,42734,1,2,0:0:0:0:
192,192,42734,1,0,0:0:0:0:
320,192,42817,1,0,0:0:0:0:
192,192,42900,1,0,0:0:0:0:
448,192,42984,1,0,0:0:0:0:
192,192,43067,1,0,0:0:0:0:
320,192,43150,1,0,0:0:0:0:
64,192,43234,1,2,0:0:0:0:
192,192,43234,1,0,0:0:0:0:
64,192,43734,1,0,0:0:0:0:
192,192,43817,1,0,0:0:0:0:
320,192,43900,1,0,0:0:0:0:
448,192,43984,1,0,0:0:0:0:
320,192,44067,1,0,0:0:0:0:
192,192,44150,1,0,0:0:0:0:
448,192,44234,1,0,0:0:0:0:
320,192,44317,1,0,0:0:0:0:
192,192,44400,1,0,0:0:0:0:
64,192,44484,1,0,0:0:0:0:
192,192,44567,1,0,0:0:0:0:
320,192,44650,1,0,0:0:0:0:
64,192,44734,1,2,0:0:0:0:
192,192,44734,1,0,0:0:0:0:
64,192,45234,1,2,0:0:0:0:
192,192,45234,1,0,0:0:0:0:
448,192,45317,1,0,0:0:0:0:
64,192,45400,1,0,0:0:0:0:
320,192,45484,1,0,0:0:0:0:
64,192,45567,1,0,0:0:0:0:
448,192,45650,1,0,0:0:0:0:
64,192,45734,1,2,0:0:0:0:
192,192,45734,1,0,0:0:0:0:
64,192,46234,1,2,0:0:0:0:
192,192,46234,1,0,0:0:0:0:
320,192,46734,1,2,0:0:0:0:
448,192,46734,1,0,0:0:0:0:
64,192,46817,1,0,0:0:0:0:
448,192,46900,1,0,0:0:0:0:
192,192,46984,1,0,0:0:0:0:
448,192,47067,1,0,0:0:0:0:
64,192,47150,1,0,0:0:0:0:
320,192,47234,1,2,0:0:0:0:
448,192,47234,1,0,0:0:0:0:
448,192,47734,1,0,0:0:0:0:
320,192,47817,1,0,0:0:0:0:
192,192,47900,1,0,0:0:0:0:
64,192,47984,1,0,0:0:0:0:
192,192,48067,1,0,0:0:0:0:
320,192,48150,1,0,0:0:0:0:
64,192,48234,1,0,0:0:0:0:
192,192,48317,1,0,0:0:0:0:
320,192,48400,1,0,0:0:0:0:
448,192,48484,1,0,0:0:0:0:
320,192,48567,1,0,0:0:0:0:
192,192,48650,1,0,0:0:0:0:
320,192,48734,1,2,0:0:0:0:
448,192,48734,1,0,0:0:0:0:
320,192,49234,1,2,0:0:0:0:
448,192,49234,128,8,49359:0:0:0:0:
192,192,49317,1,0,0:0:0:0:
320,192,49400,1,0,0:0:0:0:
64,192,49484,1,0,0:0:0:0:
320,192,49567,1,0,0:0:0:0:
192,192,49650,1,0,0:0:0:0:
320,192,49734,1,2,0:0:0:0:
448,192,49734,1,0,0:0:0:0:
64,192,50067,1,0,0:0:0:0:
320,192,50234,1,2,0:0:0:0:
448,192,50234,128,8,50359:0:0:0:0:
448,192,50567,1,0,0:0:0:0:
64,192,50734,1,2,0:0:0:0:
192,192,50734,1,0,0:0:0:0:
320,192,50817,1,0,0:0:0:0:
192,192,50900,1,0,0:0:0:0:
448,192,50984,1,0,0:0:0:0:
192,192,51067,1,0,0:0:0:0:
320,192,51150,1,0,0:0:0:0:
64,192,51234,128,2,51359:0:0:0:0:
192,192,51234,1,8,0:0:0:0:
64,192,51734,1,2,0:0:0:0:
192,192,51734,1,0,0:0:0:0:
448,192,51817,1,0,0:0:0:0:
320,192,51900,1,0,0:0:0:0:
192,192,51984,1,0,0:0:0:0:
64,192,52067,1,0,0:0:0:0:
192,192,52150,1,0,0:0:0:0:
320,192,52234,1,2,0:0:0:0:
448,192,52234,128,8,52359:0:0:0:0:
64,192,52317,1,0,0:0:0:0:
192,192,52400,1,0,0:0:0:0:
320,192,52484,1,0,0:0:0:0:
448,192,52567,1,0,0:0:0:0:
320,192,52650,1,0,0:0:0:0:
64,192,52734,1,2,0:0:0:0:
192,192,52734,1,0,0:0:0:0:
64,192,53234,128,8,53296:0:0:0:0:
192,192,53234,1,2,0:0:0:0:
448,192,53317,1,0,0:0:0:0:
192,192,53400,1,0,0:0:0:0:
320,192,53484,1,0,0:0:0:0:
192,192,53567,1,0,0:0:0:0:
448,192,53650,1,0,0:0:0:0:
64,192,53734,128,2,53859:0:0:0:0:
192,192,53734,128,0,53796:0:0:0:0:
448,192,54067,1,0,0:0:0:0:
64,192,54234,128,8,54421:0:0:0:0:
192,192,54234,128,2,54359:0:0:0:0:
448,192,54359,1,0,0:0:0:0:
320,192,54421,1,0,0:0:0:0:
192,192,54484,1,0,0:0:0:0:
64,192,54546,1,0,0:0:0:0:
448,192,54609,1,0,0:0:0:0:
320,192,54671,1,0,0:0:0:0:
64,192,54734,1,0,0:0:0:0:
64,192,56734,128,0,58734:0:0:0:0:
64,192,60734,128,0,62734:0:0:0:0:
64,192,64733,128,2,65067:0:0:0:0:
192,192,64734,1,0,0:0:0:0:
192,192,65067,1,0,0:0:0:0:
64,192,65233,128,10,65567:0:0:0:0:
320,192,65234,1,0,0:0:0:0:
448,192,65317,1,0,0:0:0:0:
320,192,65400,1,0,0:0:0:0:
192,192,65484,1,0,0:0:0:0:
320,192,65567,1,0,0:0:0:0:
64,192,65734,128,2,66067:0:0:0:0:
192,192,65734,1,0,0:0:0:0:
192,192,66067,1,0,0:0:0:0:
64,192,66234,128,2,66567:0:0:0:0:
320,192,66234,1,8,0:0:0:0:
448,192,66317,1,0,0:0:0:0:
320,192,66400,1,0,0:0:0:0:
192,192,66484,1,0,0:0:0:0:
320,192,66567,1,0,0:0:0:0:
64,192,66734,1,2,0:0:0:0:
192,192,66734,1,0,0:0:0:0:
192,192,67067,1,0,0:0:0:0:
64,192,67234,1,2,0:0:0:0:
320,192,67234,1,8,0:0:0:0:
448,192,67317,1,0,0:0:0:0:
320,192,67400,1,0,0:0:0:0:
192,192,67484,1,0,0:0:0:0:
320,192,67567,1,0,0:0:0:0:
64,192,67734,1,2,0:0:0:0:
192,192,67734,1,0,0:0:0:0:
64,192,67900,1,0,0:0:0:0:
64,192,68067,1,0,0:0:0:0:
64,192,68234,1,0,0:0:0:0:
192,192,68317,1,0,0:0:0:0:
320,192,68400,1,0,0:0:0:0:
320,192,68567,1,0,0:0:0:0:
448,192,68650,1,0,0:0:0:0:
64,192,68734,128,2,69067:0:0:0:0:
192,192,68734,1,0,0:0:0:0:
192,192,69067,1,0,0:0:0:0:
64,192,69234,128,2,69567:0:0:0:0:
320,192,69234,1,8,0:0:0:0:
192,192,69317,1,0,0:0:0:0:
320,192,69400,1,0,0:0:0:0:
448,192,69484,1,0,0:0:0:0:
320,192,69567,1,0,0:0:0:0:
64,192,69734,128,2,70067:0:0:0:0:
192,192,69734,1,0,0:0:0:0:
192,192,70067,1,0,0:0:0:0:
64,192,70234,128,2,70567:0:0:0:0:
320,192,70234,1,8,0:0:0:0:
192,192,70317,1,0,0:0:0:0:
320,192,70400,1,0,0:0:0:0:
448,192,70484,1,0,0:0:0:0:
320,192,70567,1,0,0:0:0:0:
64,192,70734,1,2,0:0:0:0:
192,192,70734,1,0,0:0:0:0:
192,192,71067,1,0,0:0:0:0:
64,192,71234,1,2,0:0:0:0:
320,192,71234,1,8,0:0:0:0:
192,192,71317,1,0,0:0:0:0:
320,192,71400,1,0,0:0:0:0:
448,192,71484,1,0,0:0:0:0:
320,192,71567,1,0,0:0:0:0:
320,192,71734,128,0,71900:0:0:0:0:
448,192,72067,128,0,72234:0:0:0:0:
320,192,72234,128,0,72400:0:0:0:0:
192,192,72567,128,0,72734:0:0:0:0:
192,192,73067,128,0,73234:0:0:0:0:
64,192,73234,128,8,73400:0:0:0:0:
320,192,73234,1,0,0:0:0:0:
192,192,73734,128,0,73900:0:0:0:0:
448,192,74067,128,0,74234:0:0:0:0:
64,192,74234,1,8,0:0:0:0:
320,192,74234,128,0,74400:0:0:0:0:
192,192,74567,128,0,74734:0:0:0:0:
192,192,75067,128,0,75234:0:0:0:0:
64,192,75234,128,8,75400:0:0:0:0:
320,192,75234,1,0,0:0:0:0:
192,192,75734,128,0,75900:0:0:0:0:
448,192,76067,128,0,76234:0:0:0:0:
64,192,76234,1,8,0:0:0:0:
320,192,76234,128,0,76400:0:0:0:0:
192,192,76567,128,0,76734:0:0:0:0:
192,192,77067,128,0,77234:0:0:0:0:
64,192,77234,128,8,77400:0:0:0:0:
320,192,77234,1,0,0:0:0:0:
192,192,77734,128,0,77900:0:0:0:0:
320,192,78067,128,0,78234:0:0:0:0:
192,192,78234,128,8,78400:0:0:0:0:
448,192,78234,1,0,0:0:0:0:
64,192,78567,128,0,78734:0:0:0:0:
64,192,79234,1,8,0:0:0:0:
320,192,79234,1,0,0:0:0:0:
320,192,79734,128,0,79900:0:0:0:0:
448,192,80067,128,0,80234:0:0:0:0:
64,192,80234,1,8,0:0:0:0:
320,192,80234,128,0,80400:0:0:0:0:
192,192,80567,128,0,80734:0:0:0:0:
320,192,80734,1,2,0:0:0:0:
448,192,80734,1,0,0:0:0:0:
192,192,81067,128,0,81234:0:0:0:0:
64,192,81234,128,2,81400:0:0:0:0:
320,192,81234,1,8,0:0:0:0:
448,192,81234,1,0,0:0:0:0:
64,192,81734,1,2,0:0:0:0:
192,192,81734,128,0,81900:0:0:0:0:
448,192,82067,128,0,82234:0:0:0:0:
64,192,82234,1,2,0:0:0:0:
192,192,82234,1,8,0:0:0:0:
320,192,82234,128,0,82400:0:0:0:0:
192,192,82567,128,0,82734:0:0:0:0:
320,192,82734,1,2,0:0:0:0:
448,192,82734,1,0,0:0:0:0:
192,192,83067,128,0,83234:0:0:0:0:
64,192,83234,128,2,83400:0:0:0:0:
320,192,83234,1,8,0:0:0:0:
448,192,83234,1,0,0:0:0:0:
64,192,83734,1,2,0:0:0:0:
192,192,83734,128,0,83900:0:0:0:0:
448,192,84067,128,0,84234:0:0:0:0:
64,192,84234,1,2,0:0:0:0:
192,192,84234,1,8,0:0:0:0:
320,192,84234,128,0,84400:0:0:0:0:
192,192,84567,128,0,84734:0:0:0:0:
320,192,84734,1,2,0:0:0:0:
448,192,84734,1,0,0:0:0:0:
192,192,85067,128,0,85234:0:0:0:0:
64,192,85234,128,8,85400:0:0:0:0:
320,192,85234,1,2,0:0:0:0:
448,192,85234,1,0,0:0:0:0:
192,192,85734,128,0,85900:0:0:0:0:
320,192,86067,128,0,86234:0:0:0:0:
192,192,86234,128,0,86400:0:0:0:0:
64,192,86567,128,0,86734:0:0:0:0:
320,192,88734,128,2,88796:0:0:0:0:
448,192,88734,128,0,88984:0:0:0:0:
64,192,89067,1,0,0:0:0:0:
320,192,89234,1,2,0:0:0:0:
448,192,89234,1,8,0:0:0:0:
192,192,89317,1,0,0:0:0:0:
448,192,89400,1,0,0:0:0:0:
64,192,89567,1,0,0:0:0:0:
320,192,89650,1,0,0:0:0:0:
64,192,89734,1,2,0:0:0:0:
192,192,89734,1,0,0:0:0:0:
448,192,89900,1,0,0:0:0:0:
64,192,90067,1,0,0:0:0:0:
320,192,90234,1,2,0:0:0:0:
448,192,90234,1,8,0:0:0:0:
448,192,90567,1,0,0:0:0:0:
64,192,90734,1,2,0:0:0:0:
192,192,90734,1,0,0:0:0:0:
64,192,91067,1,0,0:0:0:0:
320,192,91234,1,2,0:0:0:0:
448,192,91234,1,8,0:0:0:0:
64,192,92734,1,2,0:0:0:0:
192,192,92734,1,0,0:0:0:0:
64,192,93067,1,0,0:0:0:0:
320,192,93234,1,2,0:0:0:0:
448,192,93234,1,8,0:0:0:0:
192,192,93317,1,0,0:0:0:0:
448,192,93400,1,0,0:0:0:0:
448,192,93567,1,0,0:0:0:0:
64,192,93734,1,2,0:0:0:0:
192,192,93734,1,0,0:0:0:0:
448,192,93900,1,0,0:0:0:0:
64,192,94067,1,0,0:0:0:0:
320,192,94234,1,2,0:0:0:0:
448,192,94234,1,8,0:0:0:0:
64,192,94567,1,0,0:0:0:0:
64,192,94734,1,2,0:0:0:0:
192,192,94734,1,0,0:0:0:0:
448,192,94817,1,0,0:0:0:0:
192,192,94900,1,0,0:0:0:0:
320,192,94984,1,0,0:0:0:0:
64,192,95067,1,0,0:0:0:0:
192,192,95150,1,0,0:0:0:0:
320,192,95234,1,2,0:0:0:0:
448,192,95234,1,8,0:0:0:0:
192,192,95317,1,0,0:0:0:0:
448,192,95400,1,0,0:0:0:0:
448,192,95567,1,0,0:0:0:0:
64,192,95734,1,2,0:0:0:0:
192,192,95734,1,0,0:0:0:0:
192,192,95900,1,0,0:0:0:0:
64,192,96067,1,0,0:0:0:0:
320,192,96234,1,2,0:0:0:0:
448,192,96234,1,8,0:0:0:0:
320,192,96400,1,0,0:0:0:0:
192,192,96567,1,0,0:0:0:0:
64,192,96734,128,2,96984:0:0:0:0:
192,192,96734,128,0,96796:0:0:0:0:
192,192,97067,1,0,0:0:0:0:
64,192,97150,1,0,0:0:0:0:
320,192,97234,1,2,0:0:0:0:
448,192,97234,1,8,0:0:0:0:
192,192,97317,1,0,0:0:0:0:
448,192,97400,1,0,0:0:0:0:
64,192,97567,1,0,0:0:0:0:
320,192,97650,1,0,0:0:0:0:
64,192,97734,1,2,0:0:0:0:
192,192,97734,1,0,0:0:0:0:
448,192,97900,1,0,0:0:0:0:
64,192,98067,1,0,0:0:0:0:
320,192,98234,1,2,0:0:0:0:
448,192,98234,1,8,0:0:0:0:
448,192,98567,1,0,0:0:0:0:
64,192,98734,1,2,0:0:0:0:
192,192,98734,1,0,0:0:0:0:
64,192,99067,1,0,0:0:0:0:
320,192,99234,1,2,0:0:0:0:
448,192,99234,1,8,0:0:0:0:
64,192,99400,1,0,0:0:0:0:
64,192,99567,1,0,0:0:0:0:
64,192,99734,1,2,0:0:0:0:
192,192,99734,1,0,0:0:0:0:
192,192,99900,1,0,0:0:0:0:
64,192,100067,1,0,0:0:0:0:
320,192,100234,1,2,0:0:0:0:
448,192,100234,1,8,0:0:0:0:
320,192,100400,1,0,0:0:0:0:
448,192,100567,1,0,0:0:0:0:
64,192,100734,1,2,0:0:0:0:
192,192,100734,1,0,0:0:0:0:
64,192,101067,1,0,0:0:0:0:
320,192,101234,1,2,0:0:0:0:
448,192,101234,1,8,0:0:0:0:
192,192,101317,1,0,0:0:0:0:
448,192,101400,1,0,0:0:0:0:
448,192,101567,1,0,0:0:0:0:
64,192,101734,1,2,0:0:0:0:
192,192,101734,1,0,0:0:0:0:
448,192,101900,1,0,0:0:0:0:
64,192,102067,1,0,0:0:0:0:
320,192,102234,1,2,0:0:0:0:
448,192,102234,1,8,0:0:0:0:
448,192,102567,1,0,0:0:0:0:
64,192,102734,1,2,0:0:0:0:
192,192,102734,1,0,0:0:0:0:
448,192,102817,1,0,0:0:0:0:
192,192,102900,1,0,0:0:0:0:
320,192,102984,1,0,0:0:0:0:
64,192,103067,1,0,0:0:0:0:
192,192,103150,1,0,0:0:0:0:
320,192,103234,1,2,0:0:0:0:
448,192,103234,1,8,0:0:0:0:
192,192,103317,1,0,0:0:0:0:
448,192,103400,1,0,0:0:0:0:
64,192,103567,1,0,0:0:0:0:
320,192,103650,1,0,0:0:0:0:
64,192,103734,1,2,0:0:0:0:
192,192,103734,1,0,0:0:0:0:
320,192,103817,1,0,0:0:0:0:
64,192,103900,1,0,0:0:0:0:
448,192,103984,1,0,0:0:0:0:
192,192,104067,1,0,0:0:0:0:
64,192,104150,1,0,0:0:0:0:
320,192,104234,1,2,0:0:0:0:
448,192,104234,1,8,0:0:0:0:
192,192,104317,1,0,0:0:0:0:
448,192,104400,1,0,0:0:0:0:
64,192,104484,1,0,0:0:0:70:hat.wav
192,192,104546,1,0,0:0:0:70:hat.wav
320,192,104609,1,0,0:0:0:70:hat.wav
448,192,104671,1,0,0:0:0:70:hat.wav
64,192,104734,128,2,104984:0:0:0:0:
192,192,104734,128,0,104796:0:0:0:0:
320,192,104900,1,0,0:0:0:70:hat.wav
192,192,105067,1,0,0:0:0:70:hat.wav
64,192,105150,1,0,0:0:0:0:
320,192,105234,1,10,0:0:0:0:
448,192,105234,1,0,0:0:0:70:hat.wav
192,192,105317,1,0,0:0:0:0:
448,192,105400,1,0,0:0:0:70:hat.wav
64,192,105484,1,0,0:0:0:0:
448,192,105567,1,0,0:0:0:70:hat.wav
192,192,105650,1,0,0:0:0:0:
320,192,105734,1,2,0:0:0:0:
448,192,105734,1,0,0:0:0:70:hat.wav
64,192,105817,1,0,0:0:0:0:
320,192,105900,1,0,0:0:0:70:hat.wav
192,192,105984,1,0,0:0:0:0:
320,192,106067,1,0,0:0:0:70:hat.wav
448,192,106150,1,0,0:0:0:0:
64,192,106234,1,10,0:0:0:0:
192,192,106234,1,0,0:0:0:70:hat.wav
448,192,106317,1,0,0:0:0:0:
192,192,106400,1,0,0:0:0:70:hat.wav
320,192,106484,1,0,0:0:0:0:
192,192,106567,1,0,0:0:0:70:hat.wav
448,192,106650,1,0,0:0:0:0:
64,192,106734,128,2,106900:0:0:0:0:
192,192,106734,128,0,106817:0:0:0:0:
320,192,106817,1,0,0:0:0:0:
448,192,106900,1,0,0:0:0:0:
64,192,107067,128,2,107234:0:0:0:0:
192,192,107067,128,0,107150:0:0:0:0:
320,192,107150,1,0,0:0:0:0:
448,192,107234,1,0,0:0:0:0:
64,192,107400,128,2,107567:0:0:0:0:
192,192,107400,128,0,107484:0:0:0:0:
320,192,107484,1,0,0:0:0:0:
448,192,107567,1,0,0:0:0:0:
448,192,108484,1,0,0:0:0:70:hat.wav
320,192,108546,1,0,0:0:0:70:hat.wav
192,192,108609,1,0,0:0:0:70:hat.wav
64,192,108671,1,0,0:0:0:70:hat.wav
320,192,108734,128,2,108796:0:0:0:0:
448,192,108734,128,0,108984:0:0:0:0:
192,192,108900,1,0,0:0:0:70:hat.wav
320,192,109067,1,0,0:0:0:70:hat.wav
64,192,109234,1,10,0:0:0:0:
192,192,109234,1,0,0:0:0:70:hat.wav
320,192,109317,1,0,0:0:0:0:
64,192,109400,1,0,0:0:0:70:hat.wav
448,192,109484,1,0,0:0:0:0:
64,192,109567,1,0,0:0:0:70:hat.wav
320,192,109650,1,0,0:0:0:0:
64,192,109734,1,2,0:0:0:0:
192,192,109734,1,0,0:0:0:70:hat.wav
448,192,109817,1,0,0:0:0:0:
192,192,109900,1,0,0:0:0:70:hat.wav
320,192,109984,1,0,0:0:0:0:
192,192,110067,1,0,0:0:0:70:hat.wav
64,192,110150,1,0,0:0:0:0:
320,192,110234,1,10,0:0:0:0:
448,192,110234,1,0,0:0:0:70:hat.wav
64,192,110317,1,0,0:0:0:0:
320,192,110400,1,0,0:0:0:70:hat.wav
192,192,110484,1,0,0:0:0:0:
320,192,110567,1,0,0:0:0:70:hat.wav
64,192,110650,1,0,0:0:0:0:
448,192,110734,128,0,110900:0:0:0:70:hat.wav
192,192,110817,1,0,0:0:0:0:
64,192,110900,1,0,0:0:0:0:
448,192,111067,128,0,111234:0:0:0:70:hat.wav
192,192,111150,1,0,0:0:0:0:
64,192,111234,1,0,0:0:0:0:
448,192,111400,128,0,111567:0:0:0:70:hat.wav
192,192,111484,1,0,0:0:0:0:
64,192,111567,1,0,0:0:0:0:
64,192,111900,1,0,0:0:0:0:
448,192,112067,1,0,0:0:0:0:
448,192,112234,1,0,0:0:0:0:
448,192,112400,1,0,0:0:0:0:
64,192,112484,1,0,0:0:0:70:hat.wav
192,192,112546,1,0,0:0:0:70:hat.wav
320,192,112609,1,0,0:0:0:70:hat.wav
448,192,112671,1,0,0:0:0:70:hat.wav
64,192,112734,128,2,112984:0:0:0:0:
192,192,112734,128,0,112796:0:0:0:0:
320,192,112900,1,0,0:0:0:70:hat.wav
192,192,113067,1,0,0:0:0:70:hat.wav
320,192,113234,1,10,0:0:0:0:
448,192,113234,1,0,0:0:0:70:hat.wav
192,192,113317,1,0,0:0:0:0:
448,192,113400,1,0,0:0:0:70:hat.wav
64,192,113484,1,0,0:0:0:0:
448,192,113567,1,0,0:0:0:70:hat.wav
192,192,113650,1,0,0:0:0:0:
320,192,113734,1,2,0:0:0:0:
448,192,113734,1,0,0:0:0:70:hat.wav
64,192,113817,1,0,0:0:0:0:
320,192,113900,1,0,0:0:0:70:hat.wav
192,192,113984,1,0,0:0:0:0:
320,192,114067,1,0,0:0:0:70:hat.wav
448,192,114150,1,0,0:0:0:0:
64,192,114234,1,10,0:0:0:0:
192,192,114234,1,0,0:0:0:70:hat.wav
448,192,114317,1,0,0:0:0:0:
192,192,114400,1,0,0:0:0:70:hat.wav
320,192,114484,1,0,0:0:0:0:
192,192,114567,1,0,0:0:0:70:hat.wav
448,192,114650,1,0,0:0:0:0:
64,192,114734,128,2,114900:0:0:0:0:
192,192,114734,128,0,114817:0:0:0:0:
320,192,114817,1,0,0:0:0:0:
448,192,114900,1,0,0:0:0:0:
64,192,115067,128,2,115234:0:0:0:0:
192,192,115067,128,0,115150:0:0:0:0:
320,192,115150,1,0,0:0:0:0:
448,192,115234,1,0,0:0:0:0:
64,192,115400,128,2,115567:0:0:0:0:
192,192,115400,128,0,115484:0:0:0:0:
320,192,115484,1,0,0:0:0:0:
448,192,115567,1,0,0:0:0:0:
448,192,116484,1,0,0:0:0:70:hat.wav
320,192,116546,1,0,0:0:0:70:hat.wav
192,192,116609,1,0,0:0:0:70:hat.wav
64,192,116671,1,0,0:0:0:70:hat.wav
320,192,116734,128,2,116796:0:0:0:0:
448,192,116734,128,0,116984:0:0:0:0:
192,192,116900,1,0,0:0:0:70:hat.wav
320,192,117067,1,0,0:0:0:70:hat.wav
64,192,117234,1,10,0:0:0:0:
192,192,117234,1,0,0:0:0:70:hat.wav
320,192,117317,1,0,0:0:0:0:
64,192,117400,1,0,0:0:0:70:hat.wav
448,192,117484,1,0,0:0:0:0:
64,192,117567,1,0,0:0:0:70:hat.wav
320,192,117650,1,0,0:0:0:0:
64,192,117734,1,2,0:0:0:0:
192,192,117734,1,0,0:0:0:70:hat.wav
448,192,117817,1,0,0:0:0:0:
192,192,117900,1,0,0:0:0:70:hat.wav
320,192,117984,1,0,0:0:0:0:
192,192,118067,1,0,0:0:0:70:hat.wav
64,192,118150,1,0,0:0:0:0:
320,192,118234,1,10,0:0:0:0:
448,192,118234,1,0,0:0:0:70:hat.wav
64,192,118317,1,0,0:0:0:0:
320,192,118400,1,0,0:0:0:70:hat.wav
192,192,118484,1,0,0:0:0:0:
320,192,118567,1,0,0:0:0:70:hat.wav
64,192,118650,1,0,0:0:0:0:
448,192,118734,128,0,118900:0:0:0:70:hat.wav
192,192,118817,1,0,0:0:0:0:
64,192,118900,1,0,0:0:0:0:
320,192,119067,128,0,119234:0:0:0:70:hat.wav
192,192,119150,1,0,0:0:0:0:
64,192,119234,1,0,0:0:0:0:
192,192,119400,128,0,119567:0:0:0:70:hat.wav
64,192,119484,1,0,0:0:0:0:
320,192,119567,1,0,0:0:0:0:
448,192,119650,1,0,0:0:0:0:
64,192,119734,1,0,0:0:0:70:hat.wav
320,192,119900,1,0,0:0:0:0:
320,192,120067,1,0,0:0:0:70:hat.wav
320,192,120234,1,0,0:0:0:0:
320,192,120400,1,0,0:0:0:70:hat.wav
320,192,120567,1,0,0:0:0:0:
192,192,120650,1,0,0:0:0:0:
448,192,120734,128,0,120984:0:0:0:0:
64,192,121234,128,0,121484:0:0:0:0:
448,192,121734,128,0,121984:0:0:0:0:
64,192,122234,128,0,122484:0:0:0:0:
64,192,122567,1,0,0:0:0:0:
448,192,122734,128,0,122984:0:0:0:0:
320,192,123234,128,0,123484:0:0:0:0:
192,192,123734,128,0,123984:0:0:0:0:
64,192,124234,128,0,124484:0:0:0:0:
64,192,124567,1,0,0:0:0:0:
448,192,124734,128,0,124984:0:0:0:0:
64,192,125234,128,0,125484:0:0:0:0:
448,192,125734,128,0,125984:0:0:0:0:
64,192,126234,128,0,126484:0:0:0:0:
64,192,126567,1,0,0:0:0:0:
448,192,126734,128,0,126984:0:0:0:0:
320,192,127234,128,0,127484:0:0:0:0:
192,192,127734,128,0,127983:0:0:0:0:
64,192,128233,128,0,128483:0:0:0:0:
64,192,128567,1,0,0:0:0:0:
64,192,128733,1,2,0:0:0:0:
192,192,128733,128,0,128983:0:0:0:0:
64,192,129067,1,0,0:0:0:0:
320,192,129233,128,2,129483:0:0:0:0:
448,192,129233,1,0,0:0:0:0:
64,192,129567,1,0,0:0:0:0:
320,192,129733,1,2,0:0:0:0:
448,192,129733,128,0,129983:0:0:0:0:
320,192,130067,1,0,0:0:0:0:
64,192,130233,128,2,130483:0:0:0:0:
192,192,130233,1,0,0:0:0:0:
64,192,130567,1,0,0:0:0:0:
320,192,130733,1,2,0:0:0:0:
448,192,130733,128,0,130984:0:0:0:0:
64,192,131067,1,0,0:0:0:0:
320,192,131234,128,2,131484:0:0:0:0:
448,192,131234,1,0,0:0:0:0:
448,192,131567,1,0,0:0:0:0:
64,192,131734,1,2,0:0:0:0:
192,192,131734,128,0,131984:0:0:0:0:
448,192,132067,1,0,0:0:0:0:
64,192,132234,128,2,132484:0:0:0:0:
192,192,132234,1,0,0:0:0:0:
64,192,132567,1,0,0:0:0:0:
320,192,132734,1,2,0:0:0:0:
448,192,132734,128,0,132984:0:0:0:0:
64,192,133067,1,0,0:0:0:0:
320,192,133234,1,2,0:0:0:0:
448,192,133234,128,0,133484:0:0:0:0:
192,192,133567,1,0,0:0:0:0:
320,192,133734,1,2,0:0:0:0:
448,192,133734,128,0,133984:0:0:0:0:
64,192,134067,1,0,0:0:0:0:
320,192,134234,1,2,0:0:0:0:
448,192,134234,1,0,0:0:0:0:
64,192,134567,1,0,0:0:0:0:
320,192,134734,1,2,0:0:0:0:
448,192,134734,128,0,134984:0:0:0:0:
320,192,135067,1,0,0:0:0:0:
64,192,135234,1,2,0:0:0:0:
192,192,135234,128,0,135484:0:0:0:0:
64,192,135734,128,0,135900:0:0:0:0:
320,192,136734,128,2,136796:0:0:0:0:
448,192,136734,128,0,136984:0:0:0:0:
320,192,137234,1,2,0:0:0:0:
448,192,137234,1,8,0:0:0:0:
192,192,137317,1,0,0:0:0:0:
320,192,137400,1,0,0:0:0:0:
64,192,137484,1,0,0:0:0:0:
320,192,137567,1,0,0:0:0:0:
192,192,137650,1,0,0:0:0:0:
320,192,137734,1,2,0:0:0:0:
448,192,137734,1,0,0:0:0:0:
64,192,138067,1,0,0:0:0:0:
320,192,138234,128,10,138275:0:0:0:0:
448,192,138234,128,0,138275:0:0:0:70:glass.wav
448,192,138567,1,0,0:0:0:0:
64,192,138734,1,2,0:0:0:0:
192,192,138734,1,0,0:0:0:0:
320,192,138817,1,0,0:0:0:0:
192,192,138900,1,0,0:0:0:0:
448,192,138984,1,0,0:0:0:0:
192,192,139067,1,0,0:0:0:0:
320,192,139150,1,0,0:0:0:0:
64,192,139234,1,2,0:0:0:0:
192,192,139234,1,8,0:0:0:0:
64,192,139734,1,0,0:0:0:0:
192,192,139817,1,0,0:0:0:0:
320,192,139900,1,0,0:0:0:0:
448,192,139984,1,0,0:0:0:0:
320,192,140067,1,0,0:0:0:0:
192,192,140150,1,0,0:0:0:0:
448,192,140234,1,0,0:0:0:0:
320,192,140317,1,0,0:0:0:0:
192,192,140400,1,0,0:0:0:0:
64,192,140484,1,0,0:0:0:0:
192,192,140567,1,0,0:0:0:0:
320,192,140650,1,0,0:0:0:0:
64,192,140734,1,2,0:0:0:0:
192,192,140734,1,0,0:0:0:0:
64,192,141234,1,2,0:0:0:0:
192,192,141234,1,8,0:0:0:0:
448,192,141317,1,0,0:0:0:0:
64,192,141400,1,0,0:0:0:0:
320,192,141484,1,0,0:0:0:0:
64,192,141567,1,0,0:0:0:0:
448,192,141650,1,0,0:0:0:0:
64,192,141734,1,2,0:0:0:0:
192,192,141734,1,0,0:0:0:0:
448,192,142067,1,0,0:0:0:0:
64,192,142234,1,2,0:0:0:0:
192,192,142234,1,8,0:0:0:0:
64,192,142567,1,0,0:0:0:0:
320,192,142734,1,2,0:0:0:0:
448,192,142734,1,0,0:0:0:0:
64,192,142817,1,0,0:0:0:0:
448,192,142900,1,0,0:0:0:0:
192,192,142984,1,0,0:0:0:0:
448,192,143067,1,0,0:0:0:0:
64,192,143150,1,0,0:0:0:0:
320,192,143234,1,2,0:0:0:0:
448,192,143234,1,8,0:0:0:0:
448,192,143734,1,0,0:0:0:0:
320,192,143817,1,0,0:0:0:0:
192,192,143900,1,0,0:0:0:0:
64,192,143984,1,0,0:0:0:0:
192,192,144067,1,0,0:0:0:0:
320,192,144150,1,0,0:0:0:0:
64,192,144234,1,0,0:0:0:0:
192,192,144317,1,0,0:0:0:0:
320,192,144400,1,0,0:0:0:0:
448,192,144484,1,0,0:0:0:0:
320,192,144567,1,0,0:0:0:0:
192,192,144650,1,0,0:0:0:0:
320,192,144734,1,2,0:0:0:0:
448,192,144734,1,0,0:0:0:0:
320,192,145234,1,2,0:0:0:0:
448,192,145234,1,8,0:0:0:0:
192,192,145317,1,0,0:0:0:0:
320,192,145400,1,0,0:0:0:0:
64,192,145484,1,0,0:0:0:0:
320,192,145567,1,0,0:0:0:0:
192,192,145650,1,0,0:0:0:0:
320,192,145734,1,2,0:0:0:0:
448,192,145734,1,0,0:0:0:0:
64,192,146067,1,0,0:0:0:0:
320,192,146234,1,2,0:0:0:0:
448,192,146234,1,8,0:0:0:0:
448,192,146567,1,0,0:0:0:0:
64,192,146734,1,2,0:0:0:0:
192,192,146734,1,0,0:0:0:0:
320,192,146817,1,0,0:0:0:0:
192,192,146900,1,0,0:0:0:0:
448,192,146984,1,0,0:0:0:0:
192,192,147067,1,0,0:0:0:0:
320,192,147150,1,0,0:0:0:0:
64,192,147234,1,2,0:0:0:0:
192,192,147234,1,8,0:0:0:0:
64,192,147734,1,2,0:0:0:0:
192,192,147734,1,0,0:0:0:0:
448,192,147817,1,0,0:0:0:0:
320,192,147900,1,0,0:0:0:0:
192,192,147984,1,0,0:0:0:0:
64,192,148067,1,0,0:0:0:0:
192,192,148150,1,0,0:0:0:0:
320,192,148234,1,2,0:0:0:0:
448,192,148234,1,8,0:0:0:0:
64,192,148317,1,0,0:0:0:0:
192,192,148400,1,0,0:0:0:0:
320,192,148484,1,0,0:0:0:0:
448,192,148567,1,0,0:0:0:0:
320,192,148650,1,0,0:0:0:0:
64,192,148734,1,2,0:0:0:0:
192,192,148734,1,0,0:0:0:0:
64,192,149234,128,2,149296:0:0:0:0:
192,192,149234,1,8,0:0:0:0:
448,192,149317,1,0,0:0:0:0:
192,192,149400,1,0,0:0:0:0:
320,192,149484,1,0,0:0:0:0:
192,192,149567,1,0,0:0:0:0:
448,192,149650,1,0,0:0:0:0:
64,192,149734,128,2,149859:0:0:0:0:
192,192,149734,128,0,149796:0:0:0:0:
448,192,150067,1,0,0:0:0:0:
64,192,150234,128,2,150421:0:0:0:0:
192,192,150234,128,8,150359:0:0:0:0:
448,192,150359,1,0,0:0:0:0:
320,192,150421,1,0,0:0:0:0:
192,192,150484,1,0,0:0:0:0:
64,192,150546,1,0,0:0:0:0:
448,192,150609,1,0,0:0:0:0:
320,192,150671,1,0,0:0:0:0:
64,192,150734,1,0,0:0:0:0:
