osu file format v14

[General]
AudioFilename: audio.mp3
AudioLeadIn: 0
PreviewTime: 30430
Countdown: 0
SampleSet: Soft
StackLeniency: 0.7
Mode: 0
LetterboxInBreaks: 0
WidescreenStoryboard: 0

[Editor]
DistanceSpacing: 1.6
BeatDivisor: 6
GridSize: 4
TimelineZoom: 1.5

[Metadata]
Title:bury a friend
TitleUnicode:bury a friend
Artist:Billie Eilish
ArtistUnicode:Billie Eilish
Creator:X4D
Version:i wanna end me
Source:
Tags:WHEN WE ALL FALL ASLEEP, WHERE DO GO? Alternative Indie Pop
BeatmapID:1941396
BeatmapSetID:929526

[Difficulty]
HPDrainRate:6
CircleSize:4.1
OverallDifficulty:8
ApproachRate:9
SliderMultiplier:2
SliderTickRate:1

[Events]
//Background and Video events
0,0,"bg.jpg",0,0
Video,65,"where do we go.mp4"
//Break Periods
2,45547,46914
2,79514,85914
2,109567,110914
//Storyboard Layer 0 (Background)
//Storyboard Layer 1 (Fail)
//Storyboard Layer 2 (Pass)
//Storyboard Layer 3 (Foreground)
//Storyboard Sound Samples

[TimingPoints]
23514,500,4,2,1,30,1,0
23514,-133.333333333333,4,2,1,30,0,0
30514,500,4,2,1,30,1,0
30514,-200,4,2,1,30,0,0
31514,-133.333333333333,4,2,1,30,0,0
38180,-133.333333333333,4,2,1,5,0,0
38514,-133.333333333333,4,2,1,30,0,0
44514,-200,4,2,1,30,0,0
47514,500,4,2,1,55,1,0
47514,-66.6666666666667,4,2,1,30,0,0
48014,-133.333333333333,4,2,1,55,0,0
55514,-66.6666666666667,4,2,1,30,0,0
56014,-133.333333333333,4,2,1,55,0,0
61514,-100,4,2,1,55,0,0
63514,-66.6666666666667,4,2,1,30,0,0
64014,-133.333333333333,4,2,1,30,0,0
66514,-250,4,2,1,30,0,0
66847,-250,4,2,1,5,0,0
67014,-333.333333333333,4,2,1,30,0,0
67347,-333.333333333333,4,2,1,5,0,0
67514,-133.333333333333,4,2,1,30,0,0
70514,-333.333333333333,4,2,1,30,0,0
70847,-333.333333333333,4,2,1,5,0,0
71014,-250,4,2,1,30,0,0
71347,-250,4,2,1,5,0,0
71514,-133.333333333333,4,2,1,30,0,0
77514,-200,4,2,1,30,0,0
89514,-133.333333333333,4,2,1,30,0,0
91514,-200,4,2,1,30,0,0
93514,-133.333333333333,4,2,1,30,0,0
94514,500,4,2,1,55,1,0
94514,-200,4,2,1,55,0,0
103514,-133.333333333333,4,2,1,55,0,0
108534,500,4,2,1,55,1,0
108534,-200,4,2,1,55,0,0
111514,500,4,2,1,55,1,0
111514,-66.6666666666667,4,2,1,30,0,0
112014,-133.333333333333,4,2,1,55,0,0
119514,-66.6666666666667,4,2,1,30,0,0
120014,-133.333333333333,4,2,1,55,0,0
125514,-100,4,2,1,55,0,0
131597,500,4,2,1,55,1,0
134763,-133.333333333333,4,2,1,55,0,0
135597,-100,4,2,1,55,0,0
141847,-100,4,2,1,5,0,0
141930,-133.333333333333,4,2,1,55,0,0
142180,-100,4,2,1,5,0,0
142263,-100,4,2,1,55,0,0
143647,487.80487804878,4,2,1,55,1,0
144134,521.739130434783,4,2,1,55,1,0
144655,451.127819548872,4,2,1,55,1,0
145106,487.80487804878,4,2,1,55,1,0
145431,618.556701030928,4,2,1,55,1,0
145641,461.538461538462,4,2,1,55,1,0
146102,500,4,2,1,55,1,0
147102,480,4,2,1,55,1,0
147605,500,4,2,1,55,1,0
158095,545.454545454546,4,2,1,55,1,0
159049,600,4,2,1,55,1,0
159597,500,4,2,1,55,1,0
202617,545.454545454546,4,2,1,55,1,0
204222,500,4,2,1,55,1,0
204643,500,4,2,1,55,1,0

[Colours]
Combo1 : 235,226,122
Combo2 : 150,168,186
Combo3 : 211,190,44
Combo4 : 225,128,135

[HitObjects]
52,55,23514,6,0,L|171:49,1,100.000003814697
201,48,24014,1,0,0:0:0:0:
59,161,24347,1,0,0:0:0:0:
59,160,24514,2,0,L|178:154,1,100.000003814697
208,153,25014,1,0,0:0:0:0:
460,55,25347,1,0,0:0:0:0:
460,55,25514,2,0,L|341:49,1,100.000003814697
311,48,26014,1,0,0:0:0:0:
453,161,26347,1,0,0:0:0:0:
452,160,26514,2,0,L|377:157,2,50.0000019073487
306,281,27014,1,0,0:0:0:0:
277,208,27180,1,0,0:0:0:0:
325,146,27347,1,0,0:0:0:0:
248,135,27514,6,0,L|119:128,1,100.000003814697
104,144,28014,1,0,0:0:0:0:
62,248,28347,1,0,0:0:0:0:
62,248,28514,2,0,L|191:241,1,100.000003814697
206,257,29014,1,0,0:0:0:0:
318,307,29347,1,0,0:0:0:0:
318,307,29514,2,0,L|447:314,1,100.000003814697
462,298,30014,1,0,0:0:0:0:
362,132,30347,1,0,0:0:0:0:
362,132,30514,6,0,L|162:120,1,200
74,195,31847,1,0,0:0:0:0:
80,295,32014,2,0,L|74:195,1,100.000003814697
227,252,32514,6,0,L|221:351,1,100.000003814697
147,347,33014,1,0,0:0:0:0:
316,306,33347,1,0,0:0:0:0:
316,306,33514,2,0,L|440:296,1,100.000003814697
477,354,34014,1,0,0:0:0:0:
503,260,34347,1,0,0:0:0:0:
503,260,34514,6,0,P|503:217|507:174,1,50.0000019073487
446,153,34847,1,0,0:0:0:0:
433,139,35014,2,0,P|432:96|428:53,1,50.0000019073487
495,13,35347,1,0,0:0:0:0:
411,62,35514,2,0,P|351:53|290:50,1,100.000003814697
238,93,36014,1,0,0:0:0:0:
148,47,36347,1,0,0:0:0:0:
148,47,36514,6,0,L|153:146,1,100.000003814697
218,197,37014,1,0,0:0:0:0:
156,364,37347,1,0,0:0:0:0:
92,310,37514,6,0,P|98:260|102:210,1,100.000003814697
47,152,38014,2,0,P|43:127|41:102,1,50.0000019073487
59,78,38514,6,0,L|143:81,1,50.0000019073487
191,114,38847,1,0,0:0:0:0:
212,95,39014,2,0,L|296:92,1,50.0000019073487
334,43,39347,1,0,0:0:0:0:
398,133,39514,2,0,L|393:256,1,100.000003814697
477,373,40014,2,0,L|472:250,1,100.000003814697
355,348,40514,6,0,L|231:352,1,100.000003814697
298,262,41014,1,0,0:0:0:0:
176,350,41347,1,0,0:0:0:0:
176,350,41514,2,0,P|165:303|185:255,1,100.000003814697
239,199,42014,1,0,0:0:0:0:
378,234,42347,1,0,0:0:0:0:
378,234,42514,6,0,L|381:147,1,50.0000019073487
319,100,42847,1,0,0:0:0:0:
298,86,43014,2,0,L|248:87,1,50.0000019073487
155,44,43347,1,0,0:0:0:0:
77,136,43514,2,0,L|200:140,1,100.000003814697
231,235,44014,2,0,L|108:239,1,100.000003814697
34,367,44514,6,0,L|122:363,1,66.6666666666667
106,346,45014,2,0,L|194:342,1,66.6666666666667
457,64,47514,6,0,B|461:65|465:48|463:30|463:30|457:29,8,25.0000009536744
352,156,48014,6,0,P|398:138|446:148,1,100.000003814697
406,221,48514,1,0,0:0:0:0:
352,286,48680,2,0,L|281:286,1,50.0000019073487
148,221,49014,2,0,L|264:221,1,100.000003814697
271,362,49514,5,0,0:0:0:0:
251,207,49847,1,0,0:0:0:0:
248,221,50014,5,0,0:0:0:0:
248,221,51514,5,0,0:0:0:0:
271,362,51847,1,0,0:0:0:0:
201,304,52014,6,0,P|155:286|107:296,1,100.000003814697
65,367,52514,2,0,L|0:369,2,50.0000019073487
31,290,53014,2,0,P|13:244|23:196,1,100.000003814697
108,167,53514,6,0,L|173:165,1,50.0000019073487
198,91,53847,1,0,0:0:0:0:
85,76,54014,1,0,0:0:0:0:
273,46,54347,5,0,0:0:0:0:
273,46,54514,5,0,0:0:0:0:
276,125,54680,1,0,0:0:0:0:
279,205,54847,1,0,0:0:0:0:
356,236,55014,5,0,0:0:0:0:
360,122,55181,1,0,0:0:0:0:
363,10,55347,1,0,0:0:0:0:
276,125,55514,6,0,B|277:121|260:117|242:119|242:119|241:125,6,25.0000009536744
273,46,55847,1,0,0:0:0:0:
199,173,56014,6,0,L|85:176,1,100.000003814697
24,99,56514,2,0,L|89:101,1,50.0000019073487
99,176,56847,1,0,0:0:0:0:
52,258,57014,2,0,L|182:254,1,100.000003814697
301,289,57514,6,0,L|317:289,1,12.5000004768372
279,111,57847,1,0,0:0:0:0:
276,125,58014,5,0,0:0:0:0:
301,289,58347,1,0,0:0:0:0:
366,344,58514,5,0,0:0:0:0:
382,261,58680,1,0,0:0:0:0:
317,206,58847,1,0,0:0:0:0:
206,207,59014,5,0,0:0:0:0:
301,289,59180,1,0,0:0:0:0:
420,246,59347,1,0,0:0:0:0:
446,172,59514,5,0,0:0:0:0:
333,40,59847,1,0,0:0:0:0:
333,40,60014,6,0,L|463:44,1,100.000003814697
348,119,60514,2,0,L|283:121,1,50.0000019073487
255,35,60847,1,0,0:0:0:0:
198,117,61014,2,0,L|328:121,1,100.000003814697
421,232,61514,6,0,L|334:234,1,66.6666666666667
297,120,61847,1,0,0:0:0:0:
221,229,62014,2,0,L|393:234,1,133.333333333333
206,314,62514,5,0,0:0:0:0:
140,259,62680,1,0,0:0:0:0:
221,229,62847,1,0,0:0:0:0:
126,344,63014,5,0,0:0:0:0:
154,174,63180,1,0,0:0:0:0:
286,284,63347,1,0,0:0:0:0:
391,157,63514,6,0,B|390:161|407:165|425:163|425:163|426:157,7,25.0000009536744
343,84,64014,5,0,0:0:0:0:
328,78,64180,1,0,0:0:0:0:
313,84,64347,1,0,0:0:0:0:
237,46,64514,5,0,0:0:0:0:
207,46,65014,1,0,0:0:0:0:
64,168,65514,5,0,0:0:0:0:
79,162,65680,1,0,0:0:0:0:
94,168,65847,1,0,0:0:0:0:
170,130,66014,5,0,0:0:0:0:
93,289,66514,6,0,L|163:292,1,53.3333333333333
180,309,67014,2,0,L|237:306,1,39.9999987792969
358,198,67514,5,0,0:0:0:0:
358,198,68014,1,0,0:0:0:0:
352,213,68180,1,0,0:0:0:0:
358,228,68347,1,0,0:0:0:0:
320,304,68514,5,0,0:0:0:0:
320,334,69014,1,0,0:0:0:0:
443,269,69514,5,0,0:0:0:0:
449,254,69680,1,0,0:0:0:0:
443,239,69847,1,0,0:0:0:0:
481,163,70014,5,0,0:0:0:0:
353,60,70514,6,0,L|313:61,1,39.9999987792969
279,43,71014,2,0,L|225:40,1,53.3333333333333
146,93,71514,5,0,0:0:0:0:
146,93,72014,1,0,0:0:0:0:
146,123,72180,1,0,0:0:0:0:
147,153,72347,1,0,0:0:0:0:
222,222,72514,5,0,0:0:0:0:
166,308,72847,1,0,0:0:0:0:
166,308,73014,2,0,L|275:304,1,100.000003814697
362,347,73514,5,0,0:0:0:0:
362,317,73680,1,0,0:0:0:0:
363,287,73847,1,0,0:0:0:0:
438,218,74014,5,0,0:0:0:0:
382,132,74347,1,0,0:0:0:0:
382,132,74514,2,0,L|491:136,1,100.000003814697
452,36,75014,2,0,L|343:40,1,100.000003814697
290,87,75514,5,0,0:0:0:0:
178,24,75847,1,0,0:0:0:0:
178,24,76014,1,0,0:0:0:0:
179,73,76180,1,0,0:0:0:0:
181,123,76347,1,0,0:0:0:0:
131,208,76514,2,0,L|31:204,1,100.000003814697
118,318,77014,2,0,L|197:315,1,50.0000019073487
254,274,77264,2,0,L|253:254,4,12.5000004768372
278,295,77514,6,0,L|477:302,1,200
69,37,86514,6,0,L|132:34,2,33.3333333333333
43,56,87014,2,0,L|39:122,1,66.6666666666667
86,210,87514,6,0,P|128:217|177:195,1,66.6666666666667
223,82,88014,5,0,0:0:0:0:
200,106,88180,1,0,0:0:0:0:
189,137,88347,1,0,0:0:0:0:
266,265,88514,6,0,P|251:225|207:193,1,66.6666666666667,0|0,0:3|0:3,0:3:0:0:
86,210,89014,5,0,0:3:0:0:
118,218,89180,1,0,0:3:0:0:
151,212,89347,1,0,0:3:0:0:
189,137,89514,6,0,P|243:127|307:156,1,100.000003814697
312,351,90014,5,0,0:0:0:0:
279,313,90180,1,0,0:0:0:0:
266,265,90347,1,0,0:0:0:0:
387,223,90514,5,0,0:0:0:0:
377,251,90680,1,0,0:0:0:0:
356,272,90847,1,0,0:0:0:0:
314,209,91014,5,0,0:0:0:0:
314,209,91514,6,0,L|312:138,1,66.6666666666667
175,148,92014,5,0,0:0:0:0:
204,164,92180,1,0,0:0:0:0:
233,180,92347,1,0,0:0:0:0:
298,59,92514,6,0,L|237:95,1,66.6666666666667
314,209,93014,5,0,0:0:0:0:
314,176,93180,1,0,0:0:0:0:
313,143,93347,1,0,0:0:0:0:
418,115,93514,6,0,L|416:225,1,100.000003814697
316,308,94014,5,0,0:0:0:0:
315,259,94180,1,0,0:0:0:0:
314,209,94347,1,0,0:0:0:0:
414,311,94514,5,0,0:0:0:0:
414,311,96014,1,0,0:0:0:0:
344,200,96514,6,0,L|345:288,1,66.6666666666667
414,311,97014,1,0,0:0:0:0:
464,150,97347,2,0,L|465:258,1,100
414,311,98014,1,0,0:0:0:0:
344,200,98514,6,0,P|336:240|345:288,1,66.6666666666667
414,311,99014,1,0,0:0:0:0:
464,150,99347,2,0,P|475:208|461:278,1,100
414,311,100014,1,0,0:0:0:0:
344,200,100514,6,0,B|334:237|334:237|345:288,1,66.6666666666667
414,311,101014,1,0,0:0:0:0:
464,150,101347,1,0,0:0:0:0:
414,311,102014,5,0,0:0:0:0:
344,200,102514,6,0,B|307:190|307:190|256:201,1,66.6666666666667
304,282,103014,1,0,0:0:0:0:
211,232,103347,1,0,0:0:0:0:
211,232,103514,2,0,L|209:340,1,100
280,372,104014,1,0,0:0:0:0:
280,372,104514,6,0,P|331:344|396:360,1,100.000003814697
443,380,105014,1,0,0:0:0:0:
447,264,105347,1,0,0:0:0:0:
447,264,105514,2,0,L|444:130,1,100.000003814697
494,92,106014,1,0,0:0:0:0:
494,92,106514,6,0,P|443:64|378:80,1,100.000003814697
349,125,107014,1,0,0:0:0:0:
257,59,107347,1,0,0:0:0:0:
257,59,107514,2,0,L|255:189,1,100.000003814697
307,249,108014,1,0,0:0:0:0:
34,367,108534,6,0,L|122:363,1,66.6666666666667
106,346,109034,2,0,L|194:342,1,66.6666666666667
457,64,111514,6,0,B|461:65|465:48|463:30|463:30|457:29,8,25.0000009536744
386,122,112014,6,0,P|340:104|292:114,1,100.000003814697
334,189,112514,1,0,0:0:0:0:
372,263,112680,2,0,L|370:337,1,50.0000019073487
260,360,113014,2,0,L|256:245,1,100.000003814697
401,337,113514,5,0,0:0:0:0:
246,357,113847,1,0,0:0:0:0:
260,360,114014,5,0,0:0:0:0:
260,360,115514,5,0,0:0:0:0:
401,337,115847,1,0,0:0:0:0:
372,263,116014,6,0,L|374:163,1,100.000003814697
419,95,116514,2,0,L|468:96,2,50.0000019073487
305,36,117014,2,0,L|302:135,1,100.000003814697
228,199,117514,6,0,L|178:200,1,50.0000019073487
105,120,117847,1,0,0:0:0:0:
218,105,118014,1,0,0:0:0:0:
45,198,118347,5,0,0:0:0:0:
45,198,118514,5,0,0:0:0:0:
48,277,118680,1,0,0:0:0:0:
51,357,118847,1,0,0:0:0:0:
149,305,119014,5,0,0:0:0:0:
261,308,119180,1,0,0:0:0:0:
375,312,119347,1,0,0:0:0:0:
317,218,119514,6,0,B|321:217|325:234|323:252|323:252|317:253,6,25.0000009536744
261,308,119847,1,0,0:0:0:0:
257,160,120014,6,0,P|326:135|379:159,1,100.000003814697
317,218,120514,1,0,0:0:0:0:
214,233,120680,2,0,L|164:234,1,50.0000019073487
83,110,121014,2,0,L|196:113,1,100.000003814697
60,251,121514,5,0,0:0:0:0:
80,96,121847,1,0,0:0:0:0:
83,110,122014,5,0,0:0:0:0:
123,199,122180,2,0,L|191:197,1,50.0000019073487
332,334,122514,5,0,0:0:0:0:
348,251,122680,1,0,0:0:0:0:
283,196,122847,1,0,0:0:0:0:
269,116,123014,5,0,0:0:0:0:
172,197,123181,1,0,0:0:0:0:
195,321,123347,1,0,0:0:0:0:
141,379,123514,5,0,0:0:0:0:
49,249,123847,1,0,0:0:0:0:
49,249,124014,6,0,P|45:199|68:156,1,100.000003814697
145,158,124514,2,0,L|143:90,1,50.0000019073487
103,37,124847,1,0,0:0:0:0:
145,158,125014,2,0,P|194:161|237:138,1,100.000003814697
314,269,125514,6,0,L|316:168,1,66.6666666666667
376,90,125847,1,0,0:0:0:0:
314,269,126014,2,0,P|241:274|177:240,1,133.333333333333
129,332,126514,5,0,0:0:0:0:
187,249,126680,1,0,0:0:0:0:
145,158,126847,1,0,0:0:0:0:
43,359,127014,5,0,0:0:0:0:
228,345,127180,1,0,0:0:0:0:
31,235,127347,5,0,0:0:0:0:
31,235,127430,1,0,0:0:0:0:
31,235,127514,2,0,L|35:76,1,133.333333333333
196,48,128014,5,0,0:0:0:0:
265,147,128180,1,0,0:0:0:0:
145,158,128347,1,0,0:0:0:0:
257,62,128514,5,0,0:0:0:0:
290,153,128680,1,0,0:0:0:0:
195,137,128847,1,0,0:0:0:0:
302,86,129014,5,0,0:0:0:0:
309,164,129180,1,0,0:0:0:0:
239,131,129347,1,0,0:0:0:0:
414,316,129514,5,0,0:0:0:0:
234,328,129847,1,0,0:0:0:0:
309,164,130180,1,0,0:0:0:0:
414,316,131430,5,0,0:0:0:0:
414,316,131514,1,0,0:0:0:0:
414,316,131597,2,0,L|418:157,1,133.333333333333
263,137,132097,5,0,0:0:0:0:
212,247,132263,1,0,0:0:0:0:
322,298,132430,1,0,0:0:0:0:
250,148,132597,5,0,0:0:0:0:
233,243,132763,1,0,0:0:0:0:
328,260,132930,1,0,0:0:0:0:
242,159,133097,5,0,0:0:0:0:
249,236,133263,1,0,0:0:0:0:
326,229,133430,1,0,0:0:0:0:
221,333,133597,5,0,0:0:0:0:
404,317,133930,1,0,0:0:0:0:
386,135,134263,1,0,0:0:0:0:
386,135,134763,2,0,L|390:64,1,50.0000019073487
308,97,135097,2,0,L|304:26,1,50.0000019073487
222,165,135430,5,0,0:0:0:0:
222,165,135513,1,0,0:0:0:0:
222,165,135597,2,0,L|63:160,1,133.333333333333
51,285,136097,5,0,0:0:0:0:
171,274,136263,1,0,0:0:0:0:
222,165,136430,1,0,0:0:0:0:
78,221,136597,5,0,0:0:0:0:
173,237,136763,1,0,0:0:0:0:
235,164,136930,1,0,0:0:0:0:
112,177,137097,5,0,0:0:0:0:
182,210,137263,1,0,0:0:0:0:
245,166,137430,1,0,0:0:0:0:
79,28,137597,5,0,0:0:0:0:
2,191,137930,1,0,0:0:0:0:
106,340,138263,1,0,0:0:0:0:
79,28,139430,5,0,0:0:0:0:
79,28,139513,1,0,0:0:0:0:
79,28,139597,2,0,L|238:23,1,133.333333333333
377,241,140097,5,0,0:0:0:0:
257,230,140263,1,0,0:0:0:0:
206,121,140430,1,0,0:0:0:0:
359,204,140597,5,0,0:0:0:0:
264,221,140763,1,0,0:0:0:0:
202,147,140930,1,0,0:0:0:0:
338,180,141097,5,0,0:0:0:0:
268,212,141263,1,0,0:0:0:0:
205,168,141430,1,0,0:0:0:0:
372,104,141597,6,0,P|413:140|424:206,1,100
453,209,141930,6,0,L|454:288,1,75.0000028610231
434,311,142263,6,0,B|386:295|348:329|348:329|356:348|349:371,1,133.333333333333
261,351,142763,6,0,L|186:344,1,66.6666666666667
210,252,143097,1,0,0:0:0:0:
122,259,143263,1,0,0:0:0:0:
38,267,143430,1,0,0:0:0:0:
