osu file format v14

[General]
AudioFilename: audio.mp3
AudioLeadIn: 0
PreviewTime: 83
Countdown: 0
SampleSet: Soft
StackLeniency: 0.7
Mode: 0
LetterboxInBreaks: 0
WidescreenStoryboard: 0

[Editor]
Bookmarks: 8750,24750,40750,48750,56750,64749,72750,80750,88750,104750,120750,128749,136750,144750,152750,160750,168750,176750
DistanceSpacing: 1
BeatDivisor: 3
GridSize: 4
TimelineZoom: 1.5

[Metadata]
Title:bury a friend
TitleUnicode:bury a friend
Artist:Billie Eilish
ArtistUnicode:Billie Eilish
Creator:Mao
Version:normal
Source:
Tags:Pirate Baird O’Connell when we all fall asleep where do we go pop english electro finneas
BeatmapID:2007528
BeatmapSetID:958856

[Difficulty]
HPDrainRate:4
CircleSize:4
OverallDifficulty:4
ApproachRate:5
SliderMultiplier:1.4
SliderTickRate:1

[Events]
//Background and Video events
0,0,"bg.jpg",0,0
//Break Periods
2,21750,23550
2,72750,79550
2,85450,87550
//Storyboard Layer 0 (Background)
//Storyboard Layer 1 (Fail)
//Storyboard Layer 2 (Pass)
//Storyboard Layer 3 (Foreground)
//Storyboard Sound Samples

[TimingPoints]
750,500,4,2,1,40,1,0
21583,-100,4,2,1,20,0,0
24750,-100,4,2,1,50,0,0
25250,-100,4,2,1,50,0,0
30750,-100,4,2,1,60,0,0
31750,-100,4,2,1,50,0,0
32750,-100,4,2,1,50,0,0
33250,-100,4,2,1,60,0,0
33750,-100,4,2,1,50,0,0
38750,-100,4,2,1,60,0,0
40750,-100,4,2,1,50,0,0
41250,-100,4,2,1,30,0,0
48750,-100,4,2,1,40,0,0
51750,-100,4,2,1,40,0,0
52750,-100,4,2,1,40,0,0
54750,-100,4,2,2,40,0,0
56750,-100,4,2,1,20,0,0
60750,-100,4,2,1,20,0,0
64749,-100,4,2,1,60,0,1
71750,-100,4,2,1,60,0,0
72750,-100,4,2,1,20,0,0
80750,-100,4,2,1,40,0,0
88750,-100,4,2,1,50,0,0
89250,-100,4,2,1,50,0,0
94750,-100,4,2,1,60,0,0
95583,-100,4,2,1,50,0,0
96750,-100,4,2,1,50,0,0
97250,-100,4,2,1,50,0,0
102750,-100,4,2,1,60,0,0
104250,-100,4,2,1,60,0,0
104750,-100,4,2,1,60,0,0
105250,-100,4,2,1,60,0,0
106750,-100,4,2,1,60,0,0
109250,-100,4,2,1,60,0,0
110750,-100,4,2,1,40,0,0
111916,-100,4,2,1,20,0,0
112750,-100,4,2,1,60,0,0
113250,-100,4,2,1,60,0,0
114750,-100,4,2,1,60,0,0
117250,-100,4,2,1,60,0,0
118750,-100,4,2,1,40,0,0
119750,-100,4,2,1,20,0,0
120750,-100,4,2,1,20,0,0
124750,-100,4,2,1,30,0,0
126750,-100,4,2,1,40,0,0
128749,-100,4,2,1,50,0,0
132750,-100,4,2,1,55,0,0
133750,-100,4,2,1,55,0,0
134750,-100,4,2,1,60,0,0
135250,-100,4,2,1,60,0,0
135750,-100,4,2,1,20,0,0
136750,-100,4,2,1,40,0,0
137250,-100,4,2,1,40,0,0
139750,-100,4,2,1,40,0,0
140750,-100,4,2,1,40,0,0
144750,-100,4,2,1,40,0,0
150750,-100,4,2,2,40,0,0
152750,-100,4,2,1,20,0,0
156750,-100,4,2,1,20,0,0
160750,-100,4,2,1,60,0,1
161750,-100,4,2,1,60,0,1
164750,-100,4,2,1,60,0,1
165750,-100,4,2,1,60,0,1
167750,-100,4,2,1,60,0,0
168750,-100,4,2,1,40,0,0
179750,-100,4,2,1,5,0,0

[Colours]
Combo1 : 58,199,252
Combo2 : 239,239,239
Combo3 : 17,254,176
Combo4 : 180,180,180

[HitObjects]
195,114,750,6,0,P|204:169|219:262,1,140,8|8,0:3|0:0,0:0:0:0:
319,348,1750,2,0,P|364:343|423:339,1,93.3333333333333,8|0,0:3|3:0,0:0:0:0:
459,346,2250,1,8,0:0:0:0:
494,210,2750,6,0,P|488:155|415:109,1,140,8|8,0:3|0:0,0:0:0:0:
303,29,3750,2,0,B|235:22|201:71|250:122|191:172|145:166,1,233.333333333333,8|0,0:3|0:0,0:0:0:0:
113,132,4750,5,8,0:3:0:0:
11,227,5250,1,8,0:0:0:0:
70,354,5750,2,0,P|108:337|180:315,1,93.3333333333333,8|0,0:3|0:0,0:0:0:0:
204,317,6250,1,8,0:0:0:0:
342,290,6750,6,0,P|430:326|494:356,1,140,8|8,0:3|0:0,0:0:0:0:
271,24,8750,6,0,P|257:86|239:183,1,140,10|8,0:3|0:0,0:0:0:0:
277,297,9750,2,0,P|227:289|167:285,1,93.3333333333333,8|8,0:3|3:3,0:0:0:0:
164,327,10250,5,8,0:0:0:0:
81,371,10583,2,0,P|28:347|31:259,1,140,2|0,0:0|3:3,0:0:0:0:
63,253,11250,1,8,0:0:0:0:
118,124,11750,2,0,P|82:95|39:57,1,93.3333333333333,8|0,0:3|3:0,0:0:0:0:
7,38,12250,1,8,0:0:0:0:
93,2,12583,6,0,P|147:46|209:105,1,140,0|0,3:0|3:0,0:0:0:0:
217,136,13250,1,8,0:0:0:0:
172,268,13750,2,0,L|275:298,1,93.3333333333333,8|0,0:3|3:0,0:0:0:0:
278,337,14250,1,8,0:0:0:0:
364,371,14583,1,2,0:0:0:0:
485,67,15750,5,8,0:3:0:0:
399,178,16250,1,8,0:0:0:0:
307,72,16750,6,0,P|245:58|148:40,1,140,8|8,0:3|0:0,0:0:0:0:
32,16,17750,2,0,P|28:62|20:108,1,93.3333333333333,8|0,0:3|3:0,0:0:0:0:
7,153,18250,5,8,0:0:0:0:
42,239,18583,2,0,P|104:246|181:179,1,140,2|0,0:0|3:0,0:0:0:0:
186,163,19250,1,8,0:0:0:0:
290,255,19750,2,0,P|315:298|341:342,1,93.3333333333333,8|0,0:3|3:0,0:0:0:0:
356,378,20250,1,8,0:0:0:0:
441,340,20583,6,0,P|405:275|366:198,1,140,0|0,3:0|3:0,0:0:0:0:
362,171,21250,1,8,0:0:0:0:
68,49,24750,5,2,0:1:0:0:
202,11,25250,2,0,P|190:56|172:152,1,140,8|0,0:0|0:0,0:0:0:0:
83,175,26083,1,0,0:0:0:0:
83,175,26250,2,0,P|55:230|85:320,1,140,8|8,0:0|0:3,0:0:0:0:
192,374,27250,1,8,0:0:0:0:
444,49,28750,5,8,0:3:0:0:
310,11,29250,2,0,P|322:56|340:152,1,140,10|8,0:0|0:3,0:0:0:0:
415,202,30083,1,0,3:0:0:0:
415,202,30250,1,8,0:0:0:0:
442,339,30750,6,0,B|381:379|361:328|307:363,1,140,10|10,0:3|0:0,0:0:0:0:
254,234,31750,2,0,P|270:165|290:99,1,140,12|10,0:3|0:0,0:0:0:0:
170,27,32750,5,2,0:1:0:0:
53,104,33250,2,0,P|37:167|93:201,1,140,8|8,0:0|0:3,0:0:0:0:
185,181,34083,1,0,3:0:0:0:
184,180,34250,2,0,P|179:235|169:292,1,93.3333333333333,10|0,0:0|0:0,0:0:0:0:
151,314,34750,5,8,0:3:0:0:
280,367,35250,1,10,0:0:0:0:
322,233,35750,2,0,P|314:178|292:73,1,140,8|10,0:3|0:0,0:0:0:0:
408,10,36750,5,8,0:3:0:0:
474,75,37083,1,0,3:0:0:0:
474,75,37250,1,10,0:0:0:0:
380,178,37750,2,0,P|367:242|425:274,1,140,8|10,0:3|0:0,0:0:0:0:
314,361,38750,6,0,P|257:357|166:355,1,140,6|10,0:0|0:0,0:0:0:0:
57,277,39750,2,0,B|108:213|188:230|174:277|272:282|307:210,1,280,12|2,3:0|3:1,0:0:0:0:
239,89,41250,5,8,0:3:0:0:
309,21,41750,1,8,0:3:0:0:
366,100,42250,1,10,0:3:0:0:
443,39,42750,1,8,0:3:0:0:
497,120,43250,1,10,0:3:0:0:
154,364,44750,5,8,0:3:0:0:
58,340,45250,1,8,0:3:0:0:
117,262,45750,1,10,0:3:0:0:
55,185,46250,1,10,0:3:0:0:
115,108,46750,1,8,0:3:0:0:
94,12,47250,1,8,0:3:0:0:
350,344,48750,6,0,P|413:338|477:290,1,140,4|8,0:3|0:0,0:0:0:0:
457,155,49750,2,0,P|412:178|369:210,1,93.3333333333333,8|0,0:3|3:0,0:0:0:0:
332,190,50250,2,0,P|304:228|281:286,1,93.3333333333333,8|0,0:0|0:0,0:0:0:0:
270,314,50750,5,8,0:3:0:0:
143,374,51250,1,8,0:0:0:0:
52,266,51750,2,0,B|13:220|57:180|17:132,2,140,4|10|0,0:0|0:0|0:0,0:0:0:0:
175,200,53250,1,8,0:0:0:0:
279,293,53750,1,8,0:3:0:0:
383,199,54250,2,0,B|336:124|336:124|345:119|345:119|330:112|330:112|328:79,1,140,10|2,0:0|0:1,0:0:0:0:
256,192,56750,12,0,58750,0:0:0:0:
256,192,60750,12,0,62750,0:0:0:0:
11,44,64749,5,6,0:0:0:0:
54,175,65249,2,0,L|36:245,2,46.6666666666667,10|0|2,0:0|0:0|0:0,0:0:0:0:
65,129,65750,1,8,0:3:0:0:
167,224,66250,2,0,L|186:292,2,46.6666666666667,10|0|2,0:0|0:0|0:0,0:0:0:0:
150,180,66750,5,8,0:3:0:0:
224,61,67250,2,0,L|170:28,2,46.6666666666667,10|0|0,0:0|0:0|0:0,0:0:0:0:
264,85,67750,2,0,B|302:55|353:86|399:65,1,140,10|2,0:3|0:0,0:0:0:0:
508,152,68750,5,8,0:3:0:0:
461,284,69250,2,0,L|466:356,2,46.6666666666667,10|0|2,0:0|0:0|0:0,0:0:0:0:
454,237,69751,1,8,0:3:0:0:
329,301,70251,2,0,L|284:345,2,46.6666666666667,10|0|2,0:0|0:0|0:0,0:0:0:0:
358,264,70751,5,8,0:3:0:0:
380,125,71251,2,0,L|442:118,2,46.6666666666667,10|0|0,0:0|0:0|0:0,0:0:0:0:
333,130,71750,1,2,0:0:0:0:
465,33,80750,6,0,P|451:95|433:192,1,140,8|8,0:3|0:0,0:0:0:0:
460,308,81750,2,0,P|408:316|343:337,1,93.3333333333333,8|4,0:3|0:3,0:0:0:0:
334,358,82250,5,8,0:0:0:0:
252,312,82583,2,0,P|218:264|264:190,1,140,2|0,0:0|0:0,0:0:0:0:
292,177,83250,1,8,0:0:0:0:
186,85,83750,2,0,P|150:56|107:18,1,93.3333333333333,8|4,0:3|0:3,0:0:0:0:
68,16,84250,1,8,0:0:0:0:
5,85,84583,6,0,P|59:129|121:188,1,140,2|0,0:0|0:0,0:0:0:0:
141,211,85250,1,8,0:0:0:0:
51,337,88750,5,2,0:1:0:0:
17,201,89250,2,0,P|40:166|108:56,1,140,10|0,0:0|0:0,0:0:0:0:
168,28,90083,1,0,0:0:0:0:
168,28,90250,2,0,P|212:66|212:156,1,140,10|8,0:0|0:3,0:0:0:0:
145,264,91250,1,10,0:0:0:0:
485,18,92750,5,8,0:3:0:0:
351,58,93250,2,0,P|390:114|427:178,1,140,10|8,0:0|0:3,0:0:0:0:
470,258,94083,1,4,0:3:0:0:
470,258,94250,1,10,0:0:0:0:
378,363,94750,6,0,B|310:365|314:305|256:303,1,140,10|4,0:3|0:0,0:0:0:0:
245,164,95750,2,0,P|284:91|307:19,1,140,14|10,0:3|0:0,0:0:0:0:
165,6,96750,5,10,0:3:0:0:
66,105,97250,2,0,P|68:181|126:193,1,140,10|8,0:0|0:3,0:0:0:0:
157,281,98083,1,4,0:3:0:0:
157,281,98250,2,0,P|204:284|253:300,1,93.3333333333333,10|0,0:0|0:0,0:0:0:0:
285,325,98750,5,8,0:3:0:0:
418,366,99250,1,8,0:0:0:0:
496,250,99750,2,0,P|452:217|362:158,1,140,10|10,0:3|0:0,0:0:0:0:
332,38,100750,5,10,0:3:0:0:
251,84,101083,1,2,0:0:0:0:
251,84,101250,1,10,0:0:0:0:
122,28,101750,2,0,P|83:91|51:149,1,140,8|10,0:3|0:0,0:0:0:0:
25,286,102750,6,0,P|94:277|162:292,1,140,10|10,0:3|0:0,0:0:0:0:
276,372,103750,2,0,B|314:264|191:215|233:100,1,280,4|6,0:0|1:0,0:0:0:0:
344,22,105250,6,0,P|398:35|439:19,1,93.3333333333333,10|0,0:0|0:3,0:0:0:0:
477,36,105750,2,0,P|438:76|432:119,1,93.3333333333333,10|0,0:3|0:3,0:0:0:0:
453,153,106250,2,0,P|441:197|407:228,1,93.3333333333333,10|0,0:0|0:3,0:0:0:0:
361,229,106750,5,6,1:2:0:0:
402,312,107083,1,8,1:3:0:0:
493,331,107416,1,10,1:3:0:0:
40,356,108750,5,6,1:0:0:0:
7,219,109250,2,0,P|20:143|54:114,1,93.3333333333333,10|0,0:0|0:3,0:0:0:0:
72,117,109750,2,0,P|131:166|139:210,1,93.3333333333333,10|0,0:3|0:3,0:0:0:0:
127,225,110250,2,0,P|115:269|132:313,1,93.3333333333333,10|0,0:0|0:3,0:0:0:0:
173,334,110750,5,2,3:2:0:0:
232,262,111083,1,2,3:2:0:0:
291,190,111416,1,2,3:0:0:0:
499,367,112750,5,6,1:0:0:0:
359,359,113250,2,0,P|295:329|282:285,1,93.3333333333333,10|0,0:0|0:3,0:0:0:0:
281,265,113750,2,0,P|310:201|354:188,1,93.3333333333333,10|0,0:3|0:3,0:0:0:0:
373,203,114250,2,0,P|418:210|458:188,1,93.3333333333333,10|0,0:0|0:3,0:0:0:0:
494,157,114750,5,4,1:2:0:0:
468,67,115083,1,8,1:3:0:0:
384,26,115416,1,10,1:3:0:0:
28,140,116750,5,6,1:0:0:0:
128,42,117250,2,0,P|190:27|237:69,1,93.3333333333333,10|0,0:0|0:3,0:0:0:0:
240,77,117750,2,0,P|221:138|162:157,1,93.3333333333333,10|0,0:3|0:3,0:0:0:0:
153,156,118250,2,0,P|107:163|77:198,1,93.3333333333333,10|10,0:0|0:3,0:0:0:0:
76,244,118750,6,0,B|96:274|82:313|105:343,2,93.3333333333333,2|2|2,3:0|3:0|3:0,3:0:0:0:
407,52,120750,6,0,P|484:48|482:116,2,140,4|2|2,0:0|0:0|0:0,0:0:0:0:
340,175,122250,1,4,0:3:0:0:
264,120,122583,1,0,0:0:0:0:
264,120,122750,6,0,P|210:117|210:198,2,140,2|4|2,0:0|0:3|0:0,0:0:0:0:
298,255,124250,1,4,0:3:0:0:
390,239,124583,1,4,0:3:0:0:
390,239,124750,6,0,P|453:253|459:318,2,140,2|4|2,0:0|0:3|0:0,0:0:0:0:
332,366,126250,1,4,0:3:0:0:
239,351,126583,1,2,0:0:0:0:
239,351,126750,6,0,P|171:364|101:378,2,140,2|2|2,0:0|0:0|0:0,0:0:0:0:
285,219,128249,2,0,P|280:172|234:164,1,93.3333333333333,4|4,0:3|0:3,0:0:0:0:
195,174,128749,6,0,P|122:149|144:88,2,140,4|10|2,0:0|0:0|0:0,0:0:0:0:
251,45,130249,1,8,0:0:0:0:
327,99,130583,1,4,0:3:0:0:
327,99,130749,6,0,P|374:44|440:59,2,140,2|10|2,0:0|0:0|0:0,0:0:0:0:
427,197,132250,1,4,0:3:0:0:
386,281,132583,1,4,0:3:0:0:
386,281,132750,6,0,P|325:296|309:326,1,93.3333333333333,4|0,0:0|0:0,0:0:0:0:
298,364,133250,2,0,P|246:379|221:348,1,93.3333333333333,10|0,0:0|0:0,0:0:0:0:
198,313,133750,2,0,P|174:277|147:307,1,93.3333333333333,2|0,1:2|0:0,0:0:0:0:
138,350,134250,1,8,0:0:0:0:
65,291,134583,1,0,0:0:0:0:
65,291,134750,6,0,P|27:255|36:196,1,93.3333333333333,4|0,0:0|0:0,0:0:0:0:
56,181,135250,2,0,P|62:128|-7:93,1,140,10|0,1:2|0:0,0:0:0:0:
273,324,136750,6,0,P|341:343|409:374,1,140,2|8,0:1|0:0,0:0:0:0:
503,272,137750,2,0,P|464:246|433:198,1,93.3333333333333,8|4,0:3|0:3,0:0:0:0:
466,171,138250,2,0,P|478:122|483:71,1,93.3333333333333,8|4,0:0|0:3,0:0:0:0:
464,36,138750,5,8,0:3:0:0:
326,11,139250,1,8,0:0:0:0:
266,137,139750,2,0,B|253:204|311:202|303:269,2,140,2|2|0,0:0|0:0|0:0,0:0:0:0:
175,29,141250,1,10,0:0:0:0:
54,99,141750,2,0,P|26:138|27:195,1,93.3333333333333,8|4,0:3|0:3,0:0:0:0:
59,211,142250,2,0,P|41:263|33:314,1,93.3333333333333,8|0,0:0|0:0,0:0:0:0:
27,346,142750,5,10,0:3:0:0:
162,379,143250,1,10,0:0:0:0:
195,243,143750,2,0,P|175:184|140:96,1,140,2|4,0:0|0:3,0:0:0:0:
252,19,144750,6,0,P|258:82|320:121,1,140,10|8,0:3|0:0,0:0:0:0:
440,52,145750,2,0,P|462:100|481:147,1,93.3333333333333,8|4,0:3|0:3,0:0:0:0:
510,170,146250,2,0,P|480:209|459:266,1,93.3333333333333,8|4,0:0|0:3,0:0:0:0:
479,293,146750,5,10,0:3:0:0:
363,371,147250,1,10,0:0:0:0:
294,248,147750,2,0,B|292:181|339:184|338:118,2,140,4|4|10,0:3|0:3|0:3,0:0:0:0:
220,367,149250,1,10,0:0:0:0:
96,301,149750,1,10,0:3:0:0:
160,176,150250,2,0,B|176:88|176:88|165:82|165:82|177:70|177:70|182:44,1,140,10|2,0:0|0:1,0:0:0:0:
256,192,152750,12,0,154750,0:0:0:0:
256,192,156750,12,0,158750,0:0:0:0:
228,363,160750,6,0,P|245:311|266:265,1,93.3333333333333,4|2,1:3|0:3,0:0:0:0:
299,250,161250,2,0,L|352:261,2,46.6666666666667,8|0|0,0:0|0:0|3:0,0:0:0:0:
278,208,161750,2,0,P|261:156|240:110,1,93.3333333333333,10|0,0:3|0:0,0:0:0:0:
218,82,162251,2,0,L|155:67,2,46.6666666666667,10|0|2,0:0|0:0|0:0,0:0:0:0:
251,49,162751,5,14,0:3:0:0:
390,50,163251,2,0,L|425:-4,2,46.6666666666667,10|0|0,0:0|0:0|0:0,0:0:0:0:
379,95,163751,2,0,P|457:84|502:130,1,140,12|2,0:3|0:0,0:0:0:0:
373,184,164750,6,0,P|355:228|354:297,1,93.3333333333333,4|0,1:0|0:0,0:0:0:0:
371,315,165251,2,0,L|404:360,2,46.6666666666667,10|0|0,0:0|0:0|0:0,0:0:0:0:
339,349,165750,2,0,P|278:349|230:308,1,93.3333333333333,10|0,0:3|0:0,0:0:0:0:
225,293,166250,2,0,L|194:227,2,46.6666666666667,8|0|0,0:0|0:0|0:0,0:0:0:0:
181,311,166750,5,8,0:3:0:0:
41,295,167250,2,0,L|-13:328,2,46.6666666666667,2|0|0,0:0|0:0|0:0,0:0:0:0:
80,269,167751,1,2,0:0:0:0:
222,28,168750,6,0,P|279:44|369:74,1,140,8|8,0:3|0:0,0:0:0:0:
495,59,169750,2,0,P|491:105|483:151,1,93.3333333333333,8|0,0:3|3:0,0:0:0:0:
447,180,170250,5,8,0:0:0:0:
477,268,170583,2,0,P|425:292|348:349,1,140,2|0,0:0|3:0,0:0:0:0:
324,373,171250,1,8,0:0:0:0:
254,251,171750,2,0,P|218:222|175:184,1,93.3333333333333,8|0,0:3|3:0,0:0:0:0:
154,153,172250,1,8,0:0:0:0:
86,216,172583,6,0,P|45:156|27:64,1,140,2|0,0:0|3:0,0:0:0:0:
23,44,173250,1,8,0:0:0:0:
161,62,173750,2,0,P|210:68|268:76,1,93.3333333333333,8|0,0:3|3:0,0:0:0:0:
285,108,174250,1,8,0:0:0:0:
360,53,174583,1,2,0:0:0:0:
494,350,175750,5,12,0:3:0:0:
398,247,176250,1,10,0:0:0:0:
304,351,176750,6,0,P|242:337|145:319,1,140,10|8,0:3|0:0,0:0:0:0:
26,326,177750,2,0,P|34:276|38:216,1,93.3333333333333,8|0,0:3|3:0,0:0:0:0:
31,187,178250,5,8,0:0:0:0:
83,109,178583,2,0,P|159:113|251:101,1,140,2|0,0:0|3:0,0:0:0:0:
256,74,179250,1,8,0:0:0:0:
256,192,179750,12,0,182583,0:0:0:0:
