osu file format v14

[General]
AudioFilename: audio.mp3
AudioLeadIn: 0
PreviewTime: 60750
Countdown: 0
SampleSet: Soft
StackLeniency: 0.7
Mode: 0
LetterboxInBreaks: 0
EpilepsyWarning: 1
WidescreenStoryboard: 1

[Editor]
Bookmarks: 40750,56750,80750,86750,88750,104750,120750,136750,152750,167750,179750
DistanceSpacing: 1
BeatDivisor: 8
GridSize: 32
TimelineZoom: 3.099999

[Metadata]
Title:bury a friend
TitleUnicode:bury a friend
Artist:Billie Eilish
ArtistUnicode:Billie Eilish
Creator:Haruto
Version:die
Source:
Tags:haruto_aizawa tomadoi shiinoha kotone ayyri eiri- fatfan kolek trynna nerova riuz gx nrg mao deep indie pop finneas when we all fall asleep, where do we go? the society netflix series
BeatmapID:1920631
BeatmapSetID:919644

[Difficulty]
HPDrainRate:7.5
CircleSize:4.2
OverallDifficulty:8.5
ApproachRate:9.4
SliderMultiplier:1.74
SliderTickRate:1

[Events]
//Background and Video events
0,0,"creepy billie.jpg",0,0
//Break Periods
2,22949,24150
2,86750,88150
2,150949,152196
//Storyboard Layer 0 (Background)
//Storyboard Layer 1 (Fail)
//Storyboard Layer 2 (Pass)
//Storyboard Layer 3 (Foreground)
Sprite,Foreground,Centre,"sb\s3.png",146.4092,36.5383 S,0,750,,0.5 R,0,750,,1.756945 C,0,750,,127,127,127 F,0,750,1250,1,0
Sprite,Foreground,Centre,"sb\s3.png",275.9969,220.6001 S,0,1250,,0.5 R,0,1250,,1.786808 C,0,1250,,127,127,127 F,0,1250,1750,1,0
Sprite,Foreground,Centre,"sb\s3.png",168.1044,458.1178 S,0,1750,,0.5 R,0,1750,,5.180721 C,0,1750,,127,127,127 F,0,1750,2250,1,0
Sprite,Foreground,Centre,"sb\s1.png",132.4348,316.9148 S,0,2250,,0.5 R,0,2250,,1.827245 C,0,2250,,127,127,127 F,0,2250,2750,1,0
Sprite,Foreground,Centre,"sb\s0.png",419.3614,163.1839 S,0,2750,,0.5 R,0,2750,,5.761888 C,0,2750,,127,127,127 F,0,2750,3250,1,0
Sprite,Foreground,Centre,"sb\s1.png",486.0993,298.2841 S,0,3250,,0.5 R,0,3250,,4.433195 C,0,3250,,127,127,127 F,0,3250,3750,1,0
Sprite,Foreground,Centre,"sb\s2.png",445.077,213.5121 S,0,3750,,0.5 R,0,3750,,3.088815 C,0,3750,,127,127,127 F,0,3750,4250,1,0
Sprite,Foreground,Centre,"sb\s2.png",558.3959,289.3274 S,0,3916,,0.5 R,0,3916,,0.9848154 C,0,3916,,127,127,127 F,0,3916,4416,1,0
Sprite,Foreground,Centre,"sb\s1.png",371.0535,72.69719 S,0,4083,,0.5 R,0,4083,,2.714159 C,0,4083,,127,127,127 F,0,4083,4583,1,0
Sprite,Foreground,Centre,"sb\s0.png",281.6929,394.0443 S,0,4250,,0.5 R,0,4250,,5.397222 C,0,4250,,127,127,127 F,0,4250,4750,1,0
Sprite,Foreground,Centre,"sb\s1.png",305.3701,170.6153 S,0,4416,,0.5 R,0,4416,,5.374962 C,0,4416,,127,127,127 F,0,4416,4916,1,0
Sprite,Foreground,Centre,"sb\s2.png",314.6859,220.3219 S,0,4583,,0.5 R,0,4583,,1.823105 C,0,4583,,127,127,127 F,0,4583,5083,1,0
Sprite,Foreground,Centre,"sb\s3.png",48.16804,378.9688 S,0,4750,,0.5 R,0,4750,,0.4332502 C,0,4750,,127,127,127 F,0,4750,5250,1,0
Sprite,Foreground,Centre,"sb\s3.png",224.9823,275.6473 S,0,5250,,0.5 R,0,5250,,2.654644 C,0,5250,,127,127,127 F,0,5250,5750,1,0
Sprite,Foreground,Centre,"sb\s0.png",548.226,300.834 S,0,5750,,0.5 R,0,5750,,5.222041 C,0,5750,,127,127,127 F,0,5750,6250,1,0
Sprite,Foreground,Centre,"sb\s2.png",408.6753,218.7764 S,0,6250,,0.5 R,0,6250,,0.4712053 C,0,6250,,127,127,127 F,0,6250,6750,1,0
Sprite,Foreground,Centre,"sb\s3.png",262.0553,427.5689 S,0,6750,,0.5 R,0,6750,,5.242269 C,0,6750,,127,127,127 F,0,6750,7250,1,0
Sprite,Foreground,Centre,"sb\s1.png",397.6224,288.9783 S,0,7250,,0.5 R,0,7250,,5.727072 C,0,7250,,127,127,127 F,0,7250,7750,1,0
Sprite,Foreground,Centre,"sb\s0.png",99.23262,285.1832 S,0,7750,,0.5 R,0,7750,,3.922503 C,0,7750,,127,127,127 F,0,7750,8250,1,0
Sprite,Foreground,Centre,"sb\s1.png",135.7863,236.1012 S,0,8750,,0.5 R,0,8750,,3.694921 C,0,8750,,127,127,127 F,0,8750,9250,1,0
Sprite,Foreground,Centre,"sb\s2.png",221.3721,152.7338 S,0,9250,,0.5 R,0,9250,,2.182233 C,0,9250,,127,127,127 F,0,9250,9750,1,0
Sprite,Foreground,Centre,"sb\s1.png",384.5013,198.2424 S,0,9750,,0.5 R,0,9750,,0.04857548 C,0,9750,,127,127,127 F,0,9750,10250,1,0
Sprite,Foreground,Centre,"sb\s0.png",415.6172,418.1674 S,0,10250,,0.5 R,0,10250,,4.075238 C,0,10250,,127,127,127 F,0,10250,10750,1,0
Sprite,Foreground,Centre,"sb\s2.png",193.6618,349.4665 S,0,10750,,0.5 R,0,10750,,5.719748 C,0,10750,,127,127,127 F,0,10750,11250,1,0
Sprite,Foreground,Centre,"sb\s3.png",191.016,453.7208 S,0,11083,,0.5 R,0,11083,,0.1549103 C,0,11083,,127,127,127 F,0,11083,11583,1,0
Sprite,Foreground,Centre,"sb\s2.png",465.5273,321.4024 S,0,11250,,0.5 R,0,11250,,2.874981 C,0,11250,,127,127,127 F,0,11250,11750,1,0
Sprite,Foreground,Centre,"sb\s0.png",294.2979,145.5091 S,0,11750,,0.5 R,0,11750,,4.054004 C,0,11750,,127,127,127 F,0,11750,12250,1,0
Sprite,Foreground,Centre,"sb\s3.png",336.7388,226.596 S,0,11916,,0.5 R,0,11916,,2.470996 C,0,11916,,127,127,127 F,0,11916,12416,1,0
Sprite,Foreground,Centre,"sb\s1.png",254.5616,65.62743 S,0,12083,,0.5 R,0,12083,,1.036369 C,0,12083,,127,127,127 F,0,12083,12583,1,0
Sprite,Foreground,Centre,"sb\s3.png",102.3203,395.1723 S,0,12250,,0.5 R,0,12250,,1.044369 C,0,12250,,127,127,127 F,0,12250,12750,1,0
Sprite,Foreground,Centre,"sb\s1.png",288.5793,204.3885 S,0,12416,,0.5 R,0,12416,,3.491112 C,0,12416,,127,127,127 F,0,12416,12916,1,0
Sprite,Foreground,Centre,"sb\s0.png",334.9582,333.812 S,0,12583,,0.5 R,0,12583,,5.579039 C,0,12583,,127,127,127 F,0,12583,13083,1,0
Sprite,Foreground,Centre,"sb\s0.png",439.6614,308.3149 S,0,12750,,0.5 R,0,12750,,1.299244 C,0,12750,,127,127,127 F,0,12750,13250,1,0
Sprite,Foreground,Centre,"sb\s2.png",355.9454,262.1553 S,0,13250,,0.5 R,0,13250,,0.3547942 C,0,13250,,127,127,127 F,0,13250,13750,1,0
Sprite,Foreground,Centre,"sb\s2.png",489.1652,82.26633 S,0,13750,,0.5 R,0,13750,,4.227854 C,0,13750,,127,127,127 F,0,13750,14250,1,0
Sprite,Foreground,Centre,"sb\s2.png",549.6549,94.19046 S,0,14083,,0.5 R,0,14083,,3.321614 C,0,14083,,127,127,127 F,0,14083,14583,1,0
Sprite,Foreground,Centre,"sb\s2.png",445.8286,319.8953 S,0,14250,,0.5 R,0,14250,,3.548887 C,0,14250,,127,127,127 F,0,14250,14750,1,0
Sprite,Foreground,Centre,"sb\s3.png",260.3538,294.5803 S,0,14750,,0.5 R,0,14750,,4.480369 C,0,14750,,127,127,127 F,0,14750,15250,1,0
Sprite,Foreground,Centre,"sb\s1.png",429.4451,115.3429 S,0,15250,,0.5 R,0,15250,,1.204489 C,0,15250,,127,127,127 F,0,15250,15750,1,0
Sprite,Foreground,Centre,"sb\s3.png",151.2821,114.1136 S,0,15750,,0.5 R,0,15750,,4.920105 C,0,15750,,127,127,127 F,0,15750,16250,1,0
Sprite,Foreground,Centre,"sb\s0.png",77.85382,226.8214 S,0,16250,,0.5 R,0,16250,,0.8412453 C,0,16250,,127,127,127 F,0,16250,16750,1,0
Sprite,Foreground,Centre,"sb\s0.png",147.128,100.2732 S,0,16416,,0.5 R,0,16416,,1.383253 C,0,16416,,127,127,127 F,0,16416,16916,1,0
Sprite,Foreground,Centre,"sb\s0.png",143.3996,315.1431 S,0,16583,,0.5 R,0,16583,,5.683155 C,0,16583,,127,127,127 F,0,16583,17083,1,0
Sprite,Foreground,Centre,"sb\s0.png",94.04315,375.2835 S,0,16750,,0.5 R,0,16750,,5.211019 C,0,16750,,127,127,127 F,0,16750,17250,1,0
Sprite,Foreground,Centre,"sb\s0.png",350.7211,366.0992 S,0,17250,,0.5 R,0,17250,,0.8161438 C,0,17250,,127,127,127 F,0,17250,17750,1,0
Sprite,Foreground,Centre,"sb\s0.png",283.5146,225.6209 S,0,17750,,0.5 R,0,17750,,1.149253 C,0,17750,,127,127,127 F,0,17750,18250,1,0
Sprite,Foreground,Centre,"sb\s2.png",422.0416,189.6243 S,0,18250,,0.5 R,0,18250,,5.282802 C,0,18250,,127,127,127 F,0,18250,18750,1,0
Sprite,Foreground,Centre,"sb\s1.png",368.6177,331.089 S,0,18750,,0.5 R,0,18750,,1.457286 C,0,18750,,127,127,127 F,0,18750,19250,1,0
Sprite,Foreground,Centre,"sb\s2.png",291.0348,256.6432 S,0,19250,,0.5 R,0,19250,,3.197474 C,0,19250,,127,127,127 F,0,19250,19750,1,0
Sprite,Foreground,Centre,"sb\s0.png",335.0527,278.2435 S,0,19750,,0.5 R,0,19750,,5.148932 C,0,19750,,127,127,127 F,0,19750,20250,1,0
Sprite,Foreground,Centre,"sb\s1.png",353.7159,206.891 S,0,19916,,0.5 R,0,19916,,5.479856 C,0,19916,,127,127,127 F,0,19916,20416,1,0
Sprite,Foreground,Centre,"sb\s1.png",280.804,394.2193 S,0,20083,,0.5 R,0,20083,,1.021045 C,0,20083,,127,127,127 F,0,20083,20583,1,0
Sprite,Foreground,Centre,"sb\s1.png",361.1849,178.1488 S,0,20250,,0.5 R,0,20250,,5.665555 C,0,20250,,127,127,127 F,0,20250,20750,1,0
Sprite,Foreground,Centre,"sb\s2.png",130.4873,236.1686 S,0,20416,,0.5 R,0,20416,,2.747485 C,0,20416,,127,127,127 F,0,20416,20916,1,0
Sprite,Foreground,Centre,"sb\s0.png",475.4089,315.0566 S,0,20583,,0.5 R,0,20583,,0.902338 C,0,20583,,127,127,127 F,0,20583,21083,1,0
Sprite,Foreground,Centre,"sb\s3.png",609.6529,283.5769 S,0,20750,,0.5 R,0,20750,,1.904032 C,0,20750,,127,127,127 F,0,20750,21250,1,0
Sprite,Foreground,Centre,"sb\s0.png",414.4555,362.7247 S,0,21250,,0.5 R,0,21250,,5.106033 C,0,21250,,127,127,127 F,0,21250,21750,1,0
Sprite,Foreground,Centre,"sb\s2.png",630.145,470.3244 S,0,21583,,0.5 R,0,21583,,0.9491606 C,0,21583,,127,127,127 F,0,21583,22083,1,0
Sprite,Foreground,Centre,"sb\s2.png",255.206,166.071 S,0,21750,,0.5 R,0,21750,,0.7042591 C,0,21750,,127,127,127 F,0,21750,22250,1,0
Sprite,Foreground,Centre,"sb\s1.png",122.9862,352.2017 S,0,22083,,0.5 R,0,22083,,3.940593 C,0,22083,,127,127,127 F,0,22083,22583,1,0
Sprite,Foreground,Centre,"sb\s1.png",212.8237,324.4587 S,0,22250,,0.5 R,0,22250,,3.898402 C,0,22250,,127,127,127 F,0,22250,22750,1,0
Sprite,Foreground,Centre,"sb\s3.png",126.6712,247.5047 S,0,22583,,0.5 R,0,22583,,3.316552 C,0,22583,,127,127,127 F,0,22583,23083,1,0
Sprite,Foreground,Centre,"sb\s2.png",231.6719,216.9055 S,0,25250,,0.5 R,0,25250,,4.880494 C,0,25250,,127,127,127 F,0,25250,25750,1,0
Sprite,Foreground,Centre,"sb\s2.png",233.8612,441.3894 S,0,25750,,0.5 R,0,25750,,2.351408 C,0,25750,,127,127,127 F,0,25750,26250,1,0
Sprite,Foreground,Centre,"sb\s1.png",203.1024,189.3241 S,0,25916,,0.5 R,0,25916,,0.6752045 C,0,25916,,127,127,127 F,0,25916,26468,1,0
Sprite,Foreground,Centre,"sb\s2.png",341.1395,82.58289 S,0,26083,,0.5 R,0,26083,,1.555089 C,0,26083,,127,127,127 F,0,26083,26583,1,0
Sprite,Foreground,Centre,"sb\s1.png",413.3593,187.8911 S,0,26250,,0.5 R,0,26250,,5.529175 C,0,26250,,127,127,127 F,0,26250,26750,1,0
Sprite,Foreground,Centre,"sb\s0.png",559.8126,245.9402 S,0,26750,,0.5 R,0,26750,,3.140461 C,0,26750,,127,127,127 F,0,26750,27250,1,0
Sprite,Foreground,Centre,"sb\s1.png",521.8216,230.3477 S,0,27083,,0.5 R,0,27083,,1.288384 C,0,27083,,127,127,127 F,0,27083,27500,1,0
Sprite,Foreground,Centre,"sb\s2.png",421.7795,105.56 S,0,27250,,0.5 R,0,27250,,1.555089 C,0,27250,,127,127,127 F,0,27250,27500,1,0
Sprite,Foreground,Centre,"sb\s1.png",488.1593,165.3197 S,0,28750,,0.5 R,0,28750,,5.529175 C,0,28750,,127,127,127 F,0,28750,29250,1,0
Sprite,Foreground,Centre,"sb\s2.png",401.1605,16.15313 S,0,29250,,0.5 R,0,29250,,4.355428 C,0,29250,,127,127,127 F,0,29250,29750,1,0
Sprite,Foreground,Centre,"sb\s2.png",564.8998,321.34 S,0,29750,,0.5 R,0,29750,,1.84649 C,0,29750,,127,127,127 F,0,29750,30250,1,0
Sprite,Foreground,Centre,"sb\s0.png",534.1685,203.2081 S,0,29916,,0.5 R,0,29916,,0.4182833 C,0,29916,,127,127,127 F,0,29916,30468,1,0
Sprite,Foreground,Centre,"sb\s2.png",539.6846,394.8043 S,0,30250,,0.5 R,0,30250,,1.370459 C,0,30250,,127,127,127 F,0,30250,30750,1,0
Sprite,Foreground,Centre,"sb\s1.png",380.4421,414.5572 S,0,30750,,0.5 R,0,30750,,6.217227 C,0,30750,,127,127,127 F,0,30750,31250,1,0
Sprite,Foreground,Centre,"sb\s3.png",223.5277,261.1479 S,0,30916,,0.5 R,0,30916,,1.376633 C,0,30916,,127,127,127 F,0,30916,31416,1,0
Sprite,Foreground,Centre,"sb\s3.png",373.6588,149.2174 S,0,31083,,0.5 R,0,31083,,5.164811 C,0,31083,,127,127,127 F,0,31083,31583,1,0
Sprite,Foreground,Centre,"sb\s2.png",422.7094,35.70829 S,0,31250,,0.5 R,0,31250,,1.128012 C,0,31250,,127,127,127 F,0,31250,31750,1,0
Sprite,Foreground,Centre,"sb\s2.png",595.6846,128.8043 S,0,31583,,0.5 R,0,31583,,1.370459 C,0,31583,,127,127,127 F,0,31583,32083,1,0
Sprite,Foreground,Centre,"sb\s2.png",351.6725,371.7771 S,0,31750,,0.5 R,0,31750,,0.4889405 C,0,31750,,127,127,127 F,0,31750,32250,1,0
Sprite,Foreground,Centre,"sb\s1.png",398.3238,250.1604 S,0,31916,,0.5 R,0,31916,,5.313607 C,0,31916,,127,127,127 F,0,31916,32416,1,0
Sprite,Foreground,Centre,"sb\s2.png",347.8265,396.5846 S,0,32083,,0.5 R,0,32083,,5.633299 C,0,32083,,127,127,127 F,0,32083,32583,1,0
Sprite,Foreground,Centre,"sb\s0.png",60.93772,288.2569 S,0,32249,,0.5 R,0,32249,,1.018668 C,0,32249,,127,127,127 F,0,32249,32749,1,0
Sprite,Foreground,Centre,"sb\s2.png",245.6634,200.9084 S,0,32415,,0.5 R,0,32415,,2.622401 C,0,32415,,127,127,127 F,0,32415,32750,1,0
Sprite,Foreground,Centre,"sb\s1.png",298.1086,347.4038 S,0,32583,,0.5 R,0,32583,,4.200938 C,0,32583,,127,127,127 F,0,32583,32750,1,0
Sprite,Foreground,Centre,"sb\s3.png",204.1233,378.3151 F,0,32750,,1,0 S,0,32750,,0.5 R,0,32750,,3.834073 C,0,32750,,127,127,127
Sprite,Foreground,Centre,"sb\s1.png",438.2284,226.7385 S,0,33250,,0.5 R,0,33250,,1.618779 C,0,33250,,127,127,127 F,0,33250,33750,1,0
Sprite,Foreground,Centre,"sb\s0.png",339.2791,190.5753 S,0,33750,,0.5 R,0,33750,,3.178437 C,0,33750,,127,127,127 F,0,33750,34250,1,0
Sprite,Foreground,Centre,"sb\s2.png",178.5965,253.1837 S,0,33916,,0.5 R,0,33916,,5.615955 C,0,33916,,127,127,127 F,0,33916,34416,1,0
Sprite,Foreground,Centre,"sb\s3.png",392.9,348.431 S,0,34083,,0.5 R,0,34083,,4.73682 C,0,34083,,127,127,127 F,0,34083,34583,1,0
Sprite,Foreground,Centre,"sb\s0.png",151.4568,443.635 S,0,34250,,0.5 R,0,34250,,2.324951 C,0,34250,,127,127,127 F,0,34250,34750,1,0
Sprite,Foreground,Centre,"sb\s2.png",361.9561,341.3775 S,0,34750,,0.5 R,0,34750,,1.134868 C,0,34750,,127,127,127 F,0,34750,35250,1,0
Sprite,Foreground,Centre,"sb\s3.png",520.3812,238.9062 S,0,35250,,0.5 R,0,35250,,4.954798 C,0,35250,,127,127,127 F,0,35250,35750,1,0
Sprite,Foreground,Centre,"sb\s3.png",335.1963,144.2782 S,0,35750,,0.5 R,0,35750,,3.796875 C,0,35750,,127,127,127 F,0,35750,36250,1,0
Sprite,Foreground,Centre,"sb\s0.png",288.0533,227.7878 S,0,35916,,0.5 R,0,35916,,0.4606898 C,0,35916,,127,127,127 F,0,35916,36416,1,0
Sprite,Foreground,Centre,"sb\s2.png",410.6071,122.1184 S,0,36083,,0.5 R,0,36083,,3.352794 C,0,36083,,127,127,127 F,0,36083,36583,1,0
Sprite,Foreground,Centre,"sb\s0.png",425.5063,282.0871 S,0,36250,,0.5 R,0,36250,,0.7365859 C,0,36250,,127,127,127 F,0,36250,36750,1,0
Sprite,Foreground,Centre,"sb\s3.png",169.5011,110.0558 S,0,36416,,0.5 R,0,36416,,0.6927515 C,0,36416,,127,127,127 F,0,36416,36916,1,0
Sprite,Foreground,Centre,"sb\s1.png",121.9061,209.5067 S,0,36583,,0.5 R,0,36583,,2.563621 C,0,36583,,127,127,127 F,0,36583,37083,1,0
Sprite,Foreground,Centre,"sb\s3.png",76.95162,221.6546 S,0,36750,,0.5 R,0,36750,,4.000819 C,0,36750,,127,127,127 F,0,36750,37250,1,0
Sprite,Foreground,Centre,"sb\s0.png",98.61916,349.2012 S,0,37250,,0.5 R,0,37250,,0.5527771 C,0,37250,,127,127,127 F,0,37250,37750,1,0
Sprite,Foreground,Centre,"sb\s3.png",21.63704,358.4819 S,0,37750,,0.5 R,0,37750,,4.3427 C,0,37750,,127,127,127 F,0,37750,38250,1,0
Sprite,Foreground,Centre,"sb\s0.png",86.83438,394.3987 S,0,37916,,0.5 R,0,37916,,1.291685 C,0,37916,,127,127,127 F,0,37916,38416,1,0
Sprite,Foreground,Centre,"sb\s3.png",275.0459,227.4097 S,0,38083,,0.5 R,0,38083,,2.035506 C,0,38083,,127,127,127 F,0,38083,38583,1,0
Sprite,Foreground,Centre,"sb\s2.png",443.3325,190.0012 S,0,38250,,0.5 R,0,38250,,0.9300212 C,0,38250,,127,127,127 F,0,38250,38750,1,0
Sprite,Foreground,Centre,"sb\s1.png",257.3719,327.6396 S,0,38750,,0.5 R,0,38750,,5.314947 C,0,38750,,127,127,127 F,0,38750,39250,1,0
Sprite,Foreground,Centre,"sb\s2.png",399.7935,48.26076 S,0,38916,,0.5 R,0,38916,,5.22106 C,0,38916,,127,127,127 F,0,38916,39416,1,0
Sprite,Foreground,Centre,"sb\s1.png",446.0525,349.861 S,0,39083,,0.5 R,0,39083,,5.353323 C,0,39083,,127,127,127 F,0,39083,39583,1,0
Sprite,Foreground,Centre,"sb\s2.png",403.2837,193.5342 S,0,39250,,0.5 R,0,39250,,3.410045 C,0,39250,,127,127,127 F,0,39250,39750,1,0
Sprite,Foreground,Centre,"sb\s1.png",362.8573,164.9297 S,0,39583,,0.5 R,0,39583,,0.2810416 C,0,39583,,127,127,127 F,0,39583,40083,1,0
Sprite,Foreground,Centre,"sb\s3.png",370.6184,471.6873 S,0,39750,,0.5 R,0,39750,,4.596803 C,0,39750,,127,127,127 F,0,39750,40250,1,0
Sprite,Foreground,Centre,"sb\s1.png",551.7418,240.0004 S,0,39916,,0.5 R,0,39916,,5.676054 C,0,39916,,127,127,127 F,0,39916,40416,1,0
Sprite,Foreground,Centre,"sb\s0.png",218.0397,244.8873 S,0,40083,,0.5 R,0,40083,,4.4746 C,0,40083,,127,127,127 F,0,40083,40583,1,0
Sprite,Foreground,Centre,"sb\s0.png",182.7083,282.635 S,0,40250,,0.5 R,0,40250,,3.459629 C,0,40250,,127,127,127 F,0,40250,40750,1,0
Sprite,Foreground,Centre,"sb\s3.png",70.92601,240.9357 S,0,40416,,0.5 R,0,40416,,0.8138375 C,0,40416,,127,127,127 F,0,40416,40750,1,0
Sprite,Foreground,Centre,"sb\s2.png",127.1193,129.7792 S,0,40583,,0.5 R,0,40583,,1.436583 C,0,40583,,127,127,127 F,0,40583,40750,1,0
Sprite,Foreground,Centre,"sb\s1.png",333.3416,284.9152 F,0,40750,,1,0 S,0,40750,,0.5 R,0,40750,,1.611466 C,0,40750,,127,127,127
Sprite,Foreground,Centre,"sb\s1.png",456.9408,232.0611 S,0,65249,,0.5 R,0,65249,,5.963191 C,0,65249,,64,0,0 F,0,65249,65749,1,0
Sprite,Foreground,Centre,"sb\s1.png",483.2758,328.9218 S,0,65583,,0.5 R,0,65583,,2.761197 C,0,65583,,64,0,0 F,0,65583,66083,1,0
Sprite,Foreground,Centre,"sb\s2.png",548.9943,346.1728 S,0,65750,,0.5 R,0,65750,,1.501266 C,0,65750,,64,0,0 F,0,65750,66250,1,0
Sprite,Foreground,Centre,"sb\s2.png",354.6291,382.8661 S,0,66083,,0.5 R,0,66083,,0.22825 C,0,66083,,64,0,0 F,0,66083,66583,1,0
Sprite,Foreground,Centre,"sb\s0.png",408.7052,365.1065 S,0,66250,,0.5 R,0,66250,,5.335329 C,0,66250,,64,0,0 F,0,66250,66750,1,0
Sprite,Foreground,Centre,"sb\s1.png",443.0552,326.4893 S,0,66583,,0.5 R,0,66583,,6.110394 C,0,66583,,64,0,0 F,0,66583,67083,1,0
Sprite,Foreground,Centre,"sb\s0.png",326.3503,155.3491 S,0,66750,,0.5 R,0,66750,,0.829828 C,0,66750,,64,0,0 F,0,66750,67250,1,0
Sprite,Foreground,Centre,"sb\s1.png",175.4214,341.672 S,0,67250,,0.5 R,0,67250,,4.013421 C,0,67250,,64,0,0 F,0,67250,67750,1,0
Sprite,Foreground,Centre,"sb\s3.png",230.1719,241.1199 S,0,67583,,0.5 R,0,67583,,3.659741 C,0,67583,,64,0,0 F,0,67583,68083,1,0
Sprite,Foreground,Centre,"sb\s1.png",111.4061,296.753 S,0,67750,,0.5 R,0,67750,,0.7203403 C,0,67750,,64,0,0 F,0,67750,68250,1,0
Sprite,Foreground,Centre,"sb\s2.png",255.3844,373.7943 S,0,67916,,0.5 R,0,67916,,1.275544 C,0,67916,,64,0,0 F,0,67916,68416,1,0
Sprite,Foreground,Centre,"sb\s0.png",81.35216,182.7862 S,0,68083,,0.5 R,0,68083,,1.214773 C,0,68083,,64,0,0 F,0,68083,68583,1,0
Sprite,Foreground,Centre,"sb\s3.png",50.12933,364.1006 S,0,68250,,0.5 R,0,68250,,2.909317 C,0,68250,,64,0,0 F,0,68250,68750,1,0
Sprite,Foreground,Centre,"sb\s0.png",91.2248,460.1798 S,0,68583,,0.5 R,0,68583,,5.716545 C,0,68583,,64,0,0 F,0,68583,69083,1,0
Sprite,Foreground,Centre,"sb\s3.png",403.5811,311.5596 S,0,68750,,0.5 R,0,68750,,5.254929 C,0,68750,,64,0,0 F,0,68750,69250,1,0
Sprite,Foreground,Centre,"sb\s3.png",136.0167,299.4115 S,0,69250,,0.5 R,0,69250,,4.774399 C,0,69250,,64,0,0 F,0,69250,69750,1,0
Sprite,Foreground,Centre,"sb\s1.png",369.4121,372.757 S,0,69583,,0.5 R,0,69583,,4.104751 C,0,69583,,64,0,0 F,0,69583,70083,1,0
Sprite,Foreground,Centre,"sb\s0.png",295.3105,399.6712 S,0,69750,,0.5 R,0,69750,,1.608061 C,0,69750,,64,0,0 F,0,69750,70250,1,0
Sprite,Foreground,Centre,"sb\s2.png",378.4319,141.9039 S,0,70083,,0.5 R,0,70083,,3.056395 C,0,70083,,64,0,0 F,0,70083,70583,1,0
Sprite,Foreground,Centre,"sb\s1.png",378.5042,224.7267 S,0,70250,,0.5 R,0,70250,,5.133039 C,0,70250,,64,0,0 F,0,70250,70750,1,0
Sprite,Foreground,Centre,"sb\s0.png",301.6019,223.6519 S,0,70583,,0.5 R,0,70583,,0.9184168 C,0,70583,,64,0,0 F,0,70583,71083,1,0
Sprite,Foreground,Centre,"sb\s2.png",142.4038,112.5256 S,0,70750,,0.5 R,0,70750,,0.9131132 C,0,70750,,64,0,0 F,0,70750,71250,1,0
Sprite,Foreground,Centre,"sb\s3.png",184.6634,406.1042 S,0,71250,,0.5 R,0,71250,,2.964754 C,0,71250,,64,0,0 F,0,71250,71500,1,0
Sprite,Foreground,Centre,"sb\s0.png",397.7005,210.7479 S,0,80750,,0.5 R,0,80750,,2.83577 C,0,80750,,153,114,114 F,0,80750,81250,1,0
Sprite,Foreground,Centre,"sb\s3.png",353.531,432.6628 S,0,81250,,0.5 R,0,81250,,1.882064 C,0,81250,,153,114,114 F,0,81250,81750,1,0
Sprite,Foreground,Centre,"sb\s3.png",385.1649,167.2379 S,0,81750,,0.5 R,0,81750,,5.05319 C,0,81750,,153,114,114 F,0,81750,82250,1,0
Sprite,Foreground,Centre,"sb\s2.png",166.3414,454.3159 S,0,82250,,0.5 R,0,82250,,4.211856 C,0,82250,,153,114,114 F,0,82250,82750,1,0
Sprite,Foreground,Centre,"sb\s1.png",139.9154,247.1956 S,0,82750,,0.5 R,0,82750,,1.617296 C,0,82750,,153,114,114 F,0,82750,83250,1,0
Sprite,Foreground,Centre,"sb\s0.png",155.9901,365.4884 S,0,83250,,0.5 R,0,83250,,4.237462 C,0,83250,,153,114,114 F,0,83250,83750,1,0
Sprite,Foreground,Centre,"sb\s3.png",512.7017,124.9424 S,0,83750,,0.5 R,0,83750,,2.941245 C,0,83750,,153,114,114 F,0,83750,84250,1,0
Sprite,Foreground,Centre,"sb\s1.png",382.1552,253.6292 S,0,83916,,0.5 R,0,83916,,2.790414 C,0,83916,,153,114,114 F,0,83916,84416,1,0
Sprite,Foreground,Centre,"sb\s1.png",347.2738,116.9126 S,0,84083,,0.5 R,0,84083,,1.877678 C,0,84083,,153,114,114 F,0,84083,84583,1,0
Sprite,Foreground,Centre,"sb\s0.png",562.1341,415.2915 S,0,84250,,0.5 R,0,84250,,1.017576 C,0,84250,,153,114,114 F,0,84250,84750,1,0
Sprite,Foreground,Centre,"sb\s2.png",509.3857,318.9742 S,0,84750,,0.5 R,0,84750,,0.4122952 C,0,84750,,153,114,114 F,0,84750,85250,1,0
Sprite,Foreground,Centre,"sb\s3.png",228.7092,271.2517 S,0,85250,,0.5 R,0,85250,,4.809554 C,0,85250,,153,114,114 F,0,85250,85750,1,0
Sprite,Foreground,Centre,"sb\s0.png",277.7224,397.2809 S,0,85750,,0.5 R,0,85750,,3.881667 C,0,85750,,153,114,114 F,0,85750,86250,1,0
Sprite,Foreground,Centre,"sb\s0.png",412.1569,346.543 S,0,89250,,0.5 R,0,89250,,0.04203871 C,0,89250,,127,127,127 F,0,89250,89750,1,0
Sprite,Foreground,Centre,"sb\s2.png",456.423,249.405 S,0,89750,,0.5 R,0,89750,,0.8477992 C,0,89750,,127,127,127 F,0,89750,90250,1,0
Sprite,Foreground,Centre,"sb\s0.png",406.7442,320.4546 S,0,90083,,0.5 R,0,90083,,3.604979 C,0,90083,,127,127,127 F,0,90083,90583,1,0
Sprite,Foreground,Centre,"sb\s1.png",575.3921,157.7364 S,0,90250,,0.5 R,0,90250,,3.248815 C,0,90250,,127,127,127 F,0,90250,90750,1,0
Sprite,Foreground,Centre,"sb\s2.png",337.0642,169.1192 S,0,90583,,0.5 R,0,90583,,3.641635 C,0,90583,,127,127,127 F,0,90583,91083,1,0
Sprite,Foreground,Centre,"sb\s3.png",391.4657,274.1059 S,0,90750,,0.5 R,0,90750,,2.477381 C,0,90750,,127,127,127 F,0,90750,91250,1,0
Sprite,Foreground,Centre,"sb\s0.png",311.0892,424.9609 S,0,91083,,0.5 R,0,91083,,4.057348 C,0,91083,,127,127,127 F,0,91083,91500,1,0
Sprite,Foreground,Centre,"sb\s1.png",369.963,398.8306 S,0,91250,,0.5 R,0,91250,,3.247822 C,0,91250,,127,127,127 F,0,91250,91500,1,0
Sprite,Foreground,Centre,"sb\s2.png",273.5526,185.378 S,0,92750,,0.5 R,0,92750,,5.107516 C,0,92750,,127,127,127 F,0,92750,93250,1,0
Sprite,Foreground,Centre,"sb\s2.png",29.05619,454.0397 S,0,93083,,0.5 R,0,93083,,3.448928 C,0,93083,,127,127,127 F,0,93083,93583,1,0
Sprite,Foreground,Centre,"sb\s1.png",129.0203,339.1413 S,0,93250,,0.5 R,0,93250,,1.281041 C,0,93250,,127,127,127 F,0,93250,93750,1,0
Sprite,Foreground,Centre,"sb\s2.png",228.5342,318.8635 S,0,93583,,0.5 R,0,93583,,1.569417 C,0,93583,,127,127,127 F,0,93583,94083,1,0
Sprite,Foreground,Centre,"sb\s3.png",331.0674,319.5506 S,0,93750,,0.5 R,0,93750,,4.026332 C,0,93750,,127,127,127 F,0,93750,94250,1,0
Sprite,Foreground,Centre,"sb\s1.png",202.0941,320.4528 S,0,94083,,0.5 R,0,94083,,5.203367 C,0,94083,,127,127,127 F,0,94083,94583,1,0
Sprite,Foreground,Centre,"sb\s3.png",103.0742,363.8405 S,0,94250,,0.5 R,0,94250,,5.307467 C,0,94250,,127,127,127 F,0,94250,94750,1,0
Sprite,Foreground,Centre,"sb\s3.png",470.7494,174.8213 S,0,94583,,0.5 R,0,94583,,4.939449 C,0,94583,,127,127,127 F,0,94583,95083,1,0
Sprite,Foreground,Centre,"sb\s0.png",416.2905,169.5658 S,0,94750,,0.5 R,0,94750,,1.668143 C,0,94750,,127,127,127 F,0,94750,95250,1,0
Sprite,Foreground,Centre,"sb\s1.png",348.687,248.4536 S,0,94916,,0.5 R,0,94916,,2.521748 C,0,94916,,127,127,127 F,0,94916,95416,1,0
Sprite,Foreground,Centre,"sb\s3.png",536.8583,22.45774 S,0,95083,,0.5 R,0,95083,,2.729438 C,0,95083,,127,127,127 F,0,95083,95583,1,0
Sprite,Foreground,Centre,"sb\s1.png",348.0087,337.5378 S,0,95250,,0.5 R,0,95250,,4.294251 C,0,95250,,127,127,127 F,0,95250,95750,1,0
Sprite,Foreground,Centre,"sb\s3.png",338.989,149.6829 S,0,95583,,0.5 R,0,95583,,2.620405 C,0,95583,,127,127,127 F,0,95583,96083,1,0
Sprite,Foreground,Centre,"sb\s0.png",510.8069,272.5609 S,0,95750,,0.5 R,0,95750,,2.296314 C,0,95750,,127,127,127 F,0,95750,96250,1,0
Sprite,Foreground,Centre,"sb\s1.png",479.3759,359.9985 S,0,95916,,0.5 R,0,95916,,4.008304 C,0,95916,,127,127,127 F,0,95916,96416,1,0
Sprite,Foreground,Centre,"sb\s1.png",594.9169,252.7988 S,0,96083,,0.5 R,0,96083,,3.336942 C,0,96083,,127,127,127 F,0,96083,96583,1,0
Sprite,Foreground,Centre,"sb\s2.png",513.5156,194.1835 S,0,96250,,0.5 R,0,96250,,0.8659256 C,0,96250,,127,127,127 F,0,96250,96750,1,0
Sprite,Foreground,Centre,"sb\s1.png",260.8804,195.9579 S,0,96416,,0.5 R,0,96416,,1.781174 C,0,96416,,127,127,127 F,0,96416,96750,1,0
Sprite,Foreground,Centre,"sb\s0.png",226.178,482.9993 S,0,96582,,0.5 R,0,96582,,2.392761 C,0,96582,,127,127,127 F,0,96582,96750,1,0
Sprite,Foreground,Centre,"sb\s3.png",460.8491,314.6777 F,0,96750,,1,0 S,0,96750,,0.5 R,0,96750,,3.094579 C,0,96750,,127,127,127
Sprite,Foreground,Centre,"sb\s1.png",195.3587,406.8972 S,0,97083,,0.5 R,0,97083,,2.968471 C,0,97083,,127,127,127 F,0,97083,97583,1,0
Sprite,Foreground,Centre,"sb\s0.png",178.4389,295.2132 S,0,97250,,0.5 R,0,97250,,1.968736 C,0,97250,,127,127,127 F,0,97250,97750,1,0
Sprite,Foreground,Centre,"sb\s1.png",247.7856,151.8833 S,0,97583,,0.5 R,0,97583,,5.725461 C,0,97583,,127,127,127 F,0,97583,98083,1,0
Sprite,Foreground,Centre,"sb\s2.png",183.7971,166.1569 S,0,97750,,0.5 R,0,97750,,5.601244 C,0,97750,,127,127,127 F,0,97750,98250,1,0
Sprite,Foreground,Centre,"sb\s1.png",220.4781,181.4047 S,0,98083,,0.5 R,0,98083,,0.432401 C,0,98083,,127,127,127 F,0,98083,98583,1,0
Sprite,Foreground,Centre,"sb\s1.png",212.8973,121.5134 S,0,98250,,0.5 R,0,98250,,3.060367 C,0,98250,,127,127,127 F,0,98250,98750,1,0
Sprite,Foreground,Centre,"sb\s2.png",347.3971,73.76859 S,0,98583,,0.5 R,0,98583,,3.104012 C,0,98583,,127,127,127 F,0,98583,99083,1,0
Sprite,Foreground,Centre,"sb\s3.png",265.816,58.14375 S,0,98750,,0.5 R,0,98750,,5.75553 C,0,98750,,127,127,127 F,0,98750,99250,1,0
Sprite,Foreground,Centre,"sb\s3.png",421.9562,146.12 S,0,99083,,0.5 R,0,99083,,0.1402441 C,0,99083,,127,127,127 F,0,99083,99583,1,0
Sprite,Foreground,Centre,"sb\s0.png",258.3256,190.9131 S,0,99250,,0.5 R,0,99250,,1.657195 C,0,99250,,127,127,127 F,0,99250,99750,1,0
Sprite,Foreground,Centre,"sb\s2.png",240.0768,479.9109 S,0,99583,,0.5 R,0,99583,,4.230487 C,0,99583,,127,127,127 F,0,99583,100083,1,0
Sprite,Foreground,Centre,"sb\s1.png",282.3197,221.5973 S,0,99750,,0.5 R,0,99750,,6.028756 C,0,99750,,127,127,127 F,0,99750,100250,1,0
Sprite,Foreground,Centre,"sb\s2.png",512.8917,240.6855 S,0,99916,,0.5 R,0,99916,,1.529478 C,0,99916,,127,127,127 F,0,99916,100416,1,0
Sprite,Foreground,Centre,"sb\s2.png",444.8689,260.217 S,0,100083,,0.5 R,0,100083,,4.105629 C,0,100083,,127,127,127 F,0,100083,100583,1,0
Sprite,Foreground,Centre,"sb\s3.png",99.55188,205.4421 S,0,100250,,0.5 R,0,100250,,3.910765 C,0,100250,,127,127,127 F,0,100250,100750,1,0
Sprite,Foreground,Centre,"sb\s0.png",169.9788,357.2992 S,0,100416,,0.5 R,0,100416,,2.793741 C,0,100416,,127,127,127 F,0,100416,100916,1,0
Sprite,Foreground,Centre,"sb\s0.png",300.6326,159.9399 S,0,100583,,0.5 R,0,100583,,2.097614 C,0,100583,,127,127,127 F,0,100583,101083,1,0
Sprite,Foreground,Centre,"sb\s3.png",92.29988,417.0879 S,0,100750,,0.5 R,0,100750,,1.066856 C,0,100750,,127,127,127 F,0,100750,101250,1,0
Sprite,Foreground,Centre,"sb\s0.png",132.6446,279.5064 S,0,101083,,0.5 R,0,101083,,2.687457 C,0,101083,,127,127,127 F,0,101083,101583,1,0
Sprite,Foreground,Centre,"sb\s3.png",204.3306,289.3482 S,0,101250,,0.5 R,0,101250,,4.207348 C,0,101250,,127,127,127 F,0,101250,101750,1,0
Sprite,Foreground,Centre,"sb\s3.png",380.9518,425.2134 S,0,101583,,0.5 R,0,101583,,5.29731 C,0,101583,,127,127,127 F,0,101583,102083,1,0
Sprite,Foreground,Centre,"sb\s3.png",407.9855,280.8063 S,0,101750,,0.5 R,0,101750,,3.035041 C,0,101750,,127,127,127 F,0,101750,102250,1,0
Sprite,Foreground,Centre,"sb\s0.png",287.4808,65.0117 S,0,102083,,0.5 R,0,102083,,3.949955 C,0,102083,,127,127,127 F,0,102083,102583,1,0
Sprite,Foreground,Centre,"sb\s1.png",584.2437,344.0898 S,0,102250,,0.5 R,0,102250,,3.795614 C,0,102250,,127,127,127 F,0,102250,102750,1,0
Sprite,Foreground,Centre,"sb\s1.png",354.9973,180.5409 S,0,102583,,0.5 R,0,102583,,2.521346 C,0,102583,,127,127,127 F,0,102583,103083,1,0
Sprite,Foreground,Centre,"sb\s3.png",245.8651,247.1398 S,0,102750,,0.5 R,0,102750,,3.275168 C,0,102750,,127,127,127 F,0,102750,103250,1,0
Sprite,Foreground,Centre,"sb\s0.png",525.9517,182.5933 S,0,103083,,0.5 R,0,103083,,6.224271 C,0,103083,,127,127,127 F,0,103083,103583,1,0
Sprite,Foreground,Centre,"sb\s0.png",556.4686,300.6528 S,0,103250,,0.5 R,0,103250,,1.596063 C,0,103250,,127,127,127 F,0,103250,103750,1,0
Sprite,Foreground,Centre,"sb\s1.png",235.7307,232.8697 S,0,103750,,0.5 R,0,103750,,4.69857 C,0,103750,,127,127,127 F,0,103750,104250,1,0
Sprite,Foreground,Centre,"sb\s0.png",192.3833,165.7831 S,0,103916,,0.5 R,0,103916,,0.4249207 C,0,103916,,127,127,127 F,0,103916,104416,1,0
Sprite,Foreground,Centre,"sb\s2.png",312.1106,323.993 S,0,104083,,0.5 R,0,104083,,0.8441172 C,0,104083,,127,127,127 F,0,104083,104583,1,0
Sprite,Foreground,Centre,"sb\s3.png",303.6201,153.8503 S,0,104250,,0.5 R,0,104250,,2.617408 C,0,104250,,127,127,127 F,0,104250,104750,1,0
Sprite,Foreground,Centre,"sb\s1.png",202.1828,247.9708 S,0,104416,,0.5 R,0,104416,,2.2084 C,0,104416,,127,127,127 F,0,104416,104750,1,0
Sprite,Foreground,Centre,"sb\s0.png",431.9838,267.3316 S,0,104583,,0.5 R,0,104583,,4.316485 C,0,104583,,127,127,127 F,0,104583,104750,1,0
Sprite,Foreground,Centre,"sb\s0.png",401.4922,273.1122 S,0,104666,,0.5 R,0,104666,,5.408389 C,0,104666,,127,127,127 F,0,104666,104750,1,0
Sprite,Foreground,Centre,"sb\s0.png",406.0065,232.4669 F,0,104750,,1,0 S,0,104750,,0.5 R,0,104750,,2.418566 C,0,104750,,127,127,127
Sprite,Foreground,Centre,"sb\s3.png",319.4969,173.2642 S,0,103750,,0.5 R,0,103750,,0.5474634 C,0,103750,,178,102,102 F,0,103750,104250,1,0
Sprite,Foreground,Centre,"sb\s0.png",168.3713,131.5582 S,0,103916,,0.5 R,0,103916,,4.682659 C,0,103916,,178,102,102 F,0,103916,104416,1,0
Sprite,Foreground,Centre,"sb\s2.png",296.8845,392.5381 S,0,104083,,0.5 R,0,104083,,3.154809 C,0,104083,,178,102,102 F,0,104083,104583,1,0
Sprite,Foreground,Centre,"sb\s0.png",397.9435,107.433 S,0,104250,,0.5 R,0,104250,,5.310453 C,0,104250,,178,102,102 F,0,104250,104750,1,0
Sprite,Foreground,Centre,"sb\s0.png",174.2719,322.245 S,0,104416,,0.5 R,0,104416,,1.677793 C,0,104416,,178,102,102 F,0,104416,104750,1,0
Sprite,Foreground,Centre,"sb\s2.png",423.6636,180.725 S,0,104583,,0.5 R,0,104583,,4.919533 C,0,104583,,178,102,102 F,0,104583,104750,1,0
Sprite,Foreground,Centre,"sb\s2.png",359.935,249.9065 S,0,104666,,0.5 R,0,104666,,5.216676 C,0,104666,,178,102,102 F,0,104666,104750,1,0
Sprite,Foreground,Centre,"sb\s3.png",461.6044,292.2642 F,0,104750,,1,0 S,0,104750,,0.5 R,0,104750,,2.003739 C,0,104750,,178,102,102
Sprite,Foreground,Centre,"sb\s0.png",354.7224,226.3682 S,0,120750,,0.5 R,0,120750,,0.9224122 C,0,120750,,0,0,0 F,0,120750,121250,1,0
Sprite,Foreground,Centre,"sb\s0.png",230.6974,353.9474 S,0,121750,,0.5 R,0,121750,,5.752229 C,0,121750,,0,0,0 F,0,121750,122250,1,0
Sprite,Foreground,Centre,"sb\s1.png",144.5765,271.7751 S,0,122250,,0.5 R,0,122250,,5.542223 C,0,122250,,0,0,0 F,0,122250,122750,1,0
Sprite,Foreground,Centre,"sb\s3.png",294.0624,348.0627 S,0,122750,,0.5 R,0,122750,,1.220728 C,0,122750,,0,0,0 F,0,122750,123250,1,0
Sprite,Foreground,Centre,"sb\s3.png",452.9285,329.0774 S,0,123250,,0.5 R,0,123250,,3.785636 C,0,123250,,0,0,0 F,0,123250,123750,1,0
Sprite,Foreground,Centre,"sb\s3.png",295.2872,229.7728 S,0,123750,,0.5 R,0,123750,,1.775216 C,0,123750,,0,0,0 F,0,123750,124250,1,0
Sprite,Foreground,Centre,"sb\s3.png",340.0443,232.7537 S,0,123916,,0.5 R,0,123916,,0.5124226 C,0,123916,,0,0,0 F,0,123916,124416,1,0
Sprite,Foreground,Centre,"sb\s3.png",404.2849,448.1232 S,0,124083,,0.5 R,0,124083,,5.724067 C,0,124083,,0,0,0 F,0,124083,124583,1,0
Sprite,Foreground,Centre,"sb\s1.png",557.7183,346.6255 S,0,124250,,0.5 R,0,124250,,1.82358 C,0,124250,,0,0,0 F,0,124250,124750,1,0
Sprite,Foreground,Centre,"sb\s2.png",509.6418,215.8277 S,0,124416,,0.5 R,0,124416,,1.296102 C,0,124416,,0,0,0 F,0,124416,124916,1,0
Sprite,Foreground,Centre,"sb\s1.png",362.0616,381.5551 S,0,124583,,0.5 R,0,124583,,2.695943 C,0,124583,,0,0,0 F,0,124583,125083,1,0
Sprite,Foreground,Centre,"sb\s3.png",155.8198,127.7742 S,0,124750,,0.5 R,0,124750,,1.980024 C,0,124750,,0,0,0 F,0,124750,125250,1,0
Sprite,Foreground,Centre,"sb\s1.png",115.038,132.2141 S,0,125250,,0.5 R,0,125250,,0.01681882 C,0,125250,,0,0,0 F,0,125250,125750,1,0
Sprite,Foreground,Centre,"sb\s3.png",365.1439,411.0584 S,0,125750,,0.5 R,0,125750,,5.711638 C,0,125750,,0,0,0 F,0,125750,126250,1,0
Sprite,Foreground,Centre,"sb\s0.png",269.2038,282.0193 S,0,126250,,0.5 R,0,126250,,3.402328 C,0,126250,,0,0,0 F,0,126250,126750,1,0
Sprite,Foreground,Centre,"sb\s0.png",355.5085,63.71858 S,0,126750,,0.5 R,0,126750,,4.974501 C,0,126750,,0,0,0 F,0,126750,127250,1,0
Sprite,Foreground,Centre,"sb\s1.png",284.1653,205.285 S,0,127250,,0.5 R,0,127250,,3.324561 C,0,127250,,0,0,0 F,0,127250,127750,1,0
Sprite,Foreground,Centre,"sb\s2.png",446.913,373.2931 S,0,127750,,0.5 R,0,127750,,2.81847 C,0,127750,,0,0,0 F,0,127750,128250,1,0
Sprite,Foreground,Centre,"sb\s0.png",506.6734,273.7959 S,0,127916,,0.5 R,0,127916,,0.2307058 C,0,127916,,0,0,0 F,0,127916,128416,1,0
Sprite,Foreground,Centre,"sb\s1.png",376.8516,259.2758 S,0,128083,,0.5 R,0,128083,,4.415516 C,0,128083,,0,0,0 F,0,128083,128583,1,0
Sprite,Foreground,Centre,"sb\s2.png",363.417,373.5667 S,0,128249,,0.5 R,0,128249,,3.309808 C,0,128249,,0,0,0 F,0,128249,128749,1,0
Sprite,Foreground,Centre,"sb\s2.png",600.7806,314.0827 S,0,128416,,0.5 R,0,128416,,1.201484 C,0,128416,,0,0,0 F,0,128416,128916,1,0
Sprite,Foreground,Centre,"sb\s3.png",364.269,103.2001 S,0,128583,,0.5 R,0,128583,,3.99432 C,0,128583,,0,0,0 F,0,128583,129083,1,0
Sprite,Foreground,Centre,"sb\s0.png",475.5161,126.4603 S,0,128749,,0.5 R,0,128749,,0.3345781 C,0,128749,,0,0,0 F,0,128749,129249,1,0
Sprite,Foreground,Centre,"sb\s2.png",431.2154,247.468 S,0,129249,,0.5 R,0,129249,,1.311773 C,0,129249,,0,0,0 F,0,129249,129749,1,0
Sprite,Foreground,Centre,"sb\s2.png",119.0468,409.8999 S,0,129749,,0.5 R,0,129749,,0.4397903 C,0,129749,,0,0,0 F,0,129749,130249,1,0
Sprite,Foreground,Centre,"sb\s3.png",221.7967,483.2419 S,0,130249,,0.5 R,0,130249,,2.054483 C,0,130249,,0,0,0 F,0,130249,130749,1,0
Sprite,Foreground,Centre,"sb\s3.png",120.3585,160.6245 S,0,130749,,0.5 R,0,130749,,5.698947 C,0,130749,,0,0,0 F,0,130749,131249,1,0
Sprite,Foreground,Centre,"sb\s2.png",163.0671,336.0416 S,0,131250,,0.5 R,0,131250,,5.965427 C,0,131250,,0,0,0 F,0,131250,131750,1,0
Sprite,Foreground,Centre,"sb\s2.png",506.2917,356.2689 S,0,131750,,0.5 R,0,131750,,3.812748 C,0,131750,,0,0,0 F,0,131750,132250,1,0
Sprite,Foreground,Centre,"sb\s3.png",412.8086,370.0675 S,0,131916,,0.5 R,0,131916,,1.333598 C,0,131916,,0,0,0 F,0,131916,132416,1,0
Sprite,Foreground,Centre,"sb\s0.png",560.9215,255.7949 S,0,132083,,0.5 R,0,132083,,4.790176 C,0,132083,,0,0,0 F,0,132083,132583,1,0
Sprite,Foreground,Centre,"sb\s2.png",309.9799,394.3569 S,0,132250,,0.5 R,0,132250,,1.056195 C,0,132250,,0,0,0 F,0,132250,132750,1,0
Sprite,Foreground,Centre,"sb\s0.png",238.5526,262.4174 S,0,132416,,0.5 R,0,132416,,1.483578 C,0,132416,,0,0,0 F,0,132416,132916,1,0
Sprite,Foreground,Centre,"sb\s2.png",468.6073,81.68196 S,0,132583,,0.5 R,0,132583,,0.2098071 C,0,132583,,0,0,0 F,0,132583,133083,1,0
Sprite,Foreground,Centre,"sb\s3.png",323.2292,278.1285 S,0,132750,,0.5 R,0,132750,,1.781942 C,0,132750,,0,0,0 F,0,132750,133250,1,0
Sprite,Foreground,Centre,"sb\s3.png",127.1021,389.4437 S,0,133083,,0.5 R,0,133083,,2.874329 C,0,133083,,0,0,0 F,0,133083,133583,1,0
Sprite,Foreground,Centre,"sb\s1.png",283.9336,149.8742 S,0,133250,,0.5 R,0,133250,,1.180614 C,0,133250,,0,0,0 F,0,133250,133750,1,0
Sprite,Foreground,Centre,"sb\s3.png",264.7954,193.6406 S,0,133583,,0.5 R,0,133583,,3.177242 C,0,133583,,0,0,0 F,0,133583,134083,1,0
Sprite,Foreground,Centre,"sb\s2.png",57.73205,112.2465 S,0,133750,,0.5 R,0,133750,,6.029081 C,0,133750,,0,0,0 F,0,133750,134250,1,0
Sprite,Foreground,Centre,"sb\s0.png",175.6572,153.6405 S,0,134083,,0.5 R,0,134083,,4.288664 C,0,134083,,0,0,0 F,0,134083,134583,1,0
Sprite,Foreground,Centre,"sb\s0.png",155.1078,350.7145 S,0,134250,,0.5 R,0,134250,,3.2091 C,0,134250,,0,0,0 F,0,134250,134750,1,0
Sprite,Foreground,Centre,"sb\s2.png",222.8184,194.0096 S,0,134583,,0.5 R,0,134583,,5.906903 C,0,134583,,0,0,0 F,0,134583,135083,1,0
Sprite,Foreground,Centre,"sb\s3.png",374.9947,453.134 S,0,134750,,0.5 R,0,134750,,0.9745537 C,0,134750,,0,0,0 F,0,134750,135250,1,0
Sprite,Foreground,Centre,"sb\s3.png",492.7661,376.5233 S,0,135083,,0.5 R,0,135083,,5.724118 C,0,135083,,0,0,0 F,0,135083,135583,1,0
Sprite,Foreground,Centre,"sb\s3.png",336.2396,191.1102 S,0,135250,,0.5 R,0,135250,,3.891625 C,0,135250,,0,0,0 F,0,135250,135750,1,0
Sprite,Foreground,Centre,"sb\s3.png",207.3056,151.5701 S,0,160750,,0.5 R,0,160750,,5.526658 C,0,160750,,64,0,0 F,0,160750,161250,1,0
Sprite,Foreground,Centre,"sb\s2.png",444.6911,174.2439 S,0,161250,,0.5 R,0,161250,,2.149296 C,0,161250,,64,0,0 F,0,161250,161750,1,0
Sprite,Foreground,Centre,"sb\s2.png",322.8586,438.2724 S,0,161583,,0.5 R,0,161583,,4.510222 C,0,161583,,64,0,0 F,0,161583,162083,1,0
Sprite,Foreground,Centre,"sb\s3.png",395.7606,366.2999 S,0,161750,,0.5 R,0,161750,,2.578887 C,0,161750,,64,0,0 F,0,161750,162250,1,0
Sprite,Foreground,Centre,"sb\s2.png",245.0685,221.9056 S,0,162083,,0.5 R,0,162083,,3.910105 C,0,162083,,64,0,0 F,0,162083,162583,1,0
Sprite,Foreground,Centre,"sb\s3.png",256.5397,252.4415 S,0,162250,,0.5 R,0,162250,,4.513676 C,0,162250,,64,0,0 F,0,162250,162750,1,0
Sprite,Foreground,Centre,"sb\s2.png",41.78717,388.0462 S,0,162583,,0.5 R,0,162583,,1.237651 C,0,162583,,64,0,0 F,0,162583,163083,1,0
Sprite,Foreground,Centre,"sb\s0.png",205.6357,277.3456 S,0,162750,,0.5 R,0,162750,,1.559123 C,0,162750,,64,0,0 F,0,162750,163250,1,0
Sprite,Foreground,Centre,"sb\s3.png",212.3609,150.2622 S,0,163250,,0.5 R,0,163250,,0.132336 C,0,163250,,64,0,0 F,0,163250,163750,1,0
Sprite,Foreground,Centre,"sb\s0.png",501.1263,448.4632 S,0,163583,,0.5 R,0,163583,,0.9797162 C,0,163583,,64,0,0 F,0,163583,164083,1,0
Sprite,Foreground,Centre,"sb\s0.png",502.2245,291.9736 S,0,163750,,0.5 R,0,163750,,0.5768362 C,0,163750,,64,0,0 F,0,163750,164250,1,0
Sprite,Foreground,Centre,"sb\s1.png",414.2525,136.2648 S,0,164083,,0.5 R,0,164083,,2.695854 C,0,164083,,64,0,0 F,0,164083,164583,1,0
Sprite,Foreground,Centre,"sb\s1.png",346.9867,368.2232 S,0,164250,,0.5 R,0,164250,,2.916248 C,0,164250,,64,0,0 F,0,164250,164750,1,0
Sprite,Foreground,Centre,"sb\s0.png",550.4542,160.3555 S,0,164750,,0.5 R,0,164750,,1.25497 C,0,164750,,64,0,0 F,0,164750,165250,1,0
Sprite,Foreground,Centre,"sb\s3.png",419.6183,293.9268 S,0,165250,,0.5 R,0,165250,,2.705935 C,0,165250,,64,0,0 F,0,165250,165750,1,0
Sprite,Foreground,Centre,"sb\s3.png",254.0307,76.57637 S,0,165583,,0.5 R,0,165583,,4.50255 C,0,165583,,64,0,0 F,0,165583,166083,1,0
Sprite,Foreground,Centre,"sb\s2.png",364.5102,133.3345 S,0,165750,,0.5 R,0,165750,,5.607142 C,0,165750,,64,0,0 F,0,165750,166250,1,0
Sprite,Foreground,Centre,"sb\s2.png",236.6039,254.9989 S,0,166083,,0.5 R,0,166083,,5.117913 C,0,166083,,64,0,0 F,0,166083,166583,1,0
Sprite,Foreground,Centre,"sb\s2.png",246.947,234.0815 S,0,166250,,0.5 R,0,166250,,5.532127 C,0,166250,,64,0,0 F,0,166250,166750,1,0
Sprite,Foreground,Centre,"sb\s1.png",35.69031,287.2296 S,0,166583,,0.5 R,0,166583,,4.241589 C,0,166583,,64,0,0 F,0,166583,167083,1,0
Sprite,Foreground,Centre,"sb\s0.png",124.1267,477.747 S,0,166750,,0.5 R,0,166750,,0.7472103 C,0,166750,,64,0,0 F,0,166750,167250,1,0
Sprite,Foreground,Centre,"sb\s2.png",73.93635,253.4282 S,0,167250,,0.5 R,0,167250,,6.042303 C,0,167250,,64,0,0 F,0,167250,167750,1,0
Sprite,Foreground,Centre,"sb\s0.png",321.6961,357.8318 F,0,167750,,1,0 S,0,167750,,0.5 R,0,167750,,4.021215 C,0,167750,,64,0,0
Sprite,Foreground,Centre,"sb\s2.png",276.3384,354.3137 S,0,168750,,0.5 R,0,168750,,4.444561 C,0,168750,,64,0,0 F,0,168750,169250,1,0
Sprite,Foreground,Centre,"sb\s2.png",422.2484,383.2383 S,0,169250,,0.5 R,0,169250,,4.379188 C,0,169250,,64,0,0 F,0,169250,169750,1,0
Sprite,Foreground,Centre,"sb\s0.png",536.037,205.4211 S,0,169750,,0.5 R,0,169750,,1.564036 C,0,169750,,64,0,0 F,0,169750,170250,1,0
Sprite,Foreground,Centre,"sb\s2.png",414.9619,163.8041 S,0,170250,,0.5 R,0,170250,,2.669714 C,0,170250,,64,0,0 F,0,170250,170750,1,0
Sprite,Foreground,Centre,"sb\s1.png",398.6559,425.9998 S,0,170750,,0.5 R,0,170750,,3.199211 C,0,170750,,64,0,0 F,0,170750,171250,1,0
Sprite,Foreground,Centre,"sb\s0.png",306.5178,215.6024 S,0,171250,,0.5 R,0,171250,,5.375964 C,0,171250,,64,0,0 F,0,171250,171750,1,0
Sprite,Foreground,Centre,"sb\s2.png",220.3543,32.31267 S,0,171750,,0.5 R,0,171750,,0.6664364 C,0,171750,,64,0,0 F,0,171750,172250,1,0
Sprite,Foreground,Centre,"sb\s1.png",364.2417,256.2224 S,0,172250,,0.5 R,0,172250,,5.782604 C,0,172250,,64,0,0 F,0,172250,172750,1,0
Sprite,Foreground,Centre,"sb\s3.png",166.0794,357.0617 S,0,172750,,0.5 R,0,172750,,1.878419 C,0,172750,,64,0,0 F,0,172750,173250,1,0
Sprite,Foreground,Centre,"sb\s1.png",159.5376,213.0515 S,0,173250,,0.5 R,0,173250,,5.120688 C,0,173250,,64,0,0 F,0,173250,173750,1,0
Sprite,Foreground,Centre,"sb\s3.png",263.0175,91.49094 S,0,173750,,0.5 R,0,173750,,4.736217 C,0,173750,,64,0,0 F,0,173750,174250,1,0
Sprite,Foreground,Centre,"sb\s1.png",315.8847,223.2343 S,0,174250,,0.5 R,0,174250,,1.102042 C,0,174250,,64,0,0 F,0,174250,174750,1,0
Sprite,Foreground,Centre,"sb\s3.png",433.0413,381.7201 S,0,174750,,0.5 R,0,174750,,1.686127 C,0,174750,,64,0,0 F,0,174750,175250,1,0
Sprite,Foreground,Centre,"sb\s3.png",286.658,402.5308 S,0,175083,,0.5 R,0,175083,,0.1316418 C,0,175083,,64,0,0 F,0,175083,175583,1,0
Sprite,Foreground,Centre,"sb\s0.png",509.7954,234.2602 S,0,175250,,0.5 R,0,175250,,2.566964 C,0,175250,,64,0,0 F,0,175250,175750,1,0
Sprite,Foreground,Centre,"sb\s1.png",472.6618,84.1301 S,0,175583,,0.5 R,0,175583,,0.2295466 C,0,175583,,64,0,0 F,0,175583,176083,1,0
Sprite,Foreground,Centre,"sb\s2.png",542.6189,345.0901 S,0,175750,,0.5 R,0,175750,,0.8299899 C,0,175750,,64,0,0 F,0,175750,176250,1,0
Sprite,Foreground,Centre,"sb\s0.png",301.5373,292.7536 S,0,176083,,0.5 R,0,176083,,3.08441 C,0,176083,,64,0,0 F,0,176083,176583,1,0
Sprite,Foreground,Centre,"sb\s2.png",333.6821,249.7218 S,0,176250,,0.5 R,0,176250,,2.767117 C,0,176250,,64,0,0 F,0,176250,176750,1,0
Sprite,Foreground,Centre,"sb\s3.png",374.117,313.8127 S,0,176416,,0.5 R,0,176416,,5.811896 C,0,176416,,64,0,0 F,0,176416,176916,1,0
Sprite,Foreground,Centre,"sb\s3.png",229.862,86.44427 S,0,176583,,0.5 R,0,176583,,4.616214 C,0,176583,,64,0,0 F,0,176583,177083,1,0
Sprite,Foreground,Centre,"sb\s1.png",288.8729,179.106 S,0,176750,,0.5 R,0,176750,,0.7909991 C,0,176750,,64,0,0 F,0,176750,177250,1,0
Sprite,Foreground,Centre,"sb\s0.png",187.3799,161.5309 S,0,177250,,0.5 R,0,177250,,0.7283538 C,0,177250,,64,0,0 F,0,177250,177750,1,0
Sprite,Foreground,Centre,"sb\s2.png",390.7577,378.3821 S,0,177750,,0.5 R,0,177750,,3.57308 C,0,177750,,64,0,0 F,0,177750,178250,1,0
Sprite,Foreground,Centre,"sb\s1.png",520.8146,304.6707 S,0,178083,,0.5 R,0,178083,,2.704063 C,0,178083,,64,0,0 F,0,178083,178583,1,0
Sprite,Foreground,Centre,"sb\s0.png",309.3258,227.5504 S,0,178250,,0.5 R,0,178250,,1.698179 C,0,178250,,64,0,0 F,0,178250,178750,1,0
Sprite,Foreground,Centre,"sb\s3.png",381.885,156.745 S,0,178583,,0.5 R,0,178583,,5.007612 C,0,178583,,64,0,0 F,0,178583,179083,1,0
Sprite,Foreground,Centre,"sb\s0.png",211.1596,273.6549 S,0,178750,,0.5 R,0,178750,,2.533838 C,0,178750,,64,0,0 F,0,178750,179250,1,0
Sprite,Foreground,Centre,"sb\s3.png",188.8612,205.1737 S,0,178916,,0.5 R,0,178916,,3.832432 C,0,178916,,64,0,0 F,0,178916,179416,1,0
Sprite,Foreground,Centre,"sb\s3.png",305.0894,263.1547 S,0,179083,,0.5 R,0,179083,,1.518852 C,0,179083,,64,0,0 F,0,179083,179583,1,0
Sprite,Foreground,Centre,"sb\s3.png",156.9761,216.3599 S,0,179250,,0.5 R,0,179250,,0.1237172 C,0,179250,,64,0,0 F,0,179250,179750,1,0
Sprite,Foreground,Centre,"sb\s0.png",110.9157,357.5576 S,0,179416,,0.5 R,0,179416,,4.99939 C,0,179416,,64,0,0 F,0,179416,179750,1,0
Sprite,Foreground,Centre,"sb\s2.png",15.93163,383.4839 S,0,179583,,0.5 R,0,179583,,1.82665 C,0,179583,,64,0,0 F,0,179583,179750,1,0
Sprite,Foreground,Centre,"sb\s1.png",256.7259,251.6044 F,0,179750,,1,0 S,0,179750,,0.5 R,0,179750,,3.082404 C,0,179750,,64,0,0
//Storyboard Layer 4 (Overlay)
//Storyboard Sound Samples

[TimingPoints]
750,500,4,2,1,40,1,0
750,-60.9756097560976,4,2,1,40,0,0
1250,-135.135135135135,4,2,1,40,0,0
1750,-60.9756097560976,4,2,1,40,0,0
2250,-135.135135135135,4,2,1,40,0,0
2583,-135.135135135135,4,2,1,30,0,0
2750,-69.4444444444444,4,2,1,40,0,0
3250,-227.272727272727,4,2,1,40,0,0
4750,-60.2409638554217,4,2,1,40,0,0
5250,-217.391304347826,4,2,1,40,0,0
5750,-73.5294117647059,4,2,1,40,0,0
6250,-227.272727272727,4,2,1,40,0,0
6750,-69.4444444444444,4,2,1,40,0,0
7250,-185.185185185185,4,2,1,40,0,0
8750,-60.9756097560975,4,2,1,40,0,0
9250,-156.25,4,2,1,40,0,0
9750,-57.4712643678161,4,2,1,40,0,0
10250,-147.058823529412,4,2,1,40,0,0
11250,-63.2911392405063,4,2,1,40,0,0
12750,-53.1914893617021,4,2,1,40,0,0
13250,-131.578947368421,4,2,1,40,0,0
14250,-51.0204081632653,4,2,1,40,0,0
14750,-94.3396226415094,4,2,1,40,0,0
15250,-48.5436893203883,4,2,1,40,0,0
15750,-79.3650793650794,4,2,1,40,0,0
16750,-56.8181818181818,4,2,1,40,0,0
17250,-116.279069767442,4,2,1,40,0,0
17750,-217.391304347826,4,2,1,40,0,0
18250,-51.0204081632653,4,2,1,40,0,0
18750,-46.2962962962963,4,2,1,40,0,0
19250,-208.333333333333,4,2,1,40,0,0
20750,-53.1914893617021,4,2,1,40,0,0
21250,-102.040816326531,4,2,1,40,0,0
22250,-208.333333333335,4,2,1,40,0,0
22500,-208.333333333335,4,2,1,20,0,0
22583,-31.4465408805031,4,2,1,40,0,0
22750,-63.2911392405065,4,2,1,5,0,0
24750,-30.8641975308642,4,2,1,40,0,0
25000,-30.8641975308642,4,2,1,10,0,0
25083,-30.8641975308642,4,2,1,40,0,0
25250,-151.515151515152,4,2,1,40,0,0
25916,-44.2477876106195,4,2,1,40,0,0
26000,-44.2477876106195,4,2,1,20,0,0
26083,-44.2477876106195,4,2,1,40,0,0
26166,-39.0625,4,2,1,25,0,0
26250,-116.279069767442,4,2,1,40,0,0
28250,-44.2477876106195,4,2,1,40,0,0
28583,-56.8181818181818,4,2,1,40,0,0
28666,-56.8181818181818,4,2,1,10,0,0
28750,-56.8181818181818,4,2,1,40,0,0
29250,-116.279069767442,4,2,1,40,0,0
29916,-73.5294117647059,4,2,1,40,0,0
30250,-277.777777777778,4,2,1,40,0,0
30750,-36.231884057971,4,2,1,40,0,0
30833,-36.231884057971,4,2,1,8,0,0
30916,-34.965034965035,4,2,1,40,0,0
31000,-34.965034965035,4,2,1,8,0,0
31083,-40.650406504065,4,2,1,40,0,0
31166,-40.650406504065,4,2,1,8,0,0
31250,-116.279069767442,4,2,1,40,0,0
32750,-29.2397660818713,4,2,1,40,0,0
33250,-151.515151515152,4,2,1,40,0,0
33750,-37.593984962406,4,2,1,40,0,0
33833,-37.593984962406,4,2,1,15,0,0
33916,-36.231884057971,4,2,1,40,0,0
34000,-36.231884057971,4,2,1,10,0,0
34083,-34.965034965035,4,2,1,40,0,0
34166,-34.965034965035,4,2,1,10,0,0
34250,-60.2409638554217,4,2,1,40,0,0
34750,-147.058823529412,4,2,1,40,0,0
35250,-53.1914893617022,4,2,1,40,0,0
37250,-113.636363636364,4,2,1,40,0,0
38250,-56.1797752808989,4,2,1,40,0,0
39250,-128.205128205128,4,2,1,40,0,0
40750,-37.3134328358209,4,2,1,40,0,0
41166,-37.3134328358209,4,2,1,10,0,0
41250,-67.5675675675676,4,2,1,40,0,0
43750,-67.5675675675676,4,2,1,15,0,0
44000,-67.5675675675676,4,2,1,20,0,0
44250,-67.5675675675676,4,2,1,30,0,0
44500,-67.5675675675676,4,2,1,40,0,0
46250,-56.1797752808989,4,2,1,40,0,0
47750,-53.1914893617021,4,2,1,15,0,0
48000,-53.1914893617021,4,2,1,20,0,0
48250,-53.1914893617021,4,2,1,30,0,0
48583,-53.1914893617021,4,2,1,40,0,0
48750,-263.157894736842,4,2,1,40,0,0
49250,-56.1797752808989,4,2,1,40,0,0
49750,-357.142857142857,4,2,1,40,0,0
50750,-53.1914893617021,4,2,1,40,0,0
51250,-208.333333333333,4,2,1,40,0,0
51750,-45.8715596330275,4,2,1,40,0,0
52750,-59.5238095238095,4,2,1,40,0,0
53250,-128.205128205128,4,2,1,40,0,0
53750,-102.040816326531,4,2,1,40,0,0
54250,-59.5238095238095,4,2,1,40,0,0
54583,-48.0769230769231,4,2,1,40,0,0
54750,-48.0769230769231,4,1,2,40,0,0
56750,-714.285714285714,4,2,1,40,0,1
58750,-714.285714285714,4,2,1,10,0,0
60750,-833.333333333333,4,2,1,40,0,1
62750,-833.333333333333,4,2,1,10,0,0
63750,-121.951219512195,4,2,1,40,0,0
64749,-54.3478260869565,4,2,1,40,0,0
65249,-106.382978723404,4,2,1,40,0,0
66750,-54.3478260869565,4,2,1,40,0,0
67250,-119.047619047619,4,2,1,40,0,0
68750,-119.047619047619,4,2,1,40,0,0
69250,-54.3478260869565,4,2,1,40,0,0
70750,-227.272727272727,4,2,1,40,0,0
71250,-54.3478260869565,4,2,1,40,0,0
71750,-135.135135135135,4,2,1,40,0,0
72583,-185.185185185185,4,2,1,40,0,0
74187,-185.185185185185,4,2,1,17,0,0
74250,-185.185185185185,4,2,1,40,0,0
75187,-185.185185185185,4,2,1,17,0,0
75250,-185.185185185185,4,2,1,40,0,0
76187,-185.185185185185,4,2,1,17,0,0
76250,-185.185185185185,4,2,1,40,0,0
77187,-185.185185185185,4,2,1,17,0,0
77250,-185.185185185185,4,2,1,40,0,0
79187,-185.185185185185,4,2,1,17,0,0
79250,-185.185185185185,4,2,1,40,0,0
80187,-185.185185185185,4,2,1,17,0,0
80250,-185.185185185185,4,2,1,40,0,0
81250,-60.9756097560975,4,2,1,40,0,0
81750,-135.135135135135,4,2,1,40,0,0
82750,-60.9756097560976,4,2,1,40,0,0
83250,-135.135135135135,4,2,1,40,0,0
84250,-156.25,4,2,1,40,0,0
84750,-60.9756097560976,4,2,1,40,0,0
85250,-135.135135135135,4,2,1,40,0,0
88750,-30.8641975308642,4,2,1,40,0,0
89000,-30.8641975308642,4,2,1,20,0,0
89083,-30.8641975308642,4,2,1,40,0,0
89250,-135.135135135135,4,2,1,40,0,0
90250,-185.185185185185,4,2,1,40,0,0
91416,-185.185185185185,4,2,1,10,0,0
92583,-106.382978723404,4,2,1,40,0,0
96750,-30.8641975308642,4,2,1,40,0,0
97250,-106.382978723404,4,2,1,40,0,0
100750,-156.25,4,2,1,40,0,0
101250,-60.9756097560976,4,2,1,40,0,0
102250,-135.135135135135,4,2,1,40,0,0
102583,-64.9350649350649,4,2,1,40,0,0
104750,-74.6268656716418,4,2,1,40,0,0
105250,-69.4444444444444,4,2,1,40,0,0
106750,-57.4712643678161,4,2,1,40,0,0
107083,-69.4444444444444,4,2,1,40,0,0
107416,-555.555555555556,4,2,1,40,0,0
107500,-555.555555555556,4,2,1,5,0,0
108583,-555.555555555556,4,2,1,40,0,0
108750,-69.4444444444444,4,2,1,40,0,0
110750,-54.3478260869565,4,2,1,40,0,0
111083,-60.9756097560976,4,2,1,40,0,0
111416,-87.719298245614,4,2,1,40,0,0
112750,-69.4444444444444,4,2,1,40,0,0
114750,-51.5463917525773,4,2,1,40,0,0
115083,-64.9350649350649,4,2,1,40,0,0
115416,-714.285714285714,4,2,1,40,0,0
115750,-714.285714285714,4,2,1,5,0,0
116250,-714.285714285714,4,2,1,35,0,0
116750,-69.4444444444444,4,2,1,35,0,0
118750,-46.7289719626168,4,2,1,35,0,0
119083,-87.719298245614,4,2,1,35,0,0
119500,-185.185185185185,4,2,1,35,0,0
120750,-227.272727272727,4,2,1,25,0,0
121750,-156.25,4,2,1,25,0,0
122250,-294.117647058823,4,2,1,25,0,0
122750,-156.25,4,2,1,25,0,0
123250,-119.047619047619,4,2,1,45,0,0
124750,-156.25,4,2,1,45,0,0
125250,-69.4444444444444,4,2,1,45,0,0
125750,-185.185185185185,4,2,1,45,0,0
126250,-60.9756097560976,4,2,1,45,0,0
126750,-135.135135135135,4,2,1,45,0,0
127250,-57.4712643678161,4,2,1,45,0,0
128749,-227.272727272727,4,2,1,45,0,0
129249,-64.9350649350649,4,2,1,45,0,0
129749,-185.185185185185,4,2,1,45,0,0
130249,-60.9756097560976,4,2,1,45,0,0
130749,-156.25,4,2,1,45,0,0
131250,-57.4712643678161,4,2,1,45,0,0
132750,-69.4444444444444,4,2,1,45,0,0
136750,-37.3134328358209,4,2,1,45,0,0
137166,-37.3134328358209,4,2,1,20,0,0
137250,-69.4444444444444,4,2,1,45,0,0
138250,-50.5050505050505,4,2,1,45,0,0
138750,-68.4931506849315,4,2,1,45,0,0
139250,-135.135135135135,4,2,1,45,0,0
139583,-135.135135135135,4,2,1,15,0,0
139750,-147.058823529412,4,2,1,15,0,0
140250,-84.7457627118644,4,2,1,25,0,0
140583,-67.5675675675676,4,2,1,45,0,0
140750,-92.5925925925926,4,2,1,45,0,0
141250,-67.5675675675676,4,2,1,45,0,0
141750,-113.636363636364,4,2,1,45,0,0
142250,-56.1797752808989,4,2,1,45,0,0
142750,-67.5675675675676,4,2,1,45,0,0
143416,-67.5675675675676,4,2,1,25,0,0
143583,-67.5675675675676,4,2,1,20,0,0
143750,-53.1914893617021,4,2,1,18,0,0
143916,-53.1914893617021,4,2,1,30,0,0
144750,-208.333333333333,4,2,1,45,0,0
145250,-50.5050505050505,4,2,1,45,0,0
145750,-263.157894736842,4,2,1,45,0,0
146250,-53.1914893617021,4,2,1,45,0,0
146750,-65.7894736842105,4,2,1,45,0,0
147250,-208.333333333333,4,2,1,45,0,0
147750,-45.8715596330275,4,2,1,45,0,0
148750,-59.5238095238095,4,2,1,45,0,0
149250,-128.205128205128,4,2,1,45,0,0
149750,-147.058823529413,4,2,1,45,0,0
150250,-92.5925925925926,4,2,1,45,0,0
150583,-48.0769230769231,4,2,1,45,0,0
150750,-48.0769230769231,4,2,2,45,0,0
152750,-454.545454545455,4,2,1,45,0,1
154750,-454.545454545455,4,2,1,45,0,0
156750,-833.333333333333,4,2,1,45,0,1
158750,-161.290322580645,4,2,1,45,0,0
160750,-68.4931506849315,4,2,1,45,0,1
164250,-68.4931506849315,4,2,1,45,0,0
164750,-65.7894736842105,4,2,1,45,0,1
167750,-65.7894736842105,4,2,1,45,0,0
168750,-238.095238095238,4,2,1,45,0,0
169250,-69.4444444444444,4,2,1,45,0,0
169750,-185.185185185185,4,2,1,45,0,0
170250,-64.9350649350649,4,2,1,45,0,0
170750,-178.571428571429,4,2,1,45,0,0
171250,-64.1025641025641,4,2,1,45,0,0
171750,-161.290322580645,4,2,1,45,0,0
172250,-61.7283950617284,4,2,1,45,0,0
172750,-156.25,4,2,1,45,0,0
173250,-60.9756097560976,4,2,1,45,0,0
173750,-138.888888888889,4,2,1,45,0,0
174250,-58.1395348837209,4,2,1,45,0,0
174750,-68.4931506849315,4,2,1,45,0,0
176750,-131.578947368421,4,2,1,45,0,0
177250,-56.8181818181818,4,2,1,45,0,0
177750,-68.4931506849315,4,2,1,45,0,0
179750,-131.578947368421,4,2,1,25,0,0
182500,-131.578947368421,4,2,1,15,0,0
182583,-131.578947368421,4,2,1,20,0,0
182750,-131.578947368421,4,2,1,15,0,0

[Colours]
Combo1 : 209,14,19
Combo2 : 211,211,211
Combo3 : 149,149,149
Combo4 : 102,125,128
Combo5 : 240,0,6

[HitObjects]
79,11,750,6,0,P|149:16|212:112,1,190.240002902832,8|0,0:3|3:0,0:0:0:0:
211,109,1250,2,0,B|170:125|170:125|131:109,1,85.8400020957032,8|0,0:0|3:0,0:0:0:0:
85,382,1750,6,0,B|117:268|44:308|57:197,1,190.240002902832,8|0,0:3|3:0,0:0:0:0:
56,201,2250,2,0,B|97:185|97:185|136:201,1,85.8400020957032,8|0,0:0|3:0,0:0:0:0:
292,144,2750,54,0,B|377:170|336:213|427:246,1,167.040004078125,8|0,0:3|3:0,0:0:0:0:
420,243,3250,2,0,P|436:215|434:186,1,51.0400015576172,8|0,0:0|3:0,0:0:0:0:
430,117,3750,5,8,0:3:0:0:
461,198,3916,1,4,0:3:0:0:
304,51,4083,5,4,0:3:0:0:
265,278,4250,1,8,0:0:0:0:
225,154,4416,53,8,0:3:0:0:
300,171,4583,5,0,3:0:0:0:
9,323,4750,38,0,P|77:273|188:244,1,192.560002791321,8|0,0:3|3:3,0:0:0:0:
180,244,5250,2,0,P|188:276|177:306,1,53.3599982087403,8|0,0:0|3:0,0:0:0:0:
477,235,5750,6,0,B|401:214|424:163|348:144,1,157.760000962891,8|0,0:3|3:0,0:0:0:0:
352,146,6250,2,0,B|345:170|345:170|356:215,1,51.0400015576172,8|2,0:0|0:0,0:0:0:0:
198,376,6750,6,0,P|310:342|327:274,1,167.040004078125,8|0,0:3|3:3,0:0:0:0:
329,286,7250,2,0,L|262:270,1,62.6400015292969,8|0,0:0|3:0,0:0:0:0:
54,221,7750,37,0,0:0:0:0:
54,221,8750,6,0,P|65:124|143:86,1,190.240002902832,10|0,0:3|3:0,0:0:0:0:
154,97,9250,2,0,B|161:134|161:134|153:180,1,74.24,8|0,0:0|3:0,0:0:0:0:
294,186,9750,6,0,B|276:277|276:277|296:390,1,201.840001693909,8|8,0:3|3:3,0:0:0:0:
312,375,10250,2,0,P|285:340|237:331,1,78.8800004814453,8|2,0:0|0:0,0:0:0:0:
176,336,10750,1,8,0:3:0:0:
176,336,11083,1,0,3:3:0:0:
387,211,11250,38,0,P|293:140|222:135,1,183.280004474609,8|0,0:0|3:2,0:0:0:0:
219,148,11750,1,8,0:3:0:0:
249,222,11916,1,12,0:3:0:0:
128,53,12083,5,0,3:0:0:0:
66,299,12250,1,8,0:0:0:0:
230,133,12416,5,4,0:3:0:0:
279,296,12583,1,0,3:0:0:0:
356,236,12750,38,0,B|427:169|399:56|305:105|337:151,1,218.079996672363,8|0,0:3|3:0,0:0:0:0:
336,150,13250,2,0,P|378:151|426:118,1,88.1599989238281,8|0,0:0|3:0,0:0:0:0:
484,74,13750,1,8,0:3:0:0:
484,74,14083,1,0,3:0:0:0:
445,293,14250,6,0,P|378:217|231:181,1,227.359997918457,8|2,0:0|0:0,0:0:0:0:
260,179,14750,2,0,P|245:210|267:179,1,122.960000187622,0|0,3:0|0:0,0:0:0:0:
325,36,15250,6,0,P|208:26|104:81,1,238.959997994568,8|0,0:0|0:0,0:0:0:0:
104,81,15750,2,0,P|118:120|107:77,1,146.159995539551,8|2,0:3|3:0,0:0:0:0:
58,176,16250,1,8,0:0:0:0:
33,14,16416,37,4,0:3:0:0:
130,251,16583,1,2,3:0:0:0:
76,319,16750,6,0,P|132:275|267:250,1,204.160006230469,8|0,0:3|3:0,0:0:0:0:
339,266,17250,2,0,P|312:315|255:331,1,99.7600015222168,8|0,0:0|3:0,0:0:0:0:
182,117,17750,6,0,L|242:131,1,53.3599982087403,8|0,0:3|3:0,0:0:0:0:
305,82,18250,2,0,B|185:69|221:177|106:165,1,227.359997918457,8|2,0:0|0:0,0:0:0:0:
273,331,18750,38,0,B|328:295|324:226|324:226|373:275|442:266,1,250.560006117188,8|0,0:3|3:0,0:0:0:0:
247,208,19250,6,0,L|307:222,1,55.680001359375,8|0,0:0|3:0,0:0:0:0:
324,226,19750,1,8,0:3:0:0:
347,149,19916,1,4,0:3:0:0:
273,331,20083,5,0,3:0:0:0:
252,64,20250,1,8,0:0:0:0:
106,165,20416,37,4,0:3:0:0:
440,266,20583,1,0,3:0:0:0:
495,196,20750,6,0,P|396:252|375:360,1,218.079996672363,8|0,0:3|3:0,0:0:0:0:
372,347,21250,2,0,L|428:360,1,56.8399994796143,8|0,0:0|0:0,0:0:0:0:
503,379,21583,1,0,3:0:0:0:
252,64,21750,1,0,0:0:0:0:
118,265,22083,5,0,0:0:0:0:
118,265,22250,2,0,P|140:248|150:227,1,41.7600010195313,0|0,0:0|0:0,0:0:0:0:
106,165,22583,38,0,L|149:349,1,184.440000281433
106,165,24750,6,2,B|247:144|200:293|347:272,1,281.880006881836,8|0,0:3|0:1,0:1:0:0:
421,245,25083,1,0,3:0:0:0:
231,191,25250,6,0,L|211:274,1,76.5599997663574,8|0,0:0|0:0,0:0:0:0:
192,343,25750,1,8,0:3:0:0:
142,72,25916,38,0,P|197:67|221:47,1,65.5400002000122,2|0,0:0|0:0,0:0:0:0:
254,3,26083,2,0,P|309:8|333:28,1,65.5400002000122,2|0,0:0|0:0,0:0:0:0:
346,94,26250,6,0,P|393:105|428:140,1,99.7600015222168,8|0,0:0|0:0,0:0:0:0:
457,218,26750,1,8,0:3:0:0:
457,218,27083,5,0,0:0:0:0:
317,13,27250,1,8,0:0:0:0:
213,265,27625,1,0,0:0:0:0:
213,265,27750,38,0,L|283:247,2,49.8800007611084
187,176,28250,6,0,P|279:203|330:285,1,196.620000600037,0|0,0:0|0:0,0:0:0:0:
332,300,28583,2,0,P|332:326|326:351,1,51.0400015576172,0|0,0:0|0:0,0:0:0:0:
472,108,28750,54,0,P|341:131|297:192,1,204.160006230469,8|0,0:3|3:0,0:0:0:0:
317,13,29250,2,0,P|268:51|246:101,1,99.7600015222168,10|0,0:0|0:0,0:0:0:0:
437,264,29750,5,8,0:3:0:0:
472,107,29916,2,0,P|446:137|435:180,1,78.8800004814453,2|0,0:0|3:0,0:0:0:0:
418,341,30250,2,0,L|370:353,1,41.7600010195313,8|0,0:0|0:0,0:0:0:0:
354,353,30750,54,0,P|335:307|349:247,1,80.0400001221313,10|0,0:3|0:0,0:0:0:0:
197,244,30916,6,0,P|216:198|203:137,1,82.9400011390076
366,126,31083,6,0,P|347:80|360:20,1,71.340001088562,2|0,0:0|0:0,0:0:0:0:
348,43,31250,38,0,L|415:59,1,49.8800007611084,10|0,0:0|0:0,0:0:0:0:
474,75,31583,1,0,0:0:0:0:
253,304,31750,5,12,0:3:0:0:
272,219,31916,1,4,0:3:0:0:
336,277,32083,1,0,3:0:0:0:
39,172,32249,5,10,0:0:0:0:
179,81,32415,1,4,0:3:0:0:
187,247,32583,1,0,3:0:0:0:
116,290,32750,38,2,B|212:270|212:270|258:192|258:192|362:168,1,297.540009307206,2|0,0:3|0:1,0:1:0:0:
441,146,33083,1,0,3:0:0:0:
358,188,33250,2,0,P|346:138|357:100,1,76.5599997663574,8|2,0:0|0:0,0:0:0:0:
271,76,33750,6,0,P|266:32|255:-14,1,77.1399968219301,8|0,0:3|0:0,0:0:0:0:
119,172,33916,2,0,P|124:128|135:80,1,80.0400001221313,0|0,0:0|0:0,0:0:0:0:
348,290,34083,2,0,P|343:246|332:195,1,82.9400011390076,0|0,3:0|0:0,0:0:0:0:
107,355,34250,6,0,P|178:265|282:276,1,192.560002791321,10|0,0:0|0:0,0:0:0:0:
254,273,34750,2,0,P|259:317|270:368,1,78.8800004814453,8|0,0:3|0:0,0:0:0:0:
512,150,35250,38,0,P|397:128|281:115,1,218.079996672363,10|0,0:0|0:0,0:0:0:0:
217,111,35750,1,8,0:3:0:0:
199,189,35916,1,4,0:3:0:0:
316,35,36083,5,4,0:3:0:0:
366,220,36250,1,10,0:0:0:0:
156,52,36416,5,4,0:3:0:0:
110,140,36583,1,4,0:3:0:0:
28,102,36750,38,0,P|9:170|83:327,1,218.079996672363,8|0,0:3|3:0,0:0:0:0:
75,318,37250,2,0,P|77:276|43:228,1,102.080003115234,10|0,0:0|0:0,0:0:0:0:
0,292,37750,5,8,0:3:0:0:
75,318,37916,1,0,0:0:0:0:
218,232,38083,5,0,3:0:0:0:
415,178,38250,38,0,P|332:160|217:244,1,206.480000157532,10|0,0:0|0:0,0:0:0:0:
196,290,38750,1,6,0:0:0:0:
317,0,38916,1,2,0:0:0:0:
329,272,39083,5,0,0:0:0:0:
310,196,39250,2,0,L|298:148,1,45.2400015186768,10|0,0:0|0:0,0:0:0:0:
279,76,39583,1,0,0:0:0:0:
261,355,39750,1,12,3:0:0:0:
512,232,39916,1,2,0:0:0:0:
182,150,40083,53,0,0:0:0:0:
74,247,40250,1,14,3:0:0:0:
12,180,40416,1,0,0:0:0:0:
31,90,40583,1,2,0:0:0:0:
230,228,40750,22,2,P|339:251|369:31,1,388.599981618348,8|0,3:3|0:1,0:1:0:0:
306,4,41250,1,8,0:3:0:0:
306,4,41750,1,8,0:3:0:0:
335,239,42250,6,0,L|324:197,2,42.9200010478516,10|0|0,0:3|0:0|0:0,0:0:0:0:
352,317,42583,1,0,0:0:0:0:
182,150,42750,5,8,0:3:0:0:
182,150,43250,1,10,0:3:0:0:
182,150,43750,22,0,B|119:143|40:185|50:318|157:351|226:329|249:242|249:242|227:261|197:258,1,429.200010478516
188,251,44750,37,8,0:3:0:0:
188,251,45250,1,8,0:3:0:0:
188,251,45750,1,8,0:3:0:0:
188,251,46250,6,0,P|160:132|123:18,1,206.480000157532,8|0,0:3|0:0,0:0:0:0:
60,27,46750,1,8,0:3:0:0:
60,27,47250,1,8,0:3:0:0:
60,27,47750,38,0,B|44:112|120:152|180:120|180:120|208:64|280:64|280:64|224:108|245:164|245:164|292:108|368:144,1,545.199991680908
286,337,48750,6,0,L|234:329,1,44.0799994619141,12|0,0:3|0:0,0:0:0:0:
171,361,49250,6,0,P|253:302|319:200,1,206.480000157532,8|0,0:0|0:0,0:0:0:0:
334,143,49750,1,8,0:3:0:0:
334,143,50083,1,0,3:0:0:0:
108,26,50250,6,0,P|97:53|96:60,1,32.4800003964844,8|0,0:0|0:0,0:0:0:0:
65,211,50750,22,0,P|85:145|-8:-5,1,218.079996672363,8|0,0:3|0:0,0:0:0:0:
173,249,51250,38,0,L|227:235,1,55.680001359375,8|0,0:0|0:0,0:0:0:0:
305,191,51750,22,0,B|177:172|220:306|87:287,1,252.88000270105,12|4,0:3|0:3,0:0:0:0:
363,108,52250,5,10,0:0:0:0:
363,108,52583,1,4,0:3:0:0:
302,310,52750,54,0,B|374:246|374:246|464:293,1,194.879994052735,6|8,0:3|0:3,0:0:0:0:
456,307,53250,6,0,P|408:298|372:258,1,90.4800030373536,8|0,0:0|0:0,0:0:0:0:
413,186,53750,2,0,P|465:191|507:230,1,113.679998959229,8|4,0:3|0:3,0:0:0:0:
274,378,54250,54,0,P|259:300|297:242,1,146.159995539551,10|0,0:0|0:0,0:0:0:0:
302,232,54583,2,0,L|294:202,4,30.159999815918,0|0|0|0|2,0:0|0:0|0:0|0:0|2:1,0:0:0:0:
94,45,56750,38,0,P|122:75|126:130,1,97.4400011894531,8|0,0:3|0:0,0:0:0:0:
275,182,60750,54,0,P|235:169|196:180,1,83.5200020390626,8|0,0:3|0:0,0:0:0:0:
116,218,63750,38,0,L|103:266,1,47.560000725708
82,366,64083,1,0,0:0:0:0:
113,295,64249,1,0,0:0:0:0:
113,295,64583,1,0,0:0:0:0:
191,317,64749,6,0,B|294:328|266:228|386:244,1,213.439992834961,6|0,0:0|3:0,0:0:0:0:
395,126,65249,2,0,P|362:136|331:144,1,54.5199991680908,10|0,0:0|0:0,0:0:0:0:
469,303,65583,1,2,0:0:0:0:
469,303,65750,2,0,P|476:269|485:238,1,54.5199991680908,8|0,0:3|0:0,0:0:0:0:
286,293,66083,1,0,3:0:0:0:
286,293,66250,2,0,P|311:316|333:339,1,54.5199991680908,10|0,0:0|0:0,0:0:0:0:
380,243,66583,1,2,0:0:0:0:
246,123,66750,54,0,P|166:120|50:18,1,213.439992834961,8|0,0:3|0:0,0:0:0:0:
80,310,67250,2,0,L|98:256,1,48.7199985131836,10|0,0:0|0:0,0:0:0:0:
119,185,67583,1,0,0:0:0:0:
2,273,67750,1,10,0:3:0:0:
140,376,67916,1,4,0:3:0:0:
43,113,68083,1,4,0:3:0:0:
7,357,68250,1,2,0:0:0:0:
7,357,68583,5,0,0:0:0:0:
286,213,68750,54,0,P|220:234|179:244,1,97.4399970263673,8|0,0:3|0:0,0:0:0:0:
119,185,69250,2,0,P|110:151|122:185,1,106.719996417481,10|0,0:0|0:0,0:0:0:0:
272,325,69583,1,2,0:0:0:0:
272,325,69750,2,0,P|260:360|262:323,1,106.719996417481,8|0,0:3|0:0,0:0:0:0:
313,116,70083,1,0,0:0:0:0:
313,116,70250,2,0,P|349:108|316:124,1,106.719996417481,10|0,0:0|0:0,0:0:0:0:
286,213,70583,1,2,0:0:0:0:
34,62,70750,6,0,L|43:115,1,51.0400015576172,8|0,0:3|3:0,0:0:0:0:
109,310,71250,54,0,B|185:283|185:283|206:239|206:239|286:213,1,213.439992834961,10|0,0:0|0:0,0:0:0:0:
363,153,71750,22,0,P|375:198|384:249,1,85.8400020957032,2|0,0:0|0:0,0:0:0:0:
232,374,72250,1,0,0:0:0:0:
232,374,72583,2,0,P|220:329|211:278,1,93.9600022939454,0|0,0:0|0:0,0:0:0:0:
423,53,73250,5,8,0:0:0:0:
419,335,74250,5,8,0:0:0:0:
222,142,75250,37,8,0:0:0:0:
76,333,76250,5,8,0:0:0:0:
192,282,77250,5,8,0:0:0:0:
102,190,78125,37,0,0:0:0:0:
112,202,78250,2,0,P|138:166|139:138,1,70.470001720459,8|0,0:0|0:0,0:0:0:0:
64,123,78750,5,0,0:0:0:0:
396,35,79250,5,8,0:0:0:0:
317,327,80250,37,8,0:0:0:0:
325,95,80583,5,0,0:0:0:0:
345,178,80750,2,0,L|360:241,1,62.6400015292969,8|0,0:3|0:0,0:0:0:0:
317,327,81250,6,0,P|221:330|146:246,1,190.240002902832,8|0,0:0|0:0,0:0:0:0:
263,155,81750,2,0,P|214:165|170:174,1,85.8400020957032,8|4,0:3|0:3,0:0:0:0:
56,366,82250,2,0,P|48:321|67:272,1,85.8400020957032,8|0,0:0|0:0,0:0:0:0:
91,196,82750,38,0,P|111:130|27:23,1,190.240002902832,8|0,0:3|0:0,0:0:0:0:
154,269,83250,2,0,P|205:297|249:296,1,85.8400020957032,8|0,0:0|0:0,0:0:0:0:
409,116,83750,5,8,0:3:0:0:
345,178,83916,1,0,0:0:0:0:
325,95,84083,5,4,0:3:0:0:
458,354,84250,2,0,L|471:272,1,74.24,8|0,0:0|0:0,0:0:0:0:
431,205,84750,22,0,B|330:199|354:278|255:267,1,190.240002902832,8|0,0:3|0:0,0:0:0:0:
185,221,85250,2,0,P|170:178|181:132,1,85.8400020957032,8|0,0:0|0:0,0:0:0:0:
177,309,85750,53,0,0:0:0:0:
188,320,88750,22,0,B|205:281|175:242|175:242|170:251|170:251|154:189|192:146|270:156|273:225,1,281.880006881836,10|0,0:3|0:0,0:0:0:0:
266,239,89083,1,8,0:3:0:0:
341,295,89250,6,0,L|434:281,1,85.8400020957032,10|2,0:0|0:0,0:0:0:0:
374,198,89750,2,0,L|421:190,1,42.9200010478516,8|0,0:3|0:0,0:0:0:0:
353,201,90083,1,0,0:0:0:0:
484,110,90250,6,0,P|492:96|495:81,1,31.3200007646485,10|0,0:0|0:0,0:0:0:0:
279,116,90583,1,0,0:0:0:0:
353,201,90750,54,0,P|348:186|339:173,1,31.3200007646485,8|0,0:3|0:0,0:0:0:0:
215,342,91083,1,0,0:0:0:0:
323,359,91250,6,0,P|309:351|294:348,1,31.3200007646485,10|0,0:0|0:0,0:0:0:0:
139,111,92583,53,0,0:0:0:0:
269,153,92750,2,0,L|216:138,1,54.5199991680908,8|0,0:3|0:0,0:0:0:0:
0,372,93083,5,0,0:0:0:0:
77,346,93250,2,0,L|129:331,1,54.5199991680908,10|0,0:0|0:0,0:0:0:0:
180,229,93583,37,0,0:0:0:0:
211,310,93750,2,0,P|215:336|208:362,1,54.5199991680908,8|0,0:3|0:0,0:0:0:0:
180,229,94083,5,4,0:3:0:0:
94,251,94250,2,0,P|89:224|96:198,1,54.5199991680908,10|0,0:0|0:0,0:0:0:0:
366,83,94583,5,0,0:0:0:0:
355,173,94750,1,10,0:3:0:0:
269,153,94916,1,0,0:0:0:0:
418,1,95083,53,2,0:0:0:0:
293,246,95250,2,0,L|308:310,1,54.5199991680908,4|0,0:0|0:0,0:0:0:0:
280,63,95583,5,0,0:0:0:0:
417,254,95750,1,14,0:3:0:0:
417,254,95916,1,0,0:0:0:0:
485,182,96083,1,4,0:3:0:0:
485,182,96250,1,10,0:0:0:0:
197,95,96416,1,4,0:3:0:0:
132,377,96582,1,4,0:3:0:0:
417,254,96750,38,0,B|344:208|291:271|291:271|297:278|297:278|256:340|180:315,1,281.880006881836,10|0,0:3|0:0,0:0:0:0:
162,305,97083,1,0,0:0:0:0:
132,232,97250,6,0,L|72:246,1,54.5199991680908,10|0,0:0|0:0,0:0:0:0:
162,159,97583,1,0,0:0:0:0:
162,159,97750,6,0,L|222:145,1,54.5199991680908,8|2,0:3|0:0,0:0:0:0:
131,86,98083,1,4,0:3:0:0:
131,86,98250,38,0,L|77:73,1,54.5199991680908,10|0,0:0|0:0,0:0:0:0:
289,45,98583,1,0,0:0:0:0:
160,12,98750,6,0,L|213:24,1,54.5199991680908,8|0,0:3|0:0,0:0:0:0:
371,110,99083,1,0,0:0:0:0:
240,141,99250,6,0,L|293:128,1,54.5199991680908,8|2,0:0|0:0,0:0:0:0:
132,377,99583,1,0,0:0:0:0:
162,159,99750,1,10,0:3:0:0:
385,240,99916,1,4,0:3:0:0:
385,240,100083,1,2,0:0:0:0:
52,103,100250,37,10,0:0:0:0:
162,305,100416,1,4,0:3:0:0:
289,45,100583,1,4,0:3:0:0:
80,311,100750,6,0,P|65:280|63:244,1,55.68,10|0,0:3|0:0,0:0:0:0:
63,236,101083,1,2,0:0:0:0:
119,170,101250,6,0,L|228:146,1,95.120001451416,10|0,0:0|0:0,0:0:0:0:
339,321,101583,1,0,0:0:0:0:
385,240,101750,2,0,P|393:194|388:130,1,95.120001451416,8|2,0:3|0:0,0:0:0:0:
199,60,102083,37,0,0:0:0:0:
478,328,102250,2,0,L|418:313,1,42.9200010478516,10|0,0:0|0:0,0:0:0:0:
301,134,102583,5,0,0:0:0:0:
218,238,102750,2,0,P|210:284|214:345,1,89.3199982282105,10|0,0:3|0:0,0:0:0:0:
411,63,103083,1,0,0:0:0:0:
455,196,103250,6,0,P|388:140|300:133,1,178.639996456421,10|0,0:0|0:0,0:0:0:0:
211,149,103750,1,4,0:0:0:0:
112,86,103916,1,4,0:3:0:0:
251,312,104083,1,4,0:3:0:0:
270,48,104250,1,2,0:0:0:0:
100,249,104416,1,0,0:0:0:0:
356,187,104583,37,2,0:0:0:0:
356,187,104666,1,0,0:0:0:0:
356,187,104750,38,0,P|428:189|426:280,1,155.439992647339,4|0,1:0|3:0,0:0:0:0:
284,354,105250,1,10,0:0:0:0:
352,281,105416,2,0,P|362:328|375:369,1,83.5200020390625,0|0,0:0|3:0,0:0:0:0:
272,224,105750,1,10,0:3:0:0:
272,224,105916,2,0,L|179:202,1,83.5200020390625,0|0,0:0|3:0,0:0:0:0:
418,120,106250,1,10,0:0:0:0:
418,120,106416,2,0,L|511:98,1,83.5200020390625,0|2,0:0|0:0,0:0:0:0:
356,187,106750,54,0,P|302:141|339:74,1,151.380001270432,6|0,1:2|0:0,0:0:0:0:
490,281,107083,38,0,B|463:244|463:244|380:267,1,125.280003058594,8|0,1:3|0:0,0:0:0:0:
312,314,107416,22,0,P|306:346|316:384,1,73.0800017841797,10|2,1:3|0:0,0:0:0:0:
190,204,108750,22,0,B|100:187|122:262|37:251,1,167.040004078125,6|0,0:0|3:0,0:0:0:0:
154,37,109250,1,10,0:0:0:0:
154,37,109416,2,0,P|139:80|141:126,1,83.5200020390625,0|0,0:0|3:0,0:0:0:0:
267,267,109750,1,10,0:3:0:0:
267,267,109916,2,0,P|282:224|280:178,1,83.5200020390625,0|0,0:0|3:0,0:0:0:0:
32,370,110250,1,10,0:0:0:0:
101,321,110416,2,0,P|158:301|205:291,1,83.5200020390625,0|2,0:0|0:0,0:0:0:0:
391,76,110750,22,0,P|464:80|471:158,1,160.079994626221,2|0,3:2|0:0,0:0:0:0:
422,210,111083,6,0,P|368:198|261:185,1,142.680002177124,2|0,3:2|0:0,0:0:0:0:
460,279,111416,54,0,P|432:309|434:369,1,99.1799987893067,2|0,3:0|0:0,0:0:0:0:
443,378,111750,1,0,0:0:0:0:
251,103,111916,5,4,0:3:0:0:
181,153,112083,1,4,0:3:0:0:
175,68,112250,37,4,0:3:0:0:
259,297,112416,1,4,0:3:0:0:
336,141,112583,5,6,0:3:0:0:
107,225,112750,22,0,P|41:233|41:144,1,167.040004078125,4|0,1:0|0:0,0:0:0:0:
101,111,113250,2,0,P|155:128|205:140,1,83.5200020390625,10|0,0:0|0:0,0:0:0:0:
41,342,113583,1,0,3:0:0:0:
41,342,113750,2,0,P|95:325|145:313,1,83.5200020390625,10|0,0:3|0:0,0:0:0:0:
191,254,114083,1,0,3:0:0:0:
191,254,114250,2,0,P|211:298|211:341,1,83.5200020390625,10|0,0:0|0:0,0:0:0:0:
107,225,114583,1,2,0:0:0:0:
325,73,114750,54,0,B|390:64|390:64|411:173,1,168.780003991837,4|0,1:2|0:0,0:0:0:0:
510,287,115083,54,0,B|440:295|453:242|386:249,1,133.979997342316,8|0,1:3|0:0,0:0:0:0:
319,301,115416,54,0,P|313:330|320:356,1,56.8400006938477,10|2,1:3|0:3,0:0:0:0:
247,166,116750,38,0,B|185:182|185:182|160:215|160:215|100:233,1,167.040004078125,6|0,2:0|3:0,0:0:0:0:
190,367,117250,1,10,0:0:0:0:
190,367,117416,2,0,P|196:319|209:273,1,83.5200020390625,0|0,0:0|3:0,0:0:0:0:
172,93,117750,1,10,0:3:0:0:
172,93,117916,2,0,P|127:111|81:123,1,83.5200020390625,0|0,0:0|3:0,0:0:0:0:
14,277,118250,1,10,0:0:0:0:
14,277,118416,2,0,P|52:306|85:340,1,83.5200020390625,0|2,0:0|0:0,0:0:0:0:
417,145,118750,6,0,P|424:73|331:85,1,186.179994318237,2|0,0:0|0:0,0:0:0:0:
338,159,119083,6,0,P|271:145|207:135,1,132.239998385742,2|0,0:3|0:0,0:0:0:0:
366,232,119583,6,0,B|362:247|362:247|366:253|366:253|360:257|360:257|368:267|368:267|365:285,1,62.6400015292969,2|0,3:0|0:0,0:0:0:0:
354,374,120083,5,2,0:0:0:0:
470,212,120250,1,0,0:0:0:0:
308,96,120416,1,2,0:0:0:0:
192,258,120583,1,0,0:0:0:0:
256,193,120750,38,0,P|216:182|180:163,1,76.5600023364259,4|2,0:0|0:0,0:0:0:0:
128,323,121750,2,0,P|88:334|52:353,1,74.24,2|4,0:0|0:3,0:0:0:0:
105,201,122250,22,0,L|114:241,1,39.4400002407227,4|0,0:3|0:0,0:0:0:0:
270,276,122750,2,0,L|252:353,1,74.24,2|0,0:0|0:0,0:0:0:0:
339,228,123250,2,0,P|367:197|340:135,1,97.4399970263673,4|4,0:3|0:3,0:0:0:0:
276,155,123750,1,2,0:0:0:0:
280,166,123916,1,0,0:0:0:0:
329,347,124083,1,0,0:0:0:0:
510,298,124250,1,4,0:3:0:0:
461,117,124416,1,4,0:3:0:0:
270,276,124583,37,4,0:3:0:0:
139,23,124750,6,0,P|140:62|130:106,1,74.24,2|0,0:0|0:0,0:0:0:0:
69,140,125250,2,0,P|95:82|199:68,1,167.040004078125,4|0,0:3|0:0,0:0:0:0:
329,347,125750,2,0,P|329:319|338:282,1,62.6400015292969,2|0,0:0|0:0,0:0:0:0:
264,250,126250,2,0,P|290:308|410:311,1,190.240002902832,4|2,0:3|0:0,0:0:0:0:
327,68,126750,6,0,B|294:80|294:80|284:93|284:93|252:105,1,85.8400020957032,2|0,0:0|0:0,0:0:0:0:
194,161,127250,2,0,P|122:125|198:67,1,201.840001693909,2|0,0:0|0:3,0:0:0:0:
404,315,127750,37,2,0:0:0:0:
424,240,127916,1,4,0:3:0:0:
349,220,128083,1,4,0:3:0:0:
329,295,128249,1,4,0:3:0:0:
492,202,128416,1,4,0:3:0:0:
296,90,128583,1,4,0:3:0:0:
438,8,128749,6,0,L|430:65,1,51.0400015576172,4|0,0:0|0:0,0:0:0:0:
419,131,129249,2,0,B|326:125|345:193|249:185,1,178.639996456421,10|0,0:0|0:0,0:0:0:0:
74,345,129749,2,0,P|61:327|79:339,1,62.6400015292969,2|0,0:0|0:0,0:0:0:0:
151,370,130249,2,0,B|203:325|203:325|166:209,1,190.240002902832,8|4,0:0|0:3,0:0:0:0:
53,86,130749,54,0,B|38:131|38:131|58:149,1,74.24,2|0,0:0|0:0,0:0:0:0:
85,222,131250,2,0,P|112:145|223:149,1,201.840001693909,10|0,0:0|0:0,0:0:0:0:
442,338,131750,5,2,0:0:0:0:
385,286,131916,1,0,0:0:0:0:
448,215,132083,5,4,0:3:0:0:
275,358,132250,1,12,0:3:0:0:
218,145,132416,1,4,0:3:0:0:
391,2,132583,1,4,0:3:0:0:
245,256,132750,38,0,L|140:233,1,83.5200020390625,4|0,0:0|0:0,0:0:0:0:
94,274,133083,1,0,0:0:0:0:
279,93,133250,6,0,P|300:140|290:176,1,83.5200020390625,10|0,0:0|0:0,0:0:0:0:
218,145,133583,1,0,0:0:0:0:
12,5,133750,6,0,P|58:18|117:28,1,83.5200020390625,2|0,1:2|0:0,0:0:0:0:
152,76,134083,1,0,0:0:0:0:
94,274,134250,38,0,P|58:240|85:202,1,83.5200020390625,8|0,0:0|0:0,0:0:0:0:
131,170,134583,1,0,0:0:0:0:
353,371,134750,6,0,P|363:326|378:275,1,83.5200020390625,4|0,0:0|0:0,0:0:0:0:
437,343,135083,1,0,0:0:0:0:
218,145,135250,54,0,P|258:156|299:165,1,83.5200020390625,10|0,1:2|0:0,0:0:0:0:
299,165,136750,6,0,B|303:143|323:119|323:119|293:121|293:121|298:124|298:124|241:129|241:129|245:131|245:131|197:136|197:136|228:235|228:235|232:234|232:234|258:312,1,388.599981618348,10|0,0:3|0:0,0:0:0:0:
282,384,137250,2,0,P|334:365|376:353,1,83.5200020390625,8|0,0:0|0:0,0:0:0:0:
163,270,137583,1,0,0:0:0:0:
91,244,137750,2,0,P|51:231|12:216,1,83.5200020390625,8|0,0:3|0:0,0:0:0:0:
216,62,138083,1,4,0:3:0:0:
182,193,138250,6,0,L|196:137,2,57.4199998247681,8|0|0,0:0|0:0|0:0,0:0:0:0:
163,270,138583,1,4,0:3:0:0:
62,55,138750,6,0,P|112:75|152:86,1,84.6800023258057,8|0,0:3|0:0,0:0:0:0:
418,251,139083,1,0,0:0:0:0:
348,216,139250,6,0,P|308:199|267:187,1,85.8400020957032,8|0,0:0|0:0,0:0:0:0:
1,344,139750,38,0,B|44:316|95:335|95:335|113:282|163:269,1,197.200001203613,2|0,0:0|0:0,0:0:0:0:
62,167,140750,2,0,P|48:190|48:226,1,62.6400015292969,8|0,0:3|0:0,0:0:0:0:
54,247,141083,1,0,0:0:0:0:
233,328,141250,6,0,P|247:305|242:241,1,85.8400020957032,10|0,0:0|0:0,0:0:0:0:
211,176,141583,1,4,0:3:0:0:
419,20,141750,2,0,L|357:35,2,51.0400015576172,8|0|4,0:3|0:0|0:3,0:0:0:0:
276,5,142250,6,0,L|320:232,1,206.480000157532,8|0,0:0|0:0,0:0:0:0:
499,376,142750,2,0,L|482:291,2,85.8400020957032,10|0|0,0:3|0:0|0:0,0:0:0:0:
410,206,143250,1,10,0:0:0:0:
391,282,143416,1,0,0:0:0:0:
372,358,143583,1,0,0:0:0:0:
478,166,143750,37,2,0:0:0:0:
438,98,143916,1,4,0:3:0:0:
370,138,144083,1,4,0:3:0:0:
499,376,144250,5,4,0:3:0:0:
315,207,144416,1,4,0:3:0:0:
506,58,144583,1,4,0:3:0:0:
372,358,144750,6,0,P|369:341|382:358,1,55.680001359375,10|0,0:3|0:0,0:0:0:0:
304,291,145250,2,0,B|221:312|221:312|240:168,1,229.679999299072,8|4,0:0|0:3,0:0:0:0:
15,242,145750,38,0,L|63:232,1,44.0799994619141,8|4,0:3|0:3,0:0:0:0:
134,253,146250,2,0,P|183:230|96:171,1,218.079996672363,8|4,0:0|0:3,0:0:0:0:
292,378,146750,6,0,L|303:290,2,88.1599989238281,10|0|0,0:3|0:0|0:0,0:0:0:0:
384,117,147250,2,0,P|404:111|389:128,1,55.680001359375,10|0,0:0|0:0,0:0:0:0:
317,155,147750,5,4,0:3:0:0:
487,329,147916,5,4,0:3:0:0:
316,272,148083,5,4,0:3:0:0:
145,215,148250,5,4,0:3:0:0:
317,155,148416,5,4,0:3:0:0:
292,378,148583,1,4,0:3:0:0:
198,314,148750,6,0,B|95:291|117:381|20:364,1,194.879994052735,10|0,0:3|0:0,0:0:0:0:
126,126,149250,2,0,P|137:172|145:222,1,90.4800030373536,10|4,0:0|0:3,0:0:0:0:
2,224,149750,38,0,P|45:228|73:260,1,78.8800004814453,10|4,0:3|0:3,0:0:0:0:
273,81,150250,2,0,P|272:127|243:163,1,93.9600022939454,10|0,0:0|0:0,0:0:0:0:
225,170,150583,2,0,P|219:147|215:122,4,30.159999815918,0|0|0|0|2,0:0|0:0|0:0|0:0|0:1,0:0:0:0:
225,170,152750,38,0,B|236:168|236:168|236:171|236:171|346:151|346:151|346:149|346:149|337:174,1,153.120004672852,6|0,1:0|0:0,0:0:0:0:
198,314,155750,5,4,0:3:0:0:
162,233,155916,1,4,0:3:0:0:
286,344,156083,5,4,0:3:0:0:
75,258,156250,1,4,0:3:0:0:
242,104,156416,1,4,0:3:0:0:
453,190,156583,1,4,0:3:0:0:
373,218,156750,38,0,B|370:203|377:191|377:191|369:171|369:171|382:159|386:143,1,83.5200020390626,6|0,1:0|0:0,0:0:0:0:
132,333,159750,6,0,L|178:319,1,35.9599985733643
308,279,160083,5,0,0:0:0:0:
247,343,160250,1,0,0:0:0:0:
225,261,160583,37,0,0:0:0:0:
187,124,160750,38,0,P|214:62|332:78,1,169.360004651611,4|2,1:3|0:3,0:0:0:0:
384,105,161250,2,0,P|371:156|366:198,1,84.6800023258057,8|0,0:0|0:0,0:0:0:0:
230,336,161583,5,0,3:0:0:0:
325,361,161750,2,0,P|318:319|307:278,1,84.6800023258057,10|0,0:3|0:0,0:0:0:0:
187,124,162083,53,0,0:0:0:0:
184,213,162250,2,0,P|240:200|268:166,1,84.6800023258057,10|0,0:0|0:0,0:0:0:0:
5,329,162583,5,2,0:0:0:0:
79,280,162750,2,0,B|102:170|102:170|52:139,1,169.360004651611,14|0,0:3|0:0,0:0:0:0:
206,41,163250,54,0,P|192:97|185:133,1,84.6800023258057,10|0,0:0|0:0,0:0:0:0:
401,355,163583,1,0,0:0:0:0:
386,270,163750,2,0,P|377:228|366:187,1,84.6800023258057,12|4,0:3|0:3,0:0:0:0:
288,117,164083,5,4,0:3:0:0:
230,336,164250,53,2,0:0:0:0:
448,62,164750,6,0,B|348:51|376:124|285:117,1,176.319997847656,4|0,1:0|0:0,0:0:0:0:
348,274,165250,2,0,P|357:229|369:179,1,88.1599989238281,10|0,0:0|0:0,0:0:0:0:
202,45,165583,53,0,3:0:0:0:
286,19,165750,2,0,P|242:33|193:48,1,88.1599989238281,10|0,0:3|0:0,0:0:0:0:
226,236,166083,5,0,0:0:0:0:
161,177,166250,2,0,P|195:207|232:242,1,88.1599989238281,10|0,0:0|0:0,0:0:0:0:
0,243,166583,53,0,3:0:0:0:
112,375,166750,2,0,P|148:331|76:249,1,176.319997847656,10|0,0:3|0:0,0:0:0:0:
0,242,167250,2,0,P|7:199|12:155,2,88.1599989238281,10|0|0,0:0|0:0|0:0,0:0:0:0:
230,336,167750,5,2,0:0:0:0:
230,336,168750,54,0,L|282:322,1,48.7199985131836,8|0,0:3|3:3,0:0:0:0:
356,339,169250,2,0,P|380:284|292:254,1,167.040004078125,8|0,0:0|3:0,0:0:0:0:
495,112,169750,6,0,L|435:95,1,62.6400015292969,8|0,0:3|3:0,0:0:0:0:
351,69,170250,2,0,P|407:12|504:39,1,178.639996456421,8|2,0:0|0:0,0:0:0:0:
277,323,170750,54,0,L|260:255,1,64.9600007929688,8|0,0:3|3:0,0:0:0:0:
237,178,171250,2,0,B|139:169|164:241|69:237,1,180.960006074707,8|0,0:0|3:0,0:0:0:0:
196,35,171750,6,0,P|183:66|191:106,1,71.9199971467286,8|0,0:3|3:0,0:0:0:0:
237,178,172250,2,0,P|268:191|386:107,1,187.920004587891,8|2,0:0|0:0,0:0:0:0:
93,333,172750,54,0,P|100:304|108:252,1,74.24,8|0,0:3|3:0,0:0:0:0:
57,185,173250,2,0,B|128:170|128:170|166:194|166:194|240:177,1,190.240002902832,8|0,0:0|3:0,0:0:0:0:
172,17,173750,6,0,P|177:53|191:104,1,83.5200020390625,8|0,0:3|3:0,0:0:0:0:
237,178,174250,2,0,P|297:146|378:240,1,199.520003044434,8|2,0:0|0:0,0:0:0:0:
340,304,174750,54,0,L|245:277,1,84.6800023258057,14|0,0:3|0:0,0:0:0:0:
194,348,175083,1,0,3:0:0:0:
465,221,175250,6,0,P|479:181|463:115,1,84.6800023258057,8|0,0:0|0:0,0:0:0:0:
434,62,175583,1,0,0:0:0:0:
431,302,175750,54,0,P|441:344|450:386,1,84.6800023258057,12|4,0:3|0:3,0:0:0:0:
237,178,176083,1,0,3:0:0:0:
327,176,176250,5,10,0:0:0:0:
297,251,176416,1,4,0:3:0:0:
119,52,176583,1,4,0:3:0:0:
237,178,176750,54,0,P|241:139|245:73,1,88.1599989238281,10|0,0:3|3:0,0:0:0:0:
158,132,177250,2,0,P|80:149|52:267,1,204.160006230469,8|0,0:0|3:0,0:0:0:0:
279,343,177750,6,0,L|373:321,1,84.6800023258057,8|0,0:3|0:0,0:0:0:0:
443,299,178083,1,0,3:0:0:0:
273,117,178250,54,0,P|297:162|337:177,1,84.6800023258057,8|0,0:0|0:0,0:0:0:0:
359,88,178583,1,2,0:0:0:0:
205,266,178750,5,8,0:3:0:0:
158,132,178916,1,0,0:0:0:0:
241,180,179083,53,0,3:0:0:0:
122,218,179250,5,8,0:0:0:0:
3,256,179416,53,0,0:0:0:0:
7,268,179583,5,0,3:0:0:0:
241,169,179750,6,0,P|247:132|252:66,1,88.1599989238281
151,0,180333,1,0,0:0:0:0:
334,131,180666,6,0,P|381:138|415:191,1,110.199998654785
315,331,181333,1,0,0:0:0:0:
315,331,181833,2,0,P|306:293|299:255,1,77.1399990583496
146,185,182291,2,0,P|154:149|158:125,1,55.0999993273926
162,111,182625,1,0,0:0:0:0:
