osu file format v14

[General]
AudioFilename: audio.mp3
AudioLeadIn: 0
PreviewTime: 60750
Countdown: 0
SampleSet: Soft
StackLeniency: 0.6
Mode: 0
LetterboxInBreaks: 0
EpilepsyWarning: 1
WidescreenStoryboard: 1

[Editor]
Bookmarks: 750,8750,24750,40750,56750,73250,88750,104750,120750,136750,152750,168750,182583
DistanceSpacing: 1.7
BeatDivisor: 12
GridSize: 32
TimelineZoom: 1.8

[Metadata]
Title:bury a friend
TitleUnicode:bury a friend
Artist:Billie Eilish
ArtistUnicode:Billie Eilish
Creator:Haruto
Version:ayyri's hard
Source:
Tags:haruto_aizawa tomadoi shiinoha kotone ayyri eiri- fatfan kolek trynna nerova riuz gx nrg mao deep indie pop finneas when we all fall asleep, where do we go? the society netflix series
BeatmapID:2108396
BeatmapSetID:919644

[Difficulty]
HPDrainRate:5
CircleSize:3.8
OverallDifficulty:6
ApproachRate:8
SliderMultiplier:1.4
SliderTickRate:1

[Events]
//Background and Video events
0,0,"creepy billie.jpg",0,0
//Break Periods
//Storyboard Layer 0 (Background)
//Storyboard Layer 1 (Fail)
//Storyboard Layer 2 (Pass)
//Storyboard Layer 3 (Foreground)
Sprite,Foreground,Centre,"sb\s3.png",509.4092,347.5383 S,0,750,,0.5 R,0,750,,1.756945 C,0,750,,127,127,127 F,0,750,1250,1,0
Sprite,Foreground,Centre,"sb\s3.png",413.9969,353.6001 S,0,1083,,0.5 R,0,1083,,1.786808 C,0,1083,,127,127,127 F,0,1083,1583,1,0
Sprite,Foreground,Centre,"sb\s3.png",432.1044,318.1178 S,0,1250,,0.5 R,0,1250,,5.180721 C,0,1250,,127,127,127 F,0,1250,1750,1,0
Sprite,Foreground,Centre,"sb\s1.png",439.4348,203.9148 S,0,1750,,0.5 R,0,1750,,1.827245 C,0,1750,,127,127,127 F,0,1750,2250,1,0
Sprite,Foreground,Centre,"sb\s0.png",377.3614,61.18391 S,0,2083,,0.5 R,0,2083,,5.761888 C,0,2083,,127,127,127 F,0,2083,2583,1,0
Sprite,Foreground,Centre,"sb\s1.png",316.0993,97.28414 S,0,2250,,0.5 R,0,2250,,4.433195 C,0,2250,,127,127,127 F,0,2250,2750,1,0
Sprite,Foreground,Centre,"sb\s2.png",125.077,184.5121 S,0,2750,,0.5 R,0,2750,,3.088815 C,0,2750,,127,127,127 F,0,2750,3250,1,0
Sprite,Foreground,Centre,"sb\s2.png",99.39587,123.3274 S,0,3083,,0.5 R,0,3083,,0.9848154 C,0,3083,,127,127,127 F,0,3083,3583,1,0
Sprite,Foreground,Centre,"sb\s1.png",69.0535,53.69719 S,0,3250,,0.5 R,0,3250,,2.714159 C,0,3250,,127,127,127 F,0,3250,3750,1,0
Sprite,Foreground,Centre,"sb\s0.png",22.69292,297.0443 S,0,3750,,0.5 R,0,3750,,5.397222 C,0,3750,,127,127,127 F,0,3750,4250,1,0
Sprite,Foreground,Centre,"sb\s1.png",86.37009,197.6153 S,0,3916,,0.5 R,0,3916,,5.374962 C,0,3916,,127,127,127 F,0,3916,4416,1,0
Sprite,Foreground,Centre,"sb\s2.png",16.68592,337.3219 S,0,4250,,0.5 R,0,4250,,1.823105 C,0,4250,,127,127,127 F,0,4250,4750,1,0
Sprite,Foreground,Centre,"sb\s3.png",100.168,333.9688 S,0,4416,,0.5 R,0,4416,,0.4332502 C,0,4416,,127,127,127 F,0,4416,4916,1,0
Sprite,Foreground,Centre,"sb\s3.png",164.9823,299.6473 S,0,4583,,0.5 R,0,4583,,2.654644 C,0,4583,,127,127,127 F,0,4583,5083,1,0
Sprite,Foreground,Centre,"sb\s0.png",191.226,333.834 S,0,4750,,0.5 R,0,4750,,5.222041 C,0,4750,,127,127,127 F,0,4750,5250,1,0
Sprite,Foreground,Centre,"sb\s2.png",168.6753,433.7764 S,0,5250,,0.5 R,0,5250,,0.4712053 C,0,5250,,127,127,127 F,0,5250,5750,1,0
Sprite,Foreground,Centre,"sb\s3.png",291.0553,375.5689 S,0,5583,,0.5 R,0,5583,,5.242269 C,0,5583,,127,127,127 F,0,5583,6083,1,0
Sprite,Foreground,Centre,"sb\s1.png",295.6224,326.9783 S,0,5750,,0.5 R,0,5750,,5.727072 C,0,5750,,127,127,127 F,0,5750,6250,1,0
Sprite,Foreground,Centre,"sb\s0.png",383.2326,434.1832 S,0,6083,,0.5 R,0,6083,,3.922503 C,0,6083,,127,127,127 F,0,6083,6583,1,0
Sprite,Foreground,Centre,"sb\s1.png",419.7863,385.1012 S,0,6250,,0.5 R,0,6250,,3.694921 C,0,6250,,127,127,127 F,0,6250,6750,1,0
Sprite,Foreground,Centre,"sb\s2.png",558.3721,416.7338 S,0,6750,,0.5 R,0,6750,,2.182233 C,0,6750,,127,127,127 F,0,6750,7250,1,0
Sprite,Foreground,Centre,"sb\s1.png",538.5013,259.2424 S,0,7083,,0.5 R,0,7083,,0.04857548 C,0,7083,,127,127,127 F,0,7083,7583,1,0
Sprite,Foreground,Centre,"sb\s0.png",551.6172,290.1674 S,0,7250,,0.5 R,0,7250,,4.075238 C,0,7250,,127,127,127 F,0,7250,7750,1,0
Sprite,Foreground,Centre,"sb\s2.png",471.6618,166.4665 S,0,8750,,0.5 R,0,8750,,5.719748 C,0,8750,,127,127,127 F,0,8750,9250,1,0
Sprite,Foreground,Centre,"sb\s3.png",326.016,251.7208 S,0,9250,,0.5 R,0,9250,,0.1549103 C,0,9250,,127,127,127 F,0,9250,9750,1,0
Sprite,Foreground,Centre,"sb\s2.png",305.5273,332.4024 S,0,9583,,0.5 R,0,9583,,2.874981 C,0,9583,,127,127,127 F,0,9583,10083,1,0
Sprite,Foreground,Centre,"sb\s0.png",302.2979,219.5091 S,0,9750,,0.5 R,0,9750,,4.054004 C,0,9750,,127,127,127 F,0,9750,10250,1,0
Sprite,Foreground,Centre,"sb\s3.png",181.7388,279.596 S,0,10250,,0.5 R,0,10250,,2.470996 C,0,10250,,127,127,127 F,0,10250,10750,1,0
Sprite,Foreground,Centre,"sb\s1.png",158.5616,182.6274 S,0,10583,,0.5 R,0,10583,,1.036369 C,0,10583,,127,127,127 F,0,10583,11083,1,0
Sprite,Foreground,Centre,"sb\s3.png",68.32034,266.1723 S,0,10750,,0.5 R,0,10750,,1.044369 C,0,10750,,127,127,127 F,0,10750,11250,1,0
Sprite,Foreground,Centre,"sb\s1.png",107.5794,87.38847 S,0,11250,,0.5 R,0,11250,,3.491112 C,0,11250,,127,127,127 F,0,11250,11750,1,0
Sprite,Foreground,Centre,"sb\s0.png",213.9582,105.812 S,0,11583,,0.5 R,0,11583,,5.579039 C,0,11583,,127,127,127 F,0,11583,12083,1,0
Sprite,Foreground,Centre,"sb\s0.png",241.6614,140.3149 S,0,11750,,0.5 R,0,11750,,1.299244 C,0,11750,,127,127,127 F,0,11750,12250,1,0
Sprite,Foreground,Centre,"sb\s2.png",278.9454,200.1553 S,0,12083,,0.5 R,0,12083,,0.3547942 C,0,12083,,127,127,127 F,0,12083,12583,1,0
Sprite,Foreground,Centre,"sb\s2.png",264.1652,96.26633 S,0,12250,,0.5 R,0,12250,,4.227854 C,0,12250,,127,127,127 F,0,12250,12750,1,0
Sprite,Foreground,Centre,"sb\s2.png",298.6549,163.1905 S,0,12750,,0.5 R,0,12750,,3.321614 C,0,12750,,127,127,127 F,0,12750,13250,1,0
Sprite,Foreground,Centre,"sb\s2.png",303.8286,267.8953 S,0,13083,,0.5 R,0,13083,,3.548887 C,0,13083,,127,127,127 F,0,13083,13583,1,0
Sprite,Foreground,Centre,"sb\s3.png",303.3538,356.5803 S,0,13250,,0.5 R,0,13250,,4.480369 C,0,13250,,127,127,127 F,0,13250,13750,1,0
Sprite,Foreground,Centre,"sb\s1.png",302.4451,416.3429 S,0,13750,,0.5 R,0,13750,,1.204489 C,0,13750,,127,127,127 F,0,13750,14250,1,0
Sprite,Foreground,Centre,"sb\s3.png",361.2821,405.1136 S,0,14083,,0.5 R,0,14083,,4.920105 C,0,14083,,127,127,127 F,0,14083,14583,1,0
Sprite,Foreground,Centre,"sb\s0.png",333.8538,422.8214 S,0,14250,,0.5 R,0,14250,,0.8412453 C,0,14250,,127,127,127 F,0,14250,14750,1,0
Sprite,Foreground,Centre,"sb\s0.png",541.1281,416.2733 S,0,14583,,0.5 R,0,14583,,1.383253 C,0,14583,,127,127,127 F,0,14583,15083,1,0
Sprite,Foreground,Centre,"sb\s0.png",440.3996,394.1431 S,0,14750,,0.5 R,0,14750,,5.683155 C,0,14750,,127,127,127 F,0,14750,15250,1,0
Sprite,Foreground,Centre,"sb\s0.png",282.0432,307.2835 S,0,15750,,0.5 R,0,15750,,5.211019 C,0,15750,,127,127,127 F,0,15750,16250,1,0
Sprite,Foreground,Centre,"sb\s0.png",161.7211,307.0992 S,0,16083,,0.5 R,0,16083,,0.8161438 C,0,16083,,127,127,127 F,0,16083,16583,1,0
Sprite,Foreground,Centre,"sb\s0.png",251.5146,315.6209 S,0,16250,,0.5 R,0,16250,,1.149253 C,0,16250,,127,127,127 F,0,16250,16750,1,0
Sprite,Foreground,Centre,"sb\s2.png",182.0416,365.6243 S,0,16583,,0.5 R,0,16583,,5.282802 C,0,16583,,127,127,127 F,0,16583,17083,1,0
Sprite,Foreground,Centre,"sb\s1.png",160.6177,258.089 S,0,16750,,0.5 R,0,16750,,1.457286 C,0,16750,,127,127,127 F,0,16750,17250,1,0
Sprite,Foreground,Centre,"sb\s2.png",101.0348,185.6432 S,0,17083,,0.5 R,0,17083,,3.197474 C,0,17083,,127,127,127 F,0,17083,17583,1,0
Sprite,Foreground,Centre,"sb\s0.png",68.05275,189.2435 S,0,17250,,0.5 R,0,17250,,5.148932 C,0,17250,,127,127,127 F,0,17250,17750,1,0
Sprite,Foreground,Centre,"sb\s1.png",206.7159,152.891 S,0,17750,,0.5 R,0,17750,,5.479856 C,0,17750,,127,127,127 F,0,17750,18250,1,0
Sprite,Foreground,Centre,"sb\s1.png",269.804,261.2193 S,0,18083,,0.5 R,0,18083,,1.021045 C,0,18083,,127,127,127 F,0,18083,18583,1,0
Sprite,Foreground,Centre,"sb\s1.png",371.1849,312.1487 S,0,18250,,0.5 R,0,18250,,5.665555 C,0,18250,,127,127,127 F,0,18250,18750,1,0
Sprite,Foreground,Centre,"sb\s2.png",402.4873,236.1686 S,0,18583,,0.5 R,0,18583,,2.747485 C,0,18583,,127,127,127 F,0,18583,19083,1,0
Sprite,Foreground,Centre,"sb\s0.png",413.4089,214.0566 S,0,18750,,0.5 R,0,18750,,0.902338 C,0,18750,,127,127,127 F,0,18750,19250,1,0
Sprite,Foreground,Centre,"sb\s3.png",498.6529,404.5769 S,0,19250,,0.5 R,0,19250,,1.904032 C,0,19250,,127,127,127 F,0,19250,19750,1,0
Sprite,Foreground,Centre,"sb\s0.png",517.4555,251.7247 S,0,19583,,0.5 R,0,19583,,5.106033 C,0,19583,,127,127,127 F,0,19583,20083,1,0
Sprite,Foreground,Centre,"sb\s2.png",602.145,327.3244 S,0,19750,,0.5 R,0,19750,,0.9491606 C,0,19750,,127,127,127 F,0,19750,20250,1,0
Sprite,Foreground,Centre,"sb\s2.png",483.206,231.071 S,0,20083,,0.5 R,0,20083,,0.7042591 C,0,20083,,127,127,127 F,0,20083,20583,1,0
Sprite,Foreground,Centre,"sb\s1.png",484.9862,216.2017 S,0,20250,,0.5 R,0,20250,,3.940593 C,0,20250,,127,127,127 F,0,20250,20750,1,0
Sprite,Foreground,Centre,"sb\s1.png",594.8237,130.4587 S,0,20750,,0.5 R,0,20750,,3.898402 C,0,20750,,127,127,127 F,0,20750,21250,1,0
Sprite,Foreground,Centre,"sb\s3.png",418.6712,219.5047 S,0,21083,,0.5 R,0,21083,,3.316552 C,0,21083,,127,127,127 F,0,21083,21583,1,0
Sprite,Foreground,Centre,"sb\s2.png",398.6719,162.9055 S,0,21250,,0.5 R,0,21250,,4.880494 C,0,21250,,127,127,127 F,0,21250,21750,1,0
Sprite,Foreground,Centre,"sb\s2.png",302.8612,269.3894 S,0,21750,,0.5 R,0,21750,,2.351408 C,0,21750,,127,127,127 F,0,21750,22250,1,0
Sprite,Foreground,Centre,"sb\s1.png",269.1024,115.3241 S,0,25250,,0.5 R,0,25250,,0.6752045 C,0,25250,,127,127,127 F,0,25250,25750,1,0
Sprite,Foreground,Centre,"sb\s3.png",128.2,129.4006 S,0,26000,,0.5 R,0,26000,,2.013398 C,0,26000,,127,127,127 F,0,26000,26500,1,0
Sprite,Foreground,Centre,"sb\s0.png",135.8126,105.9401 S,0,26125,,0.5 R,0,26125,,3.140461 C,0,26125,,127,127,127 F,0,26125,26625,1,0
Sprite,Foreground,Centre,"sb\s1.png",97.82159,90.3477 S,0,26250,,0.5 R,0,26250,,1.288384 C,0,26250,,127,127,127 F,0,26250,26750,1,0
Sprite,Foreground,Centre,"sb\s2.png",145.7795,319.56 S,0,26750,,0.5 R,0,26750,,1.555089 C,0,26750,,127,127,127 F,0,26750,27250,1,0
Sprite,Foreground,Centre,"sb\s1.png",164.1593,228.3197 S,0,27083,,0.5 R,0,27083,,5.529175 C,0,27083,,127,127,127 F,0,27083,27500,1,0
Sprite,Foreground,Centre,"sb\s2.png",232.1605,174.1531 S,0,27250,,0.5 R,0,27250,,4.355428 C,0,27250,,127,127,127 F,0,27250,27500,1,0
Sprite,Foreground,Centre,"sb\s2.png",333.8998,333.34 S,0,28750,,0.5 R,0,28750,,1.84649 C,0,28750,,127,127,127 F,0,28750,29250,1,0
Sprite,Foreground,Centre,"sb\s0.png",421.1685,358.2081 S,0,29250,,0.5 R,0,29250,,0.4182833 C,0,29250,,127,127,127 F,0,29250,29750,1,0
Sprite,Foreground,Centre,"sb\s0.png",430.4466,202.1978 S,0,29750,,0.5 R,0,29750,,3.859361 C,0,29750,,127,127,127 F,0,29750,30250,1,0
Sprite,Foreground,Centre,"sb\s1.png",288.4421,202.5572 S,0,30000,,0.5 R,0,30000,,6.217227 C,0,30000,,127,127,127 F,0,30000,30500,1,0
Sprite,Foreground,Centre,"sb\s3.png",288.5277,158.1479 S,0,30125,,0.5 R,0,30125,,1.376633 C,0,30125,,127,127,127 F,0,30125,30625,1,0
Sprite,Foreground,Centre,"sb\s3.png",269.6588,164.2174 S,0,30250,,0.5 R,0,30250,,5.164811 C,0,30250,,127,127,127 F,0,30250,30750,1,0
Sprite,Foreground,Centre,"sb\s2.png",194.7094,89.70828 S,0,30750,,0.5 R,0,30750,,1.128012 C,0,30750,,127,127,127 F,0,30750,31250,1,0
Sprite,Foreground,Centre,"sb\s2.png",289.6846,187.8043 S,0,31250,,0.5 R,0,31250,,1.370459 C,0,31250,,127,127,127 F,0,31250,31750,1,0
Sprite,Foreground,Centre,"sb\s2.png",217.6725,311.7771 S,0,31583,,0.5 R,0,31583,,0.4889405 C,0,31583,,127,127,127 F,0,31583,32083,1,0
Sprite,Foreground,Centre,"sb\s1.png",245.3238,275.1604 S,0,31750,,0.5 R,0,31750,,5.313607 C,0,31750,,127,127,127 F,0,31750,32250,1,0
Sprite,Foreground,Centre,"sb\s2.png",23.8265,377.5846 S,0,32083,,0.5 R,0,32083,,5.633299 C,0,32083,,127,127,127 F,0,32083,32583,1,0
Sprite,Foreground,Centre,"sb\s0.png",33.93772,374.2569 S,0,32249,,0.5 R,0,32249,,1.018668 C,0,32249,,127,127,127 F,0,32249,32749,1,0
Sprite,Foreground,Centre,"sb\s2.png",96.66338,468.9084 F,0,32750,,1,0 S,0,32750,,0.5 R,0,32750,,2.622401 C,0,32750,,127,127,127
Sprite,Foreground,Centre,"sb\s1.png",288.1086,467.4038 S,0,33250,,0.5 R,0,33250,,4.200938 C,0,33250,,127,127,127 F,0,33250,33750,1,0
Sprite,Foreground,Centre,"sb\s3.png",328.1233,351.3151 S,0,33583,,0.5 R,0,33583,,3.834073 C,0,33583,,127,127,127 F,0,33583,34083,1,0
Sprite,Foreground,Centre,"sb\s1.png",320.2284,301.7385 S,0,33750,,0.5 R,0,33750,,1.618779 C,0,33750,,127,127,127 F,0,33750,34250,1,0
Sprite,Foreground,Centre,"sb\s0.png",356.2791,412.5753 S,0,34250,,0.5 R,0,34250,,3.178437 C,0,34250,,127,127,127 F,0,34250,34750,1,0
Sprite,Foreground,Centre,"sb\s2.png",457.5965,329.1837 S,0,34583,,0.5 R,0,34583,,5.615955 C,0,34583,,127,127,127 F,0,34583,35083,1,0
Sprite,Foreground,Centre,"sb\s3.png",442.9,306.431 S,0,34750,,0.5 R,0,34750,,4.73682 C,0,34750,,127,127,127 F,0,34750,35250,1,0
Sprite,Foreground,Centre,"sb\s0.png",431.4568,428.635 S,0,35250,,0.5 R,0,35250,,2.324951 C,0,35250,,127,127,127 F,0,35250,35750,1,0
Sprite,Foreground,Centre,"sb\s2.png",599.9561,348.3775 S,0,35583,,0.5 R,0,35583,,1.134868 C,0,35583,,127,127,127 F,0,35583,36083,1,0
Sprite,Foreground,Centre,"sb\s3.png",500.3812,368.9062 S,0,35750,,0.5 R,0,35750,,4.954798 C,0,35750,,127,127,127 F,0,35750,36250,1,0
Sprite,Foreground,Centre,"sb\s3.png",594.1962,209.2782 S,0,36083,,0.5 R,0,36083,,3.796875 C,0,36083,,127,127,127 F,0,36083,36583,1,0
Sprite,Foreground,Centre,"sb\s0.png",565.0533,214.7878 S,0,36250,,0.5 R,0,36250,,0.4606898 C,0,36250,,127,127,127 F,0,36250,36750,1,0
Sprite,Foreground,Centre,"sb\s2.png",420.6071,249.1184 S,0,36750,,0.5 R,0,36750,,3.352794 C,0,36750,,127,127,127 F,0,36750,37250,1,0
Sprite,Foreground,Centre,"sb\s0.png",303.5063,314.0871 S,0,37083,,0.5 R,0,37083,,0.7365859 C,0,37083,,127,127,127 F,0,37083,37583,1,0
Sprite,Foreground,Centre,"sb\s3.png",257.5011,310.0558 S,0,37250,,0.5 R,0,37250,,0.6927515 C,0,37250,,127,127,127 F,0,37250,37750,1,0
Sprite,Foreground,Centre,"sb\s1.png",110.9061,292.5067 S,0,37750,,0.5 R,0,37750,,2.563621 C,0,37750,,127,127,127 F,0,37750,38250,1,0
Sprite,Foreground,Centre,"sb\s3.png",131.9516,237.6546 S,0,38083,,0.5 R,0,38083,,4.000819 C,0,38083,,127,127,127 F,0,38083,38583,1,0
Sprite,Foreground,Centre,"sb\s0.png",106.6192,149.2012 S,0,38250,,0.5 R,0,38250,,0.5527771 C,0,38250,,127,127,127 F,0,38250,38750,1,0
Sprite,Foreground,Centre,"sb\s3.png",249.637,203.4819 S,0,38750,,0.5 R,0,38750,,4.3427 C,0,38750,,127,127,127 F,0,38750,39250,1,0
Sprite,Foreground,Centre,"sb\s0.png",287.8344,176.3987 S,0,38916,,0.5 R,0,38916,,1.291685 C,0,38916,,127,127,127 F,0,38916,39416,1,0
Sprite,Foreground,Centre,"sb\s3.png",339.0459,34.40969 S,0,39083,,0.5 R,0,39083,,2.035506 C,0,39083,,127,127,127 F,0,39083,39583,1,0
Sprite,Foreground,Centre,"sb\s2.png",310.3325,51.00115 S,0,39250,,0.5 R,0,39250,,0.9300212 C,0,39250,,127,127,127 F,0,39250,39750,1,0
Sprite,Foreground,Centre,"sb\s1.png",496.3719,86.63965 S,0,39750,,0.5 R,0,39750,,5.314947 C,0,39750,,127,127,127 F,0,39750,40250,1,0
Sprite,Foreground,Centre,"sb\s2.png",507.7935,156.2608 S,0,39916,,0.5 R,0,39916,,5.22106 C,0,39916,,127,127,127 F,0,39916,40416,1,0
Sprite,Foreground,Centre,"sb\s1.png",552.0525,244.861 S,0,40083,,0.5 R,0,40083,,5.353323 C,0,40083,,127,127,127 F,0,40083,40583,1,0
Sprite,Foreground,Centre,"sb\s2.png",518.2838,223.5342 S,0,40250,,0.5 R,0,40250,,3.410045 C,0,40250,,127,127,127 F,0,40250,40750,1,0
Sprite,Foreground,Centre,"sb\s1.png",475.8573,365.9297 F,0,40750,,1,0 S,0,40750,,0.5 R,0,40750,,0.2810416 C,0,40750,,127,127,127
Sprite,Foreground,Centre,"sb\s3.png",153.6184,286.6873 S,0,65083,,0.5 R,0,65083,,4.596803 C,0,65083,,64,0,0 F,0,65083,65583,1,0
Sprite,Foreground,Centre,"sb\s1.png",83.74182,178.0004 S,0,65249,,0.5 R,0,65249,,5.676054 C,0,65249,,64,0,0 F,0,65249,65749,1,0
Sprite,Foreground,Centre,"sb\s0.png",53.0397,318.8873 S,0,65750,,0.5 R,0,65750,,4.4746 C,0,65750,,64,0,0 F,0,65750,66250,1,0
Sprite,Foreground,Centre,"sb\s0.png",233.7083,203.635 S,0,66084,,0.5 R,0,66084,,3.459629 C,0,66084,,64,0,0 F,0,66084,66584,1,0
Sprite,Foreground,Centre,"sb\s3.png",183.926,228.9357 S,0,66250,,0.5 R,0,66250,,0.8138375 C,0,66250,,64,0,0 F,0,66250,66750,1,0
Sprite,Foreground,Centre,"sb\s2.png",194.1193,261.7792 S,0,66751,,0.5 R,0,66751,,1.436583 C,0,66751,,64,0,0 F,0,66751,67251,1,0
Sprite,Foreground,Centre,"sb\s1.png",309.3416,222.9152 S,0,67084,,0.5 R,0,67084,,1.611466 C,0,67084,,64,0,0 F,0,67084,67584,1,0
Sprite,Foreground,Centre,"sb\s1.png",267.9408,272.0611 S,0,67250,,0.5 R,0,67250,,5.963191 C,0,67250,,64,0,0 F,0,67250,67750,1,0
Sprite,Foreground,Centre,"sb\s1.png",180.2758,237.9218 S,0,67751,,0.5 R,0,67751,,2.761197 C,0,67751,,64,0,0 F,0,67751,68251,1,0
Sprite,Foreground,Centre,"sb\s2.png",263.9943,312.1728 S,0,67916,,0.5 R,0,67916,,1.501266 C,0,67916,,64,0,0 F,0,67916,68416,1,0
Sprite,Foreground,Centre,"sb\s2.png",270.6291,415.8661 S,0,68083,,0.5 R,0,68083,,0.22825 C,0,68083,,64,0,0 F,0,68083,68583,1,0
Sprite,Foreground,Centre,"sb\s0.png",306.7052,455.1065 S,0,68250,,0.5 R,0,68250,,5.335329 C,0,68250,,64,0,0 F,0,68250,68750,1,0
Sprite,Foreground,Centre,"sb\s1.png",247.0552,466.4893 S,0,68750,,0.5 R,0,68750,,6.110394 C,0,68750,,64,0,0 F,0,68750,69250,1,0
Sprite,Foreground,Centre,"sb\s0.png",416.3503,411.3491 S,0,69250,,0.5 R,0,69250,,0.829828 C,0,69250,,64,0,0 F,0,69250,69750,1,0
Sprite,Foreground,Centre,"sb\s1.png",484.4214,380.672 S,0,69750,,0.5 R,0,69750,,4.013421 C,0,69750,,64,0,0 F,0,69750,70250,1,0
Sprite,Foreground,Centre,"sb\s3.png",421.1719,312.1199 S,0,70083,,0.5 R,0,70083,,3.659741 C,0,70083,,64,0,0 F,0,70083,70583,1,0
Sprite,Foreground,Centre,"sb\s1.png",419.4061,279.753 S,0,70250,,0.5 R,0,70250,,0.7203403 C,0,70250,,64,0,0 F,0,70250,70750,1,0
Sprite,Foreground,Centre,"sb\s2.png",478.3844,223.7943 S,0,70750,,0.5 R,0,70750,,1.275544 C,0,70750,,64,0,0 F,0,70750,71250,1,0
Sprite,Foreground,Centre,"sb\s0.png",322.3522,202.7862 S,0,71083,,0.5 R,0,71083,,1.214773 C,0,71083,,64,0,0 F,0,71083,71500,1,0
Sprite,Foreground,Centre,"sb\s3.png",327.1293,140.1006 S,0,71250,,0.5 R,0,71250,,2.909317 C,0,71250,,64,0,0 F,0,71250,71500,1,0
Sprite,Foreground,Centre,"sb\s0.png",340.2248,295.1798 S,0,80750,,0.5 R,0,80750,,5.716545 C,0,80750,,153,114,114 F,0,80750,81250,1,0
Sprite,Foreground,Centre,"sb\s3.png",236.5812,353.5596 S,0,81250,,0.5 R,0,81250,,5.254929 C,0,81250,,153,114,114 F,0,81250,81750,1,0
Sprite,Foreground,Centre,"sb\s3.png",57.01669,204.4115 S,0,81750,,0.5 R,0,81750,,4.774399 C,0,81750,,153,114,114 F,0,81750,82250,1,0
Sprite,Foreground,Centre,"sb\s1.png",289.4121,131.757 S,0,82250,,0.5 R,0,82250,,4.104751 C,0,82250,,153,114,114 F,0,82250,82750,1,0
Sprite,Foreground,Centre,"sb\s0.png",303.3105,241.6712 S,0,82583,,0.5 R,0,82583,,1.608061 C,0,82583,,153,114,114 F,0,82583,83083,1,0
Sprite,Foreground,Centre,"sb\s2.png",345.4319,192.9039 S,0,82750,,0.5 R,0,82750,,3.056395 C,0,82750,,153,114,114 F,0,82750,83250,1,0
Sprite,Foreground,Centre,"sb\s1.png",498.5042,262.7267 S,0,83250,,0.5 R,0,83250,,5.133039 C,0,83250,,153,114,114 F,0,83250,83750,1,0
Sprite,Foreground,Centre,"sb\s0.png",499.6019,338.6519 S,0,83750,,0.5 R,0,83750,,0.9184168 C,0,83750,,153,114,114 F,0,83750,84250,1,0
Sprite,Foreground,Centre,"sb\s2.png",448.4038,373.5256 S,0,84250,,0.5 R,0,84250,,0.9131132 C,0,84250,,153,114,114 F,0,84250,84750,1,0
Sprite,Foreground,Centre,"sb\s3.png",239.6634,468.1042 S,0,84750,,0.5 R,0,84750,,2.964754 C,0,84750,,153,114,114 F,0,84750,85250,1,0
Sprite,Foreground,Centre,"sb\s0.png",392.7005,355.7479 S,0,85250,,0.5 R,0,85250,,2.83577 C,0,85250,,153,114,114 F,0,85250,85750,1,0
Sprite,Foreground,Centre,"sb\s3.png",215.531,342.6628 S,0,85750,,0.5 R,0,85750,,1.882064 C,0,85750,,153,114,114 F,0,85750,86250,1,0
Sprite,Foreground,Centre,"sb\s3.png",288.1649,95.23792 S,0,89250,,0.5 R,0,89250,,5.05319 C,0,89250,,127,127,127 F,0,89250,89750,1,0
Sprite,Foreground,Centre,"sb\s2.png",141.3414,220.3159 S,0,89750,,0.5 R,0,89750,,4.211856 C,0,89750,,127,127,127 F,0,89750,90250,1,0
Sprite,Foreground,Centre,"sb\s1.png",147.9154,283.1956 S,0,90083,,0.5 R,0,90083,,1.617296 C,0,90083,,127,127,127 F,0,90083,90583,1,0
Sprite,Foreground,Centre,"sb\s0.png",100.9902,328.4884 S,0,90250,,0.5 R,0,90250,,4.237462 C,0,90250,,127,127,127 F,0,90250,90750,1,0
Sprite,Foreground,Centre,"sb\s3.png",144.7016,316.9424 S,0,90750,,0.5 R,0,90750,,2.941245 C,0,90750,,127,127,127 F,0,90750,91250,1,0
Sprite,Foreground,Centre,"sb\s1.png",172.1552,307.6292 S,0,91083,,0.5 R,0,91083,,2.790414 C,0,91083,,127,127,127 F,0,91083,91500,1,0
Sprite,Foreground,Centre,"sb\s1.png",157.2738,253.9126 S,0,91250,,0.5 R,0,91250,,1.877678 C,0,91250,,127,127,127 F,0,91250,91500,1,0
Sprite,Foreground,Centre,"sb\s0.png",328.1341,318.2915 S,0,92750,,0.5 R,0,92750,,1.017576 C,0,92750,,127,127,127 F,0,92750,93250,1,0
Sprite,Foreground,Centre,"sb\s2.png",406.3857,308.9742 S,0,93083,,0.5 R,0,93083,,0.4122952 C,0,93083,,127,127,127 F,0,93083,93583,1,0
Sprite,Foreground,Centre,"sb\s3.png",371.7092,245.2518 S,0,93250,,0.5 R,0,93250,,4.809554 C,0,93250,,127,127,127 F,0,93250,93750,1,0
Sprite,Foreground,Centre,"sb\s0.png",452.7224,434.2809 S,0,93750,,0.5 R,0,93750,,3.881667 C,0,93750,,127,127,127 F,0,93750,94250,1,0
Sprite,Foreground,Centre,"sb\s0.png",521.1569,362.543 S,0,94083,,0.5 R,0,94083,,0.04203871 C,0,94083,,127,127,127 F,0,94083,94583,1,0
Sprite,Foreground,Centre,"sb\s2.png",532.423,362.405 S,0,94250,,0.5 R,0,94250,,0.8477992 C,0,94250,,127,127,127 F,0,94250,94750,1,0
Sprite,Foreground,Centre,"sb\s0.png",544.7443,286.4546 S,0,94750,,0.5 R,0,94750,,3.604979 C,0,94750,,127,127,127 F,0,94750,95250,1,0
Sprite,Foreground,Centre,"sb\s1.png",555.3921,159.7364 S,0,94916,,0.5 R,0,94916,,3.248815 C,0,94916,,127,127,127 F,0,94916,95416,1,0
Sprite,Foreground,Centre,"sb\s2.png",526.0641,104.1192 S,0,95083,,0.5 R,0,95083,,3.641635 C,0,95083,,127,127,127 F,0,95083,95583,1,0
Sprite,Foreground,Centre,"sb\s3.png",506.4657,124.1059 S,0,95250,,0.5 R,0,95250,,2.477381 C,0,95250,,127,127,127 F,0,95250,95750,1,0
Sprite,Foreground,Centre,"sb\s0.png",434.0892,193.9609 S,0,95750,,0.5 R,0,95750,,4.057348 C,0,95750,,127,127,127 F,0,95750,96250,1,0
Sprite,Foreground,Centre,"sb\s1.png",324.963,140.8306 S,0,95916,,0.5 R,0,95916,,3.247822 C,0,95916,,127,127,127 F,0,95916,96416,1,0
Sprite,Foreground,Centre,"sb\s2.png",222.5526,123.378 S,0,96083,,0.5 R,0,96083,,5.107516 C,0,96083,,127,127,127 F,0,96083,96583,1,0
Sprite,Foreground,Centre,"sb\s2.png",192.0562,200.0397 S,0,96250,,0.5 R,0,96250,,3.448928 C,0,96250,,127,127,127 F,0,96250,96750,1,0
Sprite,Foreground,Centre,"sb\s1.png",122.0203,123.1413 F,0,96750,,1,0 S,0,96750,,0.5 R,0,96750,,1.281041 C,0,96750,,127,127,127
Sprite,Foreground,Centre,"sb\s2.png",151.5342,369.8635 S,0,97250,,0.5 R,0,97250,,1.569417 C,0,97250,,127,127,127 F,0,97250,97750,1,0
Sprite,Foreground,Centre,"sb\s3.png",171.0674,359.5506 S,0,97750,,0.5 R,0,97750,,4.026332 C,0,97750,,127,127,127 F,0,97750,98250,1,0
Sprite,Foreground,Centre,"sb\s1.png",73.09412,441.4528 S,0,97916,,0.5 R,0,97916,,5.203367 C,0,97916,,127,127,127 F,0,97916,98416,1,0
Sprite,Foreground,Centre,"sb\s3.png",168.0742,468.8405 S,0,98250,,0.5 R,0,98250,,5.307467 C,0,98250,,127,127,127 F,0,98250,98750,1,0
Sprite,Foreground,Centre,"sb\s3.png",344.7494,357.8213 S,0,98583,,0.5 R,0,98583,,4.939449 C,0,98583,,127,127,127 F,0,98583,99083,1,0
Sprite,Foreground,Centre,"sb\s0.png",301.2905,262.5658 S,0,98750,,0.5 R,0,98750,,1.668143 C,0,98750,,127,127,127 F,0,98750,99250,1,0
Sprite,Foreground,Centre,"sb\s1.png",422.687,424.4536 S,0,99083,,0.5 R,0,99083,,2.521748 C,0,99083,,127,127,127 F,0,99083,99583,1,0
Sprite,Foreground,Centre,"sb\s3.png",461.8582,350.4577 S,0,99250,,0.5 R,0,99250,,2.729438 C,0,99250,,127,127,127 F,0,99250,99750,1,0
Sprite,Foreground,Centre,"sb\s1.png",458.0087,413.5378 S,0,99416,,0.5 R,0,99416,,4.294251 C,0,99416,,127,127,127 F,0,99416,99916,1,0
Sprite,Foreground,Centre,"sb\s3.png",567.989,394.6829 S,0,99750,,0.5 R,0,99750,,2.620405 C,0,99750,,127,127,127 F,0,99750,100250,1,0
Sprite,Foreground,Centre,"sb\s0.png",581.8069,269.5609 S,0,99916,,0.5 R,0,99916,,2.296314 C,0,99916,,127,127,127 F,0,99916,100416,1,0
Sprite,Foreground,Centre,"sb\s1.png",529.3759,299.9985 S,0,100083,,0.5 R,0,100083,,4.008304 C,0,100083,,127,127,127 F,0,100083,100583,1,0
Sprite,Foreground,Centre,"sb\s1.png",597.9169,207.7988 S,0,100250,,0.5 R,0,100250,,3.336942 C,0,100250,,127,127,127 F,0,100250,100750,1,0
Sprite,Foreground,Centre,"sb\s2.png",376.5156,99.18353 S,0,100750,,0.5 R,0,100750,,0.8659256 C,0,100750,,127,127,127 F,0,100750,101250,1,0
Sprite,Foreground,Centre,"sb\s1.png",359.8804,296.9579 S,0,101083,,0.5 R,0,101083,,1.781174 C,0,101083,,127,127,127 F,0,101083,101583,1,0
Sprite,Foreground,Centre,"sb\s0.png",390.178,301.9993 S,0,101250,,0.5 R,0,101250,,2.392761 C,0,101250,,127,127,127 F,0,101250,101750,1,0
Sprite,Foreground,Centre,"sb\s3.png",195.8491,253.6777 S,0,101750,,0.5 R,0,101750,,3.094579 C,0,101750,,127,127,127 F,0,101750,102250,1,0
Sprite,Foreground,Centre,"sb\s1.png",82.3587,276.8972 S,0,102083,,0.5 R,0,102083,,2.968471 C,0,102083,,127,127,127 F,0,102083,102583,1,0
Sprite,Foreground,Centre,"sb\s0.png",95.43886,238.2132 S,0,102250,,0.5 R,0,102250,,1.968736 C,0,102250,,127,127,127 F,0,102250,102750,1,0
Sprite,Foreground,Centre,"sb\s1.png",138.7856,29.88333 S,0,102750,,0.5 R,0,102750,,5.725461 C,0,102750,,127,127,127 F,0,102750,103250,1,0
Sprite,Foreground,Centre,"sb\s2.png",134.7971,38.15691 S,0,102916,,0.5 R,0,102916,,5.601244 C,0,102916,,127,127,127 F,0,102916,103416,1,0
Sprite,Foreground,Centre,"sb\s1.png",208.4781,186.4047 S,0,103083,,0.5 R,0,103083,,0.432401 C,0,103083,,127,127,127 F,0,103083,103583,1,0
Sprite,Foreground,Centre,"sb\s1.png",260.8973,120.5134 S,0,103250,,0.5 R,0,103250,,3.060367 C,0,103250,,127,127,127 F,0,103250,103750,1,0
Sprite,Foreground,Centre,"sb\s2.png",225.3971,266.7686 S,0,103750,,0.5 R,0,103750,,3.104012 C,0,103750,,127,127,127 F,0,103750,104250,1,0
Sprite,Foreground,Centre,"sb\s3.png",329.816,265.1437 S,0,103916,,0.5 R,0,103916,,5.75553 C,0,103916,,127,127,127 F,0,103916,104416,1,0
Sprite,Foreground,Centre,"sb\s3.png",331.9562,274.12 S,0,104083,,0.5 R,0,104083,,0.1402441 C,0,104083,,127,127,127 F,0,104083,104583,1,0
Sprite,Foreground,Centre,"sb\s0.png",328.3256,339.9131 S,0,104250,,0.5 R,0,104250,,1.657195 C,0,104250,,127,127,127 F,0,104250,104750,1,0
Sprite,Foreground,Centre,"sb\s2.png",571.0768,401.9109 F,0,104750,,1,0 S,0,104750,,0.5 R,0,104750,,4.230487 C,0,104750,,127,127,127
Sprite,Foreground,Centre,"sb\s1.png",287.3197,300.5973 S,0,103750,,0.5 R,0,103750,,6.028756 C,0,103750,,178,102,102 F,0,103750,104250,1,0
Sprite,Foreground,Centre,"sb\s2.png",351.8917,219.6855 S,0,103916,,0.5 R,0,103916,,1.529478 C,0,103916,,178,102,102 F,0,103916,104416,1,0
Sprite,Foreground,Centre,"sb\s2.png",340.8689,258.217 S,0,104083,,0.5 R,0,104083,,4.105629 C,0,104083,,178,102,102 F,0,104083,104583,1,0
Sprite,Foreground,Centre,"sb\s3.png",357.5519,392.4421 S,0,104250,,0.5 R,0,104250,,3.910765 C,0,104250,,178,102,102 F,0,104250,104750,1,0
Sprite,Foreground,Centre,"sb\s0.png",470.9788,351.2992 F,0,104750,,1,0 S,0,104750,,0.5 R,0,104750,,2.793741 C,0,104750,,178,102,102
Sprite,Foreground,Centre,"sb\s0.png",81.63263,178.9399 S,0,120750,,0.5 R,0,120750,,2.097614 C,0,120750,,0,0,0 F,0,120750,121250,1,0
Sprite,Foreground,Centre,"sb\s3.png",268.2999,202.0879 S,0,121250,,0.5 R,0,121250,,1.066856 C,0,121250,,0,0,0 F,0,121250,121750,1,0
Sprite,Foreground,Centre,"sb\s0.png",511.6446,107.5064 S,0,121750,,0.5 R,0,121750,,2.687457 C,0,121750,,0,0,0 F,0,121750,122250,1,0
Sprite,Foreground,Centre,"sb\s3.png",341.3306,151.3482 S,0,122250,,0.5 R,0,122250,,4.207348 C,0,122250,,0,0,0 F,0,122250,122750,1,0
Sprite,Foreground,Centre,"sb\s3.png",297.9518,264.2134 S,0,122750,,0.5 R,0,122750,,5.29731 C,0,122750,,0,0,0 F,0,122750,123250,1,0
Sprite,Foreground,Centre,"sb\s3.png",138.9855,312.8063 S,0,123250,,0.5 R,0,123250,,3.035041 C,0,123250,,0,0,0 F,0,123250,123750,1,0
Sprite,Foreground,Centre,"sb\s0.png",344.4808,389.0117 S,0,123750,,0.5 R,0,123750,,3.949955 C,0,123750,,0,0,0 F,0,123750,124250,1,0
Sprite,Foreground,Centre,"sb\s1.png",502.2436,288.0898 S,0,124250,,0.5 R,0,124250,,3.795614 C,0,124250,,0,0,0 F,0,124250,124750,1,0
Sprite,Foreground,Centre,"sb\s1.png",396.9973,288.5409 S,0,124416,,0.5 R,0,124416,,2.521346 C,0,124416,,0,0,0 F,0,124416,124916,1,0
Sprite,Foreground,Centre,"sb\s3.png",317.8651,221.1398 S,0,124583,,0.5 R,0,124583,,3.275168 C,0,124583,,0,0,0 F,0,124583,125083,1,0
Sprite,Foreground,Centre,"sb\s0.png",434.9517,278.5933 S,0,124750,,0.5 R,0,124750,,6.224271 C,0,124750,,0,0,0 F,0,124750,125250,1,0
Sprite,Foreground,Centre,"sb\s0.png",240.4686,283.6528 S,0,125250,,0.5 R,0,125250,,1.596063 C,0,125250,,0,0,0 F,0,125250,125750,1,0
Sprite,Foreground,Centre,"sb\s1.png",135.7307,441.8697 S,0,125750,,0.5 R,0,125750,,4.69857 C,0,125750,,0,0,0 F,0,125750,126250,1,0
Sprite,Foreground,Centre,"sb\s0.png",191.3833,437.7831 S,0,126250,,0.5 R,0,126250,,0.4249207 C,0,126250,,0,0,0 F,0,126250,126750,1,0
Sprite,Foreground,Centre,"sb\s2.png",200.1106,190.993 S,0,126750,,0.5 R,0,126750,,0.8441172 C,0,126750,,0,0,0 F,0,126750,127250,1,0
Sprite,Foreground,Centre,"sb\s3.png",340.6201,351.8503 S,0,127250,,0.5 R,0,127250,,2.617408 C,0,127250,,0,0,0 F,0,127250,127750,1,0
Sprite,Foreground,Centre,"sb\s1.png",531.1828,109.9708 S,0,127750,,0.5 R,0,127750,,2.2084 C,0,127750,,0,0,0 F,0,127750,128250,1,0
Sprite,Foreground,Centre,"sb\s0.png",540.9838,368.3316 S,0,128249,,0.5 R,0,128249,,4.316485 C,0,128249,,0,0,0 F,0,128249,128749,1,0
Sprite,Foreground,Centre,"sb\s0.png",450.4922,363.1122 S,0,128416,,0.5 R,0,128416,,5.408389 C,0,128416,,0,0,0 F,0,128416,128916,1,0
Sprite,Foreground,Centre,"sb\s0.png",444.0065,382.4669 S,0,128583,,0.5 R,0,128583,,2.418566 C,0,128583,,0,0,0 F,0,128583,129083,1,0
Sprite,Foreground,Centre,"sb\s3.png",562.4969,372.2642 S,0,128749,,0.5 R,0,128749,,0.5474634 C,0,128749,,0,0,0 F,0,128749,129249,1,0
Sprite,Foreground,Centre,"sb\s0.png",462.3713,217.5582 S,0,129249,,0.5 R,0,129249,,4.682659 C,0,129249,,0,0,0 F,0,129249,129749,1,0
Sprite,Foreground,Centre,"sb\s2.png",309.8845,296.5381 S,0,129749,,0.5 R,0,129749,,3.154809 C,0,129749,,0,0,0 F,0,129749,130249,1,0
Sprite,Foreground,Centre,"sb\s0.png",237.9435,262.433 S,0,130249,,0.5 R,0,130249,,5.310453 C,0,130249,,0,0,0 F,0,130249,130749,1,0
Sprite,Foreground,Centre,"sb\s0.png",165.2719,139.245 S,0,130749,,0.5 R,0,130749,,1.677793 C,0,130749,,0,0,0 F,0,130749,131249,1,0
Sprite,Foreground,Centre,"sb\s2.png",335.6636,101.725 S,0,131250,,0.5 R,0,131250,,4.919533 C,0,131250,,0,0,0 F,0,131250,131750,1,0
Sprite,Foreground,Centre,"sb\s2.png",441.935,106.9065 S,0,131750,,0.5 R,0,131750,,5.216676 C,0,131750,,0,0,0 F,0,131750,132250,1,0
Sprite,Foreground,Centre,"sb\s3.png",592.6044,184.2642 S,0,132250,,0.5 R,0,132250,,2.003739 C,0,132250,,0,0,0 F,0,132250,132750,1,0
Sprite,Foreground,Centre,"sb\s0.png",575.7224,263.3682 S,0,132750,,0.5 R,0,132750,,0.9224122 C,0,132750,,0,0,0 F,0,132750,133250,1,0
Sprite,Foreground,Centre,"sb\s0.png",408.6974,195.9474 S,0,133250,,0.5 R,0,133250,,5.752229 C,0,133250,,0,0,0 F,0,133250,133750,1,0
Sprite,Foreground,Centre,"sb\s1.png",274.5765,402.7751 S,0,133750,,0.5 R,0,133750,,5.542223 C,0,133750,,0,0,0 F,0,133750,134250,1,0
Sprite,Foreground,Centre,"sb\s3.png",259.0624,404.0627 S,0,134250,,0.5 R,0,134250,,1.220728 C,0,134250,,0,0,0 F,0,134250,134750,1,0
Sprite,Foreground,Centre,"sb\s3.png",419.9285,266.0774 S,0,134750,,0.5 R,0,134750,,3.785636 C,0,134750,,0,0,0 F,0,134750,135250,1,0
Sprite,Foreground,Centre,"sb\s3.png",148.2872,284.7728 S,0,135250,,0.5 R,0,135250,,1.775216 C,0,135250,,0,0,0 F,0,135250,135750,1,0
Sprite,Foreground,Centre,"sb\s3.png",81.04427,128.7537 F,0,135750,,1,0 S,0,135750,,0.5 R,0,135750,,0.5124226 C,0,135750,,0,0,0
Sprite,Foreground,Centre,"sb\s3.png",79.28491,117.1232 S,0,160750,,0.5 R,0,160750,,5.724067 C,0,160750,,64,0,0 F,0,160750,161250,1,0
Sprite,Foreground,Centre,"sb\s1.png",120.7183,199.6255 S,0,161250,,0.5 R,0,161250,,1.82358 C,0,161250,,64,0,0 F,0,161250,161750,1,0
Sprite,Foreground,Centre,"sb\s2.png",86.64177,199.8277 S,0,161750,,0.5 R,0,161750,,1.296102 C,0,161750,,64,0,0 F,0,161750,162250,1,0
Sprite,Foreground,Centre,"sb\s1.png",243.0616,164.5551 S,0,162083,,0.5 R,0,162083,,2.695943 C,0,162083,,64,0,0 F,0,162083,162583,1,0
Sprite,Foreground,Centre,"sb\s3.png",167.8198,163.7742 S,0,162250,,0.5 R,0,162250,,1.980024 C,0,162250,,64,0,0 F,0,162250,162750,1,0
Sprite,Foreground,Centre,"sb\s1.png",232.038,1.214081 S,0,162750,,0.5 R,0,162750,,0.01681882 C,0,162750,,64,0,0 F,0,162750,163250,1,0
Sprite,Foreground,Centre,"sb\s3.png",306.1439,160.0584 S,0,163083,,0.5 R,0,163083,,5.711638 C,0,163083,,64,0,0 F,0,163083,163583,1,0
Sprite,Foreground,Centre,"sb\s0.png",275.2038,128.0193 S,0,163250,,0.5 R,0,163250,,3.402328 C,0,163250,,64,0,0 F,0,163250,163750,1,0
Sprite,Foreground,Centre,"sb\s0.png",263.5085,41.71858 S,0,163750,,0.5 R,0,163750,,4.974501 C,0,163750,,64,0,0 F,0,163750,164250,1,0
Sprite,Foreground,Centre,"sb\s1.png",313.1653,149.285 S,0,163916,,0.5 R,0,163916,,3.324561 C,0,163916,,64,0,0 F,0,163916,164416,1,0
Sprite,Foreground,Centre,"sb\s2.png",253.913,222.2931 S,0,164083,,0.5 R,0,164083,,2.81847 C,0,164083,,64,0,0 F,0,164083,164583,1,0
Sprite,Foreground,Centre,"sb\s0.png",321.6734,250.7959 S,0,164250,,0.5 R,0,164250,,0.2307058 C,0,164250,,64,0,0 F,0,164250,164750,1,0
Sprite,Foreground,Centre,"sb\s1.png",266.8516,256.2758 S,0,164750,,0.5 R,0,164750,,4.415516 C,0,164750,,64,0,0 F,0,164750,165250,1,0
Sprite,Foreground,Centre,"sb\s2.png",130.417,248.5667 S,0,165250,,0.5 R,0,165250,,3.309808 C,0,165250,,64,0,0 F,0,165250,165750,1,0
Sprite,Foreground,Centre,"sb\s2.png",254.7806,318.0827 S,0,165750,,0.5 R,0,165750,,1.201484 C,0,165750,,64,0,0 F,0,165750,166250,1,0
Sprite,Foreground,Centre,"sb\s3.png",274.269,113.2001 S,0,166083,,0.5 R,0,166083,,3.99432 C,0,166083,,64,0,0 F,0,166083,166583,1,0
Sprite,Foreground,Centre,"sb\s0.png",243.5161,218.4603 S,0,166250,,0.5 R,0,166250,,0.3345781 C,0,166250,,64,0,0 F,0,166250,166750,1,0
Sprite,Foreground,Centre,"sb\s2.png",168.2154,252.468 S,0,166750,,0.5 R,0,166750,,1.311773 C,0,166750,,64,0,0 F,0,166750,167250,1,0
Sprite,Foreground,Centre,"sb\s2.png",103.0468,127.8999 S,0,167083,,0.5 R,0,167083,,0.4397903 C,0,167083,,64,0,0 F,0,167083,167583,1,0
Sprite,Foreground,Centre,"sb\s3.png",128.7967,176.2419 S,0,167250,,0.5 R,0,167250,,2.054483 C,0,167250,,64,0,0 F,0,167250,167750,1,0
Sprite,Foreground,Centre,"sb\s3.png",175.3585,173.6245 F,0,167750,,1,0 S,0,167750,,0.5 R,0,167750,,5.698947 C,0,167750,,64,0,0
Sprite,Foreground,Centre,"sb\s2.png",186.0671,213.0416 S,0,168750,,0.5 R,0,168750,,5.965427 C,0,168750,,64,0,0 F,0,168750,169250,1,0
Sprite,Foreground,Centre,"sb\s2.png",296.2917,179.2689 S,0,169250,,0.5 R,0,169250,,3.812748 C,0,169250,,64,0,0 F,0,169250,169750,1,0
Sprite,Foreground,Centre,"sb\s3.png",401.8086,131.0675 S,0,169750,,0.5 R,0,169750,,1.333598 C,0,169750,,64,0,0 F,0,169750,170250,1,0
Sprite,Foreground,Centre,"sb\s0.png",580.9215,163.7949 S,0,170083,,0.5 R,0,170083,,4.790176 C,0,170083,,64,0,0 F,0,170083,170583,1,0
Sprite,Foreground,Centre,"sb\s2.png",502.9799,159.3569 S,0,170250,,0.5 R,0,170250,,1.056195 C,0,170250,,64,0,0 F,0,170250,170750,1,0
Sprite,Foreground,Centre,"sb\s0.png",509.5526,387.4174 S,0,170750,,0.5 R,0,170750,,1.483578 C,0,170750,,64,0,0 F,0,170750,171250,1,0
Sprite,Foreground,Centre,"sb\s2.png",394.6073,288.682 S,0,171250,,0.5 R,0,171250,,0.2098071 C,0,171250,,64,0,0 F,0,171250,171750,1,0
Sprite,Foreground,Centre,"sb\s3.png",268.2292,361.1285 S,0,171750,,0.5 R,0,171750,,1.781942 C,0,171750,,64,0,0 F,0,171750,172250,1,0
Sprite,Foreground,Centre,"sb\s3.png",69.1021,461.4437 S,0,172250,,0.5 R,0,172250,,2.874329 C,0,172250,,64,0,0 F,0,172250,172750,1,0
Sprite,Foreground,Centre,"sb\s1.png",105.9336,300.8742 S,0,172583,,0.5 R,0,172583,,1.180614 C,0,172583,,64,0,0 F,0,172583,173083,1,0
Sprite,Foreground,Centre,"sb\s3.png",147.7954,292.6406 S,0,172750,,0.5 R,0,172750,,3.177242 C,0,172750,,64,0,0 F,0,172750,173250,1,0
Sprite,Foreground,Centre,"sb\s2.png",65.73205,223.2465 S,0,173250,,0.5 R,0,173250,,6.029081 C,0,173250,,64,0,0 F,0,173250,173750,1,0
Sprite,Foreground,Centre,"sb\s0.png",193.6572,90.64046 S,0,173750,,0.5 R,0,173750,,4.288664 C,0,173750,,64,0,0 F,0,173750,174250,1,0
Sprite,Foreground,Centre,"sb\s0.png",244.1078,240.7145 S,0,174250,,0.5 R,0,174250,,3.2091 C,0,174250,,64,0,0 F,0,174250,174750,1,0
Sprite,Foreground,Centre,"sb\s2.png",393.8184,166.0096 S,0,174583,,0.5 R,0,174583,,5.906903 C,0,174583,,64,0,0 F,0,174583,175083,1,0
Sprite,Foreground,Centre,"sb\s3.png",323.9947,224.134 S,0,174750,,0.5 R,0,174750,,0.9745537 C,0,174750,,64,0,0 F,0,174750,175250,1,0
Sprite,Foreground,Centre,"sb\s3.png",341.7661,295.5233 S,0,175083,,0.5 R,0,175083,,5.724118 C,0,175083,,64,0,0 F,0,175083,175583,1,0
Sprite,Foreground,Centre,"sb\s3.png",404.2396,308.1102 S,0,175250,,0.5 R,0,175250,,3.891625 C,0,175250,,64,0,0 F,0,175250,175750,1,0
Sprite,Foreground,Centre,"sb\s3.png",186.3056,340.5701 S,0,175750,,0.5 R,0,175750,,5.526658 C,0,175750,,64,0,0 F,0,175750,176250,1,0
Sprite,Foreground,Centre,"sb\s2.png",120.6911,322.2439 S,0,176083,,0.5 R,0,176083,,2.149296 C,0,176083,,64,0,0 F,0,176083,176583,1,0
Sprite,Foreground,Centre,"sb\s2.png",152.8585,355.2724 S,0,176250,,0.5 R,0,176250,,4.510222 C,0,176250,,64,0,0 F,0,176250,176750,1,0
Sprite,Foreground,Centre,"sb\s3.png",133.7606,152.2999 S,0,176583,,0.5 R,0,176583,,2.578887 C,0,176583,,64,0,0 F,0,176583,177083,1,0
Sprite,Foreground,Centre,"sb\s2.png",121.0685,244.9056 S,0,176750,,0.5 R,0,176750,,3.910105 C,0,176750,,64,0,0 F,0,176750,177250,1,0
Sprite,Foreground,Centre,"sb\s3.png",284.5397,166.4415 S,0,177250,,0.5 R,0,177250,,4.513676 C,0,177250,,64,0,0 F,0,177250,177750,1,0
Sprite,Foreground,Centre,"sb\s2.png",341.7872,262.0462 S,0,177583,,0.5 R,0,177583,,1.237651 C,0,177583,,64,0,0 F,0,177583,178083,1,0
Sprite,Foreground,Centre,"sb\s0.png",431.6357,200.3457 S,0,177750,,0.5 R,0,177750,,1.559123 C,0,177750,,64,0,0 F,0,177750,178250,1,0
Sprite,Foreground,Centre,"sb\s3.png",387.3609,184.2622 S,0,178250,,0.5 R,0,178250,,0.132336 C,0,178250,,64,0,0 F,0,178250,178750,1,0
Sprite,Foreground,Centre,"sb\s0.png",380.1263,148.4632 S,0,178583,,0.5 R,0,178583,,0.9797162 C,0,178583,,64,0,0 F,0,178583,179083,1,0
Sprite,Foreground,Centre,"sb\s0.png",396.2245,76.97357 S,0,178750,,0.5 R,0,178750,,0.5768362 C,0,178750,,64,0,0 F,0,178750,179250,1,0
Sprite,Foreground,Centre,"sb\s1.png",328.2525,118.2648 S,0,179250,,0.5 R,0,179250,,2.695854 C,0,179250,,64,0,0 F,0,179250,179750,1,0
Sprite,Foreground,Centre,"sb\s1.png",261.9867,153.2232 S,0,179416,,0.5 R,0,179416,,2.916248 C,0,179416,,64,0,0 F,0,179416,179750,1,0
Sprite,Foreground,Centre,"sb\s0.png",190.4542,241.3555 S,0,179583,,0.5 R,0,179583,,1.25497 C,0,179583,,64,0,0 F,0,179583,179750,1,0
Sprite,Foreground,Centre,"sb\s3.png",148.6182,221.9267 F,0,179750,,1,0 S,0,179750,,0.5 R,0,179750,,2.705935 C,0,179750,,64,0,0
//Storyboard Layer 4 (Overlay)
//Storyboard Sound Samples

[TimingPoints]
750,500,4,2,1,40,1,0
2416,-100,4,2,1,20,0,0
2583,-100,4,2,1,30,0,0
2750,-100,4,2,1,40,0,0
22500,-100,4,2,1,20,0,0
22583,-100,4,2,1,40,0,0
22750,-100,4,2,1,5,0,0
24750,-100,4,2,1,40,0,0
25000,-100,4,2,1,10,0,0
25083,-100,4,2,1,40,0,0
26000,-100,4,2,1,30,0,0
26083,-100,4,2,1,40,0,0
26166,-100,4,2,1,10,0,0
26250,-100,4,2,1,40,0,0
28666,-100,4,2,1,10,0,0
28750,-100,4,2,1,40,0,0
30833,-100,4,2,1,8,0,0
30916,-100,4,2,1,40,0,0
31000,-100,4,2,1,8,0,0
31083,-100,4,2,1,40,0,0
31166,-100,4,2,1,8,0,0
31250,-100,4,2,1,40,0,0
33833,-100,4,2,1,15,0,0
33916,-100,4,2,1,40,0,0
34000,-100,4,2,1,10,0,0
34083,-100,4,2,1,40,0,0
34166,-100,4,2,1,30,0,0
34250,-100,4,2,1,40,0,0
41166,-100,4,2,1,30,0,0
41250,-100,4,2,1,40,0,0
43750,-100,4,2,1,30,0,0
44000,-100,4,2,1,20,0,0
44250,-100,4,2,1,30,0,0
44500,-100,4,2,1,40,0,0
47750,-100,4,2,1,30,0,0
48000,-100,4,2,1,20,0,0
48250,-100,4,2,1,30,0,0
48583,-100,4,2,1,40,0,0
54750,-100,4,1,2,40,0,0
56750,-100,4,2,1,40,0,0
58750,-100,4,2,1,10,0,0
60750,-100,4,2,1,40,0,0
62750,-100,4,2,1,10,0,0
63750,-100,4,2,1,40,0,0
74187,-100,4,2,1,17,0,0
74250,-100,4,2,1,40,0,0
75187,-100,4,2,1,17,0,0
75250,-100,4,2,1,40,0,0
76187,-100,4,2,1,17,0,0
76250,-100,4,2,1,40,0,0
77187,-100,4,2,1,17,0,0
77250,-100,4,2,1,40,0,0
79187,-100,4,2,1,17,0,0
79250,-100,4,2,1,40,0,0
80187,-100,4,2,1,17,0,0
80250,-100,4,2,1,40,0,0
91416,-100,4,2,1,10,0,0
92583,-100,4,2,1,40,0,0
107500,-100,4,2,1,5,0,0
108583,-100,4,2,1,40,0,0
115750,-100,4,2,1,5,0,0
116250,-100,4,2,1,35,0,0
120750,-100,4,2,1,25,0,0
123250,-100,4,2,1,45,0,0
137166,-100,4,2,1,20,0,0
137250,-100,4,2,1,45,0,0
139583,-100,4,2,1,15,0,0
140250,-100,4,2,1,25,0,0
140583,-100,4,2,1,45,0,0
143416,-100,4,2,1,25,0,0
143583,-100,4,2,1,20,0,0
143750,-100,4,2,1,18,0,0
143916,-100,4,2,1,30,0,0
144750,-100,4,2,1,45,0,0
150750,-100,4,2,2,45,0,0
152750,-100,4,2,1,45,0,0
179750,-100,4,2,1,25,0,0
182500,-100,4,2,1,15,0,0
182583,-100,4,2,1,20,0,0
182750,-100,4,2,1,15,0,0

[Colours]
Combo1 : 146,121,95
Combo2 : 192,192,192
Combo3 : 127,127,127

[HitObjects]
442,322,750,5,8,0:3:0:0:
349,242,1083,1,0,3:0:0:0:
349,242,1250,2,0,L|358:132,1,93.3333333333333,8|0,0:0|3:0,0:0:0:0:
363,88,1750,1,8,0:3:0:0:
250,42,2083,1,0,3:0:0:0:
250,42,2250,6,0,L|153:49,1,93.3333333333333,8|2,0:0|0:0,0:0:0:0:
110,88,2750,1,8,0:3:0:0:
2,32,3083,1,0,3:0:0:0:
2,32,3250,2,0,P|14:67|21:133,1,93.3333333333333,8|0,0:0|3:0,0:0:0:0:
6,181,3750,5,8,0:3:0:0:
6,181,3916,2,0,L|4:242,1,46.6666666666667,4|4,0:3|0:3,0:0:0:0:
2,288,4250,1,8,0:0:0:0:
61,278,4416,1,8,0:3:0:0:
120,268,4583,1,0,3:0:0:0:
120,268,4750,6,0,L|112:364,1,93.3333333333333,8|0,0:3|3:3,0:0:0:0:
112,361,5250,1,8,0:0:0:0:
227,324,5583,1,0,3:0:0:0:
227,324,5750,1,8,0:3:0:0:
338,370,6083,1,0,3:0:0:0:
338,370,6250,6,0,L|436:365,1,93.3333333333333,8|2,0:0|0:0,0:0:0:0:
491,361,6750,1,8,0:3:0:0:
448,247,7083,1,0,3:3:0:0:
448,247,7250,2,0,L|455:140,1,93.3333333333333,8|0,0:0|3:0,0:0:0:0:
454,153,8750,6,0,P|401:169|343:158,1,93.3333333333333,10|0,0:3|3:0,0:0:0:0:
311,134,9250,1,8,0:0:0:0:
227,222,9583,1,0,3:0:0:0:
227,222,9750,2,0,L|126:230,1,93.3333333333333,8|8,0:3|3:3,0:0:0:0:
94,275,10250,1,8,0:0:0:0:
32,170,10583,1,2,0:0:0:0:
32,170,10750,6,0,L|43:57,1,93.3333333333333,8|0,0:3|3:3,0:0:0:0:
49,16,11250,1,8,0:0:0:0:
158,68,11583,1,0,3:2:0:0:
158,68,11750,2,0,L|218:61,1,46.6666666666667,8|12,0:3|0:3,0:0:0:0:
259,88,12083,1,0,3:0:0:0:
259,88,12250,2,0,L|319:81,2,46.6666666666667,8|4|0,0:0|0:3|3:0,0:0:0:0:
233,143,12750,5,8,0:3:0:0:
303,241,13083,1,0,3:0:0:0:
303,241,13250,2,0,P|248:259|212:292,1,93.3333333333333,8|0,0:0|3:0,0:0:0:0:
198,337,13750,1,8,0:3:0:0:
314,372,14083,1,0,3:0:0:0:
314,372,14250,1,8,0:0:0:0:
427,330,14583,1,2,0:0:0:0:
427,330,14750,6,0,L|437:179,1,140,0|8,3:0|0:0,0:0:0:0:
264,251,15750,1,8,0:3:0:0:
150,207,16083,1,2,3:0:0:0:
150,207,16250,2,0,L|86:212,1,46.6666666666667,8|4,0:0|0:3,0:0:0:0:
65,258,16583,1,2,3:0:0:0:
65,258,16750,1,8,0:3:0:0:
57,137,17083,1,0,3:0:0:0:
57,137,17250,6,0,L|159:128,1,93.3333333333333,8|0,0:0|3:0,0:0:0:0:
200,95,17750,1,8,0:3:0:0:
262,198,18083,1,0,3:0:0:0:
262,198,18250,1,8,0:0:0:0:
378,165,18583,1,2,0:0:0:0:
378,165,18750,6,0,L|368:276,1,93.3333333333333,8|0,0:3|3:0,0:0:0:0:
384,317,19250,1,8,0:0:0:0:
475,236,19583,1,0,3:0:0:0:
475,236,19750,2,0,P|472:180|474:169,1,46.6666666666667,8|4,0:3|0:3,0:0:0:0:
480,129,20083,1,0,3:0:0:0:
480,129,20250,2,0,L|427:134,2,46.6666666666667,8|4|0,0:0|0:3|3:0,0:0:0:0:
500,71,20750,5,8,0:3:0:0:
398,137,21083,1,0,3:0:0:0:
398,137,21250,2,0,L|296:128,1,93.3333333333333,8|0,0:0|3:0,0:0:0:0:
261,171,21750,1,0,0:0:0:0:
261,171,24750,6,0,L|250:66,1,93.3333333333333,8|0,0:3|3:0,0:0:0:0:
242,17,25250,2,0,B|211:0|211:0|99:34,1,140,8|8,0:0|0:3,0:0:0:0:
33,78,26000,1,0,0:0:0:0:
33,78,26125,1,0,0:0:0:0:
33,78,26250,2,0,P|50:126|53:174,1,93.3333333333333,8|0,0:0|0:0,0:0:0:0:
41,227,26750,5,8,0:3:0:0:
148,171,27083,1,0,0:0:0:0:
148,171,27250,1,8,0:0:0:0:
206,276,27583,1,0,0:0:0:0:
206,276,28750,6,0,L|318:267,1,93.3333333333333,8|0,0:3|3:0,0:0:0:0:
359,263,29250,2,0,B|373:229|373:229|360:156,1,93.3333333333333,10|0,0:0|0:0,0:0:0:0:
349,114,29750,1,8,0:3:0:0:
262,141,30000,1,0,0:0:0:0:
262,141,30125,1,0,0:0:0:0:
262,141,30250,2,0,L|163:134,1,93.3333333333333,8|0,0:0|0:0,0:0:0:0:
120,97,30750,6,0,P|113:60|119:34,2,46.6666666666667,10|0|2,0:3|0:0|0:0,0:0:0:0:
168,134,31250,1,10,0:0:0:0:
119,244,31583,1,0,0:0:0:0:
119,244,31750,2,0,L|56:251,1,46.6666666666667,12|4,0:3|0:3,0:0:0:0:
12,258,32083,1,0,3:0:0:0:
12,258,32249,2,0,L|32:356,1,93.3333333333333,10|0,0:0|3:0,0:0:0:0:
30,349,32750,6,0,L|133:339,1,93.3333333333333,2|0,0:3|3:0,0:0:0:0:
177,367,33250,1,8,0:0:0:0:
240,263,33583,1,2,0:0:0:0:
240,263,33750,2,0,L|233:199,2,46.6666666666667,8|0|0,0:3|0:0|3:0,0:0:0:0:
288,298,34250,1,10,0:0:0:0:
398,248,34583,1,0,0:0:0:0:
398,248,34750,6,0,L|387:346,1,93.3333333333333,8|0,0:3|0:0,0:0:0:0:
387,340,35250,1,10,0:0:0:0:
492,280,35583,1,0,0:0:0:0:
492,280,35750,2,0,L|498:223,1,46.6666666666667,8|4,0:3|0:3,0:0:0:0:
476,176,36083,1,4,0:3:0:0:
476,176,36250,2,0,L|370:185,1,93.3333333333333,10|4,0:0|0:3,0:0:0:0:
326,162,36750,5,8,0:3:0:0:
244,252,37083,1,0,3:0:0:0:
244,252,37250,2,0,P|209:261|149:250,1,93.3333333333333,10|0,0:0|0:0,0:0:0:0:
99,223,37750,2,0,L|103:170,1,46.6666666666667,8|0,0:3|0:0,0:0:0:0:
83,118,38083,1,0,3:0:0:0:
83,118,38250,2,0,L|180:107,1,93.3333333333333,10|0,0:0|0:0,0:0:0:0:
228,137,38750,5,6,0:0:0:0:
276,100,38916,1,2,0:0:0:0:
282,39,39083,1,0,0:0:0:0:
282,39,39250,2,0,L|382:43,1,93.3333333333333,10|0,0:0|0:0,0:0:0:0:
435,49,39750,1,12,3:0:0:0:
425,108,39916,1,2,0:0:0:0:
435,167,40083,1,0,0:0:0:0:
425,226,40250,2,0,L|489:219,2,46.6666666666667,14|0|2,3:0|0:0|0:0,0:0:0:0:
392,277,40750,5,8,3:3:0:0:
256,160,41250,1,8,0:3:0:0:
120,277,41750,1,8,0:3:0:0:
256,384,42250,1,10,0:3:0:0:
256,192,42750,5,8,0:3:0:0:
256,384,43250,1,10,0:3:0:0:
256,192,43750,6,0,L|256:352,1,140
256,332,44750,5,8,0:3:0:0:
80,284,45250,1,8,0:3:0:0:
80,100,45750,1,8,0:3:0:0:
256,32,46250,1,8,0:3:0:0:
432,100,46750,1,8,0:3:0:0:
432,284,47250,1,8,0:3:0:0:
256,332,47750,6,0,L|256:192,2,140,0|0|12,0:0|0:0|0:3,0:0:0:0:
256,332,49250,1,8,0:0:0:0:
310,357,49416,1,0,0:0:0:0:
370,351,49583,1,0,0:0:0:0:
418,314,49750,1,8,0:3:0:0:
256,224,50250,1,8,0:0:0:0:
370,82,50750,6,0,L|426:75,2,46.6666666666667,8|0|0,0:3|0:0|0:0,0:0:0:0:
315,54,51250,1,8,0:0:0:0:
256,224,51750,6,0,P|191:241|120:203,1,140,12|10,0:3|0:0,0:0:0:0:
127,211,52750,1,6,0:3:0:0:
230,61,53250,2,0,L|223:10,2,46.6666666666667,8|0|0,0:0|0:0|0:0,0:0:0:0:
209,118,53750,5,8,0:3:0:0:
386,76,54250,1,10,0:0:0:0:
314,173,54583,1,0,0:0:0:0:
314,173,54750,5,2,2:1:0:0:
8,321,56750,6,0,B|57:253|127:262|127:262|234:354|234:354|373:397|519:322,1,560,8|0,0:3|0:0,0:0:0:0:
504,63,60750,6,0,B|455:131|385:122|385:122|278:30|278:30|139:-13|-7:62,1,560,8|0,0:3|0:0,0:0:0:0:
7,55,64749,5,6,0:0:0:0:
44,170,65083,1,0,3:0:0:0:
44,170,65249,2,0,L|108:165,2,46.6666666666667,10|0|2,0:0|0:0|0:0,0:0:0:0:
17,224,65750,1,8,0:3:0:0:
125,168,66084,1,0,3:0:0:0:
125,168,66250,2,0,L|189:163,2,46.6666666666667,10|0|2,0:0|0:0|0:0,0:0:0:0:
98,222,66751,5,8,0:3:0:0:
206,166,67084,1,0,0:0:0:0:
206,166,67250,2,0,L|270:161,2,46.6666666666667,10|0|0,0:0|0:0|0:0,0:0:0:0:
166,212,67751,1,10,0:3:0:0:
184,269,67916,1,4,0:3:0:0:
202,326,68083,1,4,0:3:0:0:
184,383,68250,1,2,0:0:0:0:
184,383,68750,6,0,P|235:371|294:378,1,93.3333333333333,8|0,0:3|0:0,0:0:0:0:
336,379,69250,2,0,L|323:319,2,46.6666666666667,10|0|2,0:0|0:0|0:0,0:0:0:0:
389,349,69750,1,8,0:3:0:0:
310,256,70083,1,0,0:0:0:0:
310,256,70250,2,0,L|297:196,2,46.6666666666667,10|0|2,0:0|0:0|0:0,0:0:0:0:
363,226,70750,5,8,0:3:0:0:
284,133,71083,1,0,3:0:0:0:
284,133,71250,2,0,L|271:73,2,46.6666666666667,10|0|0,0:0|0:0|0:0,0:0:0:0:
337,103,71750,1,2,0:0:0:0:
337,103,73250,5,8,0:0:0:0:
337,281,74250,1,8,0:0:0:0:
175,281,75250,1,8,0:0:0:0:
175,103,76250,1,8,0:0:0:0:
337,103,77250,5,8,0:0:0:0:
337,281,78250,1,8,0:0:0:0:
175,281,79250,1,8,0:0:0:0:
175,103,80250,1,8,0:0:0:0:
256,192,80750,6,0,P|210:201|159:221,1,93.3333333333333,8|0,0:3|0:0,0:0:0:0:
119,255,81250,1,8,0:0:0:0:
40,90,81750,2,0,L|151:99,1,93.3333333333333,8|4,0:3|0:3,0:0:0:0:
192,84,82250,1,8,0:0:0:0:
280,167,82583,1,0,0:0:0:0:
280,167,82750,6,0,L|391:158,1,93.3333333333333,8|0,0:3|0:0,0:0:0:0:
433,154,83250,1,8,0:0:0:0:
484,328,83750,2,0,P|430:350|376:339,1,93.3333333333333,8|4,0:3|0:3,0:0:0:0:
340,323,84250,1,8,0:0:0:0:
164,372,84750,1,8,0:3:0:0:
340,323,85250,1,8,0:0:0:0:
179,237,85750,5,0,0:0:0:0:
179,237,88750,6,0,L|168:102,1,93.3333333333333,10|0,0:3|0:0,0:0:0:0:
166,83,89250,2,0,B|140:71|140:71|48:112,1,93.3333333333333,10|2,0:0|0:0,0:0:0:0:
31,132,89750,1,8,0:3:0:0:
99,232,90083,1,0,0:0:0:0:
99,232,90250,2,0,L|-1:260,1,93.3333333333333,10|0,0:0|0:0,0:0:0:0:
41,308,90750,1,8,0:3:0:0:
135,232,91083,1,0,0:0:0:0:
135,232,91250,2,0,L|235:260,1,93.3333333333333,10|0,0:0|0:0,0:0:0:0:
224,257,92750,5,8,0:3:0:0:
328,195,93083,1,0,0:0:0:0:
328,195,93250,2,0,L|341:300,1,93.3333333333333,10|0,0:0|0:0,0:0:0:0:
352,346,93750,2,0,P|405:339|418:332,1,46.6666666666667,8|0,0:3|0:0,0:0:0:0:
450,311,94083,1,4,0:3:0:0:
450,311,94250,2,0,P|451:250|466:205,1,93.3333333333333,10|0,0:0|0:0,0:0:0:0:
491,167,94750,5,10,0:3:0:0:
464,112,94916,1,0,0:0:0:0:
468,51,95083,1,2,0:0:0:0:
468,51,95250,2,0,L|353:66,1,93.3333333333333,4|0,0:0|0:0,0:0:0:0:
338,111,95750,1,14,0:3:0:0:
278,101,95916,1,0,0:0:0:0:
218,91,96083,1,4,0:3:0:0:
163,118,96250,2,0,L|48:133,1,93.3333333333333,10|0,0:0|0:0,0:0:0:0:
70,130,96750,6,0,L|97:258,1,93.3333333333333,10|0,0:3|0:0,0:0:0:0:
103,280,97250,2,0,B|98:312|98:312|21:364,1,93.3333333333333,10|0,0:0|0:0,0:0:0:0:
51,350,97750,1,8,0:3:0:0:
51,350,97916,2,0,L|133:356,1,46.6666666666667,2|4,0:0|0:3,0:0:0:0:
159,356,98250,1,10,0:0:0:0:
240,266,98583,1,0,0:0:0:0:
240,266,98750,5,8,0:3:0:0:
343,329,99083,1,0,0:0:0:0:
343,329,99250,1,8,0:0:0:0:
403,322,99416,2,0,L|477:315,1,46.6666666666667,2|0,0:0|0:0,0:0:0:0:
509,308,99750,1,10,0:3:0:0:
488,251,99916,1,4,0:3:0:0:
467,194,100083,1,2,0:0:0:0:
488,137,100250,2,0,L|383:125,1,93.3333333333333,10|4,0:0|0:3,0:0:0:0:
348,87,100750,5,10,0:3:0:0:
296,196,101083,1,2,0:0:0:0:
296,196,101250,2,0,P|244:173|189:169,1,93.3333333333333,10|0,0:0|0:0,0:0:0:0:
152,193,101750,2,0,L|85:200,1,46.6666666666667,8|2,0:3|0:0,0:0:0:0:
49,175,102083,1,0,0:0:0:0:
49,175,102250,2,0,P|22:126|31:71,1,93.3333333333333,10|0,0:0|0:0,0:0:0:0:
53,37,102750,5,10,0:3:0:0:
113,31,102916,1,0,0:0:0:0:
119,91,103083,1,0,0:0:0:0:
179,85,103250,2,0,L|171:204,1,93.3333333333333,10|0,0:0|0:0,0:0:0:0:
167,238,103750,1,4,0:0:0:0:
224,219,103916,1,4,0:3:0:0:
281,238,104083,1,4,0:3:0:0:
310,290,104250,2,0,L|419:300,1,93.3333333333333,2|2,0:0|0:0,0:0:0:0:
463,299,104750,6,0,L|441:178,1,93.3333333333333,4|0,1:0|3:0,0:0:0:0:
430,148,105250,1,10,0:0:0:0:
443,89,105416,1,0,0:0:0:0:
384,76,105583,1,0,3:0:0:0:
325,63,105750,2,0,L|337:120,1,46.6666666666667,10|0,0:3|0:0,0:0:0:0:
321,168,106083,1,0,3:0:0:0:
321,168,106250,2,0,L|333:225,2,46.6666666666667,10|0|2,0:0|0:0|0:0,0:0:0:0:
334,108,106750,5,6,1:2:0:0:
217,74,107083,1,8,1:3:0:0:
152,176,107416,1,10,1:3:0:0:
152,176,108750,6,0,L|17:191,1,93.3333333333333,6|0,0:0|3:0,0:0:0:0:
20,233,109250,1,10,0:0:0:0:
63,274,109416,1,0,0:0:0:0:
106,315,109583,1,0,3:0:0:0:
71,365,109750,2,0,L|5:370,2,46.6666666666667,10|0|0,0:3|0:0|3:0,0:0:0:0:
106,315,110250,1,10,0:0:0:0:
165,327,110416,1,0,0:0:0:0:
224,339,110583,1,2,0:0:0:0:
275,307,110750,6,0,B|284:285|275:260|275:260|227:267,2,93.3333333333333,2|2|2,3:2|3:2|3:0,0:0:0:0:
286,318,111916,1,4,0:3:0:0:
286,318,112083,1,4,0:3:0:0:
286,318,112250,1,4,0:3:0:0:
286,318,112416,2,0,L|362:307,1,46.6666666666667,4|6,0:3|0:3,0:0:0:0:
392,303,112750,6,0,L|363:185,1,93.3333333333333,4|0,1:0|0:0,0:0:0:0:
320,176,113250,2,0,L|349:58,1,93.3333333333333,10|0,0:0|3:0,0:0:0:0:
363,28,113750,1,10,0:3:0:0:
304,42,113916,1,0,0:0:0:0:
245,56,114083,1,0,3:0:0:0:
189,30,114250,2,0,L|123:48,1,46.6666666666667,10|0,0:0|0:0,0:0:0:0:
85,59,114583,1,2,0:0:0:0:
29,33,114750,5,4,1:2:0:0:
2,151,115083,1,8,1:3:0:0:
61,256,115416,1,10,1:3:0:0:
61,256,116750,6,0,L|185:270,1,93.3333333333333,6|0,2:0|3:0,0:0:0:0:
197,309,117250,1,10,0:0:0:0:
256,315,117416,1,0,0:0:0:0:
316,323,117583,1,0,3:0:0:0:
362,283,117750,2,0,L|352:210,1,46.6666666666667,10|0,0:3|0:0,0:0:0:0:
346,176,118083,1,0,3:0:0:0:
308,128,118250,2,0,L|318:55,2,46.6666666666667,10|0|2,0:0|0:0|0:0,0:0:0:0:
258,163,118750,5,2,0:0:0:0:
148,215,119083,1,2,0:3:0:0:
0,192,119583,1,0,0:0:0:0:
0,192,119916,2,0,L|-4:262,2,46.6666666666667,0|2|0,0:0|0:0|0:0,0:0:0:0:
24,136,120416,1,2,0:0:0:0:
83,123,120583,1,0,0:0:0:0:
70,64,120750,5,4,0:0:0:0:
256,96,121250,1,2,0:0:0:0:
442,64,121750,1,2,0:0:0:0:
256,32,122250,1,4,0:3:0:0:
256,160,122750,5,2,0:0:0:0:
116,272,123250,1,4,0:3:0:0:
256,384,123750,1,2,0:0:0:0:
396,272,124250,1,4,0:3:0:0:
343,242,124416,1,4,0:3:0:0:
290,212,124583,1,4,0:3:0:0:
320,159,124750,5,2,0:0:0:0:
139,179,125250,1,4,0:3:0:0:
111,358,125750,1,2,0:0:0:0:
111,358,126250,1,4,0:3:0:0:
139,179,126750,5,2,0:0:0:0:
307,246,127250,1,2,0:0:0:0:
429,111,127750,1,2,0:0:0:0:
465,288,128249,1,4,0:3:0:0:
405,277,128416,1,4,0:3:0:0:
394,337,128583,1,4,0:3:0:0:
454,348,128749,5,4,0:0:0:0:
406,172,129249,2,0,L|299:180,1,93.3333333333333,10|0,0:0|0:0,0:0:0:0:
264,216,129749,2,0,L|157:208,1,93.3333333333333,2|0,0:0|0:0,0:0:0:0:
110,203,130249,2,0,P|74:157|86:96,1,93.3333333333333,8|4,0:0|0:3,0:0:0:0:
91,66,130749,5,2,0:0:0:0:
268,108,131250,1,10,0:0:0:0:
438,44,131750,2,0,L|432:111,2,46.6666666666667,2|0|4,0:0|0:0|0:3,0:0:0:0:
487,79,132250,2,0,L|495:178,1,93.3333333333333,4|4,0:3|0:3,0:0:0:0:
477,230,132750,5,4,0:0:0:0:
306,165,133250,1,10,0:0:0:0:
235,332,133750,1,2,1:2:0:0:
235,332,134250,1,8,0:0:0:0:
306,165,134750,5,4,0:0:0:0:
129,210,135250,1,10,1:2:0:0:
21,62,135750,1,0,0:0:0:0:
21,62,136750,6,0,L|133:70,1,93.3333333333333,10|0,0:3|0:0,0:0:0:0:
156,111,137250,1,8,0:0:0:0:
134,167,137416,1,0,0:0:0:0:
112,223,137583,1,0,0:0:0:0:
153,265,137750,2,0,L|247:272,1,93.3333333333333,8|4,0:3|0:3,0:0:0:0:
307,278,138250,1,8,0:0:0:0:
407,345,138583,1,4,0:3:0:0:
407,345,138750,6,0,P|425:298|425:277,1,46.6666666666667,8|0,0:3|0:0,0:0:0:0:
425,241,139083,1,0,0:0:0:0:
425,241,139250,1,8,0:0:0:0:
256,160,139750,6,0,L|256:320,1,140,2|0,0:0|0:0,0:0:0:0:
256,300,140750,1,8,0:3:0:0:
425,233,141250,2,0,L|506:240,2,46.6666666666667,10|0|4,0:0|0:0|0:3,0:0:0:0:
382,189,141750,1,8,0:3:0:0:
301,279,142083,1,4,0:3:0:0:
301,279,142250,1,8,0:0:0:0:
199,213,142583,1,0,0:0:0:0:
199,213,142750,6,0,L|118:220,1,46.6666666666667,10|0,0:3|0:0,0:0:0:0:
92,227,143083,1,0,0:0:0:0:
101,287,143250,1,10,0:0:0:0:
256,160,143750,6,0,L|256:20,2,140,2|4|10,0:0|0:3|0:3,0:0:0:0:
256,160,145250,1,8,0:0:0:0:
315,170,145416,1,0,0:0:0:0:
374,180,145583,1,4,0:3:0:0:
401,234,145750,1,8,0:3:0:0:
256,352,146250,1,8,0:0:0:0:
256,160,146750,6,0,L|256:96,2,46.6666666666667,10|0|0,0:3|0:0|0:0,0:0:0:0:
256,224,147250,1,10,0:0:0:0:
143,367,147750,6,0,P|76:349|24:279,1,140,4|4,0:3|0:3,0:0:0:0:
22,237,148416,1,4,0:3:0:0:
33,177,148583,1,4,0:3:0:0:
91,191,148750,5,10,0:3:0:0:
90,9,149250,2,0,L|14:27,2,46.6666666666667,10|0|4,0:0|0:0|0:3,0:0:0:0:
139,44,149750,2,0,L|235:67,1,93.3333333333333,10|4,0:3|0:3,0:0:0:0:
284,40,150250,2,0,L|380:17,1,93.3333333333333,10|0,0:0|0:0,0:0:0:0:
374,18,150750,5,2,0:1:0:0:
6,228,152750,6,0,B|309:110|169:407|534:365,1,560,6|0,1:0|0:0,0:0:0:0:
506,156,156750,6,0,B|203:274|343:-23|-22:19,1,560,6|0,1:0|0:0,0:0:0:0:
4,16,160750,6,0,P|33:94|66:132,1,93.3333333333333,4|2,1:3|0:3,0:0:0:0:
73,151,161250,2,0,L|69:214,2,46.6666666666667,8|0|0,0:0|0:0|3:0,0:0:0:0:
38,101,161750,1,10,0:3:0:0:
151,59,162083,1,0,0:0:0:0:
151,59,162250,2,0,L|155:122,2,46.6666666666667,10|0|2,0:0|0:0|0:0,0:0:0:0:
186,9,162750,5,14,0:3:0:0:
270,96,163083,1,0,0:0:0:0:
270,96,163250,2,0,L|266:159,2,46.6666666666667,10|0|0,0:0|0:0|0:0,0:0:0:0:
235,46,163750,1,12,0:3:0:0:
223,105,163916,1,4,0:3:0:0:
211,164,164083,1,4,0:3:0:0:
239,217,164250,1,2,0:0:0:0:
239,217,164750,6,0,L|103:201,1,93.3333333333333,4|0,1:0|0:0,0:0:0:0:
96,170,165250,2,0,L|11:180,2,46.6666666666667,10|0|0,0:0|0:0|3:0,0:0:0:0:
146,206,165750,1,10,0:3:0:0:
206,100,166083,1,0,0:0:0:0:
206,100,166250,2,0,L|291:110,2,46.6666666666667,10|0|0,0:0|0:0|3:0,0:0:0:0:
156,136,166750,5,10,0:3:0:0:
58,63,167083,1,0,0:0:0:0:
58,63,167250,2,0,L|-27:73,2,46.6666666666667,10|0|0,0:0|0:0|0:0,0:0:0:0:
108,99,167750,1,2,0:0:0:0:
108,99,168750,6,0,L|215:111,1,93.3333333333333,8|0,0:3|3:3,0:0:0:0:
232,161,169250,1,8,0:0:0:0:
374,47,169750,1,8,0:3:0:0:
468,123,170083,1,0,3:0:0:0:
468,123,170250,2,0,L|463:225,1,93.3333333333333,8|2,0:0|0:0,0:0:0:0:
489,270,170750,5,8,0:3:0:0:
317,209,171250,1,8,0:0:0:0:
190,339,171750,2,0,L|77:344,1,93.3333333333333,8|0,0:3|3:0,0:0:0:0:
36,346,172250,1,8,0:0:0:0:
101,244,172583,1,2,0:0:0:0:
101,244,172750,6,0,P|79:186|54:145,1,93.3333333333333,8|0,0:3|3:0,0:0:0:0:
20,116,173250,1,8,0:0:0:0:
170,13,173750,2,0,L|166:133,1,93.3333333333333,8|0,0:3|3:0,0:0:0:0:
183,164,174250,1,8,0:0:0:0:
302,142,174583,1,2,0:0:0:0:
302,142,174750,5,14,0:3:0:0:
286,262,175083,1,0,3:0:0:0:
286,262,175250,2,0,L|166:258,1,93.3333333333333,8|0,0:0|0:0,0:0:0:0:
166,313,175750,1,12,0:3:0:0:
60,253,176083,1,0,3:0:0:0:
60,253,176250,2,0,L|46:169,1,46.6666666666667,10|4,0:0|0:3,0:0:0:0:
63,147,176583,1,4,0:3:0:0:
63,147,176750,6,0,L|183:151,1,93.3333333333333,10|0,0:3|3:0,0:0:0:0:
212,127,177250,1,8,0:0:0:0:
305,203,177583,1,0,3:0:0:0:
305,203,177750,2,0,P|348:164|371:122,1,93.3333333333333,8|0,0:3|3:0,0:0:0:0:
381,75,178250,2,0,L|313:86,1,46.6666666666667,8|0,0:0|0:0,0:0:0:0:
280,55,178583,1,2,0:0:0:0:
280,55,178750,6,0,L|169:38,1,93.3333333333333,8|0,0:3|3:0,0:0:0:0:
202,99,179250,1,8,0:0:0:0:
145,121,179416,1,0,0:0:0:0:
88,143,179583,1,0,3:0:0:0:
77,202,179750,1,0,0:0:0:0:
77,202,182625,5,0,0:0:0:0:
