osu file format v14

[General]
AudioFilename: audio.mp3
AudioLeadIn: 0
PreviewTime: -1
Countdown: 1
SampleSet: None
StackLeniency: 0.7
Mode: 0
LetterboxInBreaks: 0
WidescreenStoryboard: 0

[Editor]
DistanceSpacing: 0.8
BeatDivisor: 3
GridSize: 32
TimelineZoom: 1

[Metadata]
Title:bury a friend
TitleUnicode:bury a friend
Artist:Billie Eilish
ArtistUnicode:Billie Eilish
Creator:DominicsHase
Version:Buh.
Source:
Tags:
BeatmapID:1934990
BeatmapSetID:926374

[Difficulty]
HPDrainRate:5
CircleSize:3.7
OverallDifficulty:5
ApproachRate:9
SliderMultiplier:1.6
SliderTickRate:1

[Events]
//Background and Video events
0,0,"billie eilish.jpg",0,0
//Break Periods
//Storyboard Layer 0 (Background)
//Storyboard Layer 1 (Fail)
//Storyboard Layer 2 (Pass)
//Storyboard Layer 3 (Foreground)
//Storyboard Sound Samples

[TimingPoints]
862.775049641729,500,4,2,0,100,1,0
9362,-66.6666666666667,4,2,0,100,0,0
15362,-25,4,2,0,100,0,0
16862,-100,4,2,0,100,0,0
24862,-25,4,2,0,100,0,0
26862,-83.3333333333333,4,2,0,100,0,0
32862,-25,4,2,0,100,0,0
33529,-66.6666666666667,4,2,0,100,0,0
43862,-25,4,2,0,100,0,0
45362,-50,4,2,0,100,0,0
47862,-25,4,2,0,100,0,0
50862,-66.6666666666667,4,2,0,100,0,0

[HitObjects]
109,98,862,6,0,P|158:76|268:73,1,160
86,344,1862,2,0,L|34:164,1,160
311,161,2862,6,0,P|396:139|455:85,1,160
127,75,3862,5,0,0:0:0:0:
179,245,4029,1,0,0:0:0:0:
269,67,4196,1,0,0:0:0:0:
77,135,4362,1,0,0:0:0:0:
306,148,4529,1,0,0:0:0:0:
421,288,4696,1,0,0:0:0:0:
233,204,4862,6,0,P|193:159|91:105,1,160
381,64,5862,2,0,P|428:37|432:124,1,160
189,293,6862,6,0,B|161:239|196:194|160:132,1,160
356,282,7862,1,0,0:0:0:0:
90,130,8862,6,0,P|116:79|217:63,1,160
128,275,9862,1,0,0:0:0:0:
52,120,10362,1,0,0:0:0:0:
272,149,10862,5,0,0:0:0:0:
171,316,11362,1,0,0:0:0:0:
94,104,11862,1,0,0:0:0:0:
243,58,12029,1,0,0:0:0:0:
125,177,12196,1,0,0:0:0:0:
296,99,12362,1,0,0:0:0:0:
150,251,12529,1,0,0:0:0:0:
357,146,12696,1,0,0:0:0:0:
195,305,12862,6,0,P|143:263|118:95,1,240.000009155274
407,225,13862,2,0,B|331:296|273:253|181:336,1,240.000009155274
154,57,14862,1,0,0:0:0:0:
269,362,15362,6,0,B|402:269|402:269|333:217|423:186|423:186|326:140|326:140|493:198|491:27,1,640
308,47,16029,1,0,0:0:0:0:
145,182,16196,1,0,0:0:0:0:
243,30,16362,1,0,0:0:0:0:
204,247,16529,1,0,0:0:0:0:
162,40,16696,1,0,0:0:0:0:
332,217,16862,6,0,P|271:167|182:140,1,160
384,292,17862,2,0,P|420:243|420:138,1,160
142,219,18862,2,0,P|199:241|304:214,1,160
99,93,19862,6,0,L|70:172,1,46.6666666666667
114,76,20196,1,0,0:0:0:0:
213,153,20362,6,0,L|148:206,1,46.6666666666667
234,145,20696,1,0,0:0:0:0:
282,253,20862,6,0,L|199:267,1,46.6666666666667
304,256,21196,1,0,0:0:0:0:
381,185,21362,1,0,0:0:0:0:
62,200,21862,5,0,0:0:0:0:
362,64,22196,2,0,L|369:126,1,46.6666666666667
392,331,22696,1,0,0:0:0:0:
249,280,24862,6,0,B|149:193|120:155|128:107|181:73|254:160|254:160|302:73|378:104|395:160|332:194|248:281,1,640
251,32,25862,1,0,0:0:0:0:
254,333,26362,1,0,0:0:0:0:
427,179,26862,5,0,0:0:0:0:
211,95,27029,1,0,0:0:0:0:
294,272,27196,1,0,0:0:0:0:
364,86,27362,1,0,0:0:0:0:
90,157,29196,5,0,0:0:0:0:
231,108,29362,2,0,P|267:148|209:125,1,143.999995605469
173,100,29862,1,0,0:0:0:0:
398,106,30029,1,0,0:0:0:0:
226,303,30196,1,0,0:0:0:0:
173,100,30362,2,0,P|128:56|48:37,1,127.99999609375
87,177,30862,5,0,0:0:0:0:
300,305,31029,1,0,0:0:0:0:
284,122,31196,1,0,0:0:0:0:
95,248,31362,1,0,0:0:0:0:
330,136,31696,5,0,0:0:0:0:
75,137,31862,1,0,0:0:0:0:
271,316,32029,1,0,0:0:0:0:
266,54,32196,1,0,0:0:0:0:
116,280,32362,2,0,P|180:242|31:219,1,383.99998828125
165,137,32862,2,0,B|232:94|232:94|265:129|265:129|307:85|307:85|332:124|332:124|360:74|360:74|399:134|399:134|424:64|424:64|455:147|455:147|502:43,1,640
131,81,33862,5,0,0:0:0:0:
124,253,34029,1,0,0:0:0:0:
401,91,34196,1,0,0:0:0:0:
102,94,34362,1,0,0:0:0:0:
276,320,35696,5,0,0:0:0:0:
170,224,35862,1,0,0:0:0:0:
401,197,36029,2,0,P|446:164|463:114,1,80.0000030517579
115,171,36362,2,0,L|384:90,1,240.000009155274
181,304,37196,5,0,0:0:0:0:
115,165,37362,2,0,P|160:104|306:200,1,240.000009155274
177,265,38029,1,0,0:0:0:0:
122,168,38196,1,0,0:0:0:0:
173,73,38362,1,0,0:0:0:0:
330,249,38696,5,0,0:0:0:0:
189,292,38862,1,0,0:0:0:0:
361,160,39029,1,0,0:0:0:0:
245,310,39196,1,0,0:0:0:0:
109,156,39362,5,0,0:0:0:0:
426,203,39529,1,0,0:0:0:0:
152,246,39696,1,0,0:0:0:0:
321,83,39862,1,0,0:0:0:0:
270,291,40029,5,0,0:0:0:0:
162,29,40196,1,0,0:0:0:0:
454,148,40362,2,0,P|361:192|192:175,1,240.000009155274
186,93,41362,6,0,P|319:103|168:122,2,480.000018310548
259,68,41529,1,0,0:0:0:0:
325,110,41696,1,0,0:0:0:0:
327,186,41862,1,0,0:0:0:0:
267,234,42029,1,0,0:0:0:0:
191,216,42196,1,0,0:0:0:0:
152,273,42529,1,0,0:0:0:0:
231,155,42696,1,0,0:0:0:0:
325,188,42862,1,0,0:0:0:0:
231,155,43029,1,0,0:0:0:0:
269,22,43196,1,0,0:0:0:0:
186,93,43362,1,0,0:0:0:0:
252,317,43862,6,0,B|176:258|176:258|367:214|367:214|95:179|95:179|417:129|417:129|176:93|176:93|336:71|240:41,1,1280
376,45,45362,6,0,B|266:25|204:42|185:86|191:145|237:176|293:160|372:170|422:210|447:274|414:325|330:353|252:353|185:303,1,640
158,57,45529,1,0,0:0:0:0:
416,111,45696,1,0,0:0:0:0:
317,179,45862,1,0,0:0:0:0:
198,233,46029,1,0,0:0:0:0:
471,293,46196,1,0,0:0:0:0:
217,321,46362,1,0,0:0:0:0:
105,155,46529,1,0,0:0:0:0:
315,282,46696,1,0,0:0:0:0:
64,79,46862,6,0,P|192:40|285:41,1,213.333333333333
164,43,47029,1,0,0:0:0:0:
77,148,47362,1,0,0:0:0:0:
56,75,47862,6,0,B|164:67|164:67|143:117|143:117|210:97|210:97|171:155|171:155|249:117|249:117|208:189|208:189|302:159|224:234|224:234|422:83|422:83|252:311|375:407|511:175,1,1280
56,75,49362,6,0,B|255:39|570:40|492:134|501:188|242:199|-85:143|-82:282|-65:390|559:325,1,1280
316,63,49529,1,0,0:0:0:0:
145,63,49696,1,0,0:0:0:0:
195,190,49862,1,0,0:0:0:0:
326,162,50029,1,0,0:0:0:0:
252,338,50196,1,0,0:0:0:0:
462,333,50362,1,0,0:0:0:0:
327,104,50529,1,0,0:0:0:0:
462,333,50696,1,0,0:0:0:0:
327,104,50862,6,0,P|218:60|176:167,2,240.000009155274
255,337,52862,5,0,0:0:0:0:
201,51,53362,1,0,0:0:0:0:
347,92,53529,1,0,0:0:0:0:
352,244,53696,1,0,0:0:0:0:
209,296,53862,2,0,P|149:222|147:72,1,240.000009155274
377,303,54862,5,0,0:0:0:0:
