osu file format v14

[General]
AudioFilename: audio.mp3
AudioLeadIn: 0
PreviewTime: 41888
Countdown: 0
SampleSet: Soft
StackLeniency: 0.2
Mode: 0
LetterboxInBreaks: 0
WidescreenStoryboard: 1

[Editor]
Bookmarks: 37555,74666,87999,137555,143444,180099
DistanceSpacing: 0.8
BeatDivisor: 4
GridSize: 4
TimelineZoom: 1.3

[Metadata]
Title:bad guy
TitleUnicode:bad guy
Artist:Billie Eilish
ArtistUnicode:Billie Eilish
Creator:schoolboy
Version:easy
Source:
Tags:komore WHEN WE ALL FALL ASLEEP, WHERE DO WE GO? marianna shmiklak marvollo trynna m_a_r_v_o_l_l_o
BeatmapID:2024293
BeatmapSetID:964675

[Difficulty]
HPDrainRate:2
CircleSize:3
OverallDifficulty:3
ApproachRate:3.5
SliderMultiplier:1.2
SliderTickRate:2

[Events]
//Background and Video events
0,0,"lol.jpg",0,0
Video,-20,"vidya.mp4"
//Break Periods
2,56507,59127
2,74729,87571
2,116951,119571
2,148706,149794
2,170874,173794
//Storyboard Layer 0 (Background)
//Storyboard Layer 1 (Fail)
//Storyboard Layer 2 (Pass)
//Storyboard Layer 3 (Foreground)
//Storyboard Sound Samples

[TimingPoints]
63,444.444444444444,4,2,1,57,1,0
14285,-100,4,2,1,57,0,0
15396,-100,4,2,1,57,0,0
16729,-100,4,2,1,57,0,0
18285,-100,4,2,1,57,0,0
18951,-100,4,2,1,57,0,0
20285,-100,4,2,1,57,0,0
21840,-100,4,2,1,57,0,0
22507,-100,4,2,1,57,0,0
23840,-100,4,2,1,57,0,0
24951,-100,4,2,1,57,0,0
25396,-100,4,2,1,57,0,0
26062,-100,4,2,1,57,0,0
28118,-100,4,2,1,5,0,0
28507,-100,4,2,1,65,0,0
29618,-100,4,2,1,65,0,0
30951,-100,4,2,1,65,0,0
32285,-100,4,2,1,65,0,0
33174,-100,4,2,1,65,0,0
34507,-100,4,2,1,65,0,0
35618,-100,4,2,1,65,0,0
36729,-100,4,2,1,65,0,0
38062,-100,4,2,1,65,0,0
39396,-100,4,2,1,65,0,0
41396,-100,4,2,1,65,0,0
41951,-100,4,2,1,5,0,0
41979,-100,4,2,1,65,0,0
42118,-100,4,2,1,5,0,0
42285,-100,4,2,1,65,0,0
42340,-100,4,2,1,5,0,0
42396,-100,4,2,1,65,0,0
42562,-100,4,2,1,5,0,0
42729,-100,4,2,2,65,0,0
48729,-100,4,2,2,20,0,0
48951,-100,4,2,2,5,0,0
49396,-100,4,2,2,65,0,0
49507,-100,4,2,2,5,0,0
49618,-100,4,2,2,65,0,0
49729,-100,4,2,2,5,0,0
49840,-100,4,2,2,65,0,0
55840,-100,4,2,2,26,0,0
56507,-100,4,2,2,40,0,0
57062,-100,4,2,1,40,0,0
58062,-100,4,2,2,25,0,0
58285,-100,4,2,1,40,0,0
58951,-100,4,2,2,25,0,0
60062,-100,4,2,1,40,0,0
60507,-100,4,2,3,65,0,0
67618,-100,4,2,3,65,0,0
73396,-100,4,2,3,50,0,0
73840,-100,4,2,3,40,0,0
74729,-100,4,2,1,30,0,0
88062,-100,4,2,3,20,0,0
88951,-100,4,2,1,65,0,0
90062,-100,4,2,1,65,0,0
91396,-100,4,2,1,65,0,0
92951,-100,4,2,1,65,0,0
93618,-100,4,2,1,65,0,0
94951,-100,4,2,1,65,0,0
96285,-100,4,2,1,65,0,0
96951,-100,4,2,1,65,0,0
98507,-100,4,2,1,65,0,0
100062,-100,4,2,1,65,0,0
100729,-100,4,2,1,65,0,0
101396,-100,4,2,1,65,0,0
102285,-100,4,2,1,5,0,0
102451,-100,4,2,1,65,0,0
102562,-100,4,2,1,5,0,0
102729,-100,4,2,1,65,0,0
102785,-100,4,2,1,5,0,0
102951,-100,4,2,1,65,0,0
103007,-100,4,2,1,5,0,0
103062,-100,4,2,1,65,0,0
103174,-100,4,2,2,65,0,0
109174,-100,4,2,2,25,0,0
109285,-100,4,2,2,65,0,0
109840,-100,4,2,2,65,0,0
109951,-100,4,2,2,5,0,0
110062,-100,4,2,2,65,0,0
110174,-100,4,2,2,5,0,0
110285,-100,4,2,2,65,0,0
116285,-100,4,2,2,25,0,0
116396,-100,4,2,1,40,0,0
117544,-100,4,2,1,40,0,0
118507,-100,4,2,2,25,0,0
118729,-100,4,2,1,40,0,0
119396,-100,4,2,2,25,0,0
120507,-100,4,2,1,40,0,0
120951,-100,4,2,3,65,0,0
121174,-100,4,2,3,65,0,0
128062,-100,4,2,3,65,0,0
131618,-100,4,2,3,66,0,0
134729,-100,4,2,1,65,0,0
135174,-100,4,2,3,65,0,0
135396,-100,4,2,3,65,0,0
135840,-100,4,2,1,65,0,0
136951,-100,4,2,3,65,0,0
137618,-100,4,2,1,65,0,0
138951,-100,4,2,3,65,0,0
139174,-100,4,2,3,65,0,0
139396,-100,4,2,1,65,0,0
142285,-100,4,2,1,65,0,0
142951,-100,4,2,1,65,0,0
144062,-100,4,2,3,65,0,0
144285,-100,4,2,3,65,0,0
144729,-100,4,2,1,65,0,0
145840,-100,4,2,1,65,0,0
146507,-100,4,2,1,65,0,0
146729,-100,4,2,1,55,0,0
146951,-100,4,2,1,45,0,0
147174,-100,4,2,1,35,0,0
147396,-100,4,2,1,25,0,0
147618,-100,4,2,3,25,0,0
148507,-100,4,2,3,15,0,0
151174,500,4,2,69,75,1,0
151174,-100,4,2,69,75,0,0
152674,-100,4,2,69,75,0,0
154674,-100,4,2,1,75,0,0
155174,-100,4,2,69,75,0,0
156674,-100,4,2,69,75,0,0
158674,-100,4,2,69,75,0,0
159174,-100,4,2,69,75,0,0
160174,-100,4,2,69,75,0,0
162674,-100,4,2,1,75,0,0
163174,-100,4,2,69,75,0,0
164674,-100,4,2,69,75,0,0
167174,-100,4,2,69,75,0,0
168674,-100,4,2,69,75,0,0
170674,-100,4,2,1,75,0,0
171174,-100,4,2,1,60,0,0
174674,-100,4,2,69,75,0,0
175174,-100,4,2,69,75,0,0
175549,-100,4,2,69,25,0,0
175674,-100,4,2,69,75,0,0
176174,-100,4,2,69,75,0,0
176674,-100,4,2,69,75,0,0
177049,-100,4,2,69,25,0,0
177174,-100,4,2,69,75,0,0
178174,-100,4,2,69,75,0,0
178674,-100,4,2,1,75,0,0
179174,-100,4,2,69,75,0,0
179549,-100,4,2,69,25,0,0
179674,-100,4,2,69,75,0,0
180174,-100,4,2,69,75,0,0
180674,-100,4,2,69,75,0,0
181049,-100,4,2,69,25,0,0
181174,-100,4,2,69,75,0,0
182174,-100,4,2,69,75,0,0
182674,-100,4,2,69,75,0,0
183674,-100,4,2,69,75,0,0
184174,-100,4,2,69,75,0,0
184674,-100,4,2,69,75,0,0
185424,-100,4,2,69,75,0,0
185549,-100,4,2,69,5,0,0
185674,-100,4,2,69,75,0,0
185799,-100,4,2,69,5,0,0
185924,-100,4,2,69,75,0,0
186049,-100,4,2,69,5,0,0
186174,-100,4,2,69,75,0,0
186674,-100,4,2,1,75,0,0
187174,-100,4,2,69,75,0,0
187549,-100,4,2,69,25,0,0
187674,-100,4,2,69,75,0,0
188174,-100,4,2,69,75,0,0
188674,-100,4,2,69,75,0,0
189049,-100,4,2,69,25,0,0
189174,-100,4,2,69,75,0,0
190174,-100,4,2,69,75,0,0
190674,-100,4,2,69,75,0,0

[Colours]
Combo1 : 197,235,233
Combo2 : 213,236,187
Combo3 : 247,198,196
Combo4 : 247,244,174

[HitObjects]
108,324,14285,5,2,1:2:0:0:
187,270,14729,2,0,B|269:238|284:308|360:285,1,180,2|2,1:2|0:0,0:0:0:0:
444,332,15840,1,2,0:0:0:0:
503,256,16285,1,2,0:0:0:0:
428,195,16729,1,2,0:0:0:0:
494,125,17174,2,0,L|502:53,1,60,2|2,0:0|1:2,0:0:0:0:
420,13,17840,5,2,1:2:0:0:
351,80,18285,2,0,P|265:94|201:34,1,180,2|2,1:2|0:0,0:0:0:0:
109,7,19396,1,2,0:0:0:0:
50,82,19840,1,2,0:0:0:0:
108,158,20285,1,2,0:0:0:0:
62,242,20729,2,0,L|69:315,1,60,2|2,0:0|1:2,0:0:0:0:
139,366,21396,5,2,1:2:0:0:
207,299,21840,2,0,P|263:281|358:357,1,180,2|2,1:2|0:0,0:0:0:0:
436,295,22951,1,2,0:0:0:0:
381,216,23396,1,2,0:0:0:0:
433,135,23840,1,2,0:0:0:0:
360,71,24285,2,0,L|288:84,1,60,2|2,0:0|1:2,0:0:0:0:
218,33,24951,5,2,1:2:0:0:
146,97,25396,2,0,B|126:176|168:194|149:275,1,180,2|2,1:2|0:0,0:0:0:0:
91,351,26507,1,2,0:0:0:0:
183,375,26951,2,0,P|209:362|239:357,1,60,2|2,0:0|1:2,0:0:0:0:
389,237,28062,1,8,1:0:0:0:
308,183,28507,5,2,1:2:0:0:
222,226,28951,2,0,B|143:247|125:182|47:208,1,180,10|2,1:1|0:0,0:0:0:0:
2,122,30062,1,2,0:0:0:0:
65,50,30507,1,2,0:0:0:0:
150,93,30951,1,2,0:0:0:0:
229,38,31396,2,0,L|299:26,1,60,2|10,0:0|1:0,0:0:0:0:
367,82,32062,5,2,1:2:0:0:
451,36,32507,2,0,L|432:226,1,180,10|2,1:1|0:0,0:0:0:0:
488,293,33618,1,2,0:0:0:0:
401,334,34062,1,2,0:0:0:0:
316,288,34507,1,2,0:0:0:0:
231,333,34951,2,0,L|163:328,1,60,2|10,0:0|1:0,0:0:0:0:
80,361,35618,5,2,1:2:0:0:
18,287,36062,2,0,P|41:224|151:222,1,180,10|2,1:1|0:0,0:0:0:0:
232,181,37174,1,2,0:0:0:0:
303,244,37618,1,2,0:0:0:0:
377,183,38062,1,2,0:0:0:0:
456,236,38507,2,0,L|448:316,1,60,2|10,0:0|1:0,0:0:0:0:
373,354,39174,5,2,1:2:0:0:
286,312,39618,2,0,B|210:293|191:357|113:345,1,180,10|2,1:1|0:0,0:0:0:0:
48,274,40729,1,2,0:0:0:0:
78,182,41174,2,0,L|70:112,1,60,2|0,0:0|0:0,0:0:0:0:
335,7,42729,6,0,L|322:147,1,120,2|8,1:0|1:0,0:0:0:0:
393,192,43618,1,2,1:2:0:0:
481,155,44062,1,10,1:0:0:0:
490,250,44507,2,0,P|486:305|469:368,1,120,2|8,1:0|1:0,0:0:0:0:
382,326,45396,1,2,1:2:0:0:
293,363,45840,1,10,1:0:0:0:
205,323,46285,6,0,P|151:300|92:308,1,120,2|8,1:0|1:0,0:0:0:0:
5,265,47174,1,2,1:2:0:0:
76,201,47618,1,10,1:0:0:0:
18,125,48062,2,0,L|2:6,1,120,2|10,1:0|1:0,0:0:0:0:
2,6,49396,1,2,0:0:0:0:
86,51,49840,6,0,L|204:34,1,120,2|8,1:0|1:0,0:0:0:0:
270,104,50729,2,0,P|284:161|273:220,1,120,2|10,1:2|1:0,0:0:0:0:
196,279,51618,1,2,1:0:0:0:
262,348,52062,1,8,1:0:0:0:
339,287,52507,2,0,P|386:252|445:241,1,120,2|10,1:2|1:0,0:0:0:0:
487,155,53396,6,0,L|369:129,1,120,2|8,1:0|1:0,0:0:0:0:
294,188,54285,1,2,1:2:0:0:
216,132,54729,1,10,1:0:0:0:
137,189,55174,2,0,P|123:246|137:304,1,120,2|10,1:0|1:0,0:0:0:0:
84,356,60507,6,0,L|76:236,1,120,2|8,1:2|1:0,0:0:0:0:
6,168,61396,2,0,P|19:112|72:91,1,120,2|10,1:0|1:0,0:0:0:0:
143,26,62285,1,2,1:0:0:0:
221,80,62729,1,8,1:0:0:0:
302,27,63174,2,0,L|421:21,1,120,2|10,1:0|1:0,0:0:0:0:
489,88,64062,6,0,L|466:205,1,120,2|8,1:0|1:0,0:0:0:0:
376,241,64951,2,0,P|320:251|265:208,1,120,2|10,1:0|1:0,0:0:0:0:
212,140,65840,1,2,1:0:0:0:
128,188,66285,1,8,1:0:0:0:
38,151,66729,2,0,L|24:31,1,120,2|10,1:0|1:0,0:0:0:0:
117,4,67618,6,0,P|177:17|207:69,1,120,2|8,1:2|1:0,0:0:0:0:
267,138,68507,1,2,1:0:0:0:
344,81,68951,1,10,1:0:0:0:
428,129,69396,2,0,P|446:186|441:246,1,120,2|8,1:0|1:0,0:0:0:0:
380,319,70285,1,2,1:0:0:0:
300,264,70729,1,10,1:0:0:0:
215,310,71174,6,0,L|97:333,1,120,2|10,1:2|1:0,0:0:0:0:
39,257,72062,1,2,1:0:0:0:
110,193,72507,1,10,1:0:0:0:
37,125,72951,2,0,P|28:68|62:20,1,120,2|10,1:2|1:0,0:0:0:0:
158,12,73840,2,0,P|215:28|273:44,1,120,2|10,1:0|1:0,0:0:0:0:
107,358,88951,5,2,1:2:0:0:
183,299,89396,2,0,P|250:282|332:363,1,180,10|2,1:1|0:0,0:0:0:0:
421,323,90507,1,2,0:0:0:0:
480,247,90951,1,2,0:0:0:0:
422,170,91396,1,2,0:0:0:0:
344,228,91840,2,0,L|281:221,1,60,2|10,0:0|1:0,0:0:0:0:
194,254,92507,5,2,1:2:0:0:
114,200,92951,2,0,B|99:21,1,180,10|2,1:1|0:0,0:0:0:0:
189,53,94062,1,2,0:0:0:0:
272,4,94507,1,2,0:0:0:0:
348,62,94951,1,2,0:0:0:0:
343,158,95396,2,0,L|333:239,1,60,2|10,0:0|1:0,0:0:0:0:
404,283,96062,5,2,1:2:0:0:
329,343,96507,2,0,P|245:348|202:254,1,180,10|2,1:1|0:0,0:0:0:0:
236,184,97618,1,2,0:0:0:0:
184,103,98062,1,2,0:0:0:0:
236,22,98507,1,2,0:0:0:0:
315,76,98951,2,0,L|389:63,1,60,2|10,0:0|1:0,0:0:0:0:
458,20,99618,5,2,1:2:0:0:
493,109,100062,2,0,B|515:179|475:216|494:293,1,180,10|2,1:1|0:0,0:0:0:0:
417,347,101174,1,2,0:0:0:0:
327,312,101618,2,0,P|324:278|339:232,1,60,2|0,0:0|0:0,0:0:0:0:
56,353,103174,6,0,P|38:289|74:219,1,120,2|8,1:0|1:0,0:0:0:0:
105,159,104062,1,2,1:2:0:0:
49,80,104507,1,10,1:0:0:0:
128,26,104951,2,0,L|258:45,1,120,2|8,1:0|1:0,0:0:0:0:
329,92,105840,1,2,1:2:0:0:
414,49,106285,1,10,1:0:0:0:
434,142,106729,6,0,L|424:261,1,120,2|8,1:0|1:0,0:0:0:0:
364,337,107618,1,2,1:2:0:0:
286,280,108062,1,10,1:0:0:0:
211,340,108507,2,0,P|161:370|94:357,2,120,2|10|0,1:0|1:0|1:0,0:0:0:0:
286,280,109840,1,2,0:0:0:0:
206,225,110285,6,0,L|192:92,1,120,2|8,1:0|1:0,0:0:0:0:
127,35,111174,1,2,1:2:0:0:
217,3,111618,1,10,1:0:0:0:
293,60,112062,2,0,L|424:44,1,120,2|8,1:0|1:0,0:0:0:0:
485,107,112951,1,2,1:2:0:0:
454,198,113396,1,10,1:0:0:0:
477,290,113840,6,0,P|419:297|372:338,1,120,2|8,1:0|1:0,0:0:0:0:
288,291,114729,1,2,1:2:0:0:
351,218,115174,1,10,1:0:0:0:
293,141,115618,2,0,L|306:21,1,120,2|10,1:0|1:0,0:0:0:0:
41,340,120951,6,0,L|157:313,1,120,2|8,1:2|1:0,0:0:0:0:
246,349,121840,1,2,1:0:0:0:
301,270,122285,1,10,1:0:0:0:
244,192,122729,2,0,L|227:73,1,120,2|8,1:0|1:0,0:0:0:0:
140,33,123618,1,2,1:0:0:0:
79,107,124062,1,10,1:0:0:0:
63,201,124507,6,0,P|87:255|125:302,1,120,2|8,1:0|1:0,0:0:0:0:
213,340,125396,2,0,L|331:324,1,120,2|10,1:0|1:0,0:0:0:0:
423,355,126285,1,2,1:0:0:0:
472,272,126729,1,8,1:0:0:0:
430,183,127174,2,0,L|415:47,1,120,2|10,1:0|1:0,0:0:0:0:
342,2,128062,6,0,P|297:49|230:46,1,120,2|8,1:2|1:0,0:0:0:0:
154,20,128951,1,2,1:0:0:0:
69,65,129396,1,10,1:0:0:0:
66,160,129840,2,0,L|80:279,1,120,2|8,1:0|1:0,0:0:0:0:
124,364,130729,1,2,1:0:0:0:
200,306,131174,1,10,1:0:0:0:
278,363,131618,6,0,P|337:359|385:324,1,120,2|10,1:2|1:0,0:0:0:0:
425,237,132507,1,2,1:0:0:0:
381,151,132951,1,10,1:0:0:0:
432,69,133396,2,0,P|377:47|318:41,1,120,2|10,1:2|1:0,0:0:0:0:
229,6,134285,2,0,L|113:37,1,120,2|2,1:0|0:0,0:0:0:0:
17,34,135174,5,2,1:0:0:0:
47,124,135618,1,8,1:0:0:0:
23,216,136062,2,0,P|8:273|10:333,1,120,2|10,1:0|1:0,0:0:0:0:
99,369,136951,1,2,1:0:0:0:
173,308,137396,1,8,1:0:0:0:
248,368,137840,2,0,P|300:339|357:324,1,120,2|10,1:0|1:0,0:0:0:0:
451,344,138729,5,2,1:0:0:0:
460,248,139174,1,8,1:0:0:0:
395,176,139618,2,0,P|342:194|280:212,1,120,2|10,1:0|1:0,0:0:0:0:
195,167,140507,1,2,1:2:0:0:
220,74,140951,1,10,1:0:0:0:
125,57,141396,2,0,P|82:98|56:152,1,120,2|10,1:0|1:0,0:0:0:0:
27,242,142285,6,0,P|86:238|142:259,1,120,2|10,1:0|1:0,0:0:0:0:
218,317,143174,1,2,1:0:0:0:
303,274,143618,1,10,1:0:0:0:
389,315,144062,2,0,L|407:196,1,120,2|8,1:0|1:0,0:0:0:0:
335,132,144951,1,2,1:0:0:0:
391,54,145396,1,10,1:0:0:0:
300,19,145840,6,0,P|246:43|188:59,1,120,2|10,1:0|1:0,0:0:0:0:
99,23,146729,1,2,1:0:0:0:
25,85,147174,1,10,1:0:0:0:
83,161,147618,2,0,P|91:220|94:280,2,120,2|2|0,1:2|1:0|0:0,0:0:0:0:
96,137,151174,6,0,B|168:115|168:115|181:117|181:117|244:100|244:100|293:126|293:126|302:169,1,240,0|10,1:0|0:0,0:0:0:0:
382,104,152674,2,0,B|437:90|437:90|498:108|498:108|473:162|473:162|485:225,1,240,2|0,1:2|0:0,0:0:0:0:
497,317,154174,2,0,P|439:327|388:359,1,120,8|0,0:0|0:0,0:0:0:0:
316,295,155174,6,0,B|330:222|330:222|299:183|299:183|311:99|311:99|354:73,1,240,2|8,1:2|0:0,0:0:0:0:
265,19,156674,2,0,B|173:35|173:35|198:196,1,240,2|0,1:2|0:0,0:0:0:0:
113,229,158174,1,0,1:0:0:0:
270,338,159174,6,0,B|366:353|366:353|384:273|384:273|316:260,1,240,2|8,1:2|0:0,0:0:0:0:
257,192,160674,2,0,B|171:207|171:207|145:256|145:256|48:270,1,240,2|0,1:2|0:0,0:0:0:0:
11,181,162174,2,0,P|9:114|44:50,1,120,8|0,0:0|0:0,0:0:0:0:
123,41,163174,6,0,B|155:83|155:83|224:78|224:78|261:120|261:120|250:213,1,240,2|8,1:2|0:0,0:0:0:0:
312,257,164674,2,0,B|385:295|385:295|363:121,1,240,2|0,1:2|0:0,0:0:0:0:
443,83,166174,1,0,1:0:0:0:
267,160,167174,6,0,B|200:138|200:138|140:169|140:169|39:159,1,240,2|8,1:2|0:0,0:0:0:0:
14,251,168674,2,0,B|68:356|68:356|181:311,1,240,2|0,1:2|0:0,0:0:0:0:
265,356,170175,2,0,P|322:338|381:334,1,120,8|0,0:0|0:0,0:0:0:0:
490,368,175174,6,0,B|453:328|453:328|398:338|398:338|363:323|363:323|272:339,1,240,2|8,1:2|0:0,0:0:0:0:
192,285,176674,2,0,B|138:224|138:224|350:196,1,240,2|0,1:2|0:0,0:0:0:0:
374,148,178174,2,0,P|395:99|349:20,1,120,8|0,0:0|0:0,0:0:0:0:
279,23,179174,6,0,B|191:31|191:31|187:36|187:36|43:51,1,240,2|8,1:2|0:0,0:0:0:0:
24,145,180674,2,0,B|33:208|33:208|4:248|4:248|13:314|13:314|95:290,1,240,2|0,1:2|0:0,0:0:0:0:
152,346,182174,1,8,0:0:0:0:
331,278,183174,6,0,B|352:234|352:234|484:283|484:283|508:238,1,240,2|8,1:2|0:0,0:0:0:0:
471,149,184674,2,0,L|216:108,1,240,2|0,1:2|0:0,0:0:0:0:
155,54,186175,2,0,P|96:50|45:81,1,120,8|0,0:0|0:0,0:0:0:0:
13,171,187174,6,0,B|45:316|45:316|133:289,1,240,2|8,1:2|0:0,0:0:0:0:
212,234,188674,2,0,B|309:247|309:247|335:296|335:296|421:311,1,240,2|0,1:2|0:0,0:0:0:0:
500,258,190174,1,8,0:0:0:0:
461,170,190674,5,0,0:0:0:0:
