osu file format v14

[General]
AudioFilename: audio.mp3
AudioLeadIn: 0
PreviewTime: 41888
Countdown: 0
SampleSet: Soft
StackLeniency: 0.2
Mode: 0
LetterboxInBreaks: 0
WidescreenStoryboard: 1

[Editor]
Bookmarks: 37555,137555,143444,180099
DistanceSpacing: 1
BeatDivisor: 3
GridSize: 16
TimelineZoom: 1.4

[Metadata]
Title:bad guy
TitleUnicode:bad guy
Artist:Billie Eilish
ArtistUnicode:Billie Eilish
Creator:schoolboy
Version:bully
Source:
Tags:komore WHEN WE ALL FALL ASLEEP, WHERE DO WE GO? marianna shmiklak marvollo trynna m_a_r_v_o_l_l_o
BeatmapID:2019478
BeatmapSetID:964675

[Difficulty]
HPDrainRate:4.5
CircleSize:4.5
OverallDifficulty:6.9
ApproachRate:8.3
SliderMultiplier:0.619999999999999
SliderTickRate:2

[Events]
//Background and Video events
0,0,"lol.jpg",0,0
Video,-20,"vidya.mp4"
//Break Periods
2,74929,86951
//Storyboard Layer 0 (Background)
//Storyboard Layer 1 (Fail)
//Storyboard Layer 2 (Pass)
//Storyboard Layer 3 (Foreground)
//Storyboard Sound Samples

[TimingPoints]
63,444.444444444444,4,2,1,57,1,0
14285,-200,4,2,1,57,0,0
15396,-100,4,2,1,57,0,0
16729,-50,4,2,1,57,0,0
18285,-200,4,2,1,57,0,0
18951,-100,4,2,1,57,0,0
20285,-50,4,2,1,57,0,0
21840,-200,4,2,1,57,0,0
22507,-100,4,2,1,57,0,0
23840,-50,4,2,1,57,0,0
24951,-100,4,2,1,57,0,0
25396,-200,4,2,1,57,0,0
26062,-100,4,2,1,57,0,0
28118,-100,4,2,1,5,0,0
28507,-200,4,2,1,65,0,0
29618,-100,4,2,1,65,0,0
30951,-50,4,2,1,65,0,0
32285,-200,4,2,1,65,0,0
33174,-100,4,2,1,65,0,0
34507,-50,4,2,1,65,0,0
35618,-200,4,2,1,65,0,0
36729,-100,4,2,1,65,0,0
38062,-50,4,2,1,65,0,0
39396,-200,4,2,1,65,0,0
41396,-41.6666666666667,4,2,1,65,0,0
41951,-41.6666666666667,4,2,1,5,0,0
41979,-41.6666666666667,4,2,1,65,0,0
42118,-41.6666666666667,4,2,1,5,0,0
42285,-41.6666666666667,4,2,1,65,0,0
42340,-41.6666666666667,4,2,1,5,0,0
42396,-41.6666666666667,4,2,1,65,0,0
42562,-41.6666666666667,4,2,1,5,0,0
42729,-33.3333333333333,4,2,2,65,0,0
48729,-33.3333333333333,4,2,2,20,0,0
48951,-33.3333333333333,4,2,2,5,0,0
49396,-66.6666666666667,4,2,2,65,0,0
49507,-66.6666666666667,4,2,2,5,0,0
49618,-66.6666666666667,4,2,2,65,0,0
49729,-66.6666666666667,4,2,2,5,0,0
49840,-33.3333333333333,4,2,2,65,0,0
55840,-33.3333333333333,4,2,2,26,0,0
56507,-33.3333333333333,4,2,2,40,0,0
57062,-333.333333333333,4,2,1,40,0,0
58062,-333.333333333333,4,2,2,25,0,0
58285,-222.222222222222,4,2,1,40,0,0
58951,-222.222222222222,4,2,2,25,0,0
60062,-25,4,2,1,40,0,0
60507,-100,4,2,3,65,0,0
67618,-50,4,2,3,65,0,0
73396,-66.6666666666667,4,2,3,50,0,0
73840,-100,4,2,3,40,0,0
74729,-200,4,2,1,30,0,0
88062,-200,4,2,3,20,0,0
88951,-200,4,2,1,65,0,0
90062,-100,4,2,1,65,0,0
91396,-50,4,2,1,65,0,0
92951,-200,4,2,1,65,0,0
93618,-100,4,2,1,65,0,0
94951,-50,4,2,1,65,0,0
96285,-200,4,2,1,65,0,0
96951,-100,4,2,1,65,0,0
98507,-50,4,2,1,65,0,0
100062,-200,4,2,1,65,0,0
100729,-100,4,2,1,65,0,0
101396,-41.6666666666667,4,2,1,65,0,0
102285,-55.5555555555556,4,2,1,5,0,0
102451,-41.6666666666667,4,2,1,65,0,0
102562,-41.6666666666667,4,2,1,5,0,0
102729,-41.6666666666667,4,2,1,65,0,0
102785,-41.6666666666667,4,2,1,5,0,0
102951,-41.6666666666667,4,2,1,65,0,0
103007,-41.6666666666667,4,2,1,5,0,0
103062,-41.6666666666667,4,2,1,65,0,0
103174,-33.3333333333333,4,2,2,65,0,0
109174,-33.3333333333333,4,2,2,25,0,0
109285,-33.3333333333333,4,2,2,65,0,0
109840,-66.6666666666667,4,2,2,65,0,0
109951,-66.6666666666667,4,2,2,5,0,0
110062,-66.6666666666667,4,2,2,65,0,0
110174,-66.6666666666667,4,2,2,5,0,0
110285,-33.3333333333333,4,2,2,65,0,0
116285,-33.3333333333333,4,2,2,25,0,0
116396,-33.3333333333333,4,2,1,40,0,0
117396,-333.333333333333,4,2,1,40,0,0
118507,-333.333333333333,4,2,2,25,0,0
118729,-222.222222222222,4,2,1,40,0,0
119396,-222.222222222222,4,2,2,25,0,0
120507,-25,4,2,1,40,0,0
120951,-25,4,2,3,65,0,0
121174,-100,4,2,3,65,0,0
128062,-50,4,2,3,65,0,0
131618,-50,4,2,3,66,0,0
134729,-25,4,2,1,65,0,0
135174,-25,4,2,3,65,0,0
135396,-100,4,2,3,65,0,0
135840,-25,4,2,1,65,0,0
136951,-100,4,2,3,65,0,0
137618,-25,4,2,1,65,0,0
138951,-100,4,2,3,65,0,0
139174,-25,4,2,3,65,0,0
139396,-25,4,2,1,65,0,0
142285,-40,4,2,1,65,0,0
142951,-25,4,2,1,65,0,0
144062,-25,4,2,3,65,0,0
144285,-100,4,2,3,65,0,0
144729,-33.3333333333333,4,2,1,65,0,0
145840,-40,4,2,1,65,0,0
146507,-33.3333333333333,4,2,1,65,0,0
146729,-40,4,2,1,55,0,0
146951,-50,4,2,1,45,0,0
147174,-66.6666666666667,4,2,1,35,0,0
147396,-100,4,2,1,25,0,0
147618,-100,4,2,3,25,0,0
148507,-100,4,2,3,15,0,0
151174,500,4,2,69,75,1,0
151174,-12.5,4,2,69,75,0,0
152674,-227.272727272727,4,2,69,75,0,0
154674,-25,4,2,1,75,0,0
155174,-151.515151515152,4,2,69,75,0,0
156674,-217.391304347827,4,2,69,75,0,0
158674,-50,4,2,69,75,0,0
159174,-151.515151515152,4,2,69,75,0,0
160174,-217.391304347826,4,2,69,75,0,0
162674,-25,4,2,1,75,0,0
163174,-151.515151515152,4,2,69,75,0,0
164674,-217.391304347826,4,2,69,75,0,0
167174,-151.515151515152,4,2,69,75,0,0
168674,-217.391304347826,4,2,69,75,0,0
170674,-25,4,2,1,75,0,0
171174,-33.3333333333333,4,2,1,60,0,0
174674,-33.3333333333333,4,2,69,75,0,0
175174,-18.5185185185185,4,2,69,75,0,0
175549,-18.5185185185185,4,2,69,25,0,0
175674,-33.3333333333333,4,2,69,75,0,0
176174,-66.6666666666667,4,2,69,75,0,0
176674,-18.5185185185185,4,2,69,75,0,0
177049,-18.5185185185185,4,2,69,25,0,0
177174,-18.5185185185185,4,2,69,75,0,0
178174,-66.6666666666667,4,2,69,75,0,0
178674,-25,4,2,1,75,0,0
179174,-18.5185185185185,4,2,69,75,0,0
179549,-18.5185185185185,4,2,69,25,0,0
179674,-33.3333333333333,4,2,69,75,0,0
180174,-66.6666666666667,4,2,69,75,0,0
180674,-18.5185185185185,4,2,69,75,0,0
181049,-18.5185185185185,4,2,69,25,0,0
181174,-18.5185185185185,4,2,69,75,0,0
182174,-66.6666666666667,4,2,69,75,0,0
182674,-18.5185185185185,4,2,69,75,0,0
183674,-33.3333333333333,4,2,69,75,0,0
184174,-66.6666666666667,4,2,69,75,0,0
184674,-18.5185185185185,4,2,69,75,0,0
185424,-133.333333333333,4,2,69,75,0,0
185549,-133.333333333333,4,2,69,5,0,0
185674,-133.333333333333,4,2,69,75,0,0
185799,-133.333333333333,4,2,69,5,0,0
185924,-133.333333333333,4,2,69,75,0,0
186049,-133.333333333333,4,2,69,5,0,0
186174,-20,4,2,69,75,0,0
186674,-20,4,2,1,75,0,0
187174,-18.5185185185185,4,2,69,75,0,0
187549,-18.5185185185185,4,2,69,25,0,0
187674,-33.3333333333333,4,2,69,75,0,0
188174,-66.6666666666667,4,2,69,75,0,0
188674,-18.5185185185185,4,2,69,75,0,0
189049,-18.5185185185185,4,2,69,25,0,0
189174,-18.5185185185185,4,2,69,75,0,0
190174,-66.6666666666667,4,2,69,75,0,0
190674,-12.5,4,2,69,75,0,0

[Colours]
Combo1 : 197,235,233
Combo2 : 213,236,187
Combo3 : 247,198,196
Combo4 : 247,244,174

[HitObjects]
114,316,63,5,0,1:0:0:0:
98,322,507,1,0,1:0:0:0:
82,316,951,1,0,1:0:0:0:
75,300,1396,1,0,1:0:0:0:
82,284,1840,1,0,1:0:0:0:
98,277,2285,1,0,1:0:0:0:
114,284,2729,1,0,1:0:0:0:
120,300,3174,1,0,1:0:0:0:
396,177,3618,5,0,1:0:0:0:
412,183,4062,1,0,1:0:0:0:
428,177,4506,1,0,1:0:0:0:
435,161,4951,1,0,1:0:0:0:
428,145,5395,1,0,1:0:0:0:
412,138,5840,1,0,1:0:0:0:
396,145,6284,1,0,1:0:0:0:
390,161,6729,1,0,1:0:0:0:
121,30,7174,5,0,1:0:0:0:
88,103,7618,1,0,1:0:0:0:
130,32,8062,5,0,1:0:0:0:
17,70,8507,1,0,1:0:0:0:
121,30,8951,5,0,1:0:0:0:
88,103,9395,1,0,1:0:0:0:
130,32,9839,5,0,1:0:0:0:
17,70,10284,1,0,1:0:0:0:
420,219,10729,5,0,1:0:0:0:
420,219,11174,1,0,1:0:0:0:
420,219,11618,1,0,1:0:0:0:
420,219,12062,1,0,1:0:0:0:
420,219,12507,1,0,1:0:0:0:
420,219,12952,1,0,1:0:0:0:
420,219,13396,1,0,1:0:0:0:
420,219,14285,5,2,1:2:0:0:
352,111,14729,2,0,L|358:69,1,31,2|0,1:2|1:0,0:0:0:0:
338,59,15396,6,0,L|344:101,1,31,2|0,0:0|1:0,0:0:0:0:
278,188,15840,2,0,L|284:146,1,31,2|0,0:0|1:0,0:0:0:0:
198,41,16285,2,0,L|204:83,1,31,2|0,0:0|1:0,0:0:0:0:
195,85,16729,6,0,L|203:23,1,61.9999999999999,2|0,0:0|1:0,0:0:0:0:
75,161,17174,1,2,0:0:0:0:
60,175,17396,2,0,L|68:113,1,61.9999999999999,2|0,1:2|0:0,0:0:0:0:
206,231,17840,5,2,1:2:0:0:
72,327,18285,2,0,L|37:320,1,31,2|0,1:2|1:0,0:0:0:0:
21,340,18951,6,0,L|30:380,1,31,2|0,0:0|1:0,0:0:0:0:
193,271,19396,2,0,L|184:311,1,31,2|0,0:0|1:0,0:0:0:0:
81,170,19840,2,0,L|90:210,1,31,2|0,0:0|1:0,0:0:0:0:
101,207,20285,6,0,L|163:199,1,61.9999999999999,2|0,0:0|1:0,0:0:0:0:
284,82,20730,1,2,0:0:0:0:
298,67,20952,2,0,L|236:75,1,61.9999999999999,2|0,1:2|0:0,0:0:0:0:
349,197,21396,5,2,1:2:0:0:
451,78,21840,2,0,L|446:44,1,31,2|0,1:2|1:0,0:0:0:0:
421,35,22507,6,0,L|381:42,1,31,2|0,0:0|1:0,0:0:0:0:
289,110,22951,2,0,L|329:117,1,31,2|0,0:0|1:0,0:0:0:0:
455,186,23396,2,0,L|415:193,1,31,2|0,0:0|1:0,0:0:0:0:
417,204,23840,6,0,L|409:266,1,61.9999999999999,2|0,0:0|1:0,0:0:0:0:
242,154,24285,1,2,0:0:0:0:
227,140,24507,2,0,L|235:202,1,61.9999999999999,2|0,1:2|0:0,0:0:0:0:
363,61,24951,5,2,1:2:0:0:
227,140,25396,2,0,L|196:136,1,31,2|0,1:2|1:0,0:0:0:0:
175,118,26062,6,0,L|180:76,1,31,2|0,0:0|1:0,0:0:0:0:
66,172,26507,2,0,L|71:214,1,31,2|0,0:0|1:0,0:0:0:0:
213,295,26951,1,2,0:0:0:0:
213,295,27174,2,0,L|218:253,1,31,2|0,1:2|0:0,0:0:0:0:
65,380,27618,5,0,1:0:0:0:
429,291,28062,2,0,L|427:301,1,7.74999999999999,8|0,1:0|0:0,0:0:0:0:
427,298,28507,5,2,1:2:0:0:
336,161,28951,2,0,L|341:128,1,31,10|0,1:1|1:0,0:0:0:0:
360,111,29618,6,0,L|403:105,1,31,2|8,0:0|1:0,0:0:0:0:
241,13,30062,2,0,L|271:17,1,31,2|0,0:0|1:0,0:0:0:0:
143,150,30507,2,0,L|173:145,1,31,2|8,0:0|1:0,0:0:0:0:
189,144,30951,6,0,B|181:206,1,61.9999999999999,2|0,0:0|1:0,0:0:0:0:
271,345,31396,1,2,0:0:0:0:
284,361,31618,2,0,L|292:299,1,61.9999999999999,10|0,1:0|0:0,0:0:0:0:
457,194,32062,5,2,1:2:0:0:
333,72,32507,2,0,L|339:107,1,31,10|0,1:1|1:0,0:0:0:0:
319,123,33174,6,0,L|324:86,1,31,2|8,0:0|1:0,0:0:0:0:
180,195,33618,2,0,L|175:158,1,31,2|0,0:0|1:0,0:0:0:0:
363,274,34062,2,0,L|368:237,1,31,2|8,0:0|1:0,0:0:0:0:
356,232,34507,6,0,L|267:242,1,61.9999999999999,2|0,0:0|1:0,0:0:0:0:
115,349,34951,1,2,0:0:0:0:
128,365,35174,2,0,L|217:355,1,61.9999999999999,10|0,1:0|0:0,0:0:0:0:
19,219,35618,5,2,1:2:0:0:
150,123,36062,2,0,L|181:127,1,31,10|0,1:1|1:0,0:0:0:0:
203,110,36729,6,0,L|197:72,1,31,2|8,0:0|1:0,0:0:0:0:
286,167,37174,2,0,L|280:205,1,31,2|0,0:0|1:0,0:0:0:0:
378,87,37618,2,0,L|372:49,1,31,2|8,0:0|1:0,0:0:0:0:
381,44,38062,6,0,L|452:56,1,61.9999999999999,2|0,0:0|1:0,0:0:0:0:
243,158,38507,1,2,0:0:0:0:
228,144,38729,2,0,L|157:156,1,61.9999999999999,10|0,1:0|0:0,0:0:0:0:
377,219,39174,5,2,1:2:0:0:
377,219,39618,2,0,L|372:249,1,31,10|0,1:1|1:0,0:0:0:0:
462,321,40285,5,2,0:0:0:0:
452,298,40507,1,8,1:0:0:0:
340,364,40729,5,2,0:0:0:0:
371,249,40951,1,0,1:0:0:0:
259,296,41174,5,2,0:0:0:0:
244,308,41396,2,2,B|156:332|170:239|72:269,1,185.99999432373,0|0,0:0|0:0,0:0:0:0:
18,316,42062,6,0,L|14:351,1,18.599999432373,2|0,0:0|0:0,0:0:0:0:
169,219,42285,6,0,L|173:254,1,18.599999432373,2|0,0:0|0:0,0:0:0:0:
82,126,42507,6,0,L|78:161,1,18.599999432373,2|0,0:0|0:0,0:0:0:0:
71,155,42729,6,0,B|142:136|125:104|191:87,1,139.500005321503,2|0,1:0|0:0,0:0:0:0:
258,33,43174,2,0,P|267:1|236:32,1,93.0000035476684,8|0,1:0|0:0,0:0:0:0:
456,201,43618,5,2,1:2:0:0:
407,42,43840,1,2,0:0:0:0:
350,157,44062,5,10,1:0:0:0:
358,130,44285,1,2,0:0:0:0:
511,314,44507,6,0,P|445:331|393:377,1,139.500005321503,2|0,1:0|0:0,0:0:0:0:
322,322,44951,2,0,P|313:290|344:321,1,93.0000035476684,8|0,1:0|0:0,0:0:0:0:
64,341,45396,5,2,1:2:0:0:
229,377,45618,1,2,0:0:0:0:
181,271,45840,5,10,1:0:0:0:
154,280,46062,1,2,0:0:0:0:
40,72,46285,6,0,P|55:139|61:209,1,139.500005321503,2|0,1:0|0:0,0:0:0:0:
4,279,46729,2,0,P|-5:311|26:280,1,93.0000035476684,8|0,1:0|0:0,0:0:0:0:
265,179,47174,5,2,1:2:0:0:
238,171,47396,1,2,0:0:0:0:
345,131,47618,5,10,1:0:0:0:
149,208,47840,1,2,0:0:0:0:
267,384,48062,6,0,P|318:341|389:328,1,139.500005321503,2|0,1:0|0:0,0:0:0:0:
460,341,48507,6,0,P|446:269|510:305,1,186.000007095337,10|0,1:0|0:0,0:0:0:0:
369,172,49396,6,0,L|365:207,1,23.2500008869171,2|0,0:0|0:0,0:0:0:0:
299,161,49618,2,0,L|295:196,1,23.2500008869171,2|2,0:0|0:0,0:0:0:0:
0,370,49840,6,0,P|72:348|137:347,1,139.500005321503,2|0,1:0|0:0,0:0:0:0:
206,286,50285,2,0,P|215:254|184:285,1,93.0000035476684,8|0,1:0|0:0,0:0:0:0:
345,384,50729,5,2,1:2:0:0:
291,194,50951,1,2,0:0:0:0:
407,285,51174,5,10,1:0:0:0:
381,274,51396,1,2,0:0:0:0:
391,0,51618,6,0,P|412:52|411:138,1,139.500005321503,2|0,1:0|0:0,0:0:0:0:
455,210,52062,2,0,P|490:226|487:187,1,93.0000035476684,8|0,1:0|0:0,0:0:0:0:
264,81,52507,5,2,1:2:0:0:
296,277,52729,1,2,0:0:0:0:
189,203,52951,5,10,1:0:0:0:
194,176,53174,1,2,0:0:0:0:
0,384,53396,6,0,B|71:365|54:333|120:316,1,139.500005321503,2|0,1:0|0:0,0:0:0:0:
202,347,53840,2,0,P|224:378|186:383,1,93.0000035476684,8|0,1:0|0:0,0:0:0:0:
339,212,54285,5,2,1:2:0:0:
332,239,54507,1,2,0:0:0:0:
413,287,54729,5,10,1:0:0:0:
232,224,54951,1,2,0:0:0:0:
512,93,55174,6,0,P|443:101|374:116,1,139.500005321503,2|0,1:0|0:0,0:0:0:0:
290,80,55618,2,0,B|295:57|279:36|279:36|301:56|338:49,1,93.0000035476684,10|0,1:0|0:0,0:0:0:0:
256,345,56507,5,2,0:0:0:0:
295,80,56803,5,2,0:0:0:0:
2,220,57062,6,2,L|46:214,1,41.8499987228393,2|0,0:0|0:0,0:0:0:0:
512,146,58285,6,2,L|470:152,1,41.8499987228393,2|0,0:0|0:0,0:0:0:0:
256,329,60062,6,2,B|235:215|364:258|270:336,1,186,2|0,0:0|0:0,0:0:0:0:
256,360,60507,5,2,1:2:0:0:
113,283,60729,2,0,L|120:321,1,31,2|8,0:0|1:0,0:0:0:0:
256,360,61174,5,2,0:0:0:0:
113,283,61396,2,0,L|120:245,1,31,2|2,1:0|0:0,0:0:0:0:
58,215,61840,2,0,L|52:184,1,31,10|2,1:0|0:0,0:0:0:0:
256,360,62285,5,2,1:0:0:0:
399,283,62507,2,0,L|392:321,1,31,2|8,0:0|1:0,0:0:0:0:
256,360,62952,5,2,0:0:0:0:
399,283,63174,2,0,L|392:245,1,31,2|2,1:0|0:0,0:0:0:0:
454,215,63618,2,0,L|460:184,1,31,10|2,1:0|0:0,0:0:0:0:
405,25,64062,5,2,1:0:0:0:
270,120,64285,2,0,L|229:114,1,31,2|8,0:0|1:0,0:0:0:0:
405,25,64729,5,2,0:0:0:0:
239,115,64951,2,0,L|198:109,1,31,2|2,1:0|0:0,0:0:0:0:
150,67,65396,2,0,L|109:73,1,31,10|2,1:0|0:0,0:0:0:0:
0,209,65840,5,2,1:0:0:0:
135,304,66063,2,0,L|176:298,1,31,2|8,0:0|1:0,0:0:0:0:
0,209,66507,5,2,0:0:0:0:
166,299,66729,2,0,L|207:293,1,31,2|2,1:0|0:0,0:0:0:0:
255,251,67174,2,0,L|296:257,1,31,10|2,1:0|0:0,0:0:0:0:
500,357,67618,5,2,1:2:0:0:
428,200,67840,2,0,L|417:262,1,61.9999999999999,2|8,0:0|1:0,0:0:0:0:
414,274,68285,1,2,0:0:0:0:
297,334,68507,5,2,1:0:0:0:
218,347,68729,1,2,0:0:0:0:
205,268,68951,1,10,1:0:0:0:
285,255,69174,1,2,0:0:0:0:
12,357,69396,5,2,1:0:0:0:
84,200,69618,2,0,L|95:262,1,61.9999999999999,2|8,0:0|1:0,0:0:0:0:
98,274,70063,1,2,0:0:0:0:
215,334,70285,5,2,1:0:0:0:
294,347,70507,1,2,0:0:0:0:
307,268,70729,1,10,1:0:0:0:
227,255,70952,1,2,0:0:0:0:
500,357,71174,6,0,L|495:316,1,31,2|0,1:2|0:0,0:0:0:0:
440,284,71396,2,0,L|447:240,1,31,0|0,3:0|0:0,0:0:0:0:
495,204,71618,2,0,L|490:163,1,31,10|0,1:0|0:0,0:0:0:0:
435,131,71840,2,0,L|442:87,1,31,0|0,3:0|0:0,0:0:0:0:
486,44,72062,5,2,1:0:0:0:
350,118,72285,2,0,L|300:111,1,31,0|0,3:0|0:0,0:0:0:0:
264,68,72507,2,0,L|214:75,1,31,10|0,1:0|0:0,0:0:0:0:
174,113,72729,2,0,L|124:106,1,31,0|0,3:0|0:0,0:0:0:0:
24,35,72951,5,2,1:2:0:0:
37,50,73062,1,0,0:0:0:0:
45,69,73173,1,0,3:0:0:0:
46,89,73284,1,0,0:0:0:0:
86,153,73396,5,10,1:0:0:0:
83,168,73507,1,0,0:0:0:0:
76,182,73618,1,0,3:0:0:0:
66,194,73729,1,0,0:0:0:0:
74,270,73840,5,2,1:0:0:0:
66,276,73951,1,0,0:0:0:0:
56,281,74062,1,0,3:0:0:0:
46,282,74173,1,0,0:0:0:0:
0,342,74285,5,10,1:0:0:0:
0,342,74396,1,0,3:0:0:0:
0,342,74507,1,0,3:0:0:0:
0,342,74618,1,0,3:0:0:0:
0,342,74729,5,2,0:0:0:0:
281,42,88062,5,0,3:0:0:0:
279,49,88173,1,0,3:0:0:0:
278,56,88284,1,0,3:0:0:0:
276,63,88395,1,0,3:0:0:0:
275,70,88506,1,0,3:0:0:0:
454,333,88951,5,2,1:2:0:0:
321,222,89396,2,0,L|327:254,1,31,10|0,1:1|1:0,0:0:0:0:
310,275,90062,6,0,L|314:240,1,31,2|8,0:0|1:0,0:0:0:0:
237,172,90507,2,0,L|241:207,1,31,2|0,0:0|1:0,0:0:0:0:
156,303,90951,2,0,L|160:268,1,31,2|8,0:0|1:0,0:0:0:0:
150,261,91396,6,0,L|64:276,1,61.9999999999999,2|0,0:0|1:0,0:0:0:0:
259,169,91840,1,2,0:0:0:0:
276,158,92062,2,0,L|362:173,1,61.9999999999999,10|0,1:0|0:0,0:0:0:0:
161,56,92507,5,2,1:2:0:0:
59,183,92951,2,0,L|64:216,1,31,10|0,1:1|1:0,0:0:0:0:
56,241,93618,6,0,L|21:235,1,31,2|8,0:0|1:0,0:0:0:0:
151,323,94062,2,0,L|116:329,1,31,2|0,0:0|1:0,0:0:0:0:
272,232,94507,2,0,L|237:226,1,31,2|8,0:0|1:0,0:0:0:0:
228,235,94951,6,0,L|239:154,1,61.9999999999999,2|0,0:0|1:0,0:0:0:0:
368,314,95396,1,2,0:0:0:0:
381,330,95618,2,0,L|389:268,1,61.9999999999999,10|0,1:0|0:0,0:0:0:0:
501,129,96062,5,2,1:2:0:0:
366,36,96507,2,0,L|332:41,1,31,10|0,1:1|1:0,0:0:0:0:
320,64,97174,6,0,L|316:102,1,31,2|8,0:0|1:0,0:0:0:0:
417,199,97618,2,0,L|413:161,1,31,2|0,0:0|1:0,0:0:0:0:
274,273,98062,2,0,L|278:235,1,31,2|8,0:0|1:0,0:0:0:0:
271,228,98507,6,0,L|261:303,1,61.9999999999999,2|0,0:0|1:0,0:0:0:0:
95,179,98951,1,2,0:0:0:0:
111,166,99174,2,0,L|119:227,1,61.9999999999999,10|0,1:0|0:0,0:0:0:0:
248,71,99618,5,2,1:2:0:0:
248,71,100062,2,0,L|307:61,1,31,10|0,1:1|1:0,0:0:0:0:
370,116,100729,5,2,0:0:0:0:
377,98,100951,1,8,1:0:0:0:
477,148,101174,5,2,0:0:0:0:
404,14,101396,1,0,1:0:0:0:
337,194,101618,5,2,0:0:0:0:
328,216,101840,2,2,B|240:240|254:152|156:177,1,185.99999432373,0|0,0:0|0:0,0:0:0:0:
106,122,102507,6,0,L|111:97,1,18.599999432373,2|0,0:0|0:0,0:0:0:0:
0,207,102729,6,0,L|5:232,1,18.599999432373,2|0,0:0|0:0,0:0:0:0:
125,336,102951,6,0,L|130:311,1,18.599999432373,2|0,0:0|0:0,0:0:0:0:
134,312,103174,6,0,P|202:329|262:364,1,139.500005321503,2|0,1:0|0:0,0:0:0:0:
336,313,103618,2,0,P|348:282|314:309,1,93.0000035476684,8|0,1:0|0:0,0:0:0:0:
457,379,104062,5,2,1:2:0:0:
505,187,104285,1,2,0:0:0:0:
429,257,104507,5,10,1:0:0:0:
432,284,104729,1,2,0:0:0:0:
315,196,104951,6,0,P|302:128|306:56,1,139.500005321503,2|0,1:0|0:0,0:0:0:0:
376,12,105396,2,0,P|414:16|390:46,1,93.0000035476684,8|0,1:0|0:0,0:0:0:0:
222,157,105840,5,2,1:2:0:0:
32,126,106062,1,2,0:0:0:0:
154,67,106285,5,10,1:0:0:0:
127,75,106507,1,2,0:0:0:0:
0,326,106729,6,0,B|71:307|54:275|120:258,1,139.500005321503,2|0,1:0|0:0,0:0:0:0:
187,204,107174,2,0,P|196:172|165:203,1,93.0000035476684,8|0,1:0|0:0,0:0:0:0:
305,291,107618,5,2,1:2:0:0:
313,264,107841,1,2,0:0:0:0:
361,373,108062,5,10,1:0:0:0:
280,165,108285,1,2,0:0:0:0:
491,261,108507,6,0,P|498:183|508:117,1,139.500005321503,2|0,1:0|0:0,0:0:0:0:
476,40,108951,2,0,P|441:24|444:63,1,93.0000035476684,10|0,1:0|0:0,0:0:0:0:
361,195,109396,5,0,1:0:0:0:
361,195,109840,6,0,L|357:160,1,23.2500008869171,2|0,0:0|0:0,0:0:0:0:
291,206,110062,2,0,L|287:171,1,23.2500008869171,2|2,0:0|0:0,0:0:0:0:
192,82,110285,6,0,B|120:98|147:133|72:150,1,139.500005321503,2|0,1:0|0:0,0:0:0:0:
7,93,110729,2,0,P|4:54|39:70,1,93.0000035476684,8|0,1:0|0:0,0:0:0:0:
190,213,111174,5,2,1:2:0:0:
154,384,111396,1,2,0:0:0:0:
86,263,111618,5,10,1:0:0:0:
90,290,111840,1,2,0:0:0:0:
271,353,112062,6,0,P|345:338|416:336,1,139.500005321503,2|0,1:0|0:0,0:0:0:0:
447,261,112507,2,0,P|482:244|479:283,1,93.0000035476684,8|0,1:0|0:0,0:0:0:0:
358,192,112951,5,2,1:2:0:0:
399,4,113174,1,2,0:0:0:0:
453,128,113396,5,10,1:0:0:0:
445,101,113618,1,2,0:0:0:0:
241,9,113840,6,0,P|261:75|266:164,1,139.500005321503,2|0,1:0|0:0,0:0:0:0:
223,223,114285,2,0,P|187:239|190:200,1,93.0000035476684,8|0,1:0|0:0,0:0:0:0:
80,115,114729,5,2,1:2:0:0:
106,107,114951,1,2,0:0:0:0:
0,171,115174,5,10,1:0:0:0:
189,54,115396,1,2,0:0:0:0:
146,293,115618,6,0,P|213:274|282:264,1,139.500005321503,2|0,1:0|0:0,0:0:0:0:
361,308,116062,2,0,B|359:333|372:352|372:352|352:335|330:338,1,93.0000035476684,10|0,1:0|0:0,0:0:0:0:
63,215,116951,5,2,0:0:0:0:
400,154,117248,5,2,0:0:0:0:
244,369,117507,6,2,L|238:325,1,41.8499987228393,2|0,0:0|0:0,0:0:0:0:
288,0,118729,6,2,L|294:42,1,41.8499987228393,2|0,0:0|0:0,0:0:0:0:
30,312,120507,6,2,B|45:300|51:261|0:265|-35:304|-15:375|55:374|99:349,1,186,2|0,0:0|0:0,0:0:0:0:
105,339,120951,5,2,1:2:0:0:
256,232,121174,2,0,L|251:196,1,31,2|8,0:0|1:0,0:0:0:0:
105,339,121618,5,2,0:0:0:0:
251,201,121840,2,0,L|258:160,1,31,2|2,1:0|0:0,0:0:0:0:
204,121,122285,2,0,L|197:80,1,31,10|2,1:0|0:0,0:0:0:0:
407,339,122729,5,2,1:0:0:0:
256,232,122952,2,0,L|261:196,1,31,2|8,0:0|1:0,0:0:0:0:
407,339,123396,5,2,0:0:0:0:
261,201,123618,2,0,L|254:160,1,31,2|2,1:0|0:0,0:0:0:0:
308,121,124063,2,0,L|315:80,1,31,10|2,1:0|0:0,0:0:0:0:
455,0,124507,5,2,1:0:0:0:
313,90,124729,2,0,L|282:85,1,31,2|8,0:0|1:0,0:0:0:0:
455,0,125174,5,2,0:0:0:0:
282,85,125396,2,0,L|251:80,1,31,2|2,1:0|0:0,0:0:0:0:
199,33,125840,2,0,L|168:37,1,31,10|2,1:0|0:0,0:0:0:0:
12,204,126285,5,2,1:0:0:0:
154,294,126507,2,0,L|184:289,1,31,2|8,0:0|1:0,0:0:0:0:
12,204,126952,5,2,0:0:0:0:
185,289,127174,2,0,L|215:284,1,31,2|2,1:0|0:0,0:0:0:0:
268,237,127618,2,0,L|298:241,1,31,10|2,1:0|0:0,0:0:0:0:
480,289,128062,5,2,1:2:0:0:
423,124,128285,2,0,L|415:186,1,61.9999999999999,2|8,0:0|1:0,0:0:0:0:
437,118,128729,1,2,0:0:0:0:
334,41,128951,5,2,1:0:0:0:
232,124,129174,1,2,0:0:0:0:
242,30,129396,1,10,1:0:0:0:
324,132,129618,1,2,0:0:0:0:
32,289,129840,5,2,1:0:0:0:
88,124,130063,2,0,L|97:186,1,61.9999999999999,2|8,0:0|1:0,0:0:0:0:
75,118,130507,1,2,0:0:0:0:
177,41,130729,5,2,1:0:0:0:
279,124,130952,1,2,0:0:0:0:
269,30,131174,1,10,1:0:0:0:
187,132,131396,1,2,0:0:0:0:
38,283,131618,6,0,L|79:278,1,31,2|0,1:2|0:0,0:0:0:0:
111,223,131840,2,0,L|155:230,1,31,0|0,3:0|0:0,0:0:0:0:
191,278,132062,2,0,L|232:273,1,31,10|0,1:0|0:0,0:0:0:0:
264,218,132284,2,0,L|308:225,1,31,0|0,3:0|0:0,0:0:0:0:
351,269,132506,5,2,1:0:0:0:
471,170,132729,2,0,L|467:211,1,31,0|0,3:0|0:0,0:0:0:0:
367,115,132951,2,0,L|371:156,1,31,10|0,1:0|0:0,0:0:0:0:
446,60,133174,2,0,L|442:101,1,31,0|0,3:0|0:0,0:0:0:0:
370,145,133396,5,2,1:2:0:0:
350,147,133507,1,0,0:0:0:0:
330,143,133618,1,0,3:0:0:0:
312,133,133729,1,0,0:0:0:0:
237,130,133841,5,10,1:0:0:0:
226,119,133952,1,0,0:0:0:0:
219,105,134063,1,0,3:0:0:0:
214,90,134174,1,0,0:0:0:0:
147,55,134285,5,2,1:0:0:0:
146,45,134396,1,0,0:0:0:0:
148,33,134507,1,0,3:0:0:0:
152,25,134618,1,0,0:0:0:0:
86,94,134729,6,2,B|15:134|-70:102|-10:5|53:49|7:94,1,186,2|0,0:0|0:0,0:0:0:0:
97,111,135174,5,2,1:0:0:0:
239,196,135396,2,0,L|282:188,1,31,2|8,0:0|1:0,0:0:0:0:
299,213,135840,6,0,P|319:220|296:217,1,61.9999999999999,2|0,0:0|0:0,0:0:0:0:
388,145,136062,6,0,P|387:166|383:143,1,61.9999999999999,2|0,1:0|0:0,0:0:0:0:
479,209,136285,6,0,P|458:215|479:204,1,61.9999999999999,2|0,0:0|0:0,0:0:0:0:
446,316,136507,6,0,P|433:298|450:314,1,61.9999999999999,10|0,1:0|0:0,0:0:0:0:
335,318,136729,6,0,P|347:301|337:322,1,61.9999999999999,2|0,0:0|0:0,0:0:0:0:
389,238,136951,5,2,1:0:0:0:
301,95,137174,2,0,L|307:54,1,31,2|8,0:0|1:0,0:0:0:0:
272,48,137618,6,0,P|257:63|276:50,1,61.9999999999999,2|0,0:0|0:0,0:0:0:0:
111,128,137840,6,0,P|131:123|108:123,1,61.9999999999999,2|0,1:0|0:0,0:0:0:0:
289,157,138062,6,0,P|269:148|288:161,1,61.9999999999999,2|0,0:0|0:0,0:0:0:0:
161,29,138285,6,0,P|171:47|164:25,1,61.9999999999999,10|0,1:0|0:0,0:0:0:0:
190,207,138507,6,0,P|192:185|185:207,1,61.9999999999999,2|0,0:0|0:0,0:0:0:0:
205,114,138729,5,2,1:0:0:0:
289,258,138951,2,0,L|287:296,1,31,2|8,0:0|1:0,0:0:0:0:
256,310,139396,6,0,P|236:302|255:314,1,61.9999999999999,2|0,0:0|0:0,0:0:0:0:
160,365,139618,6,0,P|161:343|155:366,1,61.9999999999999,2|0,1:0|0:0,0:0:0:0:
123,189,139840,6,0,P|134:206|126:185,1,61.9999999999999,2|0,0:0|0:0,0:0:0:0:
234,200,140063,6,0,P|220:216|238:201,1,61.9999999999999,10|0,1:0|0:0,0:0:0:0:
78,291,140285,6,0,P|98:285|75:286,1,61.9999999999999,2|0,0:0|0:0,0:0:0:0:
171,272,140507,5,2,1:2:0:0:
437,379,140729,5,2,0:0:0:0:
355,250,140951,1,10,1:0:0:0:
415,131,141174,5,2,0:0:0:0:
260,182,141396,1,2,1:0:0:0:
216,12,141618,5,2,0:0:0:0:
143,135,141840,1,10,1:0:0:0:
0,236,142062,5,2,0:0:0:0:
9,242,142285,2,2,B|89:256|89:198|162:212,1,155,2|10,1:0|1:0,0:0:0:0:
156,211,142951,6,0,P|196:227|218:255,1,61.9999999999999,2|0,0:0|0:0,0:0:0:0:
228,80,143174,6,0,P|224:122|205:151,1,61.9999999999999,2|0,1:0|0:0,0:0:0:0:
374,109,143396,6,0,P|332:119|298:109,1,61.9999999999999,2|0,0:0|0:0,0:0:0:0:
392,256,143618,6,0,P|369:220|368:184,1,61.9999999999999,10|0,1:0|0:0,0:0:0:0:
257,319,143840,6,0,P|284:286|317:274,1,61.9999999999999,2|0,0:0|0:0,0:0:0:0:
285,195,144062,5,2,1:0:0:0:
140,278,144285,2,0,L|99:273,1,31,2|8,0:0|1:0,0:0:0:0:
87,257,144729,6,0,P|59:282|48:314,1,46.5000017738342,2|0,0:0|0:0,0:0:0:0:
120,121,144951,6,0,P|80:95|46:94,1,46.5000017738342,2|0,1:0|0:0,0:0:0:0:
312,241,145174,6,0,P|358:238|386:219,1,46.5000017738342,2|0,0:0|0:0,0:0:0:0:
259,111,145396,6,0,P|271:65|261:33,1,46.5000017738342,10|0,1:0|0:0,0:0:0:0:
205,330,145618,6,0,P|221:373|248:394,1,46.5000017738342,2|0,0:0|0:0,0:0:0:0:
198,205,145840,6,2,B|211:137|172:127|189:52,1,155,2|10,1:0|1:0,0:0:0:0:
189,52,146507,6,0,P|172:56|188:49,1,46.5000017738342,2|0,0:0|0:0,0:0:0:0:
289,130,146729,6,0,P|306:129|289:128,1,38.7499999999999,2|0,1:0|0:0,0:0:0:0:
198,205,146951,6,0,P|185:199|198:198,1,31,2|0,0:0|0:0,0:0:0:0:
277,272,147174,6,0,P|284:271|275:270,1,23.2500008869171,10|0,1:0|0:0,0:0:0:0:
206,327,147396,6,0,P|200:323|210:320,1,15.5,2|0,0:0|0:0,0:0:0:0:
262,371,147618,5,2,1:2:0:0:
262,371,147840,1,2,0:0:0:0:
262,371,148062,1,2,1:0:0:0:
262,371,148285,6,0,L|300:367,1,31,2|0,0:0|0:0,0:0:0:0:
414,374,151174,6,0,P|428:292|425:210,1,165.333333333333,0|2,1:0|0:0,0:0:0:0:
479,125,151424,2,0,P|410:170|329:182,1,165.333333333333,2|2,0:0|0:0,0:0:0:0:
200,71,151674,2,0,P|279:56|258:118,1,165.333333333333,2|2,0:0|0:0,0:0:0:0:
164,190,151924,2,0,B|82:205|92:145|6:159,1,165.333333333333,2|2,0:0|0:0,0:0:0:0:
237,384,152174,6,0,P|237:301|255:220,2,165.333333333333,10|2|2,0:0|0:0|0:0,0:0:0:0:
2,317,152674,6,0,P|42:317|72:291,1,81.8400024975585,2|8,1:2|0:0,0:0:0:0:
256,21,154674,6,0,L|252:63,5,31,0|0|0|0|0|0,0:0|0:0|0:0|0:0|0:0|0:0,0:0:0:0:
510,317,155174,6,0,P|469:317|440:291,1,81.8400024975585,2|8,1:2|0:0,0:0:0:0:
256,21,156674,6,0,L|268:106,1,85.5599971278076,2|0,1:2|1:0,0:0:0:0:
128,319,158674,5,0,2:0:0:0:
150,240,158841,5,0,2:0:0:0:
70,262,159007,5,0,2:0:0:0:
204,355,159174,6,0,P|241:338|282:341,1,81.839999750244,2|8,1:2|0:0,0:0:0:0:
351,376,160424,1,2,0:0:0:0:
512,265,160674,6,0,P|475:248|430:254,1,85.5599971278076,2|8,1:2|0:0,0:0:0:0:
270,43,162674,6,0,L|276:8,5,31,0|0|0|0|0|0,0:0|0:0|0:0|0:0|0:0|0:0,0:0:0:0:
272,54,163174,6,0,L|287:138,1,81.839999750244,2|8,1:2|0:0,0:0:0:0:
349,183,164424,1,2,0:0:0:0:
211,369,164674,6,0,L|224:283,1,85.5599971278076,2|0,1:2|1:0,0:0:0:0:
91,136,166674,5,0,2:0:0:0:
82,218,166840,5,0,2:0:0:0:
17,169,167007,5,0,2:0:0:0:
170,190,167174,6,0,P|208:200|246:185,1,81.839999750244,2|8,1:2|0:0,0:0:0:0:
301,129,168424,1,2,0:0:0:0:
512,298,168674,6,0,P|474:283|433:297,1,85.5599971278076,2|8,1:2|0:0,0:0:0:0:
214,374,170674,6,0,L|208:339,5,31,0|0|0|0|0|0,0:0|0:0|0:0|0:0|0:0|0:0,0:0:0:0:
302,285,171174,6,0,P|303:254|311:224,1,62.0000023651123,2|2,0:0|0:0,0:0:0:0:
171,99,171507,1,2,0:0:0:0:
196,189,171674,6,0,P|194:158|186:128,1,62.0000023651123,2|0,0:0|0:0,0:0:0:0:
327,2,172007,1,2,0:0:0:0:
402,60,172174,6,0,L|462:47,1,62.0000023651123,2|2,0:0|0:0,0:0:0:0:
241,0,172507,1,2,0:0:0:0:
311,224,172674,6,0,B|370:229|370:193|429:202,1,124.000004730225,2|2,0:0|0:0,0:0:0:0:
327,1,173174,2,0,P|296:54|310:113,1,124.000004730225,2|2,0:0|0:0,0:0:0:0:
185,302,173674,2,0,P|215:249|201:190,1,124.000004730225,2|2,0:0|0:0,0:0:0:0:
120,134,174174,2,0,P|60:145|0:156,1,124.000004730225,2|2,0:0|0:0,0:0:0:0:
56,222,174674,5,0,0:0:0:0:
115,284,174840,5,0,0:0:0:0:
112,370,175007,5,0,0:0:0:0:
230,271,175174,6,0,B|254:208|254:208|249:205|249:205|225:152|225:152|229:148|229:148|256:84|256:84|291:130,1,251.10000095787,2|0,1:2|0:0,0:0:0:0:
302,105,175674,6,0,L|218:121,1,46.5000017738342,0|0,0:0|0:0,0:0:0:0:
391,229,175924,2,0,L|307:245,1,46.5000017738342,0|0,0:0|0:0,0:0:0:0:
480,120,176174,6,0,L|396:136,1,46.5000017738342,8|0,0:0|0:0,0:0:0:0:
434,128,176674,6,0,B|386:110|386:110|383:105|383:105|322:86|322:86|317:83|317:83|283:140|283:140|352:168,1,251.10000095787,2|0,1:2|0:0,0:0:0:0:
347,185,177174,5,0,0:0:0:0:
270,8,177424,1,0,0:0:0:0:
208,132,177674,5,0,0:0:0:0:
217,100,177924,1,0,0:0:0:0:
113,36,178174,6,0,L|55:46,1,46.5000017738342,8|0,0:0|0:0,0:0:0:0:
62,54,178674,6,0,L|53:98,5,31,0|0|0|0|0|0,0:0|0:0|0:0|0:0|0:0|0:0,0:0:0:0:
0,198,179174,6,0,B|86:175|86:175|100:222|100:222|97:228|97:228|109:273|109:273|107:280|107:280|123:343,1,251.10000095787,2|0,1:2|0:0,0:0:0:0:
135,346,179674,6,0,L|81:357,1,46.5000017738342,0|0,0:0|0:0,0:0:0:0:
264,258,179924,2,0,L|210:247,1,46.5000017738342,0|0,0:0|0:0,0:0:0:0:
367,363,180174,6,0,L|313:374,1,46.5000017738342,8|0,0:0|0:0,0:0:0:0:
367,363,180674,6,0,B|385:319|385:319|391:315|391:315|410:279|410:279|447:268|447:268|495:277|495:277|462:364,1,251.10000095787,2|0,1:2|0:0,0:0:0:0:
478,365,181174,5,0,0:0:0:0:
381,184,181424,1,0,0:0:0:0:
512,169,181674,5,0,0:0:0:0:
486,246,181924,1,0,0:0:0:0:
435,76,182174,6,0,L|428:17,1,46.5000017738342,8|0,0:0|0:0,0:0:0:0:
429,29,182674,6,0,B|495:21|495:21|465:-3|410:14,2,111.60000042572
324,108,183174,6,0,B|267:114|267:114|261:112|261:112|201:118|201:118|196:115|196:115|123:124|123:124|181:153,1,251.10000095787,2|0,1:2|0:0,0:0:0:0:
182,162,183674,6,0,L|174:224,1,46.5000017738342,0|0,0:0|0:0,0:0:0:0:
270,335,183924,2,0,L|278:273,1,46.5000017738342,0|0,0:0|0:0,0:0:0:0:
407,184,184174,6,0,L|399:246,1,46.5000017738342,8|0,0:0|0:0,0:0:0:0:
401,230,184674,6,0,B|490:222|490:222|483:155|483:155|479:148|479:148|474:107|474:107|476:100|476:100|469:47,1,251.10000095787,2|0,1:2|0:0,0:0:0:0:
489,45,185174,5,0,0:0:0:0:
328,105,185424,2,0,L|309:102,1,11.6250004434586,0|0,0:0|0:0,0:0:0:0:
261,62,185674,2,0,L|242:65,1,11.6250004434586,0|0,0:0|0:0,0:0:0:0:
193,104,185924,2,0,L|174:101,1,11.6250004434586,0|0,0:0|0:0,0:0:0:0:
119,39,186174,6,0,P|146:110|145:187,1,155,8|0,0:0|0:0,0:0:0:0:
64,243,186674,2,0,P|48:232|29:227,5,38.7499999999999,0|0|0|0|0|0,0:0|0:0|0:0|0:0|0:0|0:0,0:0:0:0:
128,349,187174,6,0,B|192:336|192:336|197:330|197:330|259:319|259:319|309:361|309:361|260:351,1,251.10000095787,2|0,1:2|0:0,0:0:0:0:
249,332,187674,6,0,L|334:318,1,46.5000017738342,0|0,0:0|0:0,0:0:0:0:
459,212,187924,2,0,L|413:219,1,46.5000017738342,0|0,0:0|0:0,0:0:0:0:
313,115,188174,6,0,L|322:44,1,46.5000017738342,8|0,0:0|0:0,0:0:0:0:
313,115,188674,6,0,B|271:109|271:109|264:112|264:112|188:127|188:127|172:57|172:57|234:42,1,251.10000095787,2|0,1:2|0:0,0:0:0:0:
241,27,189174,5,0,0:0:0:0:
190,242,189424,1,0,0:0:0:0:
78,98,189674,5,0,0:0:0:0:
97,174,189924,1,0,0:0:0:0:
8,363,190174,6,0,L|63:353,1,46.5000017738342,8|0,0:0|0:0,0:0:0:0:
53,354,190674,6,0,B|96:225|241:265|202:379|132:376|117:341,1,248,0|0,0:0|0:0,0:0:0:0:
